<?xml version="1.0" standalone="no"?>
<!DOCTYPE svg PUBLIC "-//W3C//DTD SVG 1.1//EN" "http://www.w3.org/Graphics/SVG/1.1/DTD/svg11.dtd" >
<svg xmlns="http://www.w3.org/2000/svg" xmlns:xlink="http://www.w3.org/1999/xlink" version="1.1">
<metadata>
Created by FontForge 20201107 at Fri Jun 27 10:45:27 2025
 By 
https://pavljenko.ru/
</metadata>
<defs>
<font id="UraBumBumSPRegular" horiz-adv-x="0" >
  <font-face 
    font-family="Ura Bum Bum SP"
    font-weight="400"
    font-stretch="normal"
    units-per-em="2048"
    panose-1="0 0 0 0 0 0 0 0 0 0"
    ascent="1638"
    descent="-410"
    x-height="841"
    cap-height="1470"
    bbox="-143.25 -613.868 2073.49 1900.89"
    underline-thickness="0"
    underline-position="0"
    unicode-range="U+000A-2116"
  />
<missing-glyph horiz-adv-x="1079" 
d="M102 1434h875v-1434h-875v1434zM160 1393l379 -633l381 633h-760zM514 717l-369 614v-1231zM541 674l-379 -631h758zM565 717l371 -621v1239z" />
    <glyph glyph-name=".notdef" horiz-adv-x="1079" 
d="M102 1434h875v-1434h-875v1434zM160 1393l379 -633l381 633h-760zM514 717l-369 614v-1231zM541 674l-379 -631h758zM565 717l371 -621v1239z" />
    <glyph glyph-name=".null" 
 />
    <glyph glyph-name=".null" 
 />
    <glyph glyph-name="nonmarkingreturn" horiz-adv-x="682" 
 />
    <glyph glyph-name="LF" unicode="&#xa;" 
 />
    <glyph glyph-name="controlCR" unicode="&#xd;" 
 />
    <glyph glyph-name="space" unicode=" " horiz-adv-x="778" 
 />
    <glyph glyph-name="exclam" unicode="!" horiz-adv-x="425" 
d="M226 345q-31 10 -53 46t-20 69q6 118 18.5 354.5t18.5 354.5q2 34 18 55.5t48 10.5q31 -10 53 -46.5t20 -69.5q-6 -118 -18.5 -354.5t-18.5 -354.5q-2 -34 -18 -55t-48 -10zM239 233v1q3 -2 8 -6t9 -7.5t7 -7.5q36 -38 38 -92q2 -22 -7 -41q-8 -18 -24 -25q-9 -5 -11 -5
q-9 -3 -28 -5h-11q-16 2 -29 6q-6 2 -28 14l-9 6q-12 10 -20 18q-4 4 -19 24q-10 14 -18 32q-9 21 -11 49q0 4 0.5 12t0.5 11q3 20 16 34l14 9q11 6 25 2q5 1 16 1q19 0 37 -6q15 -5 36 -18q1 -1 4 -3t4 -3z" />
    <glyph glyph-name="quotedbl" unicode="&#x22;" horiz-adv-x="632" 
d="M195 1449q19 -68 57 -203.5t57 -203.5q9 -31 -2.5 -61t-42.5 -32q-24 -1 -52 27q-23 24 -35 67q-19 67 -57 203l-57 204q-9 31 2.5 61t42.5 32q24 1 52 -27q23 -24 35 -67zM506 1451q8 -82 24 -244.5t23 -244.5q3 -31 -16 -53.5t-50 -12.5q-32 11 -51 44.5t-22 70.5
q-8 82 -23.5 245t-22.5 244q-3 32 15.5 54t49.5 12q32 -11 51 -44.5t22 -70.5z" />
    <glyph glyph-name="quotedbl" unicode="&#x201d;" horiz-adv-x="632" 
d="M195 1449q19 -68 57 -203.5t57 -203.5q9 -31 -2.5 -61t-42.5 -32q-24 -1 -52 27q-23 24 -35 67q-19 67 -57 203l-57 204q-9 31 2.5 61t42.5 32q24 1 52 -27q23 -24 35 -67zM506 1451q8 -82 24 -244.5t23 -244.5q3 -31 -16 -53.5t-50 -12.5q-32 11 -51 44.5t-22 70.5
q-8 82 -23.5 245t-22.5 244q-3 32 15.5 54t49.5 12q32 -11 51 -44.5t22 -70.5z" />
    <glyph glyph-name="quotedbl" unicode="&#x201c;" horiz-adv-x="632" 
d="M195 1449q19 -68 57 -203.5t57 -203.5q9 -31 -2.5 -61t-42.5 -32q-24 -1 -52 27q-23 24 -35 67q-19 67 -57 203l-57 204q-9 31 2.5 61t42.5 32q24 1 52 -27q23 -24 35 -67zM506 1451q8 -82 24 -244.5t23 -244.5q3 -31 -16 -53.5t-50 -12.5q-32 11 -51 44.5t-22 70.5
q-8 82 -23.5 245t-22.5 244q-3 32 15.5 54t49.5 12q32 -11 51 -44.5t22 -70.5z" />
    <glyph glyph-name="numbersign" unicode="#" horiz-adv-x="1341" 
d="M1164 508q43 -2 72 -59q29 -58 14 -100q-11 -30 -44 -29l-196 6q-6 -49 -17.5 -145.5t-17.5 -145.5q-4 -33 -30.5 -42.5t-51.5 8.5q-30 19 -44.5 55.5t-9.5 72.5q4 34 12.5 101.5t12.5 100.5q-70 2 -211 6.5t-212 6.5q-1 -39 -4.5 -116.5t-5.5 -116.5q-2 -34 -18 -55
t-48 -11q-31 9 -53 45.5t-20 69.5q2 31 4 93.5t4 94.5q-21 0 -62.5 2t-62.5 2q-43 2 -72 59q-29 58 -15 100q11 30 44 29q29 -1 87.5 -3t88.5 -3q2 37 5.5 113t4.5 113q-24 0 -71.5 2t-71.5 2q-43 1 -73 59q-29 57 -14 99q11 30 44 29q32 -1 97 -2t97 -2q2 47 6 141.5
t6 142.5q2 34 18 55t48 11q31 -9 53 -45.5t20 -69.5q-1 -39 -5.5 -118.5t-5.5 -119.5q78 -2 234.5 -5.5t235.5 -5.5l44 363q4 33 30.5 43t51.5 -8q30 -19 44.5 -55.5t9.5 -72.5l-33 -273l67 -2q43 -1 72 -59q30 -57 15 -99q-10 -31 -44 -30l-132 3q-5 -38 -14 -115t-14 -116
q22 0 65.5 -2t65.5 -2zM449 530q141 -4 437 -14q4 39 14 116t14 115q-76 1 -228 4.5t-228 5.5q-2 -38 -5 -113.5t-4 -113.5z" />
    <glyph glyph-name="dollar" unicode="$" horiz-adv-x="1429" 
d="M1262 542q44 -59 64.5 -134.5t8 -154.5t-62.5 -133q-100 -108 -342 -143q-77 -12 -166 -10q-2 -24 -5.5 -71t-5.5 -71q-3 -32 -30 -41.5t-52 7.5q-30 19 -43.5 54.5t-10.5 73.5q1 10 2.5 29.5t2.5 29.5q-171 24 -309 101.5t-213 210.5q-11 19 -18 41t-5.5 47.5t17.5 40.5
q27 19 54.5 6.5t43.5 -40.5q52 -91 158 -146q102 -53 237 -73q8 -1 24.5 -3t24.5 -3q6 76 18 229.5t18 230.5q-44 15 -132 47q-56 21 -90.5 36t-79 42.5t-75.5 59.5q-81 85 -95 207.5t63 213.5q90 96 292 133q87 17 177 15q2 24 5.5 73.5t5.5 74.5q3 32 30 42t52 -7
q30 -19 43.5 -55t10.5 -74l-5 -68q7 -2 22 -4t23 -4q205 -48 304 -195q117 -175 37 -420q-5 -16 -17.5 -22.5t-26.5 -4t-27 10t-22 16.5q-25 26 -33.5 62t2.5 70q17 52 19 98q0 13 -2 39l-7 26h1l-8 18q-1 3 -4.5 8t-5.5 7v1l-1 1q-17 20 -22.5 24.5t-29.5 20.5
q-81 54 -216 69q-5 -71 -17 -213t-17 -213h1q64 -15 82 -20t75 -21t83.5 -29t68.5 -34.5t71.5 -48.5t54.5 -60zM593 826q15 -6 93 -31l30 390q-175 -10 -296 -79q-19 -11 -42.5 -33.5t-30.5 -35.5q-2 -4 -4 -11l-2 -6q-4 -22 -3 -34q1 -20 5.5 -29.5t18.5 -23.5
q21 -20 53.5 -37.5t54 -26t66 -23.5t57.5 -20zM1182 300q11 19 13 27t3 35q0 28 -3 41q-3 12 -7 19q-31 53 -155 97q-60 21 -221 60q-6 -71 -17 -212t-16 -212q166 5 291 62q44 20 70 40q17 13 27 25q2 2 9 12l7 7z" />
    <glyph glyph-name="percent" unicode="%" horiz-adv-x="1505" 
d="M637 895q-82 -101 -280 -78q-179 22 -252 137q-48 73 -35 158.5t84 135.5q111 79 307 37q42 -9 64 -72q47 -13 84 -49.5t54.5 -81.5t12 -96t-38.5 -91zM197 1047l-2 2q0 -1 3 -4l-1 1v1zM205 1024l1 -1v4v-1v-1zM317 1005q60 -7 110 -1q51 6 84 30l6 6q-35 18 -52 64
q-24 5 -51 7q-33 3 -65 0q-55 -5 -99 -31l-1 -1q-1 -1 -2 -1q-8 -6 -11 -9q-8 -6 -14 -14q-1 -1 -3 -4t-3 -4l-1 -1q-2 -3 -4 -9l2 -1l6 -3q3 -1 9 -4l10 -5q13 -5 46 -14q4 -2 12 -2zM1057 1328q31 48 79 13q40 -29 53 -83q9 -38 -7 -62q-114 -175 -341.5 -525.5
t-341.5 -526.5q-31 -48 -79 -13q-40 29 -53 83q-9 38 7 62q114 175 341.5 525.5t341.5 526.5zM1405 485q41 -89 18 -186.5t-103 -154.5q-73 -52 -161.5 -58.5t-167.5 35.5q-84 46 -132.5 140t-28.5 186q15 69 67.5 119t121.5 62q8 16 24 22q107 40 211 -9.5t151 -155.5z
M1290 397zM1290 398v2q0 2 1 8.5t2 8.5q-1 6 -1 7h1q0 -2 1 -4l-2 6v1v2l-2 4q-3 3 -5 7v1l-4 4l-5 5v1q-2 2 -5.5 4.5t-5.5 3.5l-5 2.5t-4 2.5q-4 2 -6 2q-4 1 -13 4.5t-14 5.5q-9 3 -27 4q-14 1 -29 0q-6 0 -14 -2q-11 -35 -43 -34q-11 1 -33 -1h-5l-2 -1q-2 0 -3 -1
q-10 -3 -13 -4q-14 -5 -27 -12q-2 -1 -5.5 -3.5t-5.5 -3.5q-4 -4 -5 -4q-16 -14 -23 -22q-1 -2 -4.5 -6.5t-5.5 -6.5l-1 -1q-4 -8 -12 -26q3 7 3 5q1 -3 -4 -14q0 -1 0.5 -3.5t0.5 -3.5t0.5 -2.5t0.5 -2.5l2 -4q1 -1 2 -4t2 -4t5 -4.5t6 -6.5l2 -2q5 -4 17 -12q1 -1 7 -5
q4 -2 5 -2q4 -1 13 -4.5t13 -5.5q12 -2 13 -3q8 -2 11 -2q10 -1 29 -1q10 0 28 2q7 0 11 1h2q1 1 2 1q34 9 57 20q21 11 25 13q5 3 6 4l-1 -1l-2 -1q2 1 5.5 4t5.5 5q18 16 26 25q2 2 5 6t5 6q3 3 4 5q5 8 13 24q1 2 2.5 6.5t2.5 6.5zM1281 445l-5 5z" />
    <glyph glyph-name="ampersand" unicode="&#x26;" horiz-adv-x="1722" 
d="M1888 -161q39 -22 50 -84q10 -59 -18 -82q-22 -18 -60 3q-184 102 -449 317q-96 78 -204 173q-98 -67 -197 -125q-65 -37 -121 -64.5t-130 -54.5t-138.5 -38t-136.5 -5t-134 34q-140 63 -219.5 216t-48.5 303q15 71 53 137t96 123.5t110 98.5t123 90q52 36 103 66
q-116 276 32 450q93 109 237 112q94 2 175.5 -28t127.5 -99q31 -46 39.5 -91.5t2.5 -82t-33 -75.5t-52.5 -66t-71.5 -61t-74 -52t-75 -46q-95 -57 -107 -64q95 -148 296 -351q74 -74 113 -111q169 121 358 284q34 29 72.5 -3t47.5 -80t-16 -79q-184 -157 -317 -256
q294 -259 566 -409zM1043 1305q-8 -4 -2 -12q5 12 2 12zM1046 1288zM707 1239q-77 -88 -26 -227q205 116 295 194q40 34 56 65l1 3q1 2 3.5 7.5t3.5 9.5q-2 0 -3 1q-57 21 -71 24q-166 30 -259 -77zM952 233q51 30 109 69q-113 110 -183 189q-131 147 -220 286
q-202 -124 -312 -237q-127 -129 -134 -236q-4 -62 34.5 -121.5t95.5 -88.5q54 -28 122 -31t127 9.5t132 43.5t120 56t109 61z" />
    <glyph glyph-name="quotesingle" unicode="'" horiz-adv-x="403" 
d="M318 1249q16 -67 -1 -134.5t-65 -112.5q-16 -17 -36 -12t-35 17t-27 29q-22 32 -24 72q-2 37 18 56q6 5 20 24q11 18 13 23q1 1 1 3t1 3v-2v2q0 1 0.5 1t0.5 1v1q0 2 1 6t1 6v2q0 2 0.5 7.5t0.5 6.5l-1 1v1q0 1 -1 2.5t-1 2.5l-1 2q-1 1 -1 2l-6 6l-2 2q-2 1 -6.5 4
t-6.5 5q-1 0 -1 1l-2 1q-2 1 -6.5 3t-6.5 3q-32 11 -51.5 44.5t-21.5 70.5q-2 31 17 54t49 12q67 -25 115 -84t65 -132zM161 1277zM184 1220v-1q-1 -1 -1 -2v1l1 1v1z" />
    <glyph glyph-name="quotesingle" unicode="&#x2019;" horiz-adv-x="403" 
d="M318 1249q16 -67 -1 -134.5t-65 -112.5q-16 -17 -36 -12t-35 17t-27 29q-22 32 -24 72q-2 37 18 56q6 5 20 24q11 18 13 23q1 1 1 3t1 3v-2v2q0 1 0.5 1t0.5 1v1q0 2 1 6t1 6v2q0 2 0.5 7.5t0.5 6.5l-1 1v1q0 1 -1 2.5t-1 2.5l-1 2q-1 1 -1 2l-6 6l-2 2q-2 1 -6.5 4
t-6.5 5q-1 0 -1 1l-2 1q-2 1 -6.5 3t-6.5 3q-32 11 -51.5 44.5t-21.5 70.5q-2 31 17 54t49 12q67 -25 115 -84t65 -132zM161 1277zM184 1220v-1q-1 -1 -1 -2v1l1 1v1z" />
    <glyph glyph-name="quotesingle" unicode="&#x2018;" horiz-adv-x="403" 
d="M318 1249q16 -67 -1 -134.5t-65 -112.5q-16 -17 -36 -12t-35 17t-27 29q-22 32 -24 72q-2 37 18 56q6 5 20 24q11 18 13 23q1 1 1 3t1 3v-2v2q0 1 0.5 1t0.5 1v1q0 2 1 6t1 6v2q0 2 0.5 7.5t0.5 6.5l-1 1v1q0 1 -1 2.5t-1 2.5l-1 2q-1 1 -1 2l-6 6l-2 2q-2 1 -6.5 4
t-6.5 5q-1 0 -1 1l-2 1q-2 1 -6.5 3t-6.5 3q-32 11 -51.5 44.5t-21.5 70.5q-2 31 17 54t49 12q67 -25 115 -84t65 -132zM161 1277zM184 1220v-1q-1 -1 -1 -2v1l1 1v1z" />
    <glyph glyph-name="parenleft" unicode="(" horiz-adv-x="520" 
d="M371 1634q26 49 71 17q40 -29 55 -84q12 -39 -2 -65q-201 -379 -243.5 -804t80.5 -835q9 -30 -2.5 -61.5t-42.5 -32.5q-32 -1 -54 28.5t-33 66.5q-133 438 -88.5 902t259.5 868z" />
    <glyph glyph-name="parenright" unicode=")" horiz-adv-x="493" 
d="M189 1608q205 -417 204 -888.5t-209 -888.5q-25 -50 -70 -17q-39 28 -55 84q-12 39 1 65q189 379 193.5 797.5t-180.5 799.5q-15 23 -11.5 63t31.5 52q29 12 54.5 -11t41.5 -56z" />
    <glyph glyph-name="asterisk" unicode="*" horiz-adv-x="819" 
d="M670 1161q32 -14 51.5 -46t21.5 -69q2 -30 -17.5 -54t-48.5 -12q-39 17 -117 50.5t-117 50.5q3 -25 10 -73t10 -73q4 -32 -16 -53.5t-50 -12.5q-59 16 -73 115q-1 8 -3 22.5t-3 21.5q-58 -60 -116 -133q-14 -20 -35 -14t-37 19t-26 28q-20 29 -23.5 64.5t16.5 64.5
q41 52 110 126q-6 3 -18.5 8.5t-19.5 7.5q-32 14 -51.5 46.5t-21.5 69.5q-2 30 17 54t48 12l117 -51q-2 16 -6.5 47.5t-6.5 47.5q-4 32 16 53.5t50 12.5q59 -16 73 -115q0 -1 0.5 -4t0.5 -4q73 60 121 93q50 35 98 -33q22 -32 24 -73q0 -44 -17 -56q-62 -44 -102 -77
q24 -10 71 -30.5t70 -30.5z" />
    <glyph glyph-name="plus" unicode="+" horiz-adv-x="1343" 
d="M1183 669q43 1 72 -57q29 -56 15 -99q-10 -32 -44 -32q-80 -1 -240.5 -2t-240.5 -2q14 -198 21 -298q2 -31 -17 -54t-49 -12q-31 10 -50 44t-22 71q-3 42 -9 124.5t-9 123.5q-76 0 -226 -1t-226 -2q-43 -1 -72 57q-29 56 -15 99q10 32 44 32q80 1 241 2t241 1
q-4 54 -11.5 161.5t-11.5 161.5q-2 31 17 54t49 12q32 -11 51.5 -44.5t21.5 -70.5q3 -45 9.5 -136t9.5 -137q75 1 225.5 2t225.5 2z" />
    <glyph glyph-name="comma" unicode="," horiz-adv-x="368" 
d="M278 285q20 -45 22 -104q2 -83 -32 -160.5t-99 -124.5q-23 -17 -49 -10q-23 7 -49 43q-22 32 -24 73q0 44 17 56q32 23 57 56q-15 12 -28 31q-24 37 -24 72q-2 71 19 108q29 51 81 51q35 0 63.5 -27t45.5 -64z" />
    <glyph glyph-name="hyphen" unicode="-" horiz-adv-x="813" 
d="M658 606q43 0 72 -58q29 -56 14 -98q-10 -31 -44 -31h-545q-43 0 -73 58q-29 56 -14 98q10 31 44 31h546z" />
    <glyph glyph-name="period" unicode="." horiz-adv-x="350" 
d="M281 238q3 -18 0 -35q-1 -13 -11 -26q-6 -13 -19 -17q-1 0 -3.5 -1t-3.5 -2q-14 -4 -22 -4h-7q-8 1 -24 5q-1 0 -3 1t-3 1t-2.5 1t-2.5 2q-10 -7 -21 -7q-3 0 -9 2t-9 2q-22 8 -35 23l-15 20q-12 20 -16 35q-7 17 -7 37q-2 18 4 32q3 14 13 24q2 3 7.5 9.5t8.5 9.5
q1 1 1 3.5t1 3.5l3 6q6 11 13 19q6 8 22 18q8 4 12 5q16 6 34 0l18 -9q15 -9 24 -24q9 -9 14 -22q9 -14 14 -36q1 -2 1 -8.5t1 -8.5q2 -4 6 -11t6 -11q9 -21 10 -37z" />
    <glyph glyph-name="zero" unicode="0" horiz-adv-x="1253" 
d="M1086 937q91 -173 75.5 -360t-126.5 -347q-100 -145 -261.5 -212.5t-328.5 -25.5q-120 30 -205.5 121.5t-121.5 207t-29 239.5q10 169 89.5 322t211.5 268q10 15 24 20q236 74 391 19q86 -30 160 -98.5t121 -153.5zM941 408q46 77 69 157t14 168.5t-60 157.5
q-148 198 -468 99q-115 -100 -187.5 -226.5t-81.5 -267.5q-10 -148 55 -228q78 -97 222 -104q133 -6 250.5 61t186.5 183z" />
    <glyph glyph-name="one" unicode="1" horiz-adv-x="794" 
d="M699 86q1 -19 1.5 -39.5t-11 -37.5t-34.5 -17q-31 -1 -57 30.5t-31 64.5q-68 419 -103 653q-2 13 -4 31q-122 -134 -294 -233q-34 -19 -68.5 19.5t-37.5 86.5t30 75q239 137 374 359q24 95 86 167q13 17 31.5 13.5t33 -13.5t25.5 -24q21 -26 28 -58.5t-4 -64.5
q-30 -75 -71 -146q-18 -88 12 -271q2 -13 3 -19q15 -96 45.5 -288t45.5 -288z" />
    <glyph glyph-name="two" unicode="2" horiz-adv-x="1255" 
d="M1052 258q38 3 67 -42.5t24 -93.5t-49 -51q-136 -11 -408.5 -33t-408.5 -33q-38 -3 -64 34.5t-25.5 84t30.5 66.5q255 172 474 369q117 105 193 183q34 35 56 60t45 63t33 74q12 44 0 73.5t-52 51.5q-67 36 -190 42q-304 12 -454 -113q-31 -26 -56 -61.5t-38 -75t2 -75.5
t62 -56q32 -14 51.5 -47t21.5 -69q1 -31 -17.5 -54t-48.5 -11q-106 45 -164 144t-50 212.5t80 202.5q62 77 163 122.5t198.5 59t206.5 9.5q76 -3 144.5 -22.5t128 -56t100 -96t52.5 -136.5q12 -79 -7 -152t-74 -145t-95.5 -113.5t-117.5 -112.5q-17 -15 -25 -23
q-120 -110 -254 -216z" />
    <glyph glyph-name="three" unicode="3" horiz-adv-x="1337" 
d="M1078 790v1q69 -58 114.5 -141.5t56.5 -173t-6.5 -174t-78 -153.5t-155.5 -103q-146 -52 -303 -42.5t-304 65.5t-268 149q-29 22 -45 58t-9 70q6 31 31 42.5t51 -7.5q199 -153 432 -181q287 -34 428 73q80 60 94 160t-51 177q-48 55 -117 77.5t-139.5 12.5t-133.5 -47
q-24 -14 -49.5 7t-40.5 48q-36 66 0 117q29 40 85.5 120.5t84.5 121.5q-90 -2 -270.5 -6.5t-270.5 -6.5q-43 -1 -73 56q-29 56 -15 100q11 31 45 32q124 3 370 8.5t370 8.5q36 1 61.5 -32.5t27 -72.5t-14.5 -69q-23 -33 -69 -98.5t-69 -98.5q129 -12 231 -98z" />
    <glyph glyph-name="four" unicode="4" horiz-adv-x="1273" 
d="M1119 449q43 2 73 -54q29 -56 15 -100q-11 -32 -45 -34l-126 -6q-14 -1 -43.5 -2t-44.5 -2q0 -25 1 -74.5t1 -74.5q0 -33 -17.5 -54t-48.5 -11t-52 45.5t-21 69.5q0 16 -0.5 46t-0.5 46q-110 -6 -328.5 -16.5t-327.5 -15.5q-36 -2 -61.5 32t-27 74t14.5 69
q113 157 267 351q103 129 152.5 190t143 159.5t177.5 166.5q41 33 81 -12.5t40 -92.5l6 -708q29 1 86.5 4t85.5 4zM322 410l487 24q-1 92 -3 275.5t-2 275.5q-121 -118 -333 -383q-13 -17 -20 -26q-72 -90 -129 -166z" />
    <glyph glyph-name="five" unicode="5" horiz-adv-x="1277" 
d="M1156 666q41 -91 33.5 -196.5t-66.5 -186.5q-65 -89 -172.5 -138.5t-227.5 -59.5q-151 -12 -301 41.5t-280 154.5q-29 23 -45 58t-9 70q5 31 30.5 42t51.5 -8q266 -205 547 -166q92 13 175.5 57t128.5 114q32 48 30 110q0 4 -0.5 10t-0.5 10v2v1q-1 7 -5 21q0 1 -1.5 4.5
t-2.5 8t-2 6.5t-2 4.5t-1 3.5l-4 4q-3 3 -7 11l-2 2l-1 1l-1 1l-1 1l-1 1l-2 2l-1 1l-2 2l-2 2l-2 2l-2 2l-3 3l-40 26q-67 33 -150 39q-197 17 -491 -79q-36 -12 -66 20t-38 71q-14 69 -42.5 205t-43.5 205q-7 31 3 62.5t41 30.5q133 -5 398 6.5t397 5.5q43 -2 72 -60
t14 -99q-11 -30 -44 -29q-131 5 -376 -5t-353 -8l42 -199q321 96 542 45q97 -22 172.5 -83.5t113.5 -151.5zM1027 641z" />
    <glyph glyph-name="six" unicode="6" horiz-adv-x="1249" 
d="M979 740q72 -56 120.5 -133.5t66.5 -161t-10.5 -168t-105.5 -146.5q-117 -94 -271 -124.5t-306 12t-256 150.5q-76 79 -112.5 184t-15.5 207q31 148 179 334q163 206 393 388q35 28 74.5 -4.5t47.5 -80.5t-17 -77q-151 -119 -281 -258q130 23 258.5 -7.5t235.5 -114.5z
M1027 393q4 10 6 19q0 2 1.5 11t2.5 10q0 3 -0.5 10.5t-0.5 10.5l-3 15q-1 2 -1 5l-2 4q-1 2 -3 6.5t-4 8.5t-2 5q-5 8 -15 22l-2 4q-2 3 -7 8q-14 16 -21 23q-41 41 -97 71q-161 82 -332.5 52.5t-301.5 -152.5l-1 -1q-11 -32 -14 -41q-6 -20 -8 -35q-2 -10 -2 -15v-1
q0 -15 1 -23l8 -31q17 -50 66 -93q87 -76 216 -98t254.5 13t207.5 115q24 23 41 50q3 6 13 27z" />
    <glyph glyph-name="seven" unicode="7" horiz-adv-x="1134" 
d="M981 1188q30 -1 56.5 -30.5t33 -65t-6.5 -64.5q-300 -515 -699 -962q-32 -36 -75 6q-39 39 -45 95q-4 40 15 61q322 361 584 777q-117 3 -351 9.5t-351 10.5q-43 1 -72 59q-29 57 -15 99q11 31 44 30q588 -16 882 -25z" />
    <glyph glyph-name="eight" unicode="8" horiz-adv-x="1255" 
d="M943 1055v0v1v0v-1v0zM1076 708q57 -66 81 -159.5t-4 -177.5q-37 -95 -183 -157q-134 -58 -314 -75q-60 -3 -123 -4.5t-128.5 12t-121 35.5t-102 66t-70.5 104q-41 97 -16 195.5t110 159.5q22 16 55 35q-106 102 -88 238q8 63 42.5 120t86.5 99q101 82 234 117.5t251 2.5
q69 -20 131.5 -61t107.5 -98.5t56 -126t-24 -144.5q-29 -59 -83 -107q61 -27 102 -74zM1015 573zM485 831v-1q8 0 26 -1t26 -1q5 0 15.5 2t15.5 2q186 10 308 120q51 46 65 90l-1 1q1 5 3 12v-1l1 -2q0 -2 1 -3q0 1 -1 3t-1 3v1v0l1 2v1q0 -1 -1 -1v-1q0 3 -2 7l1 -2
q1 -3 1 -5v-1v0v0v-1l-1 1q-106 96 -244 89q-148 -8 -270 -91q-48 -33 -80.5 -76.5t-38.5 -90.5l8 -8h1q3 -2 7 -5t7 -5q1 -1 5 -3t5 -3t4 -2t4 -1q60 -23 135 -29zM229 394l1 -1v-2v2zM1018 481q3 6 5 8q2 3 4 9l1 1v1v14q0 1 -3 28q1 -4 0 -4l-8 26q0 3 2 -2q2 -2 3 -5
q-1 3 -3.5 8t-3.5 8q-2 4 -3 5h-1l-1 1l-2 3l-3 3q-46 36 -140 47q-66 7 -199 7q-57 0 -86 1q-137 -20 -241 -77q-64 -35 -94 -78q-17 -24 -20 -50q-2 -15 2 -34q-2 2 -3 4q0 -1 2 -3t2 -3v-4h1q0 1 -1 3q1 -1 2.5 -3t1.5 -3q6 -4 8 -6l2 -2q7 -5 23 -15q2 -1 3 -2q1 0 3 -1
q29 -13 49 -19q92 -29 228 -24q249 9 409 105q15 9 29 21q22 20 26 24q2 2 6 8zM1026 496zM228 400zM1011 578zM228 400v-2v1q0 1 -0.5 1t-0.5 1zM943 1057z" />
    <glyph glyph-name="nine" unicode="9" horiz-adv-x="1255" 
d="M1149 991q24 -61 27 -131t-15 -133.5t-62 -116.5t-108 -78q-48 -83 -144.5 -249.5t-145.5 -249.5q-28 -48 -74 -16q-40 28 -55 83q-11 40 4 65q24 41 71.5 123t71.5 123q-215 -61 -395 14q-76 31 -133 90t-85.5 130t-26.5 152.5t39 156.5q67 135 219 223.5t313 105.5
q159 17 300 -64t199 -228zM949 733q69 46 85.5 124t-38.5 144q-49 54 -123 77.5t-147 19.5t-145 -27q-122 -40 -223 -113.5t-132 -174.5q-30 -96 36 -146q71 -54 187 -61q122 -8 239.5 30t212.5 116q24 19 48 11z" />
    <glyph glyph-name="colon" unicode=":" horiz-adv-x="350" 
d="M258 925q7 -17 7 -37v-120q0 -37 -17 -56q-17 -18 -49 -9q-17 7 -26 16q-13 10 -23 27q-12 16 -16 35q-8 19 -8 37v119q0 38 17 57q17 18 49 9q17 -7 26 -16q13 -10 23 -27q13 -18 17 -35zM217 266q19 -21 28 -44q11 -27 11 -54q0 -31 -9 -46q0 -1 -5 -8q2 -47 -31 -61
t-69 24q-14 14 -29 34q-17 23 -28 65q-8 30 -3 61q2 17 15 37q2 12 6 22q2 2 5.5 7t4.5 8q13 13 31 13q3 0 9 -2t9 -2q17 -7 26 -16q13 -10 23 -27q1 -2 3 -5.5t3 -5.5z" />
    <glyph glyph-name="semicolon" unicode=";" horiz-adv-x="403" 
d="M118 856q0 1 0.5 3t0.5 3q-5 22 -5 26q-2 18 4 32q3 15 13 25q18 12 21 13q9 4 24 6q7 1 35 -4q1 0 3.5 -0.5t3.5 -1.5q12 -5 24 -13q21 -13 41 -43q11 -17 16 -30q6 -15 9 -32q4 -25 2 -54q0 -2 -7 -26q-2 -6 -4 -9l-12 -18l-1 -1q0 -2 -1 -2q-7 -7 -21 -15q-2 -1 -8 -3
q-20 -5 -26 -5q-3 0 -5.5 0.5t-6 1.5t-5.5 1q-14 2 -17 4q-17 7 -25 14q-18 12 -31 34l-13 23q-9 21 -11 49q0 4 1 11t1 11zM159 -5v-2h-1q0 1 0.5 1t0.5 1zM181 55v-1q0 -2 -0.5 -4t-0.5 -4q-2 -2 1 9zM190 263q67 -53 101 -131t27 -163q-5 -64 -41.5 -118.5t-93.5 -84.5
q-20 -10 -52 9q-24 15 -44 57q-14 26 -11 63.5t31 51.5q2 1 6 3.5t6 3.5q18 14 26 23q1 1 13 16q0 -1 -0.5 -1t-0.5 -1q0 1 0.5 1t0.5 1l1 1v1q1 2 3 4q3 5 7.5 17t7.5 17q2 4 2 6q1 2 1 7v2q1 3 1 5v1q0 1 1 4v-2l-1 -1v8q0 1 -1 3q0 2 -1 5.5t-1 5.5l-2 4q0 1 -1 2t-1 2
q-1 1 -1 2q-1 2 -1 3q-1 0 -2 1t-3.5 4t-3.5 4l-4 4l6 -5l-3 3q-29 23 -44 57.5t-10 70.5q4 33 30 44q12 5 27 2t25 -12zM177 32q-2 -7 -1 -7l1 4v3zM165 99q3 -4 5 -7q-4 7 -5 7z" />
    <glyph glyph-name="less" unicode="&#x3c;" horiz-adv-x="1052" 
d="M682 1137v-1q-239 -222 -368 -354q-64 -66 -83 -89q78 -75 178 -159.5t173 -142t194 -151.5t180 -140q28 -22 44 -58.5t9 -70.5q-7 -31 -31 -42.5t-51 8.5q-346 274 -516 415q-16 13 -102.5 79.5t-135.5 113.5t-83 99q-24 37 -28 72t18 73t37 56t55 59q9 9 13 14
q47 49 100 102t95.5 95t105.5 101t98.5 92t108 99t100 90.5t108.5 97.5t102 92q33 30 72 -2t48 -80t-15 -80q-229 -205 -426 -388zM180 742z" />
    <glyph glyph-name="equal" unicode="=" horiz-adv-x="1243" 
d="M1079 930q43 0 72 -57t14 -100q-11 -31 -44 -31h-955q-43 0 -72 57q-30 57 -15 100q11 31 44 31h956zM1023 486q42 1 72 -55q29 -55 15 -98q-10 -33 -45 -34q-150 -4 -449.5 -12.5t-449.5 -13.5q-43 -1 -73 56q-29 56 -15 99q11 32 45 33q150 5 450 12.5t450 12.5z" />
    <glyph glyph-name="greater" unicode="&#x3e;" horiz-adv-x="1146" 
d="M1048 818q16 -16 28 -43.5t13 -56.5t-19 -48q-139 -122 -418.5 -366.5t-419.5 -366.5q-33 -29 -71.5 2.5t-47.5 80t15 79.5q28 25 323.5 283.5t448.5 392.5q-113 118 -336.5 355.5t-336.5 356.5q-24 25 -35 62.5t3 70.5q18 28 44.5 26.5t48.5 -25.5
q126 -134 379.5 -401.5t380.5 -401.5z" />
    <glyph glyph-name="question" unicode="?" horiz-adv-x="1183" 
d="M1090 954q45 -127 -26 -226q-49 -69 -165 -123q-31 -15 -121 -45.5t-149 -64t-94 -86.5q-13 -20 -34 -14t-38 19.5t-26 27.5q-20 31 -22.5 64.5t16.5 64.5q17 25 42 47.5t45 36.5t57.5 31.5t54.5 24.5t62.5 23.5t55.5 20.5q102 38 151 73q69 49 70 92q0 2 -3 7v-1l-6 9
q-19 24 -57 46q-66 36 -163 47q-206 24 -362 -28q-88 -29 -134 -82q-12 -13 -31 -58q-3 -6 -3 -8q52 -73 27 -125q-15 -28 -45 -27t-49 26q-102 131 -55 268q36 105 158 164q97 47 228 60.5t237 -4.5q85 -12 157 -40.5t133.5 -85.5t88.5 -134zM593 180q3 -7 10 -31
q7 -27 2 -60q-1 -6 -8 -26q-1 -1 -2 -3.5t-1 -3.5q-9 -16 -14 -21q-2 -3 -19 -14q-1 -1 -3.5 -2t-3.5 -1q-8 -3 -24 -5q-19 1 -35 13q-3 2 -8.5 6.5t-8.5 7.5q-5 5 -13 17q-1 1 -6 3.5t-7 4.5q-13 10 -23 27q-13 18 -17 36q-7 17 -7 36q0 8 2 26q2 12 6 23q1 4 4 7
q12 18 15 21q7 7 21 15q11 6 31 8h8q16 -2 24 -5q26 -9 46 -31q18 -20 31 -48z" />
    <glyph glyph-name="at" unicode="@" horiz-adv-x="1751" 
d="M1561 85q23 9 46.5 -4t38 -38.5t22 -53.5t0 -52.5t-30.5 -32.5q-163 -61 -333 -86t-340 -13.5t-332 76.5t-291 179q-126 112 -192.5 262.5t-59.5 317t96 309.5q73 119 177.5 214t222.5 134q219 72 475 -12q126 -41 237.5 -118t193.5 -178t123 -229.5t26 -262.5
q-21 -180 -129 -279q-50 -46 -108 -61t-123 6q-102 37 -163 144q-46 -57 -107 -95q-102 -60 -205.5 -37t-173.5 117q-43 58 -68 127.5t-23.5 146t35.5 138.5q42 75 118.5 111t160.5 22q120 -20 217 -133q17 59 64 41q37 -14 60 -58q8 -16 10 -30q17 -105 -10 -199v-4
q9 -46 33 -76q28 -36 71.5 -40t81.5 21q106 66 123 232q10 95 -31 189q-32 73 -100.5 140.5t-152.5 116.5q-180 105 -384 105q-198 0 -355 -134q-197 -168 -243 -354q-21 -89 -11 -163q12 -78 45 -138q84 -154 270 -253q150 -80 331.5 -103.5t350 1.5t337.5 87zM962 415
q51 43 83 102q-74 134 -191 137q-51 1 -95 -24.5t-66 -69.5q-23 -42 -12.5 -95t54.5 -86q33 -25 76.5 -25t81.5 17t69 44z" />
    <glyph glyph-name="A" unicode="A" horiz-adv-x="1533" 
d="M1518 45q30 -93 -20 -115q-28 -12 -56.5 12t-39.5 54q-77 228 -169 438q-13 -17 -35 -18q-158 -12 -473 -36.5t-473 -36.5q-81 -199 -85 -401q-2 -65 -43 -65q-36 0 -69 42q-27 35 -26 72q3 181 57 359q-43 37 -47.5 101t48.5 71q11 1 33 2.5t33 2.5q108 235 294.5 426
t425.5 313q21 11 45.5 -5t38.5 -38q356 -568 561 -1178zM352 542q134 10 401 31t401 31q-113 235 -248 457q-351 -195 -554 -519z" />
    <glyph glyph-name="A" unicode="&#xc5;" horiz-adv-x="1533" 
d="M1518 45q30 -93 -20 -115q-28 -12 -56.5 12t-39.5 54q-77 228 -169 438q-13 -17 -35 -18q-158 -12 -473 -36.5t-473 -36.5q-81 -199 -85 -401q-2 -65 -43 -65q-36 0 -69 42q-27 35 -26 72q3 181 57 359q-43 37 -47.5 101t48.5 71q11 1 33 2.5t33 2.5q108 235 294.5 426
t425.5 313q21 11 45.5 -5t38.5 -38q356 -568 561 -1178zM352 542q134 10 401 31t401 31q-113 235 -248 457q-351 -195 -554 -519z" />
    <glyph glyph-name="A" unicode="&#xc4;" horiz-adv-x="1533" 
d="M1518 45q30 -93 -20 -115q-28 -12 -56.5 12t-39.5 54q-77 228 -169 438q-13 -17 -35 -18q-158 -12 -473 -36.5t-473 -36.5q-81 -199 -85 -401q-2 -65 -43 -65q-36 0 -69 42q-27 35 -26 72q3 181 57 359q-43 37 -47.5 101t48.5 71q11 1 33 2.5t33 2.5q108 235 294.5 426
t425.5 313q21 11 45.5 -5t38.5 -38q356 -568 561 -1178zM352 542q134 10 401 31t401 31q-113 235 -248 457q-351 -195 -554 -519z" />
    <glyph glyph-name="A" unicode="&#xc3;" horiz-adv-x="1533" 
d="M1518 45q30 -93 -20 -115q-28 -12 -56.5 12t-39.5 54q-77 228 -169 438q-13 -17 -35 -18q-158 -12 -473 -36.5t-473 -36.5q-81 -199 -85 -401q-2 -65 -43 -65q-36 0 -69 42q-27 35 -26 72q3 181 57 359q-43 37 -47.5 101t48.5 71q11 1 33 2.5t33 2.5q108 235 294.5 426
t425.5 313q21 11 45.5 -5t38.5 -38q356 -568 561 -1178zM352 542q134 10 401 31t401 31q-113 235 -248 457q-351 -195 -554 -519z" />
    <glyph glyph-name="A" unicode="&#xc2;" horiz-adv-x="1533" 
d="M1518 45q30 -93 -20 -115q-28 -12 -56.5 12t-39.5 54q-77 228 -169 438q-13 -17 -35 -18q-158 -12 -473 -36.5t-473 -36.5q-81 -199 -85 -401q-2 -65 -43 -65q-36 0 -69 42q-27 35 -26 72q3 181 57 359q-43 37 -47.5 101t48.5 71q11 1 33 2.5t33 2.5q108 235 294.5 426
t425.5 313q21 11 45.5 -5t38.5 -38q356 -568 561 -1178zM352 542q134 10 401 31t401 31q-113 235 -248 457q-351 -195 -554 -519z" />
    <glyph glyph-name="A" unicode="&#xc1;" horiz-adv-x="1533" 
d="M1518 45q30 -93 -20 -115q-28 -12 -56.5 12t-39.5 54q-77 228 -169 438q-13 -17 -35 -18q-158 -12 -473 -36.5t-473 -36.5q-81 -199 -85 -401q-2 -65 -43 -65q-36 0 -69 42q-27 35 -26 72q3 181 57 359q-43 37 -47.5 101t48.5 71q11 1 33 2.5t33 2.5q108 235 294.5 426
t425.5 313q21 11 45.5 -5t38.5 -38q356 -568 561 -1178zM352 542q134 10 401 31t401 31q-113 235 -248 457q-351 -195 -554 -519z" />
    <glyph glyph-name="A" unicode="&#xc0;" horiz-adv-x="1533" 
d="M1518 45q30 -93 -20 -115q-28 -12 -56.5 12t-39.5 54q-77 228 -169 438q-13 -17 -35 -18q-158 -12 -473 -36.5t-473 -36.5q-81 -199 -85 -401q-2 -65 -43 -65q-36 0 -69 42q-27 35 -26 72q3 181 57 359q-43 37 -47.5 101t48.5 71q11 1 33 2.5t33 2.5q108 235 294.5 426
t425.5 313q21 11 45.5 -5t38.5 -38q356 -568 561 -1178zM352 542q134 10 401 31t401 31q-113 235 -248 457q-351 -195 -554 -519z" />
    <glyph glyph-name="B" unicode="B" horiz-adv-x="1468" 
d="M1312 541q67 -56 104.5 -133t30 -163t-68.5 -152q-72 -79 -223 -125q-100 -32 -281 -72q-278 -61 -569 -85q-27 -2 -50.5 22.5t-34 57t-5 63.5t30.5 41l-54 878q-24 -14 -50 -32q-30 -17 -54.5 -6.5t-43.5 39.5q-11 16 -18.5 40t-6.5 50.5t18 38.5q53 39 142 86
q2 28 20 46t46 9q11 -4 22 -12q97 42 199 66q74 17 129 25.5t127 5.5t129 -25q106 -42 152 -146t4 -209q-30 -75 -111 -146q269 -38 416 -162zM542 1017q-115 -26 -219 -73q3 -45 8.5 -137.5t8.5 -137.5q188 28 338 118q94 55 159 126q40 44 48 73q1 4 1.5 10t0 8.5t0.5 3.5
q-31 33 -144 33q-91 1 -201 -24zM1161 179q25 10 48.5 23.5t49.5 33t40.5 44.5t12.5 51q-2 22 -19 42t-44.5 36t-49 26t-47.5 20q-5 2 -8 3q-135 53 -272 66q-271 26 -518 -75q5 -73 14 -219.5t13 -219.5q255 28 488 83q207 49 292 86z" />
    <glyph glyph-name="C" unicode="C" horiz-adv-x="1570" 
d="M1436 421q23 14 47 8.5t42 -28t28.5 -49t7.5 -53t-21 -39.5q-198 -142 -427 -209.5t-464 -46.5q-245 21 -386 133q-138 109 -192 303q-29 118 -22 235t57 230t134 193q133 126 324.5 165.5t364.5 -16.5q99 -30 165 -108t71 -179q3 -61 -28.5 -114t-81.5 -68.5t-111 25.5
q-29 21 -45 58t-9 70q7 31 31 42.5t51 -7.5q20 -15 40.5 9t8.5 45q-19 32 -120 55q-152 36 -304 -3q-134 -34 -235.5 -121t-145.5 -213q-25 -71 -30.5 -146t17 -152t74.5 -127q169 -163 575 -119q314 35 584 227z" />
    <glyph glyph-name="C" unicode="&#xc7;" horiz-adv-x="1570" 
d="M1436 421q23 14 47 8.5t42 -28t28.5 -49t7.5 -53t-21 -39.5q-198 -142 -427 -209.5t-464 -46.5q-245 21 -386 133q-138 109 -192 303q-29 118 -22 235t57 230t134 193q133 126 324.5 165.5t364.5 -16.5q99 -30 165 -108t71 -179q3 -61 -28.5 -114t-81.5 -68.5t-111 25.5
q-29 21 -45 58t-9 70q7 31 31 42.5t51 -7.5q20 -15 40.5 9t8.5 45q-19 32 -120 55q-152 36 -304 -3q-134 -34 -235.5 -121t-145.5 -213q-25 -71 -30.5 -146t17 -152t74.5 -127q169 -163 575 -119q314 35 584 227z" />
    <glyph glyph-name="D" unicode="D" horiz-adv-x="1533" 
d="M1416 799q66 -116 75 -244t-45 -251q-56 -122 -165.5 -212t-247.5 -142q-249 -94 -570 -82q-4 -26 -22 -40t-43 -6q-35 11 -56 54q-92 8 -166 19q-33 5 -56 32t-31 63q-6 30 4 64t41 29q84 -13 175 -21q-16 126 -48 380.5t-48 380.5q-27 -10 -79 -30q-23 -9 -46 3.5
t-38 37.5t-22.5 53t0 53t30.5 34q68 27 130 48l-12 96q-4 31 16 52.5t50 12.5q60 -19 73 -115q0 -1 0.5 -3.5t0.5 -3.5q370 103 660 39q139 -31 256.5 -108t183.5 -193zM1354 563v15q0 16 -1 24q0 6 -2 16t-8 38v3q-2 3 -4 9t-4 10l-12 27l-1 1v2q-5 8 -14.5 21.5
t-12.5 18.5q-1 2 -3.5 4t-3.5 4q-3 3 -8.5 9t-7.5 9q-3 3 -9.5 9t-9.5 9l-7 7q-22 18 -50 36q-10 7 -22 14q-6 4 -20 11q-18 9 -23 11t-14.5 6.5t-14.5 6.5q-29 12 -62 21q-58 17 -128 26q-257 29 -572 -66l102 -810q324 -8 563 96q128 57 213 139q24 24 41 45q3 3 8.5 11
t8.5 11q1 1 5.5 7.5t5.5 7.5q29 45 46 89q0 2 2 7t3 10l2 5q0 3 2 9t2 8q6 24 9 48q1 6 1 15z" />
    <glyph glyph-name="E" unicode="E" horiz-adv-x="1353" 
d="M1260 89q43 -4 72 -65q29 -59 13 -99q-11 -27 -42 -24q-465 47 -910 -57q-45 -11 -73 27.5t-34 87.5q-9 73 -27 219.5t-27 219.5q-37 24 -54 86q-8 28 0.5 55t32.5 35q-9 72 -26.5 217.5t-26.5 217.5q-7 -1 -23 -2.5t-23 -1.5q-38 -3 -67 42.5t-24.5 93.5t48.5 52
q11 1 33 2.5t33 2.5l-3 24q-4 32 16 53.5t50 12.5q47 -15 65 -79q160 13 480.5 39.5t480.5 39.5q38 3 67 -42.5t24 -93.5t-49 -52q-163 -14 -488.5 -40.5t-488.5 -39.5q9 -72 26.5 -216.5t26.5 -216.5q80 6 238 19t238 20q31 3 54.5 -28.5t32.5 -65.5q8 -32 -2.5 -61.5
t-41.5 -32.5q-82 -7 -247.5 -20.5t-248.5 -20.5q7 -59 21.5 -176.5t21.5 -176.5q431 88 852 45z" />
    <glyph glyph-name="E" unicode="&#xcb;" horiz-adv-x="1353" 
d="M1260 89q43 -4 72 -65q29 -59 13 -99q-11 -27 -42 -24q-465 47 -910 -57q-45 -11 -73 27.5t-34 87.5q-9 73 -27 219.5t-27 219.5q-37 24 -54 86q-8 28 0.5 55t32.5 35q-9 72 -26.5 217.5t-26.5 217.5q-7 -1 -23 -2.5t-23 -1.5q-38 -3 -67 42.5t-24.5 93.5t48.5 52
q11 1 33 2.5t33 2.5l-3 24q-4 32 16 53.5t50 12.5q47 -15 65 -79q160 13 480.5 39.5t480.5 39.5q38 3 67 -42.5t24 -93.5t-49 -52q-163 -14 -488.5 -40.5t-488.5 -39.5q9 -72 26.5 -216.5t26.5 -216.5q80 6 238 19t238 20q31 3 54.5 -28.5t32.5 -65.5q8 -32 -2.5 -61.5
t-41.5 -32.5q-82 -7 -247.5 -20.5t-248.5 -20.5q7 -59 21.5 -176.5t21.5 -176.5q431 88 852 45z" />
    <glyph glyph-name="E" unicode="&#xca;" horiz-adv-x="1353" 
d="M1260 89q43 -4 72 -65q29 -59 13 -99q-11 -27 -42 -24q-465 47 -910 -57q-45 -11 -73 27.5t-34 87.5q-9 73 -27 219.5t-27 219.5q-37 24 -54 86q-8 28 0.5 55t32.5 35q-9 72 -26.5 217.5t-26.5 217.5q-7 -1 -23 -2.5t-23 -1.5q-38 -3 -67 42.5t-24.5 93.5t48.5 52
q11 1 33 2.5t33 2.5l-3 24q-4 32 16 53.5t50 12.5q47 -15 65 -79q160 13 480.5 39.5t480.5 39.5q38 3 67 -42.5t24 -93.5t-49 -52q-163 -14 -488.5 -40.5t-488.5 -39.5q9 -72 26.5 -216.5t26.5 -216.5q80 6 238 19t238 20q31 3 54.5 -28.5t32.5 -65.5q8 -32 -2.5 -61.5
t-41.5 -32.5q-82 -7 -247.5 -20.5t-248.5 -20.5q7 -59 21.5 -176.5t21.5 -176.5q431 88 852 45z" />
    <glyph glyph-name="E" unicode="&#xc9;" horiz-adv-x="1353" 
d="M1260 89q43 -4 72 -65q29 -59 13 -99q-11 -27 -42 -24q-465 47 -910 -57q-45 -11 -73 27.5t-34 87.5q-9 73 -27 219.5t-27 219.5q-37 24 -54 86q-8 28 0.5 55t32.5 35q-9 72 -26.5 217.5t-26.5 217.5q-7 -1 -23 -2.5t-23 -1.5q-38 -3 -67 42.5t-24.5 93.5t48.5 52
q11 1 33 2.5t33 2.5l-3 24q-4 32 16 53.5t50 12.5q47 -15 65 -79q160 13 480.5 39.5t480.5 39.5q38 3 67 -42.5t24 -93.5t-49 -52q-163 -14 -488.5 -40.5t-488.5 -39.5q9 -72 26.5 -216.5t26.5 -216.5q80 6 238 19t238 20q31 3 54.5 -28.5t32.5 -65.5q8 -32 -2.5 -61.5
t-41.5 -32.5q-82 -7 -247.5 -20.5t-248.5 -20.5q7 -59 21.5 -176.5t21.5 -176.5q431 88 852 45z" />
    <glyph glyph-name="E" unicode="&#xc8;" horiz-adv-x="1353" 
d="M1260 89q43 -4 72 -65q29 -59 13 -99q-11 -27 -42 -24q-465 47 -910 -57q-45 -11 -73 27.5t-34 87.5q-9 73 -27 219.5t-27 219.5q-37 24 -54 86q-8 28 0.5 55t32.5 35q-9 72 -26.5 217.5t-26.5 217.5q-7 -1 -23 -2.5t-23 -1.5q-38 -3 -67 42.5t-24.5 93.5t48.5 52
q11 1 33 2.5t33 2.5l-3 24q-4 32 16 53.5t50 12.5q47 -15 65 -79q160 13 480.5 39.5t480.5 39.5q38 3 67 -42.5t24 -93.5t-49 -52q-163 -14 -488.5 -40.5t-488.5 -39.5q9 -72 26.5 -216.5t26.5 -216.5q80 6 238 19t238 20q31 3 54.5 -28.5t32.5 -65.5q8 -32 -2.5 -61.5
t-41.5 -32.5q-82 -7 -247.5 -20.5t-248.5 -20.5q7 -59 21.5 -176.5t21.5 -176.5q431 88 852 45z" />
    <glyph glyph-name="F" unicode="F" horiz-adv-x="1456" 
d="M1366 1320q38 3 67 -42t24.5 -93.5t-48.5 -52.5q-167 -15 -500 -45.5t-500 -45.5l13 -449l444 15q43 2 73 -55q29 -57 14 -100q-10 -32 -44 -33q-81 -3 -241 -8.5t-241 -7.5q3 -83 7.5 -248t6.5 -248q1 -33 -17 -54.5t-49 -11.5t-51.5 45.5t-21.5 70.5l-12 441
q-8 0 -24 -1t-24 -1q-43 -2 -73 55q-29 57 -14 100q10 32 44 33q15 0 43.5 1t42.5 2q-2 73 -6.5 220t-6.5 221l-162 -15q-38 -3 -67 42t-24.5 93.5t48.5 52.5q33 3 99.5 9t100.5 9v6q-1 33 17 54.5t49 11.5q37 -11 59 -60q163 15 487.5 44.5t486.5 44.5z" />
    <glyph glyph-name="G" unicode="G" horiz-adv-x="1449" 
d="M1285 370q36 25 64 4.5t44.5 -61.5t12.5 -70l-81 -558q-4 -32 -30 -42t-52 8q-29 19 -44 56t-10 72q7 53 23 158.5t23 158.5q-216 -140 -424 -192q-227 -58 -397 6q-100 38 -181 116t-130 179q-84 183 -49 374.5t169 340.5q149 166 368 222.5t445 3.5q126 -30 209 -109.5
t91 -201.5q4 -60 -16.5 -110t-66.5 -75.5t-107 -7.5q-40 12 -61 72t0 94q17 26 54 15q24 -6 39.5 6.5t19.5 35.5q6 35 -43 63q-82 47 -209 57t-218 -9q-164 -27 -301.5 -127.5t-203.5 -248.5q-38 -85 -41.5 -170t32.5 -163t110 -131q220 -157 616 24q201 92 345 210z" />
    <glyph glyph-name="H" unicode="H" horiz-adv-x="1236" 
d="M1190 -12q9 -29 -2.5 -60.5t-42.5 -32.5q-32 -1 -53.5 28t-33.5 67q-72 226 -98 472q-34 -40 -55 -59q-127 -117 -300.5 -155t-336.5 13q2 -37 5 -111.5t4 -111.5q2 -32 -16.5 -54t-49.5 -12q-32 10 -51 44t-22 72q-5 54 -15.5 161t-15.5 161q-3 29 16 53
q-6 149 -18.5 446.5t-18.5 446.5q-2 32 16.5 53.5t49.5 11.5q32 -10 51.5 -44.5t21.5 -70.5q6 -144 17.5 -431t17.5 -431q133 -41 276 -13t250 120q104 89 161 226q5 195 39 385q11 62 59 42q37 -15 63 -59q9 -16 12 -30q42 -222 -34 -433q-3 -358 104 -694z" />
    <glyph glyph-name="I" unicode="I" horiz-adv-x="876" 
d="M716 1384q50 12 81 -38t25 -100q-11 -86 -32 -260t-31 -260q-4 -35 -13 -118.5t-15 -130t-20 -113.5t-34 -121q-35 -98 -105 -175t-163 -111q-86 -34 -184.5 -21.5t-170.5 71.5q-29 23 -45 58.5t-9 69.5q6 31 30.5 43t51.5 -8q70 -52 154 -50.5t157 46.5q142 86 184 301
q13 65 22 136t19.5 165.5t15.5 136.5q5 39 14 118t14 118q-112 -79 -189 -228q-38 -74 -71 -167q-5 -14 -10 -32v-1q-1 -2 -2 -7q-1 -3 -2.5 -9.5t-2.5 -9.5q-14 -59 -59 -42q-37 14 -63 62q-22 41 -14 74q23 97 61.5 188t95 177.5t137 150t173.5 87.5z" />
    <glyph glyph-name="I" unicode="&#xcf;" horiz-adv-x="876" 
d="M716 1384q50 12 81 -38t25 -100q-11 -86 -32 -260t-31 -260q-4 -35 -13 -118.5t-15 -130t-20 -113.5t-34 -121q-35 -98 -105 -175t-163 -111q-86 -34 -184.5 -21.5t-170.5 71.5q-29 23 -45 58.5t-9 69.5q6 31 30.5 43t51.5 -8q70 -52 154 -50.5t157 46.5q142 86 184 301
q13 65 22 136t19.5 165.5t15.5 136.5q5 39 14 118t14 118q-112 -79 -189 -228q-38 -74 -71 -167q-5 -14 -10 -32v-1q-1 -2 -2 -7q-1 -3 -2.5 -9.5t-2.5 -9.5q-14 -59 -59 -42q-37 14 -63 62q-22 41 -14 74q23 97 61.5 188t95 177.5t137 150t173.5 87.5z" />
    <glyph glyph-name="I" unicode="&#xce;" horiz-adv-x="876" 
d="M716 1384q50 12 81 -38t25 -100q-11 -86 -32 -260t-31 -260q-4 -35 -13 -118.5t-15 -130t-20 -113.5t-34 -121q-35 -98 -105 -175t-163 -111q-86 -34 -184.5 -21.5t-170.5 71.5q-29 23 -45 58.5t-9 69.5q6 31 30.5 43t51.5 -8q70 -52 154 -50.5t157 46.5q142 86 184 301
q13 65 22 136t19.5 165.5t15.5 136.5q5 39 14 118t14 118q-112 -79 -189 -228q-38 -74 -71 -167q-5 -14 -10 -32v-1q-1 -2 -2 -7q-1 -3 -2.5 -9.5t-2.5 -9.5q-14 -59 -59 -42q-37 14 -63 62q-22 41 -14 74q23 97 61.5 188t95 177.5t137 150t173.5 87.5z" />
    <glyph glyph-name="I" unicode="&#xcd;" horiz-adv-x="876" 
d="M716 1384q50 12 81 -38t25 -100q-11 -86 -32 -260t-31 -260q-4 -35 -13 -118.5t-15 -130t-20 -113.5t-34 -121q-35 -98 -105 -175t-163 -111q-86 -34 -184.5 -21.5t-170.5 71.5q-29 23 -45 58.5t-9 69.5q6 31 30.5 43t51.5 -8q70 -52 154 -50.5t157 46.5q142 86 184 301
q13 65 22 136t19.5 165.5t15.5 136.5q5 39 14 118t14 118q-112 -79 -189 -228q-38 -74 -71 -167q-5 -14 -10 -32v-1q-1 -2 -2 -7q-1 -3 -2.5 -9.5t-2.5 -9.5q-14 -59 -59 -42q-37 14 -63 62q-22 41 -14 74q23 97 61.5 188t95 177.5t137 150t173.5 87.5z" />
    <glyph glyph-name="I" unicode="&#xcc;" horiz-adv-x="876" 
d="M716 1384q50 12 81 -38t25 -100q-11 -86 -32 -260t-31 -260q-4 -35 -13 -118.5t-15 -130t-20 -113.5t-34 -121q-35 -98 -105 -175t-163 -111q-86 -34 -184.5 -21.5t-170.5 71.5q-29 23 -45 58.5t-9 69.5q6 31 30.5 43t51.5 -8q70 -52 154 -50.5t157 46.5q142 86 184 301
q13 65 22 136t19.5 165.5t15.5 136.5q5 39 14 118t14 118q-112 -79 -189 -228q-38 -74 -71 -167q-5 -14 -10 -32v-1q-1 -2 -2 -7q-1 -3 -2.5 -9.5t-2.5 -9.5q-14 -59 -59 -42q-37 14 -63 62q-22 41 -14 74q23 97 61.5 188t95 177.5t137 150t173.5 87.5z" />
    <glyph glyph-name="J" unicode="J" horiz-adv-x="1245" 
d="M1106 1209q20 -91 33 -159t26 -161.5t15 -167t-4.5 -161t-27 -160t-58.5 -147.5t-93 -139q-117 -136 -284 -195t-341 -30t-316 139q-29 22 -45 58t-9 70q7 31 31 42.5t51 -7.5q123 -95 273 -117.5t292 31t244 171.5q58 67 93 150t47.5 161.5t8.5 175t-15.5 173
t-31.5 174.5q-83 -6 -249 -17.5t-249 -17.5q-38 -3 -66.5 42.5t-24 94t48.5 51.5q94 7 281.5 20.5t281.5 19.5q31 2 56 -29.5t32 -64.5z" />
    <glyph glyph-name="K" unicode="K" horiz-adv-x="1175" 
d="M1090 183q40 -12 61 -72.5t-1 -93.5q-16 -26 -53 -15q-71 21 -145 63t-160.5 100t-134.5 85q-183 101 -315 89l-9 -6q8 -55 24.5 -163.5t24.5 -163.5q1 -19 1.5 -39t-11.5 -37t-35 -17q-31 -1 -57 30t-31 64q-24 168 -40 272q-26 -9 -28 -9q-26 -6 -52.5 13t-42.5 48
t-16.5 61.5t21.5 49.5q37 29 86 51q-20 129 -58.5 388t-57.5 389q-1 19 -1.5 39t11.5 37t35 17q31 1 57 -30.5t31 -64.5q18 -120 54 -362t54 -362q108 75 241 230q35 41 115.5 140t143 168.5t128.5 127.5q33 29 71.5 -2.5t47.5 -80t-15 -79.5q-67 -59 -132.5 -132
t-144 -170.5t-119.5 -144.5q-57 -65 -108 -115q49 -18 91 -39q82 -42 260 -155q49 -31 70 -44t62.5 -33.5t76.5 -31.5z" />
    <glyph glyph-name="L" unicode="L" horiz-adv-x="1167" 
d="M1082 199q43 -6 71 -67q28 -60 12 -99q-10 -27 -41 -22q-259 39 -513.5 -8t-482.5 -176q-35 -20 -62 11t-37 76.5t-2 69.5q217 707 142 1453q-3 32 16.5 53t49.5 12q32 -10 51 -43.5t22 -71.5q64 -654 -92 -1299q420 178 866 111z" />
    <glyph glyph-name="M" unicode="M" horiz-adv-x="1439" 
d="M1326 1190q4 -196 10.5 -589t10.5 -589q1 -33 -17 -54.5t-49 -11.5t-51.5 45t-21.5 70q-4 172 -9 489t-7 441q-80 -105 -216 -315q-94 -144 -199 -315q-15 -24 -36 -26t-39.5 11t-32.5 34q-73 108 -220.5 325.5t-220.5 326.5q24 -163 71 -489.5t71 -490.5
q1 -19 1.5 -39.5t-11.5 -37.5t-35 -17q-31 -1 -56.5 30.5t-30.5 64.5q-32 220 -95.5 658.5t-95.5 657.5q-1 19 -1.5 39.5t11.5 37.5t35 17q31 1 56.5 -30.5t30.5 -64.5q1 -8 4 -25t4 -26q12 -11 20 -23l491 -728q106 170 161 254q6 10 44.5 68t49.5 74.5l44 66t51 73.5
t47 63t55.5 70t53.5 61q37 39 79 -11.5t43 -94.5z" />
    <glyph glyph-name="N" unicode="N" horiz-adv-x="1312" 
d="M1091 1224q3 65 45 64q37 0 69 -43q26 -34 24 -71q-8 -188 -25.5 -562t-26.5 -562q-2 -38 -22 -55t-46.5 -8t-46.5 40q-76 119 -185.5 251t-205.5 232t-212 231.5t-195 240.5q63 -459 -5 -922q-4 -32 -30 -42.5t-52 7.5q-29 19 -44 56t-10 72q92 638 -66 1201
q-8 28 0.5 57.5t35.5 34.5t51 -17t37 -51q52 -123 131.5 -244t173 -229t184.5 -205t197 -213.5t180 -212.5q8 158 22 475t22 475z" />
    <glyph glyph-name="N" unicode="&#xd1;" horiz-adv-x="1312" 
d="M1091 1224q3 65 45 64q37 0 69 -43q26 -34 24 -71q-8 -188 -25.5 -562t-26.5 -562q-2 -38 -22 -55t-46.5 -8t-46.5 40q-76 119 -185.5 251t-205.5 232t-212 231.5t-195 240.5q63 -459 -5 -922q-4 -32 -30 -42.5t-52 7.5q-29 19 -44 56t-10 72q92 638 -66 1201
q-8 28 0.5 57.5t35.5 34.5t51 -17t37 -51q52 -123 131.5 -244t173 -229t184.5 -205t197 -213.5t180 -212.5q8 158 22 475t22 475z" />
    <glyph glyph-name="O" unicode="O" horiz-adv-x="1536" 
d="M1493 631q11 -96 -19 -186t-98 -156q-71 -69 -166.5 -105.5t-219.5 -57.5q-91 -16 -168 -23t-166.5 -4.5t-165 19.5t-152.5 56t-140 98q-103 97 -138.5 227t-4 259.5t120.5 238.5q115 141 291.5 209.5t357.5 45.5q21 37 55 21q79 -36 141.5 -69.5t133.5 -78.5t124 -94.5
t100 -109.5t76 -134t38 -156zM970 318q50 10 98.5 25.5t98.5 40t88 56t66.5 73t34 90.5t-8.5 109q-11 40 -33 77.5t-46 66t-62 58t-67 49t-76 44.5t-75 38t-76 35q-12 -20 -35 -17q-164 23 -320 -33.5t-264 -180.5q-56 -64 -89.5 -138t-27.5 -147q8 -115 139 -200
q67 -43 149 -64t175 -19t164 10.5t167 26.5z" />
    <glyph glyph-name="O" unicode="&#xd8;" horiz-adv-x="1536" 
d="M1493 631q11 -96 -19 -186t-98 -156q-71 -69 -166.5 -105.5t-219.5 -57.5q-91 -16 -168 -23t-166.5 -4.5t-165 19.5t-152.5 56t-140 98q-103 97 -138.5 227t-4 259.5t120.5 238.5q115 141 291.5 209.5t357.5 45.5q21 37 55 21q79 -36 141.5 -69.5t133.5 -78.5t124 -94.5
t100 -109.5t76 -134t38 -156zM970 318q50 10 98.5 25.5t98.5 40t88 56t66.5 73t34 90.5t-8.5 109q-11 40 -33 77.5t-46 66t-62 58t-67 49t-76 44.5t-75 38t-76 35q-12 -20 -35 -17q-164 23 -320 -33.5t-264 -180.5q-56 -64 -89.5 -138t-27.5 -147q8 -115 139 -200
q67 -43 149 -64t175 -19t164 10.5t167 26.5z" />
    <glyph glyph-name="O" unicode="&#xd6;" horiz-adv-x="1536" 
d="M1493 631q11 -96 -19 -186t-98 -156q-71 -69 -166.5 -105.5t-219.5 -57.5q-91 -16 -168 -23t-166.5 -4.5t-165 19.5t-152.5 56t-140 98q-103 97 -138.5 227t-4 259.5t120.5 238.5q115 141 291.5 209.5t357.5 45.5q21 37 55 21q79 -36 141.5 -69.5t133.5 -78.5t124 -94.5
t100 -109.5t76 -134t38 -156zM970 318q50 10 98.5 25.5t98.5 40t88 56t66.5 73t34 90.5t-8.5 109q-11 40 -33 77.5t-46 66t-62 58t-67 49t-76 44.5t-75 38t-76 35q-12 -20 -35 -17q-164 23 -320 -33.5t-264 -180.5q-56 -64 -89.5 -138t-27.5 -147q8 -115 139 -200
q67 -43 149 -64t175 -19t164 10.5t167 26.5z" />
    <glyph glyph-name="O" unicode="&#xd5;" horiz-adv-x="1536" 
d="M1493 631q11 -96 -19 -186t-98 -156q-71 -69 -166.5 -105.5t-219.5 -57.5q-91 -16 -168 -23t-166.5 -4.5t-165 19.5t-152.5 56t-140 98q-103 97 -138.5 227t-4 259.5t120.5 238.5q115 141 291.5 209.5t357.5 45.5q21 37 55 21q79 -36 141.5 -69.5t133.5 -78.5t124 -94.5
t100 -109.5t76 -134t38 -156zM970 318q50 10 98.5 25.5t98.5 40t88 56t66.5 73t34 90.5t-8.5 109q-11 40 -33 77.5t-46 66t-62 58t-67 49t-76 44.5t-75 38t-76 35q-12 -20 -35 -17q-164 23 -320 -33.5t-264 -180.5q-56 -64 -89.5 -138t-27.5 -147q8 -115 139 -200
q67 -43 149 -64t175 -19t164 10.5t167 26.5z" />
    <glyph glyph-name="O" unicode="&#xd4;" horiz-adv-x="1536" 
d="M1493 631q11 -96 -19 -186t-98 -156q-71 -69 -166.5 -105.5t-219.5 -57.5q-91 -16 -168 -23t-166.5 -4.5t-165 19.5t-152.5 56t-140 98q-103 97 -138.5 227t-4 259.5t120.5 238.5q115 141 291.5 209.5t357.5 45.5q21 37 55 21q79 -36 141.5 -69.5t133.5 -78.5t124 -94.5
t100 -109.5t76 -134t38 -156zM970 318q50 10 98.5 25.5t98.5 40t88 56t66.5 73t34 90.5t-8.5 109q-11 40 -33 77.5t-46 66t-62 58t-67 49t-76 44.5t-75 38t-76 35q-12 -20 -35 -17q-164 23 -320 -33.5t-264 -180.5q-56 -64 -89.5 -138t-27.5 -147q8 -115 139 -200
q67 -43 149 -64t175 -19t164 10.5t167 26.5z" />
    <glyph glyph-name="O" unicode="&#xd3;" horiz-adv-x="1536" 
d="M1493 631q11 -96 -19 -186t-98 -156q-71 -69 -166.5 -105.5t-219.5 -57.5q-91 -16 -168 -23t-166.5 -4.5t-165 19.5t-152.5 56t-140 98q-103 97 -138.5 227t-4 259.5t120.5 238.5q115 141 291.5 209.5t357.5 45.5q21 37 55 21q79 -36 141.5 -69.5t133.5 -78.5t124 -94.5
t100 -109.5t76 -134t38 -156zM970 318q50 10 98.5 25.5t98.5 40t88 56t66.5 73t34 90.5t-8.5 109q-11 40 -33 77.5t-46 66t-62 58t-67 49t-76 44.5t-75 38t-76 35q-12 -20 -35 -17q-164 23 -320 -33.5t-264 -180.5q-56 -64 -89.5 -138t-27.5 -147q8 -115 139 -200
q67 -43 149 -64t175 -19t164 10.5t167 26.5z" />
    <glyph glyph-name="O" unicode="&#xd2;" horiz-adv-x="1536" 
d="M1493 631q11 -96 -19 -186t-98 -156q-71 -69 -166.5 -105.5t-219.5 -57.5q-91 -16 -168 -23t-166.5 -4.5t-165 19.5t-152.5 56t-140 98q-103 97 -138.5 227t-4 259.5t120.5 238.5q115 141 291.5 209.5t357.5 45.5q21 37 55 21q79 -36 141.5 -69.5t133.5 -78.5t124 -94.5
t100 -109.5t76 -134t38 -156zM970 318q50 10 98.5 25.5t98.5 40t88 56t66.5 73t34 90.5t-8.5 109q-11 40 -33 77.5t-46 66t-62 58t-67 49t-76 44.5t-75 38t-76 35q-12 -20 -35 -17q-164 23 -320 -33.5t-264 -180.5q-56 -64 -89.5 -138t-27.5 -147q8 -115 139 -200
q67 -43 149 -64t175 -19t164 10.5t167 26.5z" />
    <glyph glyph-name="P" unicode="P" horiz-adv-x="1355" 
d="M1195 1228q57 -57 93 -132.5t41.5 -158t-33.5 -156.5q-20 -38 -50 -70.5t-73 -59t-76 -44.5t-90.5 -37.5t-83.5 -27.5t-86 -26q-222 -64 -466 -89q6 -77 19.5 -230t20.5 -229q2 -32 -16.5 -53.5t-49.5 -12.5q-32 10 -51 43.5t-22 71.5q-6 67 -17 200t-17 199h-3
q-43 -2 -73 54q-29 56 -15 100q11 32 45 34q9 0 29 2q-8 90 -23 269.5t-23 269.5q-7 -2 -21 -5t-21 -5q-40 -10 -75 33t-35 87.5t34 60.5q109 28 168.5 42t154.5 32.5t178 24t163 -0.5q308 -22 474 -186zM839 721q158 52 228 92q154 90 117 206q-17 55 -66.5 96.5t-116.5 64
t-127 33t-120 14.5q-188 11 -448 -49q8 -93 24.5 -280.5t24.5 -280.5q252 28 484 104z" />
    <glyph glyph-name="Q" unicode="Q" horiz-adv-x="1730" 
d="M1661 882q65 -224 -22.5 -432t-292.5 -315q-56 -29 -109 -46q7 -27 20 -81.5t20 -82.5q7 -31 -3.5 -62.5t-41.5 -31.5q-32 0 -55 29.5t-32 65.5l-33 132q-129 -23 -284 -20q-152 3 -271 23t-221 76q-104 57 -175 148.5t-99.5 196.5t-16.5 220t67 219q38 72 89.5 131
t116 103.5t128.5 77.5t146 60.5t147.5 45t153.5 36.5q27 6 52 -12.5t41 -49.5q146 37 288 -12t243.5 -161t143.5 -258zM1270 316q106 55 178 147.5t94 203.5t-18 229q-28 78 -87.5 134.5t-132.5 83t-156 26t-157 -31.5q-28 -12 -55.5 9.5t-42.5 59.5q-87 -20 -151 -38
t-144 -49.5t-139.5 -68t-117 -91.5t-95.5 -122q-29 -50 -46.5 -101.5t-23 -110.5t12.5 -111q17 -53 58 -97.5t89 -72.5t104 -46q149 -49 423 -43q113 3 203 21l-66 267q-7 31 3.5 62t41.5 31q32 0 55 -29.5t32 -64.5q9 -38 28 -116t29 -116q51 19 81 35z" />
    <glyph glyph-name="R" unicode="R" horiz-adv-x="1224" 
d="M781 1280q127 -46 230.5 -142.5t152 -224t-0.5 -267.5q-27 -74 -79 -123t-116 -69.5t-140 -27t-150 5.5q212 -192 342 -341q24 -27 34.5 -62.5t-3.5 -70.5q-17 -28 -44.5 -26.5t-48.5 25.5q-117 133 -363 358q-110 100 -166 149q-2 1 -21.5 19t-30.5 27q-8 6 -18 16v-1
q4 -3 12 -10q-60 51 -54 117q3 29 20.5 46.5t44.5 7.5q301 -115 487 -57q77 25 117 65q25 25 34 43q5 9 13 27q2 4 6 14v1q0 1 0.5 1t0.5 1q1 2 6 32v6q0 2 0.5 4.5t0.5 3.5q0 10 -2 26q-2 10 -4 21q-1 2 -2 6.5t-1 6.5q0 1 -1 1l-1 2q-10 25 -12 29l-9 15q-8 12 -16 22
q-97 120 -289 166q-182 44 -418 5q-6 -188 -18.5 -564t-19.5 -564q-2 -65 -44 -65q-36 1 -68 42q-27 36 -26 73q6 175 17.5 525.5t17.5 525.5q-37 2 -66 45.5t-27.5 83t34.5 54.5q11 2 33 7t33 7q0 5 0.5 15t0.5 15q2 50 28.5 61t56.5 -11t45 -57q278 37 492 -40zM1038 885z
" />
    <glyph glyph-name="S" unicode="S" horiz-adv-x="1347" 
d="M1213 550q44 -59 64.5 -134.5t8 -154.5t-62.5 -133q-100 -108 -342 -143q-91 -10 -184 -10.5t-189.5 21.5t-180.5 58.5t-157 99t-119 143.5q-11 19 -18 41t-5.5 47.5t17.5 40.5q27 19 55 6.5t43 -39.5q53 -92 158 -147q102 -53 237 -73q281 -41 483 51q44 20 70 40
q17 13 27 25q2 2 10 13l6 7l-1 -1q12 20 13.5 27t2.5 34q0 28 -3 41q0 2 -4 11l-4 10l1 -1q-30 52 -155 96q-46 16 -248 67q-81 20 -245 81q-56 21 -90.5 36t-79 42.5t-75.5 59.5q-81 85 -95 207.5t63 213.5q90 96 292 133q187 34 364 -6q204 -48 304 -196q117 -174 37 -419
q-5 -16 -17.5 -22.5t-26.5 -4t-27 9.5t-22 16q-25 26 -33.5 62.5t2.5 70.5q17 52 19 98q0 12 -2 38l-7 26h1l-8 18q-1 3 -5 8t-5 7v1l-1 1q-17 20 -22.5 24.5t-29.5 20.5q-128 84 -346 75q-181 -7 -310 -81q-19 -11 -42.5 -33.5t-30.5 -35.5q-2 -4 -4 -10l-2 -7
q-4 -22 -3 -34q1 -20 5.5 -29.5t18.5 -23.5q21 -20 53.5 -37.5t54 -26t66 -23.5t57.5 -20q99 -37 234 -71q172 -42 241 -70q127 -53 194 -142z" />
    <glyph glyph-name="T" unicode="T" horiz-adv-x="1398" 
d="M1308 1333q42 1 72 -55q30 -55 16 -98q-10 -33 -45 -34l-559 -14q-17 -363 -49 -1089q-3 -64 -45 -65q-36 0 -69 42q-27 35 -25 72q8 173 23.5 518t23.5 518q-93 -2 -280.5 -6.5t-281.5 -6.5q-42 -1 -72 55q-29 55 -15 98q10 33 45 34q210 5 630 15.5t631 15.5z" />
    <glyph glyph-name="U" unicode="U" horiz-adv-x="1740" 
d="M1551 1240q112 -171 135 -374t-52 -394q-52 -128 -147 -228t-214 -158t-251.5 -81t-268.5 -1t-255 85q-128 68 -226.5 175t-153 235t-68.5 264.5t25.5 275.5t129.5 256q29 38 70 -3q38 -39 46 -97q5 -39 -12 -62q-101 -131 -122 -293.5t53 -312.5q62 -120 169 -202.5
t231 -116.5t259 -25t255 63q126 57 220.5 159.5t140.5 223.5t34 258.5t-90 257.5q-19 29 -23.5 64.5t17.5 63.5q17 16 36.5 12.5t35 -16t26.5 -29.5z" />
    <glyph glyph-name="U" unicode="&#xdc;" horiz-adv-x="1740" 
d="M1551 1240q112 -171 135 -374t-52 -394q-52 -128 -147 -228t-214 -158t-251.5 -81t-268.5 -1t-255 85q-128 68 -226.5 175t-153 235t-68.5 264.5t25.5 275.5t129.5 256q29 38 70 -3q38 -39 46 -97q5 -39 -12 -62q-101 -131 -122 -293.5t53 -312.5q62 -120 169 -202.5
t231 -116.5t259 -25t255 63q126 57 220.5 159.5t140.5 223.5t34 258.5t-90 257.5q-19 29 -23.5 64.5t17.5 63.5q17 16 36.5 12.5t35 -16t26.5 -29.5z" />
    <glyph glyph-name="U" unicode="&#xdb;" horiz-adv-x="1740" 
d="M1551 1240q112 -171 135 -374t-52 -394q-52 -128 -147 -228t-214 -158t-251.5 -81t-268.5 -1t-255 85q-128 68 -226.5 175t-153 235t-68.5 264.5t25.5 275.5t129.5 256q29 38 70 -3q38 -39 46 -97q5 -39 -12 -62q-101 -131 -122 -293.5t53 -312.5q62 -120 169 -202.5
t231 -116.5t259 -25t255 63q126 57 220.5 159.5t140.5 223.5t34 258.5t-90 257.5q-19 29 -23.5 64.5t17.5 63.5q17 16 36.5 12.5t35 -16t26.5 -29.5z" />
    <glyph glyph-name="U" unicode="&#xda;" horiz-adv-x="1740" 
d="M1551 1240q112 -171 135 -374t-52 -394q-52 -128 -147 -228t-214 -158t-251.5 -81t-268.5 -1t-255 85q-128 68 -226.5 175t-153 235t-68.5 264.5t25.5 275.5t129.5 256q29 38 70 -3q38 -39 46 -97q5 -39 -12 -62q-101 -131 -122 -293.5t53 -312.5q62 -120 169 -202.5
t231 -116.5t259 -25t255 63q126 57 220.5 159.5t140.5 223.5t34 258.5t-90 257.5q-19 29 -23.5 64.5t17.5 63.5q17 16 36.5 12.5t35 -16t26.5 -29.5z" />
    <glyph glyph-name="U" unicode="&#xd9;" horiz-adv-x="1740" 
d="M1551 1240q112 -171 135 -374t-52 -394q-52 -128 -147 -228t-214 -158t-251.5 -81t-268.5 -1t-255 85q-128 68 -226.5 175t-153 235t-68.5 264.5t25.5 275.5t129.5 256q29 38 70 -3q38 -39 46 -97q5 -39 -12 -62q-101 -131 -122 -293.5t53 -312.5q62 -120 169 -202.5
t231 -116.5t259 -25t255 63q126 57 220.5 159.5t140.5 223.5t34 258.5t-90 257.5q-19 29 -23.5 64.5t17.5 63.5q17 16 36.5 12.5t35 -16t26.5 -29.5z" />
    <glyph glyph-name="V" unicode="V" horiz-adv-x="1513" 
d="M1370 1236q29 48 74 16q40 -29 54 -83q11 -40 -4 -65q-107 -180 -320.5 -541t-320.5 -542q-24 -34 -56 -25t-52 43q-120 198 -360.5 595.5t-360.5 596.5q-11 18 -18 40.5t-5.5 48t17.5 40.5q16 16 35.5 12.5t36 -16t26.5 -29.5q110 -182 330.5 -546.5t330.5 -546.5z" />
    <glyph glyph-name="W" unicode="W" horiz-adv-x="1615" 
d="M1560 1310q25 -26 33.5 -62.5t-2.5 -70.5q-101 -294 -373 -1156q-13 -36 -38.5 -30t-49.5 29t-32 42q-31 78 -93.5 233t-93.5 232q-39 -211 -135 -345q-49 -68 -116.5 -109t-143.5 -37q-150 8 -274 167q-79 102 -123.5 231.5t-52.5 266.5t4 267t44 262q14 59 59 43
q37 -14 63 -62q22 -41 14 -74q-78 -324 -33 -564q10 -52 25 -101t41.5 -100t58.5 -86t78 -52.5t99 -7.5q54 10 101 56.5t78 106.5q85 163 104 457q4 56 50 43q38 -11 66 -48q7 -10 10 -18q35 -88 105.5 -263t105.5 -263q205 654 328 1012q7 21 25.5 25.5t36.5 -3.5t31 -21z
" />
    <glyph glyph-name="X" unicode="X" horiz-adv-x="1509" 
d="M1398 1263q33 20 67 -18.5t37.5 -87t-28.5 -76.5q-399 -242 -729 -600q65 -87 195.5 -259.5t196.5 -258.5q20 -26 24.5 -64.5t-17.5 -64.5q-16 -18 -36 -12.5t-34.5 17t-27.5 28.5l-390 515q-175 -205 -321 -444q-29 -48 -75 -15q-40 28 -55 82q-10 40 5 65
q146 240 333 461l-517 683q-19 25 -23.5 64t17.5 64q16 18 36 12.5t34.5 -17t27.5 -28.5l513 -678q344 375 767 632z" />
    <glyph glyph-name="Y" unicode="Y" horiz-adv-x="1445" 
d="M1317 1175q37 35 80 -10q38 -40 42 -95q3 -38 -18 -57q-105 -98 -314.5 -294t-314.5 -294l39 -450q2 -31 -17 -53.5t-49 -12.5q-32 11 -51 44.5t-22 70.5q-6 74 -19 224t-19 224q-103 111 -308 332.5t-308 332.5q-24 26 -35 62.5t3 70.5q18 28 44.5 26.5t48.5 -25.5
q102 -111 306.5 -331.5t306.5 -330.5q101 94 302.5 283t302.5 283z" />
    <glyph glyph-name="Y" unicode="&#x178;" horiz-adv-x="1445" 
d="M1317 1175q37 35 80 -10q38 -40 42 -95q3 -38 -18 -57q-105 -98 -314.5 -294t-314.5 -294l39 -450q2 -31 -17 -53.5t-49 -12.5q-32 11 -51 44.5t-22 70.5q-6 74 -19 224t-19 224q-103 111 -308 332.5t-308 332.5q-24 26 -35 62.5t3 70.5q18 28 44.5 26.5t48.5 -25.5
q102 -111 306.5 -331.5t306.5 -330.5q101 94 302.5 283t302.5 283z" />
    <glyph glyph-name="Y" unicode="&#xdd;" horiz-adv-x="1445" 
d="M1317 1175q37 35 80 -10q38 -40 42 -95q3 -38 -18 -57q-105 -98 -314.5 -294t-314.5 -294l39 -450q2 -31 -17 -53.5t-49 -12.5q-32 11 -51 44.5t-22 70.5q-6 74 -19 224t-19 224q-103 111 -308 332.5t-308 332.5q-24 26 -35 62.5t3 70.5q18 28 44.5 26.5t48.5 -25.5
q102 -111 306.5 -331.5t306.5 -330.5q101 94 302.5 283t302.5 283z" />
    <glyph glyph-name="Z" unicode="Z" horiz-adv-x="1443" 
d="M1347 167q43 -1 72 -58q30 -57 15 -100q-10 -31 -44 -30q-207 3 -620.5 10t-619.5 11q-33 0 -60 34.5t-31 73.5t18 67q155 154 463.5 460t462.5 460l63 63q1 0 2 2l1 2q-49 -2 -147.5 -5t-147.5 -4q-110 -3 -330.5 -9.5t-330.5 -10.5q-43 -1 -73 56q-29 56 -15 99
q11 32 45 33q129 4 387.5 11.5t388.5 11.5q32 1 95.5 3t95.5 3q30 2 69 0.5t68 -12.5q72 -28 97.5 -107.5t-16.5 -143.5q-11 -17 -27.5 -35.5t-29 -30.5t-33.5 -31.5t-31 -29.5q-24 -24 -72 -71.5t-72 -71.5l-269 -268q-61 -61 -183.5 -182.5t-184.5 -182.5
q166 -3 497.5 -8.5t496.5 -8.5z" />
    <glyph glyph-name="bracketleft" unicode="[" horiz-adv-x="1001" 
d="M802 43q43 0 72 -57t14 -100q-11 -31 -44 -31q-90 -1 -269.5 -1h-269.5q-36 0 -64.5 41t-26.5 77q48 860 -194 1684q-9 29 2.5 61t42.5 32q89 1 266 2t266 1q43 0 72 -57q30 -57 15 -100q-11 -31 -44 -31q-77 0 -231.5 -1t-231.5 -1q206 -748 180 -1520q74 0 222.5 0.5
t222.5 0.5z" />
    <glyph glyph-name="bracketright" unicode="]" horiz-adv-x="901" 
d="M715 1791q45 -2 69 -48t21 -93q-67 -865 -4 -1757q2 -34 -16 -53.5t-50 -12.5q-77 15 -231.5 46t-232.5 47q-40 8 -61 64q-23 59 -2 96q17 29 56 21q65 -13 196 -39.5t197 -39.5q-49 781 3 1585q-77 3 -230.5 9.5t-230.5 9.5q-43 2 -72 60q-29 57 -14 99q11 30 44 29
q93 -4 279 -11.5t279 -11.5z" />
    <glyph glyph-name="a" unicode="a" horiz-adv-x="1081" 
d="M992 650q25 -161 16 -438q-2 -59 -39 -67t-75 43q-200 -134 -432 -159q-284 -30 -386 129q-34 52 -40 113.5t18 118.5q39 88 153 134q117 47 236 45t228.5 -45t201.5 -122q2 114 -8 210q-4 40 -8 65t-13 63.5t-26 66.5t-41 46q-48 36 -118.5 37.5t-123.5 -24.5
q-117 -50 -207 -189q-31 -48 -78 -13q-40 29 -53 83q-9 38 6 62q121 186 268 243q80 33 171.5 24t162.5 -60q145 -104 187 -366zM173 244zM434 218q155 19 303 101q-81 43 -162 56q-111 17 -215 -8q-130 -31 -171 -89l-15 -30v-2q24 -18 53 -25q73 -19 207 -3z" />
    <glyph glyph-name="a" unicode="&#xe5;" horiz-adv-x="1081" 
d="M992 650q25 -161 16 -438q-2 -59 -39 -67t-75 43q-200 -134 -432 -159q-284 -30 -386 129q-34 52 -40 113.5t18 118.5q39 88 153 134q117 47 236 45t228.5 -45t201.5 -122q2 114 -8 210q-4 40 -8 65t-13 63.5t-26 66.5t-41 46q-48 36 -118.5 37.5t-123.5 -24.5
q-117 -50 -207 -189q-31 -48 -78 -13q-40 29 -53 83q-9 38 6 62q121 186 268 243q80 33 171.5 24t162.5 -60q145 -104 187 -366zM173 244zM434 218q155 19 303 101q-81 43 -162 56q-111 17 -215 -8q-130 -31 -171 -89l-15 -30v-2q24 -18 53 -25q73 -19 207 -3z" />
    <glyph glyph-name="a" unicode="&#xe4;" horiz-adv-x="1081" 
d="M992 650q25 -161 16 -438q-2 -59 -39 -67t-75 43q-200 -134 -432 -159q-284 -30 -386 129q-34 52 -40 113.5t18 118.5q39 88 153 134q117 47 236 45t228.5 -45t201.5 -122q2 114 -8 210q-4 40 -8 65t-13 63.5t-26 66.5t-41 46q-48 36 -118.5 37.5t-123.5 -24.5
q-117 -50 -207 -189q-31 -48 -78 -13q-40 29 -53 83q-9 38 6 62q121 186 268 243q80 33 171.5 24t162.5 -60q145 -104 187 -366zM173 244zM434 218q155 19 303 101q-81 43 -162 56q-111 17 -215 -8q-130 -31 -171 -89l-15 -30v-2q24 -18 53 -25q73 -19 207 -3z" />
    <glyph glyph-name="a" unicode="&#xe3;" horiz-adv-x="1081" 
d="M992 650q25 -161 16 -438q-2 -59 -39 -67t-75 43q-200 -134 -432 -159q-284 -30 -386 129q-34 52 -40 113.5t18 118.5q39 88 153 134q117 47 236 45t228.5 -45t201.5 -122q2 114 -8 210q-4 40 -8 65t-13 63.5t-26 66.5t-41 46q-48 36 -118.5 37.5t-123.5 -24.5
q-117 -50 -207 -189q-31 -48 -78 -13q-40 29 -53 83q-9 38 6 62q121 186 268 243q80 33 171.5 24t162.5 -60q145 -104 187 -366zM173 244zM434 218q155 19 303 101q-81 43 -162 56q-111 17 -215 -8q-130 -31 -171 -89l-15 -30v-2q24 -18 53 -25q73 -19 207 -3z" />
    <glyph glyph-name="a" unicode="&#xe2;" horiz-adv-x="1081" 
d="M992 650q25 -161 16 -438q-2 -59 -39 -67t-75 43q-200 -134 -432 -159q-284 -30 -386 129q-34 52 -40 113.5t18 118.5q39 88 153 134q117 47 236 45t228.5 -45t201.5 -122q2 114 -8 210q-4 40 -8 65t-13 63.5t-26 66.5t-41 46q-48 36 -118.5 37.5t-123.5 -24.5
q-117 -50 -207 -189q-31 -48 -78 -13q-40 29 -53 83q-9 38 6 62q121 186 268 243q80 33 171.5 24t162.5 -60q145 -104 187 -366zM173 244zM434 218q155 19 303 101q-81 43 -162 56q-111 17 -215 -8q-130 -31 -171 -89l-15 -30v-2q24 -18 53 -25q73 -19 207 -3z" />
    <glyph glyph-name="a" unicode="&#xe1;" horiz-adv-x="1081" 
d="M992 650q25 -161 16 -438q-2 -59 -39 -67t-75 43q-200 -134 -432 -159q-284 -30 -386 129q-34 52 -40 113.5t18 118.5q39 88 153 134q117 47 236 45t228.5 -45t201.5 -122q2 114 -8 210q-4 40 -8 65t-13 63.5t-26 66.5t-41 46q-48 36 -118.5 37.5t-123.5 -24.5
q-117 -50 -207 -189q-31 -48 -78 -13q-40 29 -53 83q-9 38 6 62q121 186 268 243q80 33 171.5 24t162.5 -60q145 -104 187 -366zM173 244zM434 218q155 19 303 101q-81 43 -162 56q-111 17 -215 -8q-130 -31 -171 -89l-15 -30v-2q24 -18 53 -25q73 -19 207 -3z" />
    <glyph glyph-name="a" unicode="&#xe0;" horiz-adv-x="1081" 
d="M992 650q25 -161 16 -438q-2 -59 -39 -67t-75 43q-200 -134 -432 -159q-284 -30 -386 129q-34 52 -40 113.5t18 118.5q39 88 153 134q117 47 236 45t228.5 -45t201.5 -122q2 114 -8 210q-4 40 -8 65t-13 63.5t-26 66.5t-41 46q-48 36 -118.5 37.5t-123.5 -24.5
q-117 -50 -207 -189q-31 -48 -78 -13q-40 29 -53 83q-9 38 6 62q121 186 268 243q80 33 171.5 24t162.5 -60q145 -104 187 -366zM173 244zM434 218q155 19 303 101q-81 43 -162 56q-111 17 -215 -8q-130 -31 -171 -89l-15 -30v-2q24 -18 53 -25q73 -19 207 -3z" />
    <glyph glyph-name="b" unicode="b" horiz-adv-x="1292" 
d="M1248 293q15 -54 5 -118t-49 -106q-55 -60 -181 -81q-62 -10 -129 -11.5t-138.5 6t-127.5 16.5t-133 24q-260 50 -391 105q-32 14 -51.5 46.5t-21.5 68.5q-1 31 17 54.5t48 11.5q72 -31 170 -56q-4 16 -5 23q-3 24 -8.5 71t-7.5 70q-24 1 -47.5 26.5t-35.5 57t-7 61.5
t33 39q11 4 35 10q-3 29 -10 87t-10 86q-26 32 -32.5 75t15.5 69l-4 33q-3 31 16.5 53.5t49.5 12.5q30 -11 50 -44q156 61 312 70q113 7 193 -42t118 -153q51 -145 -26 -249q64 -18 118.5 -45t103 -64.5t83 -90.5t48.5 -116zM336 785q3 -24 8 -72.5t8 -72.5q118 18 235 14
q84 24 141 58q47 29 68 65q2 4 6 15q2 6 2 11v1q1 12 -7 27q-4 7 -7 13q-1 1 -3 2.5l-4 3t-3 1.5q-22 10 -48 13q-68 9 -172 -11q-123 -25 -224 -68zM1114 252q3 9 3 11q1 3 1 7q0 2 -0.5 8t-0.5 7l-5 19q-7 21 -32 41q-35 29 -85 51q-104 45 -238 60q-40 5 -122 9
q-33 -9 -116 -24q-72 -12 -141 -18q15 -138 22 -196v-6q15 -3 44 -8.5t44 -8.5q287 -55 466 -32q96 12 137 50q14 14 19 21q2 3 4 9z" />
    <glyph glyph-name="c" unicode="c" horiz-adv-x="1134" 
d="M1002 388q22 10 45 -1.5t37.5 -36.5t22.5 -53t0.5 -53.5t-29.5 -36.5q-299 -143 -628 -138q-167 2 -255 55q-59 36 -95.5 99t-47.5 136q-18 120 26.5 236.5t136.5 197.5q57 50 128 82.5t150.5 40.5t148.5 -27q46 -23 80.5 -68.5t48 -99.5t9.5 -106.5t-38.5 -93.5
t-94.5 -56q-31 -8 -56.5 12.5t-39.5 53.5q-7 17 -10.5 40t3.5 46.5t27 28.5q22 5 52.5 26.5t20.5 37.5q-9 14 -72 18q-46 1 -93 -11q-76 -21 -140.5 -69.5t-103.5 -115.5q-21 -37 -37 -79.5t-14.5 -93t37.5 -71.5q7 -4 15.5 -7.5t15.5 -6.5t17 -5t16.5 -3.5t18 -3t17 -2
t18.5 -1.5t16.5 -1t18 -0.5t16.5 -0.5q107 -3 208 10q206 26 404 121z" />
    <glyph glyph-name="c" unicode="&#xe7;" horiz-adv-x="1134" 
d="M1002 388q22 10 45 -1.5t37.5 -36.5t22.5 -53t0.5 -53.5t-29.5 -36.5q-299 -143 -628 -138q-167 2 -255 55q-59 36 -95.5 99t-47.5 136q-18 120 26.5 236.5t136.5 197.5q57 50 128 82.5t150.5 40.5t148.5 -27q46 -23 80.5 -68.5t48 -99.5t9.5 -106.5t-38.5 -93.5
t-94.5 -56q-31 -8 -56.5 12.5t-39.5 53.5q-7 17 -10.5 40t3.5 46.5t27 28.5q22 5 52.5 26.5t20.5 37.5q-9 14 -72 18q-46 1 -93 -11q-76 -21 -140.5 -69.5t-103.5 -115.5q-21 -37 -37 -79.5t-14.5 -93t37.5 -71.5q7 -4 15.5 -7.5t15.5 -6.5t17 -5t16.5 -3.5t18 -3t17 -2
t18.5 -1.5t16.5 -1t18 -0.5t16.5 -0.5q107 -3 208 10q206 26 404 121z" />
    <glyph glyph-name="d" unicode="d" horiz-adv-x="1077" 
d="M874 1582q1 65 42 65q37 0 70 -42q27 -35 27 -72q-3 -221 -13 -662.5t-14 -661.5q-1 -63 -43 -65q-37 -1 -69 38q-20 24 -24 52q-18 123 -79 228t-160 165q-82 50 -182 54t-182 -50q-46 -34 -60 -78q-13 -36 -2 -77l3 -7q2 -7 5 -13l3 -6q11 -20 27 -36q37 -39 99 -60
q150 -50 371 42q23 9 46 -3t37.5 -37.5t22.5 -53.5t0.5 -53.5t-30.5 -34.5q-315 -132 -529 2q-74 47 -125.5 129.5t-67 171t19.5 174t122 133.5q78 42 172 44t179 -30t155 -89q91 -73 159 -177q14 680 20 1010z" />
    <glyph glyph-name="e" unicode="e" horiz-adv-x="1161" 
d="M1023 425q23 8 46.5 -5t38 -38.5t22 -53.5t0 -52t-30.5 -32q-213 -77 -434 -90q-126 -8 -226 2.5t-181 55.5q-136 77 -173 244q-27 24 -41.5 66t-5 74t43.5 29q16 96 64 167q82 125 252 214q193 101 349 61q56 -15 104 -51t79.5 -83t46 -102.5t9 -108.5t-36 -102.5
t-85.5 -82.5q-45 -27 -110.5 -46.5t-105 -26t-119.5 -17.5q-147 -21 -303 -16l3 -9q40 -67 193 -79q299 -25 601 82zM397 779q-104 -73 -151 -160q110 0 204 11q203 24 302 70q46 21 79.5 57t13.5 74q-15 29 -51.5 44.5t-73.5 16t-69 -2.5q-117 -16 -254 -110z" />
    <glyph glyph-name="e" unicode="&#xeb;" horiz-adv-x="1161" 
d="M1023 425q23 8 46.5 -5t38 -38.5t22 -53.5t0 -52t-30.5 -32q-213 -77 -434 -90q-126 -8 -226 2.5t-181 55.5q-136 77 -173 244q-27 24 -41.5 66t-5 74t43.5 29q16 96 64 167q82 125 252 214q193 101 349 61q56 -15 104 -51t79.5 -83t46 -102.5t9 -108.5t-36 -102.5
t-85.5 -82.5q-45 -27 -110.5 -46.5t-105 -26t-119.5 -17.5q-147 -21 -303 -16l3 -9q40 -67 193 -79q299 -25 601 82zM397 779q-104 -73 -151 -160q110 0 204 11q203 24 302 70q46 21 79.5 57t13.5 74q-15 29 -51.5 44.5t-73.5 16t-69 -2.5q-117 -16 -254 -110z" />
    <glyph glyph-name="e" unicode="&#xea;" horiz-adv-x="1161" 
d="M1023 425q23 8 46.5 -5t38 -38.5t22 -53.5t0 -52t-30.5 -32q-213 -77 -434 -90q-126 -8 -226 2.5t-181 55.5q-136 77 -173 244q-27 24 -41.5 66t-5 74t43.5 29q16 96 64 167q82 125 252 214q193 101 349 61q56 -15 104 -51t79.5 -83t46 -102.5t9 -108.5t-36 -102.5
t-85.5 -82.5q-45 -27 -110.5 -46.5t-105 -26t-119.5 -17.5q-147 -21 -303 -16l3 -9q40 -67 193 -79q299 -25 601 82zM397 779q-104 -73 -151 -160q110 0 204 11q203 24 302 70q46 21 79.5 57t13.5 74q-15 29 -51.5 44.5t-73.5 16t-69 -2.5q-117 -16 -254 -110z" />
    <glyph glyph-name="e" unicode="&#xe9;" horiz-adv-x="1161" 
d="M1023 425q23 8 46.5 -5t38 -38.5t22 -53.5t0 -52t-30.5 -32q-213 -77 -434 -90q-126 -8 -226 2.5t-181 55.5q-136 77 -173 244q-27 24 -41.5 66t-5 74t43.5 29q16 96 64 167q82 125 252 214q193 101 349 61q56 -15 104 -51t79.5 -83t46 -102.5t9 -108.5t-36 -102.5
t-85.5 -82.5q-45 -27 -110.5 -46.5t-105 -26t-119.5 -17.5q-147 -21 -303 -16l3 -9q40 -67 193 -79q299 -25 601 82zM397 779q-104 -73 -151 -160q110 0 204 11q203 24 302 70q46 21 79.5 57t13.5 74q-15 29 -51.5 44.5t-73.5 16t-69 -2.5q-117 -16 -254 -110z" />
    <glyph glyph-name="e" unicode="&#xe8;" horiz-adv-x="1161" 
d="M1023 425q23 8 46.5 -5t38 -38.5t22 -53.5t0 -52t-30.5 -32q-213 -77 -434 -90q-126 -8 -226 2.5t-181 55.5q-136 77 -173 244q-27 24 -41.5 66t-5 74t43.5 29q16 96 64 167q82 125 252 214q193 101 349 61q56 -15 104 -51t79.5 -83t46 -102.5t9 -108.5t-36 -102.5
t-85.5 -82.5q-45 -27 -110.5 -46.5t-105 -26t-119.5 -17.5q-147 -21 -303 -16l3 -9q40 -67 193 -79q299 -25 601 82zM397 779q-104 -73 -151 -160q110 0 204 11q203 24 302 70q46 21 79.5 57t13.5 74q-15 29 -51.5 44.5t-73.5 16t-69 -2.5q-117 -16 -254 -110z" />
    <glyph glyph-name="f" unicode="f" horiz-adv-x="649" 
d="M411 1228h-1q60 -3 112.5 -46.5t78.5 -106t31 -127.5t-28 -119t-99 -74q-39 -12 -74 30.5t-35.5 87.5t33.5 63q38 11 54 29l10 17q-2 -4 -3 -4q-2 1 4 11v9v8q0 -2 -3 1q0 1 -1 2q-1 4 0 4q-3 3 -6 7l-9 9q-1 1 -3.5 3t-4.5 3l-3 1q-3 2 -7 3.5t-6 1.5q-14 0 -18 -2
q-13 -5 -17 -9q-20 -13 -38 -46t-25 -54t-19 -60q-28 -97 -38 -208q17 0 51.5 2t51.5 2q24 1 52 -27q25 -25 36 -68q8 -31 -3 -61.5t-42 -31.5l-147 -5q12 -210 85 -472q9 -30 -2.5 -61t-42.5 -32q-32 -1 -54.5 28.5t-33.5 65.5q-64 230 -84 451q0 3 -0.5 8.5t-0.5 7.5
q-8 0 -22.5 -0.5t-22.5 -0.5q-24 -1 -52 27q-24 24 -35 67q-8 31 3 61.5t42 31.5l80 3q3 164 41 298q10 35 17 57t21 59t29.5 61t37 49t49.5 36.5t61 9.5z" />
    <glyph glyph-name="g" unicode="g" horiz-adv-x="1210" 
d="M1088 282q43 2 72 -55q29 -55 15 -99q-11 -33 -45 -34q-145 -7 -266 -27q-28 -81 -49 -139q-78 -204 -148 -319q-89 -149 -183 -199q-80 -38 -154 -15.5t-130 85.5t-74 139q-27 114 20.5 225.5t143.5 192.5q176 148 466 206q26 80 39 121q-80 -50 -162 -81
q-248 -94 -407 -23q-101 45 -156.5 154t-20.5 211q21 62 77 107.5t116.5 66.5t131.5 32q130 20 261 -10t240 -104q5 -4 15 -14q31 41 46 71q28 51 72 16q39 -30 53 -88q9 -36 -1 -59q-50 -118 -131 -374q92 10 159 13zM306 420q120 -9 247 38t230 133q-178 88 -378 50
q-76 -15 -142 -49t-86 -88q-4 -11 -1 -17l2 -4q-2 4 1 -1q8 -14 9 -16t11 -12q34 -28 107 -34zM493 -331q102 125 187 355q-199 -62 -318 -178q-41 -39 -65 -79q-7 -11 -22 -43q-2 -4 -5.5 -11.5t-4.5 -11.5q-1 -3 -1 -4t-1 -3q-4 -14 -8 -42v-2q0 -3 0.5 -9t0.5 -9v-2v-2
l3 -12v-1q4 -6 5 -8l4 -4l1 -2l2 -1l4 -2q40 -24 72 -24q68 -1 146 95z" />
    <glyph glyph-name="h" unicode="h" horiz-adv-x="1101" 
d="M993 925q25 -20 39.5 -56t6.5 -65q-1 -3 -3 -9.5t-3 -9.5q-98 -280 -20 -575q8 -31 -3 -62.5t-42 -31.5q-32 0 -55.5 30t-32.5 65q-34 132 -39 268q-69 -61 -143 -96q-106 -49 -226.5 -53.5t-229.5 33.5l2 -70q9 -75 4 -158v-10v1v-11.5t-1 -11.5q-3 -29 -25.5 -40.5
t-47.5 1.5q-28 13 -45.5 45.5t-18.5 65.5q0 29 -2 87.5t-3 87.5q-11 71 -35 128q-14 31 -6.5 70.5t35.5 45.5q-1 46 -3.5 139t-3.5 140q-1 32 17 54t49 12q31 -11 51.5 -46t21.5 -70q1 -47 3.5 -140.5t3.5 -140.5q83 -24 165.5 -24.5t162.5 28.5t146.5 75.5t116.5 117.5
t73 154q4 16 7 24q7 19 23 24.5t32 0t29 -16.5z" />
    <glyph glyph-name="i" unicode="i" horiz-adv-x="854" 
d="M832 159q8 -34 -2.5 -60.5t-41.5 -32.5q-157 -28 -265 38q-98 60 -136 176.5t-22 240.5q11 86 45 168q-115 -25 -280 -78q-30 -10 -56.5 12t-39.5 54q-13 21 -11 63.5t31 51.5q332 105 532 117q24 1 46.5 -19.5t35 -49t11.5 -59t-19 -46.5q-40 -35 -68 -73q-1 -1 -5 -8
l-4 -6q-10 -15 -11 -17q-13 -24 -23 -44q-9 -18 -19 -43q-6 -14 -8 -21q-1 -1 -2.5 -7t-1.5 -7q-3 -12 -5 -18q-1 -3 -2.5 -10t-2.5 -11q-3 -14 -7 -42l-3 -24v-1v-4q0 -26 1 -40q0 -7 2 -15q1 -3 1 -8q0 -3 2 -9t2 -9q1 -3 3.5 -8t3.5 -8q6 -8 8 -12h1q1 -1 3.5 -4t4.5 -5
q3 -2 7 -6q2 -2 16 -10l4 -2q14 -6 42 -14q4 -1 6 -1q0 -1 4 -1q16 -2 23 -2q55 -3 113 8q29 5 54.5 -28.5t32.5 -65.5zM574 1120q-26 16 -44 57q-17 39 -10 71q8 38 23.5 115t23.5 116q7 32 30 44q20 10 52 -9q26 -16 44 -57q17 -39 10 -71q-8 -39 -23.5 -116t-23.5 -115
q-7 -32 -30 -44q-20 -10 -52 9z" />
    <glyph glyph-name="i" unicode="&#xef;" horiz-adv-x="854" 
d="M832 159q8 -34 -2.5 -60.5t-41.5 -32.5q-157 -28 -265 38q-98 60 -136 176.5t-22 240.5q11 86 45 168q-115 -25 -280 -78q-30 -10 -56.5 12t-39.5 54q-13 21 -11 63.5t31 51.5q332 105 532 117q24 1 46.5 -19.5t35 -49t11.5 -59t-19 -46.5q-40 -35 -68 -73q-1 -1 -5 -8
l-4 -6q-10 -15 -11 -17q-13 -24 -23 -44q-9 -18 -19 -43q-6 -14 -8 -21q-1 -1 -2.5 -7t-1.5 -7q-3 -12 -5 -18q-1 -3 -2.5 -10t-2.5 -11q-3 -14 -7 -42l-3 -24v-1v-4q0 -26 1 -40q0 -7 2 -15q1 -3 1 -8q0 -3 2 -9t2 -9q1 -3 3.5 -8t3.5 -8q6 -8 8 -12h1q1 -1 3.5 -4t4.5 -5
q3 -2 7 -6q2 -2 16 -10l4 -2q14 -6 42 -14q4 -1 6 -1q0 -1 4 -1q16 -2 23 -2q55 -3 113 8q29 5 54.5 -28.5t32.5 -65.5zM574 1120q-26 16 -44 57q-17 39 -10 71q8 38 23.5 115t23.5 116q7 32 30 44q20 10 52 -9q26 -16 44 -57q17 -39 10 -71q-8 -39 -23.5 -116t-23.5 -115
q-7 -32 -30 -44q-20 -10 -52 9z" />
    <glyph glyph-name="i" unicode="&#xee;" horiz-adv-x="854" 
d="M832 159q8 -34 -2.5 -60.5t-41.5 -32.5q-157 -28 -265 38q-98 60 -136 176.5t-22 240.5q11 86 45 168q-115 -25 -280 -78q-30 -10 -56.5 12t-39.5 54q-13 21 -11 63.5t31 51.5q332 105 532 117q24 1 46.5 -19.5t35 -49t11.5 -59t-19 -46.5q-40 -35 -68 -73q-1 -1 -5 -8
l-4 -6q-10 -15 -11 -17q-13 -24 -23 -44q-9 -18 -19 -43q-6 -14 -8 -21q-1 -1 -2.5 -7t-1.5 -7q-3 -12 -5 -18q-1 -3 -2.5 -10t-2.5 -11q-3 -14 -7 -42l-3 -24v-1v-4q0 -26 1 -40q0 -7 2 -15q1 -3 1 -8q0 -3 2 -9t2 -9q1 -3 3.5 -8t3.5 -8q6 -8 8 -12h1q1 -1 3.5 -4t4.5 -5
q3 -2 7 -6q2 -2 16 -10l4 -2q14 -6 42 -14q4 -1 6 -1q0 -1 4 -1q16 -2 23 -2q55 -3 113 8q29 5 54.5 -28.5t32.5 -65.5zM574 1120q-26 16 -44 57q-17 39 -10 71q8 38 23.5 115t23.5 116q7 32 30 44q20 10 52 -9q26 -16 44 -57q17 -39 10 -71q-8 -39 -23.5 -116t-23.5 -115
q-7 -32 -30 -44q-20 -10 -52 9z" />
    <glyph glyph-name="i" unicode="&#xed;" horiz-adv-x="854" 
d="M832 159q8 -34 -2.5 -60.5t-41.5 -32.5q-157 -28 -265 38q-98 60 -136 176.5t-22 240.5q11 86 45 168q-115 -25 -280 -78q-30 -10 -56.5 12t-39.5 54q-13 21 -11 63.5t31 51.5q332 105 532 117q24 1 46.5 -19.5t35 -49t11.5 -59t-19 -46.5q-40 -35 -68 -73q-1 -1 -5 -8
l-4 -6q-10 -15 -11 -17q-13 -24 -23 -44q-9 -18 -19 -43q-6 -14 -8 -21q-1 -1 -2.5 -7t-1.5 -7q-3 -12 -5 -18q-1 -3 -2.5 -10t-2.5 -11q-3 -14 -7 -42l-3 -24v-1v-4q0 -26 1 -40q0 -7 2 -15q1 -3 1 -8q0 -3 2 -9t2 -9q1 -3 3.5 -8t3.5 -8q6 -8 8 -12h1q1 -1 3.5 -4t4.5 -5
q3 -2 7 -6q2 -2 16 -10l4 -2q14 -6 42 -14q4 -1 6 -1q0 -1 4 -1q16 -2 23 -2q55 -3 113 8q29 5 54.5 -28.5t32.5 -65.5zM574 1120q-26 16 -44 57q-17 39 -10 71q8 38 23.5 115t23.5 116q7 32 30 44q20 10 52 -9q26 -16 44 -57q17 -39 10 -71q-8 -39 -23.5 -116t-23.5 -115
q-7 -32 -30 -44q-20 -10 -52 9z" />
    <glyph glyph-name="i" unicode="&#xec;" horiz-adv-x="854" 
d="M832 159q8 -34 -2.5 -60.5t-41.5 -32.5q-157 -28 -265 38q-98 60 -136 176.5t-22 240.5q11 86 45 168q-115 -25 -280 -78q-30 -10 -56.5 12t-39.5 54q-13 21 -11 63.5t31 51.5q332 105 532 117q24 1 46.5 -19.5t35 -49t11.5 -59t-19 -46.5q-40 -35 -68 -73q-1 -1 -5 -8
l-4 -6q-10 -15 -11 -17q-13 -24 -23 -44q-9 -18 -19 -43q-6 -14 -8 -21q-1 -1 -2.5 -7t-1.5 -7q-3 -12 -5 -18q-1 -3 -2.5 -10t-2.5 -11q-3 -14 -7 -42l-3 -24v-1v-4q0 -26 1 -40q0 -7 2 -15q1 -3 1 -8q0 -3 2 -9t2 -9q1 -3 3.5 -8t3.5 -8q6 -8 8 -12h1q1 -1 3.5 -4t4.5 -5
q3 -2 7 -6q2 -2 16 -10l4 -2q14 -6 42 -14q4 -1 6 -1q0 -1 4 -1q16 -2 23 -2q55 -3 113 8q29 5 54.5 -28.5t32.5 -65.5zM574 1120q-26 16 -44 57q-17 39 -10 71q8 38 23.5 115t23.5 116q7 32 30 44q20 10 52 -9q26 -16 44 -57q17 -39 10 -71q-8 -39 -23.5 -116t-23.5 -115
q-7 -32 -30 -44q-20 -10 -52 9z" />
    <glyph glyph-name="j" unicode="j" horiz-adv-x="331" 
d="M254 79q5 -97 -6.5 -173t-53.5 -138q-42 -61 -109.5 -93t-138.5 -20q-34 6 -56.5 32t-30.5 62q-6 30 4 64.5t41 29.5q62 -11 116 19t78 89q12 30 17 71t4.5 65t-4.5 79.5t-5 66.5q-6 108 -17.5 323.5t-16.5 322.5q-2 32 16.5 54t49.5 12q32 -10 51.5 -45t21.5 -71
q4 -83 12.5 -236t15 -278t11.5 -236zM48 1115q-18 28 -23 72q-3 38 -11 114l-12 114q-3 32 18 57q17 18 48 9q26 -8 50 -43q18 -28 23 -72q4 -38 11 -114t11 -114q3 -33 -17 -56q-18 -19 -48 -10q-26 8 -50 43z" />
    <glyph glyph-name="k" unicode="k" horiz-adv-x="1044" 
d="M938 261q31 -11 51 -45.5t21 -69.5q1 -32 -16.5 -54t-48.5 -12q-331 113 -622 313l-48 -12q-6 -1 -17 -1l24 -189q4 -32 -16 -53.5t-50 -12.5q-32 10 -50.5 43t-22.5 72q-28 232 -157 1159q-1 19 -1.5 39t11 37t34.5 17q31 1 57.5 -30.5t30.5 -63.5q11 -77 52.5 -372
t62.5 -455q344 85 592 291q34 28 73 -4t47.5 -80t-16.5 -78q-185 -154 -417 -245q209 -121 426 -194z" />
    <glyph glyph-name="l" unicode="l" horiz-adv-x="606" 
d="M462 356q33 36 75 -6q39 -38 45 -94q5 -40 -15 -62q-34 -37 -72.5 -65.5t-83 -47t-93.5 -17t-93 26.5q-89 50 -128.5 154t-32.5 219q4 73 16 153.5t31.5 185t27.5 152.5q14 83 40.5 248.5t39.5 247.5q5 33 30 43t52 -8q29 -18 44 -56t10 -73q-20 -126 -61 -377.5
t-62 -377.5q-25 -153 -28 -187q-6 -29 -3 -74t24 -68q19 -22 46.5 -25t53.5 7t54 29t47.5 36.5t35.5 35.5z" />
    <glyph glyph-name="m" unicode="m" horiz-adv-x="1265" 
d="M1165 382q40 -11 61 -71q22 -60 1 -95q-17 -26 -54 -16q-47 13 -82.5 45.5t-55.5 77t-31 89t-15 93.5q-2 23 -7 131l-78 -123q-4 -6 -25 -40t-29 -46t-29 -39t-36.5 -39t-39.5 -24.5t-49 -15.5q-20 -3 -41 1t-37 9t-38 20t-33 23t-33.5 30.5l-29 29t-29.5 33t-25 28.5
q-56 64 -127 161q-23 -68 -68.5 -204.5t-68.5 -204.5q-5 -16 -17.5 -22.5t-26.5 -4t-27.5 9.5t-22.5 16q-25 26 -33.5 62t2.5 71q28 83 84.5 250.5t84.5 251.5q9 28 32 28.5t44 -14.5t32 -32q83 -130 161 -220q6 -7 16.5 -20t19 -23.5t21.5 -25.5t23.5 -24.5t25 -20.5
t26 -14t26.5 -5.5t27 5.5q24 11 48.5 38t39.5 51.5t36 62t30 51.5q28 43 82.5 129t81.5 129q28 37 57 25t52 -48.5t23 -66.5q0 -178 6 -297q8 -125 11 -148q3 -15 3.5 -19.5t4 -11.5t9.5 -10t17 -6z" />
    <glyph glyph-name="n" unicode="n" horiz-adv-x="985" 
d="M824 904q31 48 78 13q40 -29 53 -83q9 -38 -7 -62q-143 -220 -156 -459q-3 -50 -32.5 -63t-67.5 21q-77 68 -230.5 205t-229.5 206q-5 -79 -17 -235t-17 -235q-2 -32 -29.5 -42t-52.5 8q-29 20 -42.5 55t-11.5 73q7 95 21 285.5t21 285.5q2 29 20 38.5t39.5 3t38.5 -21.5
q78 -69 232 -207t232 -207q36 233 158 421z" />
    <glyph glyph-name="n" unicode="&#xf1;" horiz-adv-x="985" 
d="M824 904q31 48 78 13q40 -29 53 -83q9 -38 -7 -62q-143 -220 -156 -459q-3 -50 -32.5 -63t-67.5 21q-77 68 -230.5 205t-229.5 206q-5 -79 -17 -235t-17 -235q-2 -32 -29.5 -42t-52.5 8q-29 20 -42.5 55t-11.5 73q7 95 21 285.5t21 285.5q2 29 20 38.5t39.5 3t38.5 -21.5
q78 -69 232 -207t232 -207q36 233 158 421z" />
    <glyph glyph-name="o" unicode="o" horiz-adv-x="1017" 
d="M951 668q47 -133 -5.5 -260.5t-178.5 -193.5q-118 -63 -262 -55.5t-254 83.5q-116 81 -171 216.5t-20 270.5q34 129 140 208t238 72q47 -3 77 -72q137 -5 224 -45q159 -74 212 -224zM820 532q17 43 14 81l-2 16q-2 10 -14 27q-24 33 -63 53.5t-92.5 28.5t-90 10.5
t-93.5 2.5h-14q-45 0 -74 60q-77 -19 -132 -73t-69 -131q-8 -38 -1 -75q6 -36 21 -56q45 -68 116 -98q92 -39 195 -31t189 59q78 47 110 126z" />
    <glyph glyph-name="o" unicode="&#xf8;" horiz-adv-x="1017" 
d="M951 668q47 -133 -5.5 -260.5t-178.5 -193.5q-118 -63 -262 -55.5t-254 83.5q-116 81 -171 216.5t-20 270.5q34 129 140 208t238 72q47 -3 77 -72q137 -5 224 -45q159 -74 212 -224zM820 532q17 43 14 81l-2 16q-2 10 -14 27q-24 33 -63 53.5t-92.5 28.5t-90 10.5
t-93.5 2.5h-14q-45 0 -74 60q-77 -19 -132 -73t-69 -131q-8 -38 -1 -75q6 -36 21 -56q45 -68 116 -98q92 -39 195 -31t189 59q78 47 110 126z" />
    <glyph glyph-name="o" unicode="&#xf6;" horiz-adv-x="1017" 
d="M951 668q47 -133 -5.5 -260.5t-178.5 -193.5q-118 -63 -262 -55.5t-254 83.5q-116 81 -171 216.5t-20 270.5q34 129 140 208t238 72q47 -3 77 -72q137 -5 224 -45q159 -74 212 -224zM820 532q17 43 14 81l-2 16q-2 10 -14 27q-24 33 -63 53.5t-92.5 28.5t-90 10.5
t-93.5 2.5h-14q-45 0 -74 60q-77 -19 -132 -73t-69 -131q-8 -38 -1 -75q6 -36 21 -56q45 -68 116 -98q92 -39 195 -31t189 59q78 47 110 126z" />
    <glyph glyph-name="o" unicode="&#xf5;" horiz-adv-x="1017" 
d="M951 668q47 -133 -5.5 -260.5t-178.5 -193.5q-118 -63 -262 -55.5t-254 83.5q-116 81 -171 216.5t-20 270.5q34 129 140 208t238 72q47 -3 77 -72q137 -5 224 -45q159 -74 212 -224zM820 532q17 43 14 81l-2 16q-2 10 -14 27q-24 33 -63 53.5t-92.5 28.5t-90 10.5
t-93.5 2.5h-14q-45 0 -74 60q-77 -19 -132 -73t-69 -131q-8 -38 -1 -75q6 -36 21 -56q45 -68 116 -98q92 -39 195 -31t189 59q78 47 110 126z" />
    <glyph glyph-name="o" unicode="&#xf4;" horiz-adv-x="1017" 
d="M951 668q47 -133 -5.5 -260.5t-178.5 -193.5q-118 -63 -262 -55.5t-254 83.5q-116 81 -171 216.5t-20 270.5q34 129 140 208t238 72q47 -3 77 -72q137 -5 224 -45q159 -74 212 -224zM820 532q17 43 14 81l-2 16q-2 10 -14 27q-24 33 -63 53.5t-92.5 28.5t-90 10.5
t-93.5 2.5h-14q-45 0 -74 60q-77 -19 -132 -73t-69 -131q-8 -38 -1 -75q6 -36 21 -56q45 -68 116 -98q92 -39 195 -31t189 59q78 47 110 126z" />
    <glyph glyph-name="o" unicode="&#xf3;" horiz-adv-x="1017" 
d="M951 668q47 -133 -5.5 -260.5t-178.5 -193.5q-118 -63 -262 -55.5t-254 83.5q-116 81 -171 216.5t-20 270.5q34 129 140 208t238 72q47 -3 77 -72q137 -5 224 -45q159 -74 212 -224zM820 532q17 43 14 81l-2 16q-2 10 -14 27q-24 33 -63 53.5t-92.5 28.5t-90 10.5
t-93.5 2.5h-14q-45 0 -74 60q-77 -19 -132 -73t-69 -131q-8 -38 -1 -75q6 -36 21 -56q45 -68 116 -98q92 -39 195 -31t189 59q78 47 110 126z" />
    <glyph glyph-name="o" unicode="&#xf2;" horiz-adv-x="1017" 
d="M951 668q47 -133 -5.5 -260.5t-178.5 -193.5q-118 -63 -262 -55.5t-254 83.5q-116 81 -171 216.5t-20 270.5q34 129 140 208t238 72q47 -3 77 -72q137 -5 224 -45q159 -74 212 -224zM820 532q17 43 14 81l-2 16q-2 10 -14 27q-24 33 -63 53.5t-92.5 28.5t-90 10.5
t-93.5 2.5h-14q-45 0 -74 60q-77 -19 -132 -73t-69 -131q-8 -38 -1 -75q6 -36 21 -56q45 -68 116 -98q92 -39 195 -31t189 59q78 47 110 126z" />
    <glyph glyph-name="p" unicode="p" horiz-adv-x="1183" 
d="M1035 861q94 -74 109 -191.5t-58 -212.5q-26 -34 -66 -62.5t-76.5 -45.5t-92 -33t-87.5 -23t-89 -18q-206 -40 -423 -26q23 -368 91 -723q7 -33 -3 -63t-42 -31q-31 -1 -56 30t-31 65q-73 375 -97 764q-21 27 -27 58q-5 17 -0.5 45.5t20.5 40.5q-4 104 -4 234
q-35 36 -40.5 88.5t32.5 71.5q2 0 5.5 1.5t5.5 2.5q0 30 1 45q1 37 17 53t36 11.5t41 -22t33 -42.5q201 61 408 67q127 4 224 -11.5t169 -72.5zM899 549q43 24 82.5 65.5t28.5 78.5q-7 26 -104 50q-75 18 -222 14q-223 -7 -442 -84q-1 -106 2 -239q226 -10 423 36
q151 34 232 79z" />
    <glyph glyph-name="q" unicode="q" horiz-adv-x="1024" 
d="M959 -418q1 -19 1.5 -39.5t-11 -37.5t-34.5 -17q-31 -1 -57.5 31t-30.5 64q-63 458 -44 910q-66 -67 -153 -114q-84 -45 -175.5 -61.5t-185.5 7t-155 94.5q-67 77 -74 174.5t43.5 180.5t143.5 124q86 38 191 43t202 -17t187 -65q1 3 3.5 11t3.5 11q8 32 30.5 42t51.5 -8
q30 -19 44.5 -55.5t9.5 -72.5q-73 -609 9 -1205zM593 583q80 51 138 129q-187 64 -353 29q-122 -26 -174 -102q-57 -82 7 -117q54 -32 127 -26.5t136.5 28.5t118.5 59z" />
    <glyph glyph-name="r" unicode="r" horiz-adv-x="987" 
d="M741 688q0 -2 0.5 -4t0.5 -4v-3q-1 1 -1 13v-2zM896 306v1q29 -22 45 -58t9 -70q-5 -31 -30.5 -42.5t-51.5 7.5q-305 229 -476 341q-28 19 -44 57t-10 72q6 32 30.5 42t51.5 -8q14 -9 42 -25l16 -8l15 -6q35 -15 70 -24q3 -1 5 -1h1q1 -1 2 -1q3 -1 8 -1t7 -1q9 -1 28 -1
q20 0 30 1l1 1h2t4 0.5t4 1.5q8 3 41 17h3l1 1q1 2 2 3q10 8 14 13q4 4 14 16q-4 -5 -1 0q2 3 3 5l6 15l1 1v3q1 3 2 8t1 8v3v1l1 1q0 1 -2 9v1v1v1v-1l-1 1v2q-1 1 -1 2q-1 2 -1 3t-1 2.5t-1 2.5q-1 2 -3.5 6.5t-4.5 6.5q-1 0 -1 1l-1 1q-2 0 -2 1l-8.5 8.5t-7.5 8.5
q-2 1 -5 3.5t-5 3.5q-8 6 -24 16q-2 1 -4 3q-2 0 -6 2q-33 14 -62 22t-57 11q-117 12 -254 -19v-480q0 -33 -17.5 -54.5t-48.5 -11.5t-52 45.5t-21 69.5v391q-2 0 -5.5 -2t-5.5 -2q-23 -8 -46.5 5t-38.5 38.5t-22 53.5t0.5 52t30.5 32q29 10 87 28v471q0 33 17.5 54.5
t48.5 11.5t52 -45.5t21 -69.5v-390q158 27 286 -3q71 -16 135.5 -59.5t107.5 -104t57.5 -133.5t-12.5 -148q-29 -79 -111 -115q23 -18 71 -53.5t71 -52.5z" />
    <glyph glyph-name="s" unicode="s" horiz-adv-x="968" 
d="M217 659q0 1 0.5 1t0.5 1q0 -1 -0.5 -1t-0.5 -1zM778 330v-3v-3l-1 8zM217 644zM217 640zM778 323v1v1v-2zM916 297q6 -59 -14.5 -104.5t-56.5 -72.5t-86 -43t-100 -20.5t-101 -1.5q-161 10 -296 72t-199 185q-15 22 -11 63t31 53q48 20 92 -59v-1l-5 9q1 -3 8 -11
q3 -3 6 -6.5t6 -6.5l2 -3h1q1 0 1 -1q2 -2 5.5 -4.5t4.5 -3.5q13 -10 26 -17q1 0 10 -5.5t10 -6.5q15 -9 29 -14q41 -17 73 -26q147 -45 286 -26q3 0 8.5 1t8.5 1h1l2 1h3q4 1 12 3.5t12 3.5q27 9 47 19l16 10q4 3 12 11q2 1 5 4.5t4 5.5q5 10 7 13l1 1l-1 -2v-2q0 3 1 5
l1 2v-2v2v1v3v1l1 2h-1v5q0 1 -0.5 3.5t-0.5 3.5q-4 3 -5 4l4 -2q-2 2 -7 5.5t-8 5.5h-1q-1 1 -4 3t-5 2q-13 6 -59 17q-21 4 -50 8q-32 4 -137 11q-61 4 -93 7t-83 14.5t-89 29.5q-76 36 -119.5 108.5t-42.5 157.5q1 72 45 121.5t117 69.5q145 40 324 -1q186 -42 276 -153
q24 -29 34 -62.5t-3 -70.5q-16 -28 -44.5 -26t-48.5 26q-14 16 -21 23l-11 8q-10 8 -13 10q-17 11 -32 19q-1 0 -3.5 1.5t-5.5 3.5l-3 1q-4 1 -10 3.5t-10 4.5q-80 32 -161 41q-93 10 -168 -4q-37 -7 -64 -19q-10 -4 -30 -16h-2v-1l-1 -1q-4 -3 -11 -10q-2 -1 -5.5 -5
t-4.5 -6q0 -1 -1.5 -4.5t-2.5 -4.5v1v-1l-1 -1l-1 -2v-3v-1v3l1 2q0 -1 -0.5 -2.5t-0.5 -2.5q0 -2 0.5 -6t0.5 -6v-1v3v-1q0 -1 1 -3v-1q17 -11 19 -13l1 -1q1 0 5 -2q1 0 4.5 -1.5t5.5 -2.5q3 -1 26 -9q17 -6 29 -8q3 0 8 -1t8 -2l1 -1h2q57 -9 138 -14q7 0 44 -2.5
t49 -3.5t43 -4t48.5 -6.5t42 -9.5t44.5 -14q78 -29 125 -95t55 -152zM218 663q-1 -1 -1 -3q0 1 1 3zM216 643zM217 640v-1v1v0v0v0l-5 7q-1 -1 5 -7v0zM219 636zM219 639h-1h1zM175 369l4 -8q-2 3 -4 7v1zM194 349zM778 324zM778 324v-1q-1 -1 -1 -2v-1l1 2v2z" />
    <glyph glyph-name="t" unicode="t" horiz-adv-x="1200" 
d="M1096 1012q38 4 67 -41.5t24.5 -94t-48.5 -52.5q-96 -10 -288.5 -28.5t-288.5 -28.5l15 -591q1 -32 -17 -54t-49 -12q-31 11 -51.5 46t-21.5 70q-2 88 -6.5 264t-6.5 264q-52 -5 -156.5 -15.5t-156.5 -15.5q-38 -4 -67 41.5t-24.5 94t48.5 52.5q171 17 513.5 50.5
t513.5 50.5z" />
    <glyph glyph-name="u" unicode="u" horiz-adv-x="1284" 
d="M1238 380q7 -33 -2.5 -62.5t-41.5 -30.5q-31 -1 -56 30t-32 65q-8 41 -24.5 123.5t-24.5 123.5q-39 -58 -49 -72q-132 -179 -259 -250q-87 -49 -192.5 -61t-201.5 17q-107 33 -183 119t-105 189.5t-14 217.5t77 203q14 19 34.5 14t37.5 -19t26 -28q20 -30 22.5 -64
t-16.5 -65q-34 -49 -46 -110.5t4 -123t60 -101.5q48 -44 118.5 -58.5t137.5 -4t129 37.5q75 32 137.5 95t128.5 154q69 93 117 182q22 36 49 27.5t50.5 -37.5t28.5 -56q15 -75 45 -227.5t45 -227.5z" />
    <glyph glyph-name="u" unicode="&#xfc;" horiz-adv-x="1284" 
d="M1238 380q7 -33 -2.5 -62.5t-41.5 -30.5q-31 -1 -56 30t-32 65q-8 41 -24.5 123.5t-24.5 123.5q-39 -58 -49 -72q-132 -179 -259 -250q-87 -49 -192.5 -61t-201.5 17q-107 33 -183 119t-105 189.5t-14 217.5t77 203q14 19 34.5 14t37.5 -19t26 -28q20 -30 22.5 -64
t-16.5 -65q-34 -49 -46 -110.5t4 -123t60 -101.5q48 -44 118.5 -58.5t137.5 -4t129 37.5q75 32 137.5 95t128.5 154q69 93 117 182q22 36 49 27.5t50.5 -37.5t28.5 -56q15 -75 45 -227.5t45 -227.5z" />
    <glyph glyph-name="u" unicode="&#xfb;" horiz-adv-x="1284" 
d="M1238 380q7 -33 -2.5 -62.5t-41.5 -30.5q-31 -1 -56 30t-32 65q-8 41 -24.5 123.5t-24.5 123.5q-39 -58 -49 -72q-132 -179 -259 -250q-87 -49 -192.5 -61t-201.5 17q-107 33 -183 119t-105 189.5t-14 217.5t77 203q14 19 34.5 14t37.5 -19t26 -28q20 -30 22.5 -64
t-16.5 -65q-34 -49 -46 -110.5t4 -123t60 -101.5q48 -44 118.5 -58.5t137.5 -4t129 37.5q75 32 137.5 95t128.5 154q69 93 117 182q22 36 49 27.5t50.5 -37.5t28.5 -56q15 -75 45 -227.5t45 -227.5z" />
    <glyph glyph-name="u" unicode="&#xfa;" horiz-adv-x="1284" 
d="M1238 380q7 -33 -2.5 -62.5t-41.5 -30.5q-31 -1 -56 30t-32 65q-8 41 -24.5 123.5t-24.5 123.5q-39 -58 -49 -72q-132 -179 -259 -250q-87 -49 -192.5 -61t-201.5 17q-107 33 -183 119t-105 189.5t-14 217.5t77 203q14 19 34.5 14t37.5 -19t26 -28q20 -30 22.5 -64
t-16.5 -65q-34 -49 -46 -110.5t4 -123t60 -101.5q48 -44 118.5 -58.5t137.5 -4t129 37.5q75 32 137.5 95t128.5 154q69 93 117 182q22 36 49 27.5t50.5 -37.5t28.5 -56q15 -75 45 -227.5t45 -227.5z" />
    <glyph glyph-name="u" unicode="&#xf9;" horiz-adv-x="1284" 
d="M1238 380q7 -33 -2.5 -62.5t-41.5 -30.5q-31 -1 -56 30t-32 65q-8 41 -24.5 123.5t-24.5 123.5q-39 -58 -49 -72q-132 -179 -259 -250q-87 -49 -192.5 -61t-201.5 17q-107 33 -183 119t-105 189.5t-14 217.5t77 203q14 19 34.5 14t37.5 -19t26 -28q20 -30 22.5 -64
t-16.5 -65q-34 -49 -46 -110.5t4 -123t60 -101.5q48 -44 118.5 -58.5t137.5 -4t129 37.5q75 32 137.5 95t128.5 154q69 93 117 182q22 36 49 27.5t50.5 -37.5t28.5 -56q15 -75 45 -227.5t45 -227.5z" />
    <glyph glyph-name="v" unicode="v" horiz-adv-x="1126" 
d="M968 931q31 48 79 13q40 -29 53 -83q9 -38 -7 -62q-65 -101 -195.5 -302.5t-195.5 -301.5q-19 -28 -44.5 -27t-48.5 26q-93 101 -277 303.5t-276 303.5q-24 27 -34 62.5t3 69.5q17 28 44.5 26.5t48.5 -25.5q83 -91 249.5 -273.5t249.5 -273.5q59 91 175.5 272.5
t175.5 271.5z" />
    <glyph glyph-name="w" unicode="w" horiz-adv-x="1339" 
d="M1198 914q29 38 70 -3q38 -39 46 -97q5 -39 -12 -62l-385 -500q-14 -18 -34.5 -14t-38 18t-25.5 29q-59 105 -123 268q-83 -112 -149.5 -190.5t-140.5 -143.5q-21 -21 -44.5 -11t-39 28t-26.5 40q-43 87 -130.5 259t-131.5 259q-15 22 -11.5 63t31.5 52q51 21 96 -66
l207 -408q16 16 32.5 33.5t30.5 32.5t32 36.5t28.5 34.5t30 37.5t28 35t29.5 38.5t26.5 35.5t28.5 38t27 36.5q19 23 42.5 13t43 -31.5t25.5 -38.5q30 -80 58 -149q4 -11 45 -106q56 72 167.5 216.5t166.5 216.5z" />
    <glyph glyph-name="x" unicode="x" horiz-adv-x="1042" 
d="M923 367q28 -19 44 -56.5t10 -71.5q-6 -32 -30.5 -42.5t-51.5 7.5q-151 102 -337 206q-241 -264 -406 -566q-27 -49 -72 -16q-40 28 -55 83q-11 39 3 64q154 283 361 524q-164 81 -277 128q-32 13 -51.5 46t-21.5 69q-1 31 17.5 54.5t48.5 11.5q189 -79 394 -187
q179 186 373 330q36 27 75 -6t47 -80.5t-18 -75.5q-155 -117 -306 -264q136 -79 253 -158z" />
    <glyph glyph-name="y" unicode="y" horiz-adv-x="899" 
d="M814 773q45 -112 0 -219q-11 -172 -32.5 -516.5t-32.5 -516.5q-2 -33 -29.5 -42t-52.5 8q-30 19 -43 54.5t-11 73.5q8 129 24.5 388.5t24.5 389.5q-69 -37 -147 -48q-64 -9 -133.5 3.5t-133 45t-114 78t-79.5 109.5t-26 134q3 65 44 65q37 0 70 -42q26 -35 25 -72
q-2 -55 90 -100q101 -49 215 -33q105 15 176 87q17 17 30 35q1 24 3.5 71t4.5 70q1 22 18 35t38 10q23 -3 42 -23t29 -45z" />
    <glyph glyph-name="y" unicode="&#xff;" horiz-adv-x="899" 
d="M814 773q45 -112 0 -219q-11 -172 -32.5 -516.5t-32.5 -516.5q-2 -33 -29.5 -42t-52.5 8q-30 19 -43 54.5t-11 73.5q8 129 24.5 388.5t24.5 389.5q-69 -37 -147 -48q-64 -9 -133.5 3.5t-133 45t-114 78t-79.5 109.5t-26 134q3 65 44 65q37 0 70 -42q26 -35 25 -72
q-2 -55 90 -100q101 -49 215 -33q105 15 176 87q17 17 30 35q1 24 3.5 71t4.5 70q1 22 18 35t38 10q23 -3 42 -23t29 -45z" />
    <glyph glyph-name="y" unicode="&#xfd;" horiz-adv-x="899" 
d="M814 773q45 -112 0 -219q-11 -172 -32.5 -516.5t-32.5 -516.5q-2 -33 -29.5 -42t-52.5 8q-30 19 -43 54.5t-11 73.5q8 129 24.5 388.5t24.5 389.5q-69 -37 -147 -48q-64 -9 -133.5 3.5t-133 45t-114 78t-79.5 109.5t-26 134q3 65 44 65q37 0 70 -42q26 -35 25 -72
q-2 -55 90 -100q101 -49 215 -33q105 15 176 87q17 17 30 35q1 24 3.5 71t4.5 70q1 22 18 35t38 10q23 -3 42 -23t29 -45z" />
    <glyph glyph-name="z" unicode="z" horiz-adv-x="1083" 
d="M969 394q43 -1 72 -58q30 -57 15 -100q-10 -31 -44 -30q-120 2 -359.5 6t-359.5 6q-32 0 -60 34.5t-32 73.5t18 67l73 71q53 51 158 155t157 155q-499 -3 -500 -3q-43 -1 -72 57q-29 56 -15 99q10 32 44 32q502 4 753 5q24 0 46.5 -20.5t34.5 -48.5t11.5 -58.5
t-18.5 -47.5l-73 -71q-54 -53 -161 -158t-160 -158q79 -1 236.5 -4t235.5 -4z" />
    <glyph glyph-name="asciitilde" unicode="~" horiz-adv-x="1576" 
d="M1365 675q14 59 58 42q37 -14 63 -62q22 -41 15 -74q-20 -86 -80.5 -146t-147.5 -83q-163 -43 -376 59q-29 14 -121 64.5t-157.5 76t-133.5 31.5q-57 5 -118.5 -12t-107.5 -61.5t-44 -106.5q2 -32 -16.5 -53.5t-49.5 -11.5q-32 10 -51.5 44.5t-21.5 70.5
q-4 96 46.5 173.5t139.5 116.5q166 74 407 -38q38 -17 126 -65.5t157 -76t137 -35.5q55 -6 111.5 6.5t104 49t60.5 91.5z" />
    <glyph glyph-name="nonbreakingspace" unicode="&#xa0;" horiz-adv-x="778" 
 />
    <glyph glyph-name="yen" unicode="&#xa5;" horiz-adv-x="1603" 
d="M1532 1023q-105 -98 -314.5 -294t-314.5 -294q1 -9 2 -26.5t2 -26.5q42 2 126.5 6.5t126.5 7.5q43 2 73 -54q29 -56 15 -100q-11 -32 -45 -34l-279 -15q3 -35 9 -104.5t9 -103.5q2 -31 -17 -53.5t-49 -12.5q-32 11 -51 44.5t-22 70.5l-13 152q-32 -1 -96 -4.5t-96 -5.5
q-42 -2 -72 53t-16 100q11 32 45 34l219 12q-1 18 -4.5 53.5t-5.5 53.5q-102 111 -308 332.5t-308 332.5q-24 26 -34.5 63t3.5 70q18 28 44.5 26.5t48.5 -25.5q102 -111 306.5 -331.5t306.5 -330.5q101 94 302 282.5t302 282.5q36 34 79 -9q39 -39 44 -94q3 -38 -18 -58z
" />
    <glyph glyph-name="guillemotleft" unicode="&#xab;" horiz-adv-x="1013" 
d="M275 475q143 -134 242 -291q12 -18 19 -40.5t4.5 -48t-17.5 -40.5q-16 -17 -35.5 -13t-35.5 16.5t-27 29.5q-117 188 -298 325q-41 30 -52 82q-14 60 14 80q58 43 173.5 131t173.5 131q18 14 37 11t34 -15t27 -30q22 -35 23 -72q0 -43 -17 -56q-44 -34 -132.5 -100
t-132.5 -100zM915 778q11 -16 19 -40t6 -50t-18 -39l-315 -251q26 -29 79 -85t80 -84q24 -26 34.5 -62.5t-2.5 -70.5q-17 -29 -44 -26.5t-49 25.5l-248 264q-15 16 -27 43.5t-13.5 57.5t19.5 47q64 50 190.5 151.5t190.5 152.5q18 15 37 11.5t33.5 -15t27.5 -29.5z" />
    <glyph glyph-name="softhyphen" unicode="&#xad;" 
 />
    <glyph glyph-name="guillemotright" unicode="&#xbb;" horiz-adv-x="878" 
d="M466 548q27 -24 36.5 -71.5t-15.5 -76.5q-47 -45 -141.5 -137t-141.5 -137q-16 -17 -36 -12.5t-35.5 16.5t-26.5 29q-19 28 -23 65t17 64l213 207q-31 28 -92.5 83t-92.5 82q-25 21 -35 62t4 71q10 21 27.5 25t33.5 -3t32 -21zM765 534q28 -27 37 -71.5t-15 -76.5
q-155 -184 -228 -260q-16 -18 -36 -13t-35 17.5t-27 28.5q-20 28 -24 64.5t18 64.5q59 61 167 189q-152 144 -231 212q-25 21 -35 62t4 71q10 21 27.5 24.5t33.5 -3.5t32 -21q80 -70 312 -288z" />
    <glyph glyph-name="Iocyrillic" unicode="&#x401;" horiz-adv-x="1400" 
d="M438 813q178 0 617 15q43 2 73 -55q29 -57 14 -100q-10 -32 -44 -33q-439 -15 -617 -15q-43 0 -72 57q-30 57 -15 100q11 31 44 31zM1288 1372q43 0 72 -57q30 -57 15 -100q-11 -31 -44 -31h-1022q14 -148 44 -445t44 -446q422 37 842 -71q40 -10 61 -69q22 -59 1 -94
q-17 -28 -55 -18q-429 110 -885 56q-25 -3 -46.5 19.5t-31.5 49.5t-12 50q-16 161 -48 484t-48 484h-74q-43 0 -72 57t-14 100q11 31 44 31h99q2 28 20.5 46t45.5 9q35 -11 56 -55h1008zM449 1492q-24 7 -49 43q-24 37 -24 72v225q0 37 17 56q18 19 49 10q24 -7 49 -43
q24 -37 24 -72v-225q0 -37 -17 -56q-18 -19 -49 -10zM888 1487q-26 16 -44 57q-17 42 -10 71q9 38 27 112.5t27 111.5q9 34 29 44q20 11 53 -9q24 -15 43 -57q17 -42 10 -71l-53 -224q-9 -33 -30 -44q-20 -10 -52 9z" />
    <glyph glyph-name="Acyrillic" unicode="&#x410;" horiz-adv-x="1550" 
d="M1526 163q30 -93 -20 -115q-28 -12 -56.5 12t-39.5 54q-77 228 -169 438q-12 -16 -35 -17q-158 -12 -473 -36.5t-473 -36.5q-80 -197 -84 -401q-2 -65 -43 -65q-36 0 -70 42q-27 35 -26 72q3 181 57 359q-43 37 -47 100.5t49 70.5q11 1 32.5 2.5t32.5 2.5
q108 235 294.5 426t425.5 313q21 11 45.5 -5t38.5 -38q356 -568 561 -1178zM360 661q133 10 401 31t401 31q-111 230 -248 456q-169 -94 -311.5 -226t-242.5 -292z" />
    <glyph glyph-name="Becyrillic" unicode="&#x411;" horiz-adv-x="1581" 
d="M964 873q79 -7 153.5 -23t154.5 -48.5t139 -77.5t97 -115t39 -156q0 -64 -23.5 -119t-54.5 -93.5t-91 -73.5t-102 -54.5t-120.5 -42t-113.5 -30t-111 -23.5q-6 -1 -9 -2q-106 -22 -207.5 -22.5t-201 23t-181.5 86.5t-130 162q-38 78 -57 198q-44 20 -63.5 80t14.5 88
l27 18l-6 63q-10 85 -29.5 254t-29.5 254q-3 25 10.5 46t37.5 23l1209 123q38 4 67 -41t24.5 -93.5t-48.5 -53.5q-192 -20 -576.5 -59t-577.5 -58q8 -64 22 -191t22 -190q341 183 716 148zM1266 326q26 14 53 36.5t53.5 53.5t33.5 62t-7 63q-42 74 -250 121l-12 3
q-157 35 -335 22q-290 -22 -530 -171l3 -24q1 -4 3 -23.5t3 -26.5t3.5 -23.5t5 -26t6 -23t8 -24.5t9.5 -22q31 -61 101 -96.5t151 -46.5q141 -20 365 35l42 10.5t45 11t41 10.5t44.5 12.5t40.5 13.5t43.5 16t39 17t40.5 20z" />
    <glyph glyph-name="Vecyrillic" unicode="&#x412;" horiz-adv-x="1468" 
d="M1312 729q67 -56 104.5 -133t30 -163t-68.5 -152q-72 -79 -223 -125q-100 -32 -281 -72q-278 -61 -569 -85q-27 -2 -50.5 22.5t-34 57t-5 63.5t30.5 41q-36 586 -54 878q-24 -14 -50 -32q-30 -17 -54.5 -6.5t-43.5 39.5q-11 16 -18.5 40t-6.5 50.5t18 38.5q53 39 142 86
q2 28 20 46t46 9q11 -4 22 -12q101 44 199 67q73 17 129 25t127.5 5t128.5 -25q106 -42 152 -146t4 -209q-30 -75 -111 -146q269 -38 416 -162zM542 1205q-115 -26 -219 -73q3 -46 8.5 -138t8.5 -137q188 28 338 118q94 55 159 126q39 43 48 74q1 4 1.5 10t0 8t0.5 3
q-32 34 -144 34q-87 1 -201 -25zM1161 367q25 10 48.5 23.5t49.5 33t40.5 44.5t12.5 51q-2 23 -19.5 43.5t-50.5 38.5t-49 25.5t-49 20.5q-132 51 -272 65q-271 26 -518 -75q5 -73 14 -219.5t13 -219.5q247 27 488 84q212 50 292 85z" />
    <glyph glyph-name="Gecyrillic" unicode="&#x413;" horiz-adv-x="1245" 
d="M1152 1292q43 -4 72 -63q29 -58 14 -98q-11 -29 -43 -26q-93 9 -280 25.5t-281 24.5q-261 24 -265 24q-24 3 -48.5 1t-45 -8.5t-37 -22.5t-25.5 -42q-4 -13 -7 -26t-4 -29.5t-2 -26t0 -30t1.5 -26.5l2.5 -30t2 -26q12 -155 30 -269q39 -253 117 -519q9 -30 -2.5 -61
t-42.5 -32q-32 -1 -54 28t-33 66q-88 295 -128 595q-22 166 -30 293q-8 142 25 224q15 37 37.5 63.5t54.5 40t60.5 20.5t71.5 6t70.5 -3t74 -8t66.5 -8q105 -10 314.5 -29t314.5 -28z" />
    <glyph glyph-name="Decyrillic" unicode="&#x414;" horiz-adv-x="1386" 
d="M1305 553q30 -21 45 -53t14.5 -72t-5.5 -70t-16 -70q-1 -5 -8.5 -34t-11 -41t-11.5 -39t-15 -43t-17 -36.5t-21.5 -36t-24.5 -26.5q-33 -29 -71.5 2.5t-47.5 80t15 79.5q8 7 18 27t23 52q20 51 37 117q-97 3 -289 -9q-238 -14 -459 -40q-176 -20 -301 -53q7 -7 21 -42.5
t17 -40.5q50 -83 83 -116q10 -10 22.5 -20t21.5 -17t26.5 -17.5t24 -14t27.5 -15t25 -13.5q39 -21 50 -82q10 -58 -17 -82q-22 -19 -61 2q-143 78 -207 157q-61 75 -102 149q-16 28 -30 57t-28 71t-17.5 77t8.5 68.5t43 51.5q11 7 23.5 12t28.5 9t25.5 6t30 5.5t25.5 4.5
q78 14 229 32q275 32 544 44q11 0 34 1t35 1q-158 252 -238 505q0 1 -0.5 2t-0.5 2q-166 -275 -357 -527q-14 -19 -34.5 -13.5t-37.5 19t-26 28.5q-20 30 -22.5 63.5t16.5 64.5q227 299 421 642q14 98 88 139q21 11 45 -4.5t39 -38.5q16 -25 22 -55.5t-6 -58.5
q-16 -30 -50 -90v-16q0 -7 2 -21v-3q0 -1 0.5 -3.5t0.5 -3.5q5 -26 10 -49q12 -50 27 -93q75 -214 212 -425q19 -30 23 -63h4q94 -2 126 -24zM1285 386q0 1 -1 1z" />
    <glyph glyph-name="Iecyrillic" unicode="&#x415;" horiz-adv-x="1366" 
d="M1256 246q43 -4 72 -63q28 -59 13 -99q-11 -28 -43 -25q-462 47 -909 -58q-45 -11 -73 27.5t-34 87.5q-9 73 -27 220t-27 220q-38 24 -54 85q-8 28 0.5 55.5t32.5 35.5q-9 72 -26.5 217t-26.5 217q-8 0 -23 -1t-23 -2q-38 -3 -67 42t-24.5 93t48.5 52l66 6l-3 24
q-4 32 15.5 53.5t49.5 12.5q47 -15 66 -80q160 13 480 40t480 40q38 3 67 -42.5t24.5 -93.5t-48.5 -52q-163 -13 -488.5 -40t-488.5 -41q9 -72 26.5 -216.5t26.5 -216.5q79 7 237.5 20t238.5 19q31 3 54.5 -28.5t32.5 -65.5q8 -32 -3 -61t-42 -32q-83 -7 -248 -20.5
t-247 -20.5q7 -59 21.5 -176.5t21.5 -176.5q428 87 852 44z" />
    <glyph glyph-name="Zhecyrillic" unicode="&#x416;" horiz-adv-x="1579" 
d="M1468 637v1q3 -112 10.5 -336.5t11.5 -336.5q1 -32 -17 -54t-49 -12t-51.5 45.5t-21.5 70.5q-3 94 -9 281t-9 281q-80 -3 -239 -9t-239 -9q5 -76 16.5 -228.5t17.5 -228.5q2 -31 -16.5 -52.5t-49.5 -12.5q-32 10 -51 44t-22 71l-30 402q-65 -2 -194.5 -7t-194.5 -8
q20 -250 58 -481q6 -33 -3.5 -62.5t-41.5 -30.5q-31 -1 -56.5 30.5t-30.5 64.5q-41 257 -60 474l-82 -3q-43 -2 -73 55q-29 56 -15 99q11 32 45 33q18 0 55 2t56 3q-20 319 -10 620q2 65 44 65q36 0 69 -42q27 -35 26 -73q-9 -283 6 -565q65 3 194.5 8t193.5 7l-45 588
q-2 32 16.5 53.5t49.5 12.5q32 -10 51 -44t22 -71q7 -89 20.5 -267t19.5 -267l487 18q-3 98 -9.5 294t-9.5 294q-1 33 16.5 54.5t48.5 11.5t51.5 -45t21.5 -70q3 -108 10.5 -325t11.5 -326v-17z" />
    <glyph glyph-name="Zecyrillic" unicode="&#x417;" horiz-adv-x="1417" 
d="M1162 859h-1q94 -69 149.5 -180t54.5 -228q-1 -123 -68.5 -217t-182.5 -147q-158 -73 -344 -82.5t-361 36.5t-327 137q-39 23 -49 86q-9 60 18 81q22 17 59 -5q241 -145 531 -148q331 -4 492 134q83 70 92 172.5t-70 180.5q-69 65 -178 78q-107 -38 -297 -57
q-26 -3 -49.5 20.5t-34.5 55.5t-6 64.5t30 44.5q143 74 303 60q83 33 134 87q81 88 71 164q-9 63 -107 99q-162 59 -447 -52q-210 -82 -377 -240q-37 -35 -80 10q-38 40 -42 95q-3 38 18 57q221 209 501 292q358 107 544 -55q108 -94 124.5 -233.5t-66.5 -255.5
q-16 -22 -43 -49q1 -1 4 -2.5z" />
    <glyph glyph-name="Iicyrillic" unicode="&#x418;" horiz-adv-x="1314" 
d="M1130 1439q22 51 68 18q39 -28 57 -82q10 -29 5 -49q-154 -552 -76 -1089q1 -19 1.5 -39.5t-11 -37.5t-34.5 -17q-31 -1 -57 30.5t-31 64.5q-51 345 -17 698q-77 -102 -189 -227t-203.5 -220t-196 -220.5t-176.5 -239.5q-28 -38 -57 -25.5t-51 49t-24 66.5
q-9 202 -27.5 605.5t-28.5 605.5q-2 32 16.5 54t49.5 12q32 -10 51.5 -44.5t21.5 -70.5q7 -159 21.5 -476t22.5 -476q87 111 228.5 265.5t245.5 266.5t215.5 269t175.5 309z" />
    <glyph glyph-name="Iishortcyrillic" unicode="&#x419;" horiz-adv-x="1314" 
d="M1130 1439q22 51 68 18q39 -28 57 -82q10 -29 5 -49q-154 -552 -76 -1090q1 -19 1.5 -39t-11 -37t-34.5 -17q-31 -1 -57 30.5t-31 64.5q-51 345 -17 698q-77 -102 -189 -227t-203.5 -220.5t-196 -221t-176.5 -239.5q-28 -38 -57 -25t-51 49.5t-24 66.5
q-9 202 -27.5 605.5t-28.5 605.5q-2 32 16.5 54t49.5 12q32 -10 51.5 -45t21.5 -71q7 -159 21.5 -476.5t22.5 -475.5q74 95 181 212.5t197 215t183 206.5t172 231t132 246zM704 1442q-86 -18 -170.5 10t-147.5 94q-24 26 -33.5 63t2.5 70q8 20 26 25t36 -2.5t31 -21.5
l12 -12q0 -1 1 -1q12 -10 28 -19q1 0 2 -1l1 -1q2 -1 6.5 -3t6.5 -3q18 -7 32 -11q2 0 8 -1.5t8 -2.5q1 0 3 -1q22 -2 34 -2q21 0 31 1q3 1 8 1t7 1l2 1h2q40 12 58 22q23 12 42 29q25 23 41 46v1q1 0 1 1t1 2q1 2 3.5 5.5t3.5 5.5q5 10 13 30q8 21 26 25t35.5 -3.5
t31.5 -21.5q25 -24 34 -61.5t-3 -70.5q-28 -72 -88.5 -125t-134.5 -69zM551 1625zM459 1668z" />
    <glyph glyph-name="Kacyrillic" unicode="&#x41a;" horiz-adv-x="1146" 
d="M1057 288q40 -12 61 -72q21 -62 0 -96q-16 -25 -53 -14q-69 22 -141 63.5t-155.5 99.5t-130.5 85q-176 101 -303 89l-5 -2.5t-4 -2.5q8 -55 23.5 -164t23.5 -164q1 -19 1.5 -39t-11 -37t-34.5 -17q-31 -1 -57 30.5t-31 64.5l-39 270q-4 -1 -11.5 -4t-11.5 -4
q-26 -7 -53.5 12t-42 48.5t-17 61t21.5 50.5q36 29 83 51q-19 130 -56.5 389t-55.5 388q-1 19 -1.5 39t11.5 37t35 17q31 1 57 -30t31 -64q17 -121 51.5 -361.5t52.5 -360.5q100 72 230 227q36 43 112 140t137.5 167.5t125.5 128.5q37 34 80 -11q39 -40 42 -94
q3 -38 -18 -57q-65 -59 -128.5 -132t-140 -170.5t-115.5 -144.5q-55 -65 -105 -115q47 -19 90 -41q76 -40 251 -154q47 -30 67 -43t59.5 -33t73.5 -31z" />
    <glyph glyph-name="Elcyrillic" unicode="&#x41b;" horiz-adv-x="1198" 
d="M1177 161q14 -23 11 -63.5t-31 -51.5q-29 -11 -55.5 11.5t-40.5 54.5q-78 180 -234.5 541t-234.5 542q-286 -539 -436 -1123q-16 -60 -61 -42q-38 15 -63 64q-20 40 -12 72q175 679 505 1265q18 32 42.5 28t46 -24.5t31.5 -44.5q89 -205 266 -614.5t266 -614.5z" />
    <glyph glyph-name="Emcyrillic" unicode="&#x41c;" horiz-adv-x="1423" 
d="M1309 1317q4 -196 11 -589t11 -589q1 -33 -17 -54.5t-49 -11.5t-51.5 45t-21.5 70q-4 177 -9.5 502t-7.5 428q-72 -96 -215 -315q-110 -168 -200 -315q-15 -24 -36 -26.5t-39.5 10.5t-32.5 34q-73 108 -219.5 325.5t-220.5 326.5q23 -163 70.5 -490t71.5 -490
q1 -19 1.5 -39t-11.5 -37t-35 -17q-31 -1 -57 30.5t-31 64.5q-32 220 -95 658.5t-95 657.5q-1 19 -1.5 39t11 37t34.5 17q31 1 57 -30t31 -64q1 -8 3.5 -25t3.5 -26q12 -11 20 -23q82 -122 246 -364.5t246 -363.5q106 170 161 254q6 10 44.5 68t49.5 74.5l44 66t51 73.5
t47 63t55.5 70t53.5 61q37 39 78.5 -11.5t42.5 -94.5z" />
    <glyph glyph-name="Encyrillic" unicode="&#x41d;" horiz-adv-x="1234" 
d="M1178 191q9 -29 -2.5 -60.5t-42.5 -32.5q-32 -1 -54 28t-34 67q-70 221 -97 472q-34 -40 -55 -59q-127 -117 -301 -155t-337 13q1 -37 5 -111.5t5 -111.5q2 -32 -16.5 -54t-49.5 -12q-32 10 -51 44t-22 72q-5 54 -15.5 161t-15.5 161q-4 30 15 53q-6 148 -18 446l-18 447
q-2 32 16.5 53.5t49.5 11.5q32 -10 51.5 -44.5t21.5 -70.5q6 -143 17.5 -430.5t17.5 -431.5q133 -41 276 -13t250 120q104 89 161 226q5 195 39 385q11 62 59 42q37 -15 63 -59q9 -16 12 -30q41 -220 -35 -433q-3 -355 105 -694z" />
    <glyph glyph-name="Ocyrillic" unicode="&#x41e;" horiz-adv-x="1536" 
d="M1493 701q11 -96 -19 -186t-98 -156q-71 -69 -166.5 -105.5t-219.5 -57.5q-116 -20 -212 -25.5t-203 4.5t-203 52t-174 116q-103 97 -138.5 226.5t-4 259t120.5 238.5q115 141 291.5 209.5t357.5 45.5q21 37 55 21q79 -36 141.5 -69.5t133.5 -78.5t124 -94.5t100 -109.5
t76 -134t38 -156zM970 388q50 10 98.5 25.5t98.5 40t88 56t66.5 73t34 90.5t-8.5 109q-11 40 -33 77.5t-46 66t-62 58t-67 49t-76 44.5t-75 38t-76 35q-12 -20 -35 -17q-164 23 -320.5 -33.5t-264.5 -180.5q-56 -64 -89.5 -138t-27.5 -147q8 -114 140 -200q67 -43 149 -64
t175 -19t164 10.5t167 26.5z" />
    <glyph glyph-name="Pecyrillic" unicode="&#x41f;" horiz-adv-x="1382" 
d="M1257 1351q5 -213 15.5 -638.5t15.5 -638.5q1 -33 -17 -54.5t-49 -11.5t-51.5 45t-21.5 70l-27 1152q-149 -13 -446 -38.5t-445 -38.5q7 -203 20 -610.5t19 -611.5q1 -33 -16.5 -54.5t-48.5 -11.5t-51.5 45.5t-21.5 70.5q-7 215 -21 643.5t-21 642.5q-1 27 11 47t37 22
q172 15 515 44.5t514 44.5q37 3 63 -39t27 -80z" />
    <glyph glyph-name="Ercyrillic" unicode="&#x420;" horiz-adv-x="1347" 
d="M1189 1324q57 -57 93 -132.5t41.5 -158t-33.5 -156.5q-24 -46 -67 -85t-82.5 -63.5t-105.5 -50t-100 -36.5t-104 -31q-222 -64 -466 -89q7 -77 20 -229t20 -229q2 -32 -16.5 -53.5t-49.5 -12.5q-32 10 -51 43.5t-22 71.5q-6 66 -17.5 199.5t-17.5 199.5h-2q-43 -2 -73 54
q-29 56 -15 100q11 32 45 34q9 0 29 2q-8 90 -23.5 269.5t-23.5 269.5q-7 -2 -20.5 -5.5t-20.5 -5.5q-40 -10 -75 33t-35 88t34 61q107 28 168 42.5t155 32t177 23t163 -0.5q310 -22 475 -185zM833 817q154 51 222 89q160 90 123 208q-17 55 -66.5 96.5t-116.5 64t-127 33
t-120 14.5q-188 11 -448 -49l49 -561q248 27 484 105z" />
    <glyph glyph-name="Escyrillic" unicode="&#x421;" horiz-adv-x="1570" 
d="M1436 552q23 14 47 8.5t42 -28t28.5 -49t7.5 -53t-21 -39.5q-198 -142 -427 -209.5t-464 -46.5q-244 21 -386 134q-138 110 -192 302q-29 118 -22 235t57 230t134 193q133 126 324.5 165.5t364.5 -16.5q99 -30 165 -108t71 -179q3 -61 -28.5 -114t-81.5 -68.5t-111 25.5
q-29 21 -45 58t-9 70q7 31 31 42.5t51 -7.5q20 -15 40.5 9t8.5 45q-19 32 -120 55q-152 36 -304 -3q-134 -34 -235.5 -121t-145.5 -213q-25 -71 -30.5 -146t17 -152t74.5 -127q169 -163 575 -119q314 35 584 227z" />
    <glyph glyph-name="Tecyrillic" unicode="&#x422;" horiz-adv-x="1398" 
d="M1309 1340q43 1 73 -56q29 -56 15 -100q-11 -31 -45 -32q-93 -2 -279.5 -6.5t-279.5 -7.5q-9 -181 -25 -544t-24 -545q-3 -64 -45 -65q-36 0 -69 42q-27 35 -25 72q8 173 23.5 518.5t23.5 518.5q-93 -2 -280.5 -6.5t-281.5 -7.5q-43 -1 -72 56q-30 56 -15 100
q11 31 45 32q210 5 630 15.5t631 15.5z" />
    <glyph glyph-name="Ucyrillic" unicode="&#x423;" horiz-adv-x="1437" 
d="M1299 1359q29 48 74 16q40 -29 54 -83q11 -40 -4 -65q-141 -239 -422.5 -717.5t-422.5 -717.5q-29 -48 -75 -16q-39 29 -54 83q-11 40 4 65q51 87 153.5 260.5t153.5 260.5l-3 3q-121 143 -363 429.5t-363 429.5q-24 29 -34 63t3 70q16 28 44.5 26.5t48.5 -25.5l726 -860
q8 -10 12 -16q312 530 468 794z" />
    <glyph glyph-name="Efcyrillic" unicode="&#x424;" horiz-adv-x="1536" 
d="M1059 1380h1q101 -13 189.5 -58.5t151.5 -114.5t90 -164t6 -199q-11 -53 -39.5 -98.5t-65 -78t-87.5 -59t-99.5 -44t-108 -31.5t-105 -21.5t-99.5 -14.5q-10 -1 -31 -3.5t-32 -3.5q-1 -54 -2.5 -163t-2.5 -163q-1 -65 -42 -65q-37 0 -70 42q-28 35 -27 73q1 45 2.5 135
t2.5 136q-367 7 -548 212q-77 87 -102 199.5t8 222.5t118 190q102 95 244 132t296 21l1 49q1 65 42 65q37 0 71 -42q27 -35 26 -72q0 -4 -0.5 -12t-0.5 -12q3 -1 9 -2t9 -2q40 -12 61 -71q21 -61 0 -95q-16 -27 -54 -16q-7 2 -28 7l-9 -576q4 1 14 2t14 1q165 22 289 71
q49 20 82.5 37.5t70.5 51t51 73.5q19 63 5.5 110.5t-57 82t-94.5 54t-107 26.5q-43 5 -72 66q-28 59 -13 98q11 28 42 24zM264 777q158 -111 430 -104q1 101 5 303.5t5 303.5q-121 7 -233.5 -24t-192.5 -103q-103 -92 -111 -205q-7 -99 97 -171z" />
    <glyph glyph-name="Khacyrillic" unicode="&#x425;" horiz-adv-x="1501" 
d="M1394 1371q33 20 67 -18t37.5 -86.5t-28.5 -76.5q-399 -242 -729 -600q66 -87 196.5 -259.5t195.5 -259.5q20 -26 24.5 -64.5t-17.5 -64.5q-16 -18 -36 -12.5t-34.5 17.5t-27.5 29q-65 86 -195 257t-195 257q-177 -207 -321 -443q-29 -48 -75 -15q-40 28 -55 82
q-10 40 5 65q144 236 333 460q-86 114 -258.5 341.5t-258.5 341.5q-19 25 -23.5 64.5t17.5 64.5q16 18 36 12.5t34.5 -17.5t27.5 -29l513 -678q344 375 767 632z" />
    <glyph glyph-name="Tsecyrillic" unicode="&#x426;" horiz-adv-x="1503" 
d="M1534 -151q7 -32 -3 -62t-42 -31q-31 -1 -56 29.5t-32 64.5q-11 48 -32 143t-31 143l-1050 -144q-37 -5 -62 37t-29 82l-141 1215q-4 32 16 53.5t50 12.5q61 -20 72 -115q21 -181 63.5 -543.5t63.5 -543.5q135 19 404 55t403 55q-80 481 -53 951q2 34 17.5 55t47.5 11
q31 -9 53 -45.5t20 -69.5q-26 -450 44 -884q17 3 51.5 7.5t51.5 6.5q30 4 55 -28.5t33 -65.5q15 -64 43.5 -194.5t42.5 -194.5z" />
    <glyph glyph-name="Checyrillic" unicode="&#x427;" horiz-adv-x="1464" 
d="M1269 1258q19 65 65 40q37 -20 60 -74q14 -34 11 -59q-30 -232 -90.5 -695.5t-90.5 -695.5q-4 -32 -30 -41.5t-52 7.5q-29 19 -44 55.5t-10 72.5q17 129 50.5 387t50.5 388q-38 -55 -77 -95q-111 -117 -258.5 -179t-303.5 -51q-162 12 -288 99t-180 235
q-30 81 -33.5 175.5t8.5 167t29 175.5t21 173q4 64 45 65q37 0 70 -42q26 -35 24 -72q-3 -58 -19 -143t-29 -146t-18 -146.5t14 -142.5q15 -60 55.5 -103.5t94.5 -67t112 -33t119 -7.5q130 5 248 66t207 163q46 53 83 115t66.5 136t47.5 130.5t42 142.5z" />
    <glyph glyph-name="Shacyrillic" unicode="&#x428;" horiz-adv-x="1630" 
d="M1509 186q27 -22 41.5 -62.5t5 -74.5t-45.5 -36q-218 -11 -653.5 -32t-653.5 -32q-42 -2 -72 53t-16 100q11 32 45 34l63 3q-137 569 -151 1153q-1 33 16.5 54t48.5 11t51.5 -45t21.5 -70q14 -556 144 -1096q70 3 211 10.5t211 10.5q-5 16 -7 35q-11 160 -33.5 480.5
t-33.5 480.5q-2 32 17 53.5t49 11.5q32 -11 51.5 -44.5t21.5 -70.5q11 -156 32.5 -469.5t32.5 -470.5q77 4 231.5 11.5t232.5 11.5v1145q0 33 17.5 54.5t48.5 11.5t52 -45.5t21 -69.5v-1106z" />
    <glyph glyph-name="Shchacyrillic" unicode="&#x429;" horiz-adv-x="1667" 
d="M1627 -118q-8 -12 -17.5 -24t-23 -26.5t-19.5 -22.5q-2 -3 -8 -11q15 -32 8.5 -57.5t-21.5 -42t-41.5 -10t-51.5 39.5q-33 43 -41.5 93t13.5 100q11 22 45.5 57.5t45.5 57.5q41 79 -54 89q-39 4 -79 0.5t-104 -14.5t-78 -13q-747 -109 -1065 -166q-22 -4 -43.5 12.5
t-32.5 43t-15 54.5t8.5 50.5t39.5 27.5q9 1 26.5 4t26.5 5q-1 4 -1 13q-1 191 -3 572.5t-3 572.5q0 33 17.5 54.5t48.5 11.5t52 -45.5t21 -69.5q1 -181 2.5 -543t2.5 -543q198 33 418 66q-3 14 -3 27q5 156 16 469t16 470q1 33 17.5 54.5t48.5 11.5q31 -10 52.5 -45.5
t20.5 -69.5q-5 -149 -15.5 -448t-15.5 -448q67 10 201 29.5t201 29.5q6 1 17.5 3t17.5 3q-13 169 -39.5 505.5t-39.5 504.5q-2 32 16.5 53.5t49.5 12.5q32 -10 51 -44.5t22 -71.5q12 -159 36.5 -475.5t37.5 -474.5q48 -2 90 -16q59 -21 99 -73t57 -117q32 -131 -28 -226z
" />
    <glyph glyph-name="Hardsigncyrillic" unicode="&#x42a;" horiz-adv-x="1728" 
d="M1509 748q81 -56 132.5 -144t58.5 -185q6 -84 -27.5 -155t-89 -117.5t-134.5 -83.5t-149.5 -57.5t-149.5 -34.5q-211 -38 -403.5 36t-293.5 253q-34 60 -55 124q-6 -5 -17 -13.5t-16 -12.5q-34 -29 -73 3.5t-48 80.5t16 78q43 36 96 73q-5 107 -5.5 150.5t3 152.5
t4.5 153q-45 0 -133.5 -0.5t-132.5 -0.5q-43 0 -72 57q-30 57 -15 100q11 31 44 31l355 1q38 0 63.5 -39.5t27.5 -79.5q4 -82 -2.5 -233.5t-6.5 -210.5q308 170 635 170q248 0 388 -96zM1152 169q30 8 60 16.5t73 23t80 32t76 39.5t65 48.5t43.5 55.5t16 65t-23.5 73
q-29 51 -85.5 83t-118 44t-137.5 12t-134 -6.5t-117 -17.5q-231 -42 -443 -176q19 -76 50 -127q43 -71 114.5 -116.5t153.5 -60.5t164.5 -11.5t162.5 23.5z" />
    <glyph glyph-name="Yericyrillic" unicode="&#x42b;" horiz-adv-x="1665" 
d="M1530 1122q9 -180 32.5 -540t32.5 -540q2 -32 -16.5 -54t-49.5 -12q-32 10 -51.5 44.5t-21.5 70.5q-7 128 -15.5 272t-19 319t-16.5 272q-122 -109 -280 -181q144 -86 211.5 -235t27.5 -311q-15 -60 -49.5 -108t-80 -77.5t-102.5 -51t-115.5 -28.5t-119 -9.5t-114.5 5.5
q-199 21 -356 132t-252 292q-93 176 -118 375t28 392q17 59 64 41q37 -15 61 -63q20 -40 11 -72q-48 -159 -26 -333.5t112 -314.5q82 -128 211.5 -194.5t288.5 -71.5q57 -2 110 2.5t111 20t101.5 41t74 71t35.5 105.5q5 54 -15 100t-58.5 79.5t-82.5 57t-98 41.5
q-59 19 -120 30q-186 -39 -381 -22q-18 2 -38.5 19t-34 41.5t-20.5 49.5t1 46.5t32 28.5q183 58 394 26q365 79 591 350q28 29 54.5 9.5t46 -56t20.5 -59.5z" />
    <glyph glyph-name="Softsigncyrillic" unicode="&#x42c;" horiz-adv-x="1415" 
d="M1000 864q99 -25 182 -89.5t132 -150.5t64.5 -187.5t-19.5 -202.5q-23 -68 -71.5 -121t-110 -83t-134.5 -48t-143.5 -16.5t-137.5 12.5q-175 35 -316.5 155t-228.5 288q-2 5 -7 16t-8 16q-42 -26 -62 -39q-25 -17 -54.5 10t-41.5 56q-14 28 -10.5 63t30.5 52q64 40 74 46
q-66 293 41 594q7 21 25.5 25.5t36.5 -3.5t31 -21q25 -26 34.5 -62.5t-2.5 -70.5q-70 -196 -46 -392q428 234 742 153zM1242 406q7 62 -15 114t-63 85t-95.5 55t-111.5 30.5t-113 5.5q-236 -13 -533 -179q21 -47 49 -92q75 -116 194.5 -189t254.5 -82q67 -4 136.5 7.5
t134.5 39.5t109.5 81t52.5 124z" />
    <glyph glyph-name="Ereversedcyrillic" unicode="&#x42d;" horiz-adv-x="1449" 
d="M1342 679q38 3 67 -42.5t24.5 -94t-48.5 -51.5q-9 -1 -26 -2.5t-26 -1.5q-8 -155 -96 -284q-81 -117 -211.5 -182.5t-282.5 -78.5q-151 -13 -304 21.5t-352 105.5q-40 14 -60 76.5t2 94.5q16 24 51 11q190 -68 333 -100.5t288 -20.5q129 11 241 66.5t181 153.5
q40 58 59 125q-123 -9 -370 -28.5t-371 -29.5q-38 -3 -67 42.5t-24.5 93.5t48.5 51q129 10 388 30.5t389 30.5q-16 43 -41 78q-126 169 -398 252q-248 77 -504 18q-40 -9 -75 34t-35 87.5t34 59.5q358 83 683 -58q147 -64 262.5 -161.5t178.5 -227.5q14 -30 28 -71
q5 0 16.5 1t17.5 2z" />
    <glyph glyph-name="IUcyrillic" unicode="&#x42e;" horiz-adv-x="1660" 
d="M1575 740q25 -84 31 -179.5t-7.5 -190t-53 -182.5t-102.5 -149q-88 -86 -202.5 -110t-225 11.5t-196.5 120.5q-196 194 -151 519q-194 -71 -420 -79q-2 -75 -5.5 -225t-4.5 -225q-1 -33 -17.5 -54.5t-48.5 -11.5q-31 9 -52.5 45t-20.5 70q2 71 5.5 212.5t4.5 211.5
q-25 26 -37 65t-2 69.5t43 29.5q2 82 5.5 245.5t5.5 245.5q1 33 17.5 54.5t48.5 11.5q31 -9 52.5 -45t20.5 -70q-2 -73 -5.5 -219.5t-4.5 -219.5q194 14 368 83q-13 22 -17 41q-23 98 10.5 182.5t102 136.5t160 75.5t182.5 7.5q184 -32 323 -163t193 -314zM1461 484
q15 113 -9.5 213.5t-92 182t-172.5 123.5q-170 68 -312 4q-59 -27 -102.5 -76t-36.5 -105l5 2.5l5 2.5q35 19 62 -11.5t36.5 -75.5t1.5 -70q-18 -55 -29 -93.5t-20.5 -92t-6 -102t20.5 -91.5q25 -64 81.5 -112.5t125.5 -67.5q82 -23 166.5 -1.5t146.5 79.5q105 97 130 291z
" />
    <glyph glyph-name="IAcyrillic" unicode="&#x42f;" horiz-adv-x="1212" 
d="M1085 1193q40 -10 61 -68q22 -59 1 -95q-17 -27 -55 -18l-27 6l38 -1108q1 -32 -17 -54t-49 -12q-32 10 -52 45t-21 70q-6 181 -18.5 542t-18.5 542q-247 34 -431 -26q-84 -27 -158.5 -77t-115.5 -112q-40 -62 -48 -116q0 -3 -1 -9t-1 -9q0 -5 0.5 -15t0.5 -15v-4
q1 -1 1.5 -3.5t0.5 -3.5q1 -2 2 -6.5t1 -6.5q2 -5 6 -13q2 -5 2 -4l9 -15q1 0 14 -15q2 -2 3 -4l2 -2l1 -1q1 -1 2.5 -2t3.5 -2q56 -40 128 -54q177 -34 446 69q26 10 53 -8.5t40.5 -49t16 -63t-19.5 -51.5q-131 -113 -213.5 -186.5t-193.5 -181t-196 -204.5q-32 -36 -74 6
q-39 38 -45 95q-5 39 14 61q124 142 316 318q-108 -2 -197 31q-125 46 -194.5 153.5t-65.5 235t79 234.5q51 73 124 125t152 79.5t172 39t179.5 9t178.5 -15.5v13q-1 32 17 54t49 12q29 -9 48.5 -39.5t23.5 -64.5q5 -1 13 -3t13 -3z" />
    <glyph glyph-name="acyrillic" unicode="&#x430;" horiz-adv-x="1062" 
d="M986 613q25 -161 16 -438q-2 -59 -39 -67t-75 43q-200 -134 -432 -159q-284 -30 -386 129q-34 52 -40 113.5t18 118.5q39 88 153 134q117 47 236 45t228.5 -45t201.5 -122q2 114 -8 210q-4 40 -8 65t-13 63.5t-26 66.5t-41 46q-48 36 -119 37t-124 -25
q-117 -50 -206 -188q-30 -47 -77 -14q-40 28 -54 82q-10 38 6 63q121 188 268 244q80 33 171.5 24t162.5 -60q145 -104 187 -366zM167 207zM428 181q155 19 303 101q-81 43 -162 56q-111 17 -215 -8q-130 -31 -171 -90l-15 -30v-1q24 -18 53 -25q73 -19 207 -3z" />
    <glyph glyph-name="becyrillic" unicode="&#x431;" horiz-adv-x="1126" 
d="M893 667q56 -19 101 -62t69.5 -96.5t30.5 -115t-17 -118.5q-63 -168 -392 -194q-258 -21 -452 43q-20 -49 -68 -27q-27 13 -46 46t-18 64q1 110 1 204.5t-13 199t-41 197.5q-8 17 -1 51t29 39q353 83 700 52q43 -4 72 -64q28 -58 13 -98q-10 -29 -42 -26
q-311 27 -617 -36q25 -110 34 -263q88 88 222 150q253 117 435 54zM952 406q3 12 3 14v4q0 3 -1 9t-1 9q0 1 -0.5 2.5t-0.5 2.5l1 1l-1 1v2h-1q-1 2 -3 6.5t-2 5.5q1 -3 3 -7l-2 2l1 -1v-1v1l-1 1l-2 2l-4 4l-12 9q-1 1 -9 4q-4 2 -14 6q-33 12 -63 14q-174 15 -371 -97
q-87 -49 -152 -120q151 -29 337 -10q116 12 196 47q79 35 99 89zM952 448q-1 -3 -3 2t-1 6l4 -7q0 1 -1 3q-2 2 -3 4l2 -2v1l-1 1q2 -4 2 -5h1h-1q0 -1 1 -3z" />
    <glyph glyph-name="vecyrillic" unicode="&#x432;" horiz-adv-x="1277" 
d="M1246 295q15 -54 5 -118.5t-49 -106.5q-54 -58 -181 -80q-62 -10 -129 -11.5t-138.5 6t-127.5 16.5t-133 24q-264 50 -391 104q-32 14 -51.5 47t-21.5 69q-1 31 17 54.5t48 11.5q78 -33 170 -57q-4 15 -5 24l-16 141q-24 1 -47.5 26.5t-35.5 57t-7 61.5t33 39q11 4 35 10
q-3 29 -9.5 86t-10.5 86q-26 32 -32.5 75.5t15.5 69.5q0 5 -1.5 16t-2.5 17q-3 31 16.5 53.5t49.5 12.5q30 -11 50 -44q156 61 312 70q113 7 193 -42t118 -153q51 -145 -26 -249q64 -18 118.5 -45t103 -64.5t83 -90.5t48.5 -116zM334 787q3 -24 8 -72.5t8 -72.5
q118 18 235 14q84 24 141 58q47 29 68 65q2 4 6 15q2 6 2 11v1q1 12 -7 27q-4 7 -7 13q-8 5 -10 6q-22 10 -48 13q-71 10 -172 -10q-123 -25 -224 -68zM1112 254q3 9 3 10q1 4 1 8q0 2 -0.5 8t-0.5 7l-5 19q-7 21 -32 41q-35 29 -85 51q-104 45 -238 60q-40 5 -122 9
q-33 -9 -116 -24q-83 -14 -141 -19q15 -138 22 -196v-5q14 -3 44 -8.5t44 -8.5q287 -55 466 -32q97 12 137 49q11 11 19 22q2 3 4 9z" />
    <glyph glyph-name="gecyrillic" unicode="&#x433;" horiz-adv-x="806" 
d="M709 993q43 0 72 -57q30 -57 15 -100q-11 -31 -44 -31q-56 0 -168.5 0.5t-168.5 0.5q-139 0 -152 -1q-61 -4 -65 -45q-2 -34 -1 -51.5t5 -53t5 -51.5q2 -28 5.5 -83.5t5.5 -83.5q4 -56 11.5 -167.5t10.5 -166.5q2 -32 -16.5 -54t-48.5 -12q-32 11 -51.5 45t-21.5 71
q-4 63 -12.5 189.5t-12.5 189.5q-2 31 -6 91.5t-6 90.5q0 6 -2 27.5t-2.5 30.5t-1 27.5t0.5 30.5t3.5 27.5t6.5 28.5q5 17 13.5 31.5t17.5 25t23.5 19t25 13.5t29 9t29.5 5.5t32.5 2.5t31 1h32.5h30h375z" />
    <glyph glyph-name="decyrillic" unicode="&#x434;" horiz-adv-x="1497" 
d="M1379 499q42 1 70.5 -50t18.5 -91l-84 -339q-15 -59 -60 -42q-37 14 -63 62q-21 41 -13 74t24.5 98t24.5 98l-1083 -13q64 -84 145 -136q28 -19 44 -57t9 -71q-7 -32 -30.5 -42.5t-51.5 7.5q-197 129 -303 367q-9 20 -11 46t9.5 49t38.5 23q32 0 97.5 1t98.5 2
q74 95 221.5 283t221.5 282q11 14 25.5 15t28.5 -8t25 -19t19 -21q94 -121 401 -520q29 1 88 1t89 1zM771 842q-46 -59 -138.5 -177t-138.5 -177q91 1 272.5 3.5t272.5 3.5q-44 58 -134 173.5t-134 173.5z" />
    <glyph glyph-name="iecyrillic" unicode="&#x435;" horiz-adv-x="1150" 
d="M1017 338v1q23 8 46.5 -5t38 -38.5t22 -53.5t0 -52.5t-30.5 -32.5q-209 -75 -434 -89q-127 -8 -226.5 2t-180.5 55q-136 77 -173 245q-27 24 -41.5 66t-5 74t43.5 29q16 96 63 166q83 126 253 215q193 101 348 61q56 -15 104 -51t79.5 -83t46 -102.5t9 -108.5t-36 -102.5
t-85.5 -82.5q-45 -27 -110 -46.5t-105 -26t-119 -17.5q-147 -21 -303 -16l3 -9q40 -67 192 -79q302 -25 602 81zM391 693q-103 -72 -151 -161q102 0 204 12q203 24 302 70q46 21 79.5 57t13.5 74q-15 29 -51.5 44.5t-73.5 16t-69 -2.5q-117 -16 -254 -110z" />
    <glyph glyph-name="zhecyrillic" unicode="&#x436;" horiz-adv-x="1368" 
d="M1265 264q39 -7 61 -62q23 -58 3 -96q-16 -31 -56 -24q-346 65 -648 219q1 -108 18 -216q1 -19 1.5 -39.5t-11.5 -37.5t-35 -17q-31 -1 -56.5 30.5t-30.5 64.5q-22 137 -23 266q-177 -156 -298 -328q-14 -20 -34.5 -14t-37 19.5t-26.5 27.5q-20 30 -22.5 64t16.5 65
q102 144 256 290q-151 113 -263 239q-24 26 -35 62.5t3 70.5q17 28 44 26.5t49 -25.5q129 -144 319 -270q8 6 23 17.5t22 17.5q29 220 107 425q8 21 26 25.5t36 -3.5t31 -21q25 -26 34.5 -62.5t-2.5 -70.5q-35 -91 -55 -168q221 140 467 236q23 9 46.5 -3.5t38 -38
t22.5 -53.5t0.5 -52.5t-30.5 -33.5q-326 -128 -587 -320q287 -147 627 -210z" />
    <glyph glyph-name="zecyrillic" unicode="&#x437;" horiz-adv-x="1220" 
d="M1164 501q44 -94 19.5 -184t-109.5 -148q-53 -35 -126.5 -59.5t-127 -34t-139.5 -20.5q-236 -30 -493 -7q-43 4 -72 64q-28 59 -12 99q11 28 42 25q262 -25 511 9q55 7 78.5 10.5t77.5 15t85.5 24t69 34.5t61.5 50t25 47.5t-25 44.5q-64 54 -185 54q-11 0 -35 -2
q-157 -124 -386 -157q-27 -4 -50 23.5t-33 58.5q-23 72 23 102q203 136 370 157q51 45 74 91q5 9 11 29q1 3 1 13q-2 1 -10 7t-10 7q-36 20 -79.5 26t-91.5 -2t-84.5 -18t-82.5 -26q-171 -60 -304 -171q-34 -29 -72.5 3.5t-47.5 80.5t16 78q187 156 414 216q297 78 430 -87
q47 -59 57 -129.5t-15 -133.5q159 -49 225 -190z" />
    <glyph glyph-name="iicyrillic" unicode="&#x438;" horiz-adv-x="964" 
d="M874 786q7 -95 21 -285.5t21 -285.5q2 -31 -17 -54t-49 -12q-32 11 -51.5 44.5t-21.5 70.5q-5 62 -14 186t-13 185q-74 -66 -222 -199t-222 -199q-31 -25 -57.5 -7t-44.5 52t-20 61q-12 233 -139 428q-12 18 -19 40.5t-5 48t17 40.5q16 17 36 12.5t35.5 -17t26.5 -28.5
q114 -176 160 -383q76 68 228.5 204t228.5 204q31 26 57.5 7.5t44 -52.5t19.5 -61z" />
    <glyph glyph-name="iishortcyrillic" unicode="&#x439;" horiz-adv-x="972" 
d="M881 786q7 -95 20.5 -285.5t20.5 -285.5q2 -31 -17 -54t-49 -12q-32 11 -51.5 44.5t-21.5 70.5q-4 62 -13 185t-14 185q-74 -66 -222 -198.5t-222 -198.5q-31 -25 -57.5 -7t-44 52t-19.5 61q-12 231 -140 428q-12 18 -19 40.5t-5 48t17 40.5q16 17 36 12.5t35.5 -17.5
t26.5 -29q116 -179 161 -382l456 408q40 36 79.5 -11.5t42.5 -94.5zM380 1091h1h-1zM500 875q-81 3 -145.5 52.5t-103.5 127.5q-15 24 -11 62.5t31 52.5q21 11 52 -9q21 -14 42 -54l1 -1l-5 11q1 -4 8 -14l7 -7q1 -1 2.5 -2t2.5 -2.5t2 -2.5l-2 2q3 -2 10 -6.5t10 -7.5l9 -3
q14 -5 25 -8q2 -1 3 -1q0 -1 2 -1h5q8 -1 23 -1q8 0 24 2h1q2 1 6 2t6 2q18 6 45 20v1h1q1 2 5 4t5 4q12 10 17 16l15 18q1 2 3 5.5t3 5.5q19 29 44 26.5t49 -25.5q25 -24 35 -63t-4 -70q-33 -63 -93.5 -100.5t-129.5 -35.5zM491 1065zM445 1063q-3 1 -6 1z" />
    <glyph glyph-name="kacyrillic" unicode="&#x43a;" horiz-adv-x="985" 
d="M884 238q32 -11 52 -45.5t21 -69.5q1 -32 -17 -54t-49 -12q-317 111 -602 313q-5 -1 -14 -4t-16.5 -5t-14.5 -3q-5 -1 -14 -1l21 -189q3 -31 -16 -53.5t-49 -12.5q-32 11 -50.5 43.5t-22.5 71.5l-69 600q-3 31 16 53.5t49 12.5q32 -11 50.5 -43.5t22.5 -71.5
q4 -36 12.5 -108.5t12.5 -109.5q330 86 566 289q34 29 72.5 -3t47.5 -80t-16 -79q-177 -153 -404 -245q203 -120 411 -194z" />
    <glyph glyph-name="elcyrillic" unicode="&#x43b;" horiz-adv-x="1183" 
d="M1120 286h-1q29 -24 45 -58.5t9 -69.5q-6 -31 -31 -42.5t-51 8.5q-304 252 -503 604q-205 -338 -455 -609q-33 -36 -75 6q-39 38 -45 94q-5 40 15 62q283 307 488 665q18 33 43 27.5t45 -25t32 -44.5q174 -359 484 -618z" />
    <glyph glyph-name="emcyrillic" unicode="&#x43c;" horiz-adv-x="1257" 
d="M1159 295q40 -11 61 -69q22 -61 0 -96q-17 -26 -54 -16q-161 46 -183 304q-2 22 -7 132l-78 -123q-4 -6 -25 -40t-29 -46t-29 -39t-36.5 -39t-39.5 -24.5t-49 -15.5q-20 -3 -41 1t-37 9t-38 20t-33 23t-33.5 30.5l-29 29t-29.5 33t-25 28.5q-66 75 -128 160
q-23 -68 -68.5 -204.5t-68.5 -204.5q-5 -16 -17.5 -22.5t-26.5 -4t-27 10t-22 16.5q-25 27 -33.5 62t2.5 70q28 84 84 251.5t84 251.5q9 28 32 28t44 -15t32 -32q80 -126 162 -220q6 -7 16.5 -20t19 -23.5t22 -25.5t23.5 -24t24.5 -20t26 -14t26.5 -5.5t27 5.5
q24 11 48.5 37.5t39.5 51t36 62t30 51.5q28 43 82 129.5t82 129.5q28 37 57 25t51.5 -49t22.5 -67q0 -158 7 -297q8 -135 10 -147q3 -18 5 -24.5t9 -13t21 -10.5z" />
    <glyph glyph-name="encyrillic" unicode="&#x43d;" horiz-adv-x="1077" 
d="M981 915q25 -20 39.5 -56t6.5 -65q-1 -3 -3 -9.5t-3 -9.5q-98 -281 -21 -575q8 -31 -2.5 -62.5t-41.5 -31.5q-32 0 -55.5 30t-32.5 65q-34 132 -39 268q-67 -59 -143 -95q-106 -49 -226.5 -53.5t-229.5 33.5q0 -11 1 -35t1 -36q9 -75 4 -158v-9v-11.5t-1 -11.5
q-3 -29 -25.5 -40.5t-47.5 1.5q-28 13 -46 45.5t-19 65.5q-1 29 -2 87.5t-2 87.5q-11 71 -35 128q-14 31 -6.5 70.5t35.5 45.5q-1 46 -3.5 139t-3.5 140q-1 32 17 54t49 12q31 -11 51.5 -46t21.5 -70q1 -47 3.5 -140.5t3.5 -140.5q83 -24 165.5 -24.5t162.5 28.5t146 75.5
t116 117.5t73 154q4 16 7 24q7 19 23 24.5t32.5 0t29.5 -16.5z" />
    <glyph glyph-name="ocyrillic" unicode="&#x43e;" horiz-adv-x="1001" 
d="M943 611q47 -133 -6 -260.5t-179 -193.5q-118 -63 -261.5 -55.5t-253.5 83.5q-116 81 -171 216.5t-20 270.5q34 129 140 208t238 72q46 -3 76 -72q138 -5 225 -45q159 -74 212 -224zM812 475q17 43 14 81q0 3 -2 13l-1 5v-1q-2 10 -13 26q-24 33 -63 53.5t-92.5 28.5
t-90 10.5t-93.5 2.5h-14q-44 0 -74 61q-77 -19 -132 -73.5t-69 -131.5q-8 -38 -1 -74q7 -37 21 -57q45 -68 116 -98q92 -39 195 -31t189 59q78 47 110 126z" />
    <glyph glyph-name="pecyrillic" unicode="&#x43f;" horiz-adv-x="1050" 
d="M952 775q7 -110 22 -331.5t22 -332.5q2 -32 -17 -54.5t-49 -11.5q-31 10 -50 44t-22 71l-36 540q-106 -8 -162.5 -10.5t-147 -2t-166 14t-145.5 38.5q3 -97 8 -291t8 -291q1 -32 -16.5 -54t-48.5 -12q-31 11 -51.5 45.5t-21.5 69.5q-3 113 -10 338t-10 338q-1 30 18 55
t48 11q55 -27 121 -43.5t113.5 -24t132.5 -7.5t117.5 1.5t133 9t119.5 8.5q37 3 62 -38t28 -80z" />
    <glyph glyph-name="ercyrillic" unicode="&#x440;" horiz-adv-x="1163" 
d="M1023 859q94 -74 109 -192t-58 -213q-33 -43 -80 -74t-112 -52t-105 -31t-114 -24q-206 -40 -423 -26q23 -370 91 -724q7 -32 -3 -62t-42 -31q-31 -1 -56 30t-31 65q-73 375 -97 764q-21 27 -27 58q-5 17 -0.5 45.5t20.5 40.5q-4 104 -4 234q-35 37 -41 89t32 71
q2 1 5.5 2t5.5 2q0 15 2 45q1 37 17 53t36 11.5t41 -22t33 -42.5q201 61 408 67q127 4 224 -11.5t169 -72.5zM886 547q43 24 82.5 65.5t28.5 78.5q-7 27 -103 50q-75 18 -222 14q-224 -7 -443 -84q-1 -79 3 -239q226 -10 422 36q151 34 232 79z" />
    <glyph glyph-name="escyrillic" unicode="&#x441;" horiz-adv-x="1120" 
d="M993 423q22 10 45 -1.5t38 -36.5t23 -53t0.5 -53.5t-29.5 -36.5q-299 -143 -628 -138q-167 2 -255 55q-59 36 -95.5 99t-47.5 136q-18 120 26.5 236.5t136.5 197.5q57 50 128 82.5t150.5 40.5t148.5 -27q46 -23 80.5 -68.5t48 -99.5t9.5 -106.5t-38.5 -93.5t-94.5 -56
q-31 -8 -56.5 12.5t-39.5 53.5q-7 17 -10.5 40t3.5 46.5t27 28.5q23 5 53 26t20 37q-9 14 -72 18q-50 2 -93 -10q-76 -21 -140.5 -69.5t-103.5 -115.5q-22 -37 -37.5 -79.5t-14.5 -93t37 -71.5q8 -5 16.5 -8.5t19 -6.5t17.5 -5.5t20.5 -4t18.5 -2.5t21 -1.5t18.5 -1
t20.5 -1.5h18q107 -3 208 10q204 26 403 121z" />
    <glyph glyph-name="tecyrillic" unicode="&#x442;" horiz-adv-x="1185" 
d="M1088 979q38 4 67 -41.5t24.5 -94t-48.5 -52.5q-96 -10 -288.5 -28t-288.5 -28l15 -591q1 -32 -17 -54t-49 -12q-31 11 -51.5 45.5t-21.5 69.5q-2 88 -6.5 264t-6.5 264l-313 -31q-38 -4 -67 41.5t-24.5 94t48.5 52.5q171 17 513.5 50.5t513.5 50.5z" />
    <glyph glyph-name="ucyrillic" unicode="&#x443;" horiz-adv-x="1193" 
d="M1047 942q31 49 78 14q40 -30 53 -84q9 -38 -6 -62l-789 -1248q-30 -48 -77 -15q-39 29 -53 83q-10 39 6 63q50 79 150 237.5t150 238.5q-85 80 -253.5 241.5t-252.5 242.5q-24 23 -34 62t3 71q10 20 27.5 24.5t34 -3t31.5 -21.5q87 -83 260 -248.5t260 -248.5z" />
    <glyph glyph-name="efcyrillic" unicode="&#x444;" horiz-adv-x="1458" 
d="M1286 848q75 -53 111.5 -139.5t29.5 -172.5t-58 -163t-139 -111q-88 -31 -172.5 -20.5t-164.5 57.5q-52 30 -97 80q-10 -127 -30 -383t-30 -383q-3 -32 -30 -41.5t-52 7.5q-30 19 -43.5 54.5t-10.5 73.5q8 100 23.5 299t23.5 299q-82 -66 -155 -90q-88 -32 -186.5 -15.5
t-166.5 83.5q-82 80 -103 193t26 216.5t151 154.5q82 38 168 34t167 -44q75 -38 133 -101q5 64 15 192.5t15 192.5q3 32 30 41.5t52 -7.5q30 -19 43.5 -54.5t10.5 -73.5t-9 -113.5t-9 -113.5q54 48 111 74q81 38 177 32t169 -58zM416 397q113 38 235 175q-1 2 -3.5 4.5
l-3.5 3.5q-56 68 -140.5 98t-167.5 6q-77 -23 -132 -88.5t-31 -138.5q11 -33 40 -51.5t66 -22t72.5 0t64.5 13.5zM1103 428q79 14 142.5 77.5t41.5 139.5q-10 32 -40.5 51t-68.5 22t-75 -1.5t-64 -14.5q-111 -42 -203 -169q53 -60 122.5 -89t144.5 -16z" />
    <glyph glyph-name="khacyrillic" unicode="&#x445;" horiz-adv-x="1048" 
d="M938 465q28 -19 44 -57t10 -72q-6 -32 -31 -42t-52 8q-155 105 -336 206q-240 -263 -406 -567q-26 -49 -72 -16q-40 28 -55 83q-12 39 2 65q154 283 361 524q-169 84 -276 128q-32 13 -51.5 46t-21.5 69q-1 31 17 54.5t48 11.5q194 -81 395 -187q181 189 372 330
q36 27 75 -6t47.5 -80.5t-17.5 -75.5q-160 -120 -307 -264q143 -83 254 -158z" />
    <glyph glyph-name="tsecyrillic" unicode="&#x446;" horiz-adv-x="1226" 
d="M1173 198q34 -72 37.5 -151t-33.5 -150q-34 -58 -96.5 -77t-123.5 10q-82 39 -125.5 124t-50.5 185q-2 32 17 54t49 12q32 -11 51.5 -44.5t21.5 -70.5q3 -35 13 -57l7 -8l-1 -2q5 -7 15 -13q36 -21 74 -2q19 10 30.5 32t13.5 50q-1 -5 -1 5v11l-1 2q0 3 -1 6.5t-1 6.5
q-3 6 -8 21q-1 2 -1 4q-2 2 -4 5q-3 4 -7 10t-7 10q-1 1 -8 10t-8 10q-7 8 -15.5 17t-19 20t-16.5 17q-89 91 -106 111q-25 27 -55 70q-16 -77 -54 -134q-54 -84 -143 -128t-188 -40t-185 53q-73 42 -123.5 114.5t-69.5 157.5q-41 190 71 413q25 50 71 17q39 -28 55 -84
q12 -38 -1 -64q-54 -107 -66 -193q-3 -26 -1 -68q0 -11 1 -14q0 -1 0.5 -2.5t0.5 -2.5q1 -3 4 -14l3 -8l-1 1l9 -21q1 -1 3.5 -5t3.5 -5t2.5 -4t2.5 -4q3 -3 9 -10t9 -10l5 -5q1 0 2 -1t3 -2q14 -9 25 -17l5 -2.5t4 -2.5q2 -1 11.5 -5.5t14.5 -6.5q97 -37 196 -5q30 9 56 24
q4 2 11 6.5t10 6.5q1 1 2 1h1l1 1q2 2 6 5.5t6 4.5q46 39 68 82q56 108 16 269q-7 31 3.5 62t41.5 32q32 1 55 -29t32 -66q22 -84 67.5 -152t118.5 -143q5 -5 29 -29.5t31.5 -32.5t27 -29t29 -33.5t24.5 -32t25.5 -37t19.5 -36.5zM269 341q-1 0 -2 1l-3 2l6 -3h-1z" />
    <glyph glyph-name="checyrillic" unicode="&#x447;" horiz-adv-x="872" 
d="M778 755q25 -20 39 -55.5t7 -65.5q-36 -159 -49 -324.5t-18 -393.5q-1 -33 -17.5 -54.5t-48.5 -11.5q-31 10 -52.5 45.5t-20.5 69.5q6 253 15 377l-51 -51q-57 -50 -106 -84t-120 -56t-132 -5q-54 15 -93.5 53.5t-58.5 90.5t-26 106t-1 108q21 215 147 410q31 48 79 13
q40 -29 53 -83q9 -38 -7 -62q-98 -152 -127 -313q0 -1 -4.5 -22t-5.5 -30t-2.5 -26.5t1 -29.5t7.5 -21q-2 3 2 1q1 -1 6 -4q8 -5 10 -6q22 -8 61 -2q112 20 255 163q107 107 174 255q15 27 38.5 27t45.5 -19z" />
    <glyph glyph-name="shacyrillic" unicode="&#x448;" horiz-adv-x="1198" 
d="M1098 401q29 -19 45.5 -60.5t7.5 -77.5t-46 -39q-2 0 -6 -0.5t-6 -0.5v-10q-1 -33 -18 -55t-48 -11q-38 13 -62 66q-61 -5 -184 -15t-184 -15q-19 -24 -50 -13q-6 2 -16 8q-57 -5 -169 -14.5t-169 -13.5q-17 -48 -61 -33q-31 11 -52 45.5t-21 69.5v550q0 33 17.5 54.5
t48.5 11.5q31 -11 52 -45.5t21 -69.5v-391l274 22q-2 66 -5.5 197.5t-5.5 197.5q-1 32 17 54t49 12q31 -11 51.5 -45.5t21.5 -69.5q1 -56 4 -168t5 -167l349 29q2 78 6.5 234t6.5 235q1 33 17.5 55t47.5 11q31 -10 52.5 -45.5t20.5 -69.5q-2 -71 -5.5 -212t-5.5 -211z" />
    <glyph glyph-name="shchacyrillic" unicode="&#x449;" horiz-adv-x="1402" 
d="M1286 326q50 -51 78 -124.5t21 -141.5q-5 -49 -31 -81.5t-62.5 -45t-81 -16t-86.5 4.5q-33 4 -56 31.5t-31 63.5q-7 29 3.5 63t41.5 30q104 -15 150 9q9 5 14 14q2 3 2 11q0 1 -1 5q0 1 -0.5 2.5t-0.5 2.5q-1 3 -3.5 8t-5.5 10t-3 6q-6 8 -7 9q-30 23 -68 31q-7 2 -25 4
q-12 -23 -38 -23q-30 0 -56 31q-22 1 -61 0t-51 -1q-130 -2 -257 -15q-255 -28 -507 -109q-28 -9 -55.5 12.5t-42 54t-12.5 66t26 45.5q-1 89 -3 266.5t-3 266.5q0 33 17 54.5t48 11.5q31 -11 51.5 -46t21.5 -70q1 -74 3 -221t3 -221q160 43 315 65v412q0 34 17 54.5
t49 11.5q31 -8 52 -45t21 -71v-346l63 6q122 9 253 4q-30 204 -26 406q1 33 17.5 55t47.5 11q31 -10 52.5 -46t20.5 -70q-4 -183 22 -366q105 -19 164 -79zM1245 155z" />
    <glyph glyph-name="hardsigncyrillic" unicode="&#x44a;" horiz-adv-x="1220" 
d="M1158 536q69 -172 -15 -289q-65 -90 -212 -129q-100 -24 -195.5 -25t-190.5 33.5t-167 102.5q-18 16 -48 52q-28 -31 -66 -7t-52 68.5t1 79.5q3 5 11.5 15t11.5 15q-57 162 -25 345l-105 -10q-38 -4 -67 41t-24.5 93.5t48.5 52.5q39 4 119 12t119 12q48 5 74.5 -57
t9.5 -103q-57 -142 -43 -274q162 138 374 181q147 30 267.5 -22t174.5 -187zM1048 432q8 20 -2.5 49t-29.5 46q-22 17 -31 22q-23 9 -31 11q-34 10 -83 10q-90 0 -199 -41q-151 -57 -252 -147q40 -43 90 -66q98 -42 208.5 -38t207.5 45q96 41 122 109z" />
    <glyph glyph-name="yericyrillic" unicode="&#x44b;" horiz-adv-x="1259" 
d="M614 794q149 -5 258.5 -120t105.5 -265q-2 -71 -35.5 -129.5t-86.5 -95t-119 -55t-134 -13.5q-116 7 -221 67t-178 156q-6 -7 -18.5 -21t-18.5 -21q-15 -18 -35 -13t-36.5 18t-26.5 29q-20 30 -23.5 64t17.5 64q47 53 49 55q-80 230 -2 475q5 16 17.5 22.5t26.5 4
t27 -9.5t22 -16q25 -26 33.5 -62.5t-2.5 -70.5q-39 -119 -19 -239q200 184 399 176zM839 468q1 15 -4 33q0 1 -4 10t-5 10q-7 12 -22 27q-28 28 -59 40q-97 38 -211 1q-116 -37 -238 -154q57 -66 141.5 -101t173.5 -30q108 7 175 68q36 32 48 67q5 18 5 29zM1212 234
q3 -31 -16.5 -53.5t-49.5 -12.5q-32 11 -50.5 44.5t-22.5 71.5q-11 103 -32 308.5t-31 308.5q-3 31 16.5 53.5t49.5 12.5q32 -11 50.5 -44t22.5 -71z" />
    <glyph glyph-name="softsigncyrillic" unicode="&#x44c;" horiz-adv-x="995" 
d="M839 649q62 -40 97.5 -108t29.5 -140q-5 -61 -42.5 -111.5t-95 -82.5t-116 -52t-118.5 -30q-140 -22 -258.5 40.5t-181.5 189.5v2q-34 -26 -72.5 6.5t-47 79.5t16.5 77q19 15 51 38q-9 133 42 347q8 32 30.5 42t51.5 -8q29 -19 45.5 -57t8.5 -71q-28 -113 -36 -173
q168 74 341 71q164 -2 254 -60zM828 473l2 -2q-9 12 -44 26q-39 15 -87 20q-99 10 -201 -5q-124 -19 -238 -84q8 -20 10 -22q29 -49 84.5 -75t113 -25t115.5 14q111 29 177 75q42 28 59 57q2 3 5 11t4 10zM831 470q9 -4 10 -0.5t-13 13.5q1 -8 3 -13z" />
    <glyph glyph-name="ereversedcyrillic" unicode="&#x44d;" horiz-adv-x="1128" 
d="M1086 530q17 -104 -23 -193.5t-128 -149.5q-153 -103 -398 -116q-232 -12 -452 78q-32 13 -51.5 46t-21.5 69q-1 31 17.5 54.5t48.5 11.5q233 -96 482 -66q221 26 328 129l-381 6q-32 1 -55 30t-32 64q-8 30 2.5 62t41.5 31q79 -2 236.5 -4t236.5 -3q-28 62 -94 102
q-47 29 -103 43.5t-124 14t-111.5 -4t-117.5 -13.5q-38 -5 -67 39.5t-24.5 93t48.5 54.5q100 13 174 16t165.5 -12.5t164.5 -54.5q91 -49 156 -137.5t82 -189.5z" />
    <glyph glyph-name="iucyrillic" unicode="&#x44e;" horiz-adv-x="1335" 
d="M1252 687q51 -108 41 -229t-78 -219q-69 -98 -179 -145t-222 -17q-87 24 -154.5 88.5t-101.5 151.5q-124 -13 -195 -49q-49 -25 -84.5 -66.5t-36.5 -88.5q-1 -34 -17.5 -55t-48.5 -11t-51 43.5t-22 71.5q-9 108 -27 325.5t-27 326.5q-2 32 16.5 53.5t49.5 12.5
q32 -10 51 -43.5t22 -71.5l30 -362q1 1 11.5 9.5t16.5 12.5q89 61 269 80q23 65 53 121t71 108t96 89t118 53q125 31 234 -21t165 -168zM945 267q93 34 155 119t55 181q-3 48 -30 80t-66 43.5t-83 9.5t-85 -17q-145 -53 -229 -251q8 -22 8 -39q2 -45 31.5 -78t71.5 -45.5
t89 -15.5t83 13z" />
    <glyph glyph-name="iacyrillic" unicode="&#x44f;" horiz-adv-x="1130" 
d="M1068 698q21 -26 28.5 -58.5t-4.5 -64.5q-40 -91 -114 -164q25 -144 -16 -381q-6 -32 -30.5 -42t-51.5 7q-29 18 -44 56.5t-9 72.5q17 98 23 161q-341 -332 -817 -481q-39 -12 -74.5 30t-36 87t33.5 64q283 89 527 252q-101 11 -172.5 63t-96.5 151q-32 125 44.5 227
t204.5 129q126 27 242.5 -27.5t191.5 -165.5q45 57 80 108q11 18 30.5 14t35 -14.5t25.5 -23.5zM345 457q14 -12 40 -23q97 -35 235 1q103 26 186 83q-18 28 -44 49q-53 45 -126.5 58t-145 -10.5t-115.5 -78.5q-33 -40 -30 -79z" />
    <glyph glyph-name="iocyrillic" unicode="&#x451;" horiz-adv-x="1335" 
d="M1216 387q23 9 46 -3t37.5 -37t22.5 -53t0.5 -53.5t-30.5 -34.5q-83 -35 -141 -57.5t-141.5 -49.5t-152 -38t-146 -15.5t-152 10.5t-144.5 48q-92 43 -165.5 119.5t-114.5 171.5q-4 1 -12.5 2t-12.5 1q-34 6 -56.5 32t-30.5 62q-6 30 4 64.5t41 29.5q9 -2 27 -4
q0 67 17 125q24 80 75.5 139.5t117.5 92t144.5 52.5t157 20.5t154.5 -4.5q242 -24 319 -190q45 -98 13.5 -192t-125.5 -145q-79 -43 -178 -63t-228 -33q-130 -13 -273 -5q50 -63 135 -100t176 -44q63 -5 131.5 2.5t120.5 19t128 38t115.5 42.5t120.5 50zM619 824
q-60 -4 -121 -21t-117.5 -47t-96 -79.5t-47.5 -109.5q326 -23 589 67q64 22 117.5 68t-3.5 82q-39 25 -103 35t-107 9.5t-111 -4.5zM289 1158q-11 38 -32.5 113.5t-32.5 112.5q-9 31 2.5 61t42.5 32q24 1 52 -27q23 -24 35 -67q11 -37 32.5 -113t32.5 -113q9 -31 -2 -61
t-42 -32q-24 -1 -52 27q-24 26 -36 67zM686 1094q-26 16 -44 57q-17 40 -10 72q7 36 23 108t23 108q7 32 30 44q20 10 52 -9q26 -16 44 -57q17 -40 10 -72q-7 -36 -23 -108t-23 -108q-7 -32 -30 -44q-20 -10 -52 9z" />
    <glyph glyph-name="endash" unicode="&#x2013;" horiz-adv-x="1179" 
d="M1023 657q42 1 72 -55q30 -55 16 -98q-10 -33 -45 -34l-912 -18q-43 -1 -73 56q-29 56 -15 100q11 31 45 32q152 3 456 8.5t456 8.5z" />
    <glyph glyph-name="emdash" unicode="&#x2014;" horiz-adv-x="1945" 
d="M1789 707q43 2 72 -55q30 -57 15 -100q-11 -32 -45 -33l-1674 -54q-42 -2 -72 54q-30 55 -16 99q10 33 45 34q279 9 837.5 27.5t837.5 27.5z" />
    <glyph glyph-name="perthousand" unicode="&#x2030;" horiz-adv-x="2146" 
d="M637 895q-82 -101 -280 -78q-179 22 -252 137q-48 73 -35 158.5t84 135.5q111 79 307 37q42 -9 64 -72q47 -13 84 -49.5t54.5 -81.5t12 -96t-38.5 -91zM197 1047l-2 2l3 -3h-1v1zM205 1024l1 -1v4l-1 -1v-2zM317 1005q60 -7 110 -1q51 6 84 30l6 6q-35 18 -52 64
q-24 5 -51 7q-33 3 -65 0q-55 -5 -99 -31l-1 -1q-1 -1 -2 -1q-8 -6 -11 -9q-8 -6 -14 -14q-1 -1 -3 -4t-3 -4l-1 -1q-2 -3 -4 -9l2 -1l6 -3q3 -1 9 -4l10 -5q13 -5 46 -14q4 -2 12 -2zM1057 1328q31 48 79 13q40 -29 53 -83q9 -38 -7 -62q-114 -175 -341.5 -525.5
t-341.5 -526.5q-31 -48 -79 -13q-40 29 -53 83q-9 38 7 62q114 175 341.5 525.5t341.5 526.5zM1281 445l-5 5zM1043 650q107 40 211 -9.5t151 -155.5q41 -89 18 -186.5t-103 -154.5q-73 -52 -161.5 -58.5t-167.5 35.5q-84 46 -132.5 140t-28.5 186q15 69 67.5 119t121.5 62
q8 16 24 22zM1290 397zM1290 398v2q0 2 1 8.5t2 8.5q-1 6 -1 7h1q0 -2 1 -4l-2 6v1v2l-2 4q-3 3 -5 7v1l-4 4l-5 5v1v-1q-2 2 -5.5 5t-5.5 4l-5 2.5t-4 2.5q-4 2 -6 2q-4 1 -13 4.5t-14 5.5q-9 3 -27 4q-14 1 -29 0q-6 0 -14 -2q-11 -35 -43 -34q-11 1 -33 -1h-5l-2 -1
q-2 0 -3 -1q-10 -3 -13 -4q-14 -5 -27 -12q-2 -1 -6 -3.5t-6 -3.5l-4 -4q-16 -14 -23 -22q-1 -2 -4.5 -6.5t-5.5 -6.5l-1 -1q-4 -8 -12 -26q3 7 3 5q1 -3 -4 -14v-7q0 -1 1 -2.5t1 -2.5l2 -4q1 -1 2 -4t2 -4t5 -4.5t6 -6.5l2 -2q5 -4 17 -12q1 -1 7 -5q4 -2 5 -2
q4 -1 13 -4.5t13 -5.5q12 -2 13 -3q8 -2 11 -2q10 -1 29 -1q10 0 28 2q7 0 11 1h2q1 1 2 1q34 9 57 20q21 11 25 13q5 3 6 4l-1 -1l-2 -1q2 1 5.5 4t5.5 5q18 16 26 25q2 2 5 6t5 6q3 3 4 5q5 8 13 24q1 2 2.5 6.5t2.5 6.5zM1639 292zM2067 404q21 -113 -26 -197
q-43 -78 -123 -116q-85 -38 -173.5 -21t-157.5 79q-74 68 -99 174.5t18 198.5q37 74 115 107t157 6q100 19 184.5 -53.5t104.5 -177.5zM1927 425l-1 2zM1926 427zM1924 429q-2 3 -4 3q2 -1 4 -3zM1836 449zM1930 371q0 3 2 11t3 11q0 2 -0.5 5.5t-0.5 5.5v5q-2 6 -2 7l-2 4
v1q-1 1 -5 7h-1l-12 9l-5 4q-5 2 -14.5 4.5t-10.5 2.5q-4 2 -8 2h-6q-15 1 -29 0h-1q-5 -1 -15 -5q-30 -11 -58 13q-19 2 -28 1q-4 0 -14 -2h-2q-15 -4 -31 -12q-5 -2 -15 -8q-1 0 -1 -0.5t-1 -0.5q-12 -9 -23 -20q-2 -2 -5.5 -6t-5.5 -6l-1 -1q-6 -9 -14 -29v-1l-1 -1
l-1 -1v-1q0 -3 -1 -7.5t-2 -6.5q0 -5 -1 -8v-3q0 -2 0.5 -6t0.5 -6l-1 1q1 -1 1 -2v-4q0 -2 1 -3v-1h-1h1v-1q1 -1 1 -2v-2q1 -6 3 -6q0 -1 0.5 -1t0.5 -1q5 -7 5 -8q-2 2 -3 2l4 -4v-1l3 -4l-1 2l4 -5l1 -1h1q-1 0 -3 1q5 -2 13.5 -8.5t11.5 -8.5q11 -5 11 -5.5t-8 2.5
q2 -1 5.5 -2.5t5.5 -2.5q9 -4 29 -10l12 -3l1 -1h2h4q18 -2 27 -2q23 0 34 1q7 2 10 2l8 2q27 8 50 21q1 1 13 7l8 6q8 6 22 20q3 3 5.5 6t6 7.5t5.5 6.5l1 1q0 1 1 2q4 6 6 10q3 5 7 17q1 1 2 5t1 5zM1629 303q3 -3 4 -5q-1 0 -1 1t-1 2q0 1 -1 1t-1 1zM1619 332q1 -1 1 -6
v4zM1620 323v3v-2l1 -2q-1 0 -1 1zM1621 322q5 -7 3 -9q0 2 -1 4.5t-2 3.5v1zM1620 324v-1v1z" />
    <glyph glyph-name="uni20bd" unicode="&#x20bd;" horiz-adv-x="1464" 
d="M1250 1241q57 -57 93 -132.5t41.5 -158t-33.5 -156.5q-24 -46 -67 -85t-82.5 -63.5t-105.5 -50t-100 -36.5t-104 -31q-222 -64 -466 -89q1 -18 4.5 -53.5t5.5 -53.5l624 93q30 5 55 -28.5t32 -65.5q8 -33 -3 -60.5t-42 -32.5q-109 -17 -325.5 -49t-324.5 -49q2 -26 7 -79
t7 -80q2 -32 -16.5 -53.5t-49.5 -12.5q-32 10 -51 43.5t-22 71.5l-3 45t-4 45q-6 -1 -17.5 -2.5t-17.5 -2.5q-30 -5 -55 28.5t-32 65.5q-8 33 2.5 61t41.5 33q10 2 30.5 5t30.5 4q-1 20 -5 59t-5 58h-3q-43 -2 -72 54t-15 100q11 32 45 34q9 0 29 2q-8 90 -23.5 269.5
t-23.5 269.5q-7 -2 -20.5 -5.5t-20.5 -5.5q-40 -10 -75 33t-35.5 88t33.5 61q106 28 168 42.5t155.5 32t177 23t163.5 -0.5q309 -22 474 -185zM894 734q153 50 220 87q163 91 126 210q-17 55 -66.5 96.5t-116.5 64t-127 33t-120 14.5q-188 11 -448 -49l48 -561
q248 27 484 105z" />
    <glyph glyph-name="numero" unicode="&#x2116;" horiz-adv-x="2037" 
d="M1385 1259q-15 -10 -27.5 -24.5t-20.5 -26.5t-16.5 -34.5t-11.5 -33t-10.5 -37.5t-9.5 -33q-52 -179 -155.5 -536.5t-155.5 -536.5q-8 -28 -26 -38.5t-37.5 -3.5t-37 24.5t-25.5 39.5q-63 170 -188.5 510t-188.5 510q-44 -174 -132.5 -522.5t-133.5 -522.5
q-15 -60 -61 -42q-37 15 -62 63q-21 40 -13 72q53 205 157.5 617t156.5 617q7 29 25.5 39t38 3t37 -24.5t25.5 -39.5q63 -172 190.5 -515t190.5 -515q26 91 78.5 273.5t79.5 273.5l105 363q2 5 8 27t8.5 29.5t8.5 27t10 29t11 26t13 27t14.5 23.5t18.5 23.5t21 20.5
q49 42 110.5 53.5t120 -4.5t111.5 -51.5t89 -83.5q49 -65 73.5 -141t24 -158t-11 -153.5t-33.5 -159.5q-15 -59 -60 -42q-37 14 -63 62q-21 41 -13 74q37 145 44 201q21 184 -89 249q-41 24 -94 25t-94 -24zM1434 135q5 -3 5 -8q0 1 -4 7zM1819 272l1 5q0 -1 -0.5 -2.5
t-0.5 -2.5zM1703 496q81 9 146.5 -43t93 -133.5t9.5 -158.5q-22 -91 -98 -158.5t-172 -90.5q-109 -26 -192 5q-95 35 -149 124q-53 82 -51 188.5t66 182.5q57 67 145 90.5t179 5.5q9 -2 23 -12zM1818 294v1v-1zM1816 296q-2 1 -3 2l2 -3q1 -1 3 -2q-1 2 -2 3zM1689 326h-1h1
zM1433 199zM1433 137zM1430 147q1 -1 1 -2zM1820 278v-1v1q-1 8 -1 12v3h-1q-5 3 -13 9l-1 1q-1 0 -3 1q-10 2 -13 4l-2 1q-2 1 -3 1q-2 0 -5 0.5t-5 0.5q-3 0 -8.5 -0.5t-8.5 -0.5h-3h-3q-32 -8 -61 16q-2 0 -7.5 1t-6.5 1q-6 1 -17 1q-17 2 -35 0q-20 -2 -32 -4l-12 -3
q-2 0 -6.5 -2t-6.5 -2q-70 -23 -108 -70l-1 -2q-1 -2 -2.5 -3.5l-2.5 -2.5l-1 -2q0 -1 -2 -3.5t-3 -3.5q-3 -5 -6.5 -14.5t-4.5 -11.5q-1 -1 -1 -2q-1 -2 -1 -3t-1 -4t-1 -5t-1 -6t-1 -6v-5q-1 -5 -1 -6v-4q0 -2 0.5 -6t0.5 -6v-1q0 -2 1 -4t1 -4t1 -4.5t2 -3.5q-1 0 -1 1v1
q1 -2 2 -3v-1q2 -5 3 -6l1 -1v1v-1h1q2 -1 4.5 -4t3.5 -5l1 -1q6 -4 10 -6q6 -3 8 -5q2 -1 5 -2t4 -2l27 -9q2 0 3 -1t2 -1h5q12 -2 18 -2q16 -2 33 0q30 1 56 9q23 6 65 26q24 11 47 28q60 44 83 101q0 1 1 3q1 1 1 2v6q0 3 2 9q1 2 1 5v1zM1821 290v-1v1z" />
    </font>
</defs>
</svg>
