<?xml version="1.0" standalone="no"?>
<!DOCTYPE svg PUBLIC "-//W3C//DTD SVG 1.1//EN" "http://www.w3.org/Graphics/SVG/1.1/DTD/svg11.dtd" >
<svg xmlns="http://www.w3.org/2000/svg" xmlns:xlink="http://www.w3.org/1999/xlink" version="1.1">
<metadata>
Created by FontForge 20201107 at Thu Sep 30 21:20:51 2021
 By 
Copyright 2016 The Mulish Project Authors (https://github.com/googlefonts/mulish)
</metadata>
<defs>
<font id="Mulish-Black" horiz-adv-x="0" >
  <font-face 
    font-family="Mulish Black"
    font-weight="900"
    font-stretch="normal"
    units-per-em="1000"
    panose-1="0 0 0 0 0 0 0 0 0 0"
    ascent="800"
    descent="-200"
    x-height="508"
    cap-height="705"
    bbox="-287 -290 1361 1060"
    underline-thickness="44"
    underline-position="-107"
    unicode-range="U+000D-FB02"
  />
<missing-glyph horiz-adv-x="500" 
 />
    <glyph glyph-name="fi" unicode="fi" horiz-adv-x="691" 
d="M98 0v377h-95v131h145l-50 -46v69q0 105 54 157t158 52q26 0 54 -3t50 -12v-136q-14 5 -32 7.5t-35 2.5q-30 0 -51 -15.5t-21 -57.5v-45l-25 27h386v-508h-178v377h-182v-377h-178zM453 580v160h187v-160h-187z" />
    <glyph glyph-name="fl" unicode="fl" horiz-adv-x="691" 
d="M98 0v377h-95v131h145l-50 -46v69q0 105 55 157t166 52q25 0 53 -3t50 -12v-136q-14 5 -32 7.5t-35 2.5q-20 0 -38.5 -6.5t-30 -22.5t-11.5 -44v-45l-25 27h148v-131h-122v-377h-178zM459 0v736h178v-736h-178z" />
    <glyph glyph-name=".notdef" horiz-adv-x="500" 
 />
    <glyph glyph-name="uni0000" 
 />
    <glyph glyph-name="uni0000" 
 />
    <glyph glyph-name="nonmarkingreturn" horiz-adv-x="333" 
 />
    <glyph glyph-name="CR" unicode="&#xd;" horiz-adv-x="289" 
 />
    <glyph glyph-name="space" unicode=" " horiz-adv-x="289" 
 />
    <glyph glyph-name="exclam" unicode="!" horiz-adv-x="272" 
d="M82 238l-55 467h218l-56 -467h-107zM43 0v182h185v-182h-185z" />
    <glyph glyph-name="quotedbl" unicode="&#x22;" horiz-adv-x="515" 
d="M75 398l-43 307h204l-42 -307h-119zM322 398l-43 307h204l-42 -307h-119z" />
    <glyph glyph-name="numbersign" unicode="#" horiz-adv-x="600" 
d="M68 0l31 159h-53v106h73l38 183h-88v106h109l31 151h115l-31 -151h94l31 151h114l-30 -151h52v-106h-74l-37 -183h89v-106h-110l-32 -159h-115l32 159h-93l-30 -159h-116zM235 265h93l36 183h-92z" />
    <glyph glyph-name="dollar" unicode="$" horiz-adv-x="600" 
d="M240 -115v135l30 -27q-73 4 -139.5 23.5t-111.5 51.5l51 143q45 -31 105 -49t121 -18q63 0 88 17.5t25 41.5q0 21 -17.5 35t-62.5 24l-113 25q-94 20 -139 70t-45 129q0 60 29.5 107.5t83 77.5t125.5 38l-30 -17v128h139v-128l-30 19q61 -3 117 -23t91 -52l-49 -134
q-36 28 -85 43.5t-105 15.5q-53 0 -82.5 -19t-29.5 -49q0 -20 17.5 -34t61.5 -24l113 -25q95 -20 141 -68.5t46 -125.5q0 -60 -29 -106t-80.5 -75t-119.5 -38l23 24v-136h-139z" />
    <glyph glyph-name="percent" unicode="%" horiz-adv-x="965" 
d="M351 0h-148l412 705h148zM218 285q-90 0 -140 59.5t-50 157.5q0 99 50.5 156.5t139.5 57.5t139 -59t50 -155q0 -98 -50 -157.5t-139 -59.5zM218 393q23 0 35.5 24.5t12.5 84.5t-13 83t-35 23q-24 0 -36 -22t-12 -84t12 -85.5t36 -23.5zM748 -11q-89 0 -139 59.5
t-50 157.5q0 99 50.5 156.5t138.5 57.5q90 0 139.5 -59t49.5 -155q0 -98 -49.5 -157.5t-139.5 -59.5zM748 97q24 0 36 24.5t12 84.5t-12.5 83t-35.5 23t-35.5 -22.5t-12.5 -83.5q0 -62 12.5 -85.5t35.5 -23.5z" />
    <glyph glyph-name="ampersand" unicode="&#x26;" horiz-adv-x="708" 
d="M666 -11q-46 9 -91.5 33.5t-86.5 57.5l36 -2q-49 -41 -109.5 -65t-127.5 -24q-83 0 -144 25.5t-94 71t-33 106.5q0 68 40 115.5t105 82.5l36 18l-28 -34q-39 34 -59.5 75t-20.5 85q0 54 28 95t78 64t118 23q89 0 142.5 -45.5t53.5 -122.5q0 -40 -15.5 -75t-48.5 -64
t-82 -52l4 32l153 -146h-36q26 41 39.5 90t17.5 102h145q-4 -81 -29 -155.5t-69 -132.5l-1 37q29 -27 62 -43.5t71 -25.5zM299 123q38 0 68.5 13t57.5 39l-4 -38l-201 189l74 -1l-26 -12q-23 -12 -40.5 -28.5t-26.5 -36t-9 -43.5q0 -38 28.5 -60t78.5 -22zM313 601
q-30 0 -47 -17t-17 -46q0 -16 6.5 -30.5t20 -30.5t34.5 -37l-39 -1q53 24 77.5 47t24.5 57q0 29 -16.5 43.5t-43.5 14.5z" />
    <glyph glyph-name="quotesingle" unicode="'" horiz-adv-x="269" 
d="M75 398l-43 307h204l-42 -307h-119z" />
    <glyph glyph-name="parenleft" unicode="(" horiz-adv-x="401" 
d="M244 -179q-54 72 -86 142.5t-46 144.5t-14 155q0 82 14 155.5t46 144t86 142.5h140q-53 -119 -77.5 -226.5t-24.5 -215.5t24.5 -215.5t77.5 -226.5h-140z" />
    <glyph glyph-name="parenright" unicode=")" horiz-adv-x="401" 
d="M157 -180h-140q53 119 78 227t25 216t-25 215.5t-78 226.5h140q54 -72 86 -142.5t46 -144t14 -155.5q0 -81 -14 -155.5t-46 -145t-86 -142.5z" />
    <glyph glyph-name="asterisk" unicode="*" horiz-adv-x="460" 
d="M158 331l-95 71l86 103l-132 33l38 114l125 -51l-9 135h120l-10 -134l125 50l37 -114l-131 -31l87 -105l-97 -71l-72 114z" />
    <glyph glyph-name="plus" unicode="+" horiz-adv-x="600" 
d="M238 40v188h-183v118h183v183h124v-183h183v-118h-183v-188h-124z" />
    <glyph glyph-name="comma" unicode="," horiz-adv-x="272" 
d="M127 -155l-67 53q39 38 55.5 72t16.5 73l38 -43h-127v182h185v-115q0 -63 -22.5 -114.5t-78.5 -107.5z" />
    <glyph glyph-name="hyphen" unicode="-" horiz-adv-x="449" 
d="M61 207v138h327v-138h-327z" />
    <glyph glyph-name="period" unicode="." horiz-adv-x="272" 
d="M43 0v182h185v-182h-185z" />
    <glyph glyph-name="slash" unicode="/" horiz-adv-x="352" 
d="M114 -63h-142l265 820h142z" />
    <glyph glyph-name="zero" unicode="0" horiz-adv-x="600" 
d="M300 -11q-130 0 -199.5 95.5t-69.5 270.5q0 177 69.5 269t199.5 92q131 0 200 -92t69 -268t-69.5 -271.5t-199.5 -95.5zM300 136q48 0 71.5 52t23.5 167q0 116 -23.5 165.5t-71.5 49.5t-71.5 -49.5t-23.5 -164.5q0 -116 23.5 -168t71.5 -52z" />
    <glyph glyph-name="one" unicode="1" horiz-adv-x="600" 
d="M91 0v150h158v402h84l-225 -128v170l194 111h131v-555h147v-150h-489z" />
    <glyph glyph-name="two" unicode="2" horiz-adv-x="600" 
d="M68 0v135l214 223q39 40 56 70t17 61q0 38 -25.5 57t-73.5 19q-40 0 -81.5 -14.5t-83.5 -46.5l-57 134q47 36 113 57t136 21q123 0 187.5 -53t64.5 -153q0 -64 -29.5 -122.5t-97.5 -124.5l-164 -160v47h317v-150h-493z" />
    <glyph glyph-name="three" unicode="3" horiz-adv-x="600" 
d="M280 -11q-75 0 -144.5 20.5t-111.5 55.5l56 136q44 -31 93 -46t101 -15q54 0 81 18.5t27 55.5q0 35 -24.5 52t-72.5 17h-124v144h106q43 0 68 18.5t25 52.5q0 33 -24 50t-70 17q-96 0 -174 -61l-56 134q45 37 111 57.5t137 20.5q118 0 185 -51.5t67 -142.5
q0 -61 -34.5 -105t-94.5 -58v14q70 -11 110 -58.5t40 -118.5q0 -96 -74 -151.5t-203 -55.5z" />
    <glyph glyph-name="four" unicode="4" horiz-adv-x="600" 
d="M320 0v119h-290v128l318 458h147v-449h92v-137h-92v-119h-175zM320 256v231h26l-187 -273v42h161z" />
    <glyph glyph-name="five" unicode="5" horiz-adv-x="600" 
d="M295 -11q-47 0 -94 9.5t-87 26.5t-68 40l56 136q44 -30 92 -45.5t97 -15.5q51 0 79.5 22t28.5 62t-27 63t-73 23q-34 0 -63 -11.5t-55 -34.5h-114v441h462v-149h-290v-157h-41q24 28 63 42.5t86 14.5q68 0 119 -28.5t79.5 -79.5t28.5 -119q0 -72 -34 -126.5t-96.5 -84
t-148.5 -29.5z" />
    <glyph glyph-name="six" unicode="6" horiz-adv-x="600" 
d="M328 -11q-140 0 -216 93.5t-76 263.5q0 117 39.5 199.5t112 126.5t174.5 44q58 0 114.5 -18t99.5 -54l-57 -135q-36 29 -77 42.5t-82 13.5q-75 0 -113.5 -46.5t-38.5 -139.5v-52h-15q9 43 33 73.5t60.5 46.5t80.5 16q59 0 105 -29.5t73.5 -81.5t27.5 -118
q0 -72 -31.5 -127t-86.5 -86.5t-127 -31.5zM318 129q26 0 46 12t30.5 34t10.5 51q0 30 -10.5 51.5t-30.5 34t-46 12.5t-46 -12.5t-30.5 -34t-10.5 -51.5q0 -29 10.5 -51t30.5 -34t46 -12z" />
    <glyph glyph-name="seven" unicode="7" horiz-adv-x="600" 
d="M54 0l335 608v-56h-350v153h523v-138l-307 -567h-201z" />
    <glyph glyph-name="eight" unicode="8" horiz-adv-x="600" 
d="M300 -11q-128 0 -201.5 54t-73.5 150q0 76 45 125.5t114 57.5v-29q-62 13 -101 60.5t-39 115.5q0 90 69 141.5t187 51.5q119 0 188 -51.5t69 -141.5q0 -69 -38 -117t-99 -58v28q69 -10 112 -59.5t43 -123.5q0 -96 -73 -150t-202 -54zM300 127q54 0 81.5 20.5t27.5 59.5
q0 40 -27.5 60t-81.5 20q-53 0 -81 -20t-28 -60q0 -39 28 -59.5t81 -20.5zM300 426q43 0 66.5 20.5t23.5 55.5t-23.5 55.5t-66.5 20.5t-66.5 -20.5t-23.5 -55.5t23.5 -55.5t66.5 -20.5z" />
    <glyph glyph-name="nine" unicode="9" horiz-adv-x="600" 
d="M239 -11q-59 0 -115 19t-100 54l57 134q36 -28 77 -42t82 -14q76 0 114 46.5t38 139.5v52h16q-9 -42 -33.5 -73t-60.5 -47t-81 -16q-57 0 -104 29.5t-74 82t-27 117.5q0 72 31 127t86.5 86.5t126.5 31.5q140 0 216 -93t76 -264q0 -116 -38.5 -199t-112 -127t-174.5 -44z
M282 382q27 0 46.5 12t30.5 34t11 51t-11 51t-30.5 34t-46.5 12q-26 0 -45.5 -12t-30.5 -34t-11 -51t11 -51t30.5 -34t45.5 -12z" />
    <glyph glyph-name="colon" unicode=":" horiz-adv-x="272" 
d="M43 326v182h185v-182h-185zM43 0v182h185v-182h-185z" />
    <glyph glyph-name="semicolon" unicode=";" horiz-adv-x="272" 
d="M127 -155l-67 53q39 38 55.5 72t16.5 73l40 -43h-129v182h185v-115q0 -63 -22.5 -114.5t-78.5 -107.5zM43 326v182h185v-182h-185z" />
    <glyph glyph-name="less" unicode="&#x3c;" horiz-adv-x="600" 
d="M545 29l-490 192v133l490 191v-131l-446 -171v87l446 -170v-131z" />
    <glyph glyph-name="equal" unicode="=" horiz-adv-x="600" 
d="M55 328v118h490v-118h-490zM55 128v118h490v-118h-490z" />
    <glyph glyph-name="greater" unicode="&#x3e;" horiz-adv-x="600" 
d="M56 29v131l445 170v-87l-445 171v131l489 -191v-133z" />
    <glyph glyph-name="question" unicode="?" horiz-adv-x="483" 
d="M170 238v54q0 42 15.5 76.5t53.5 71.5q25 25 35.5 44.5t10.5 37.5q0 23 -18 35.5t-53 12.5q-39 0 -79 -13.5t-75 -35.5v147q37 23 87.5 35.5t96.5 12.5q63 0 113 -16.5t79 -53.5t29 -98q0 -34 -13 -65t-34.5 -57t-49.5 -47q-49 -35 -66.5 -60.5t-21.5 -48.5l-5 -32h-105z
M129 0v182h186v-182h-186z" />
    <glyph glyph-name="at" unicode="@" horiz-adv-x="960" 
d="M490 -167q-98 0 -179.5 31t-141 88t-91.5 135.5t-32 173.5q0 104 33 187.5t94.5 143.5t146.5 92t191 32q123 0 213 -46t140 -131t50 -201q0 -85 -25 -148t-70 -97.5t-105 -34.5q-62 0 -99.5 32.5t-46.5 93.5l45 29q-25 -78 -71 -116.5t-105 -38.5q-84 0 -129.5 52.5
t-45.5 141.5q0 73 27 129.5t75 89t110 32.5q53 0 86 -25.5t47 -78.5h-24l19 93h125l-39 -219q-4 -20 -5.5 -35.5t-1.5 -27.5q0 -28 10.5 -40.5t31.5 -12.5q25 0 45 22.5t31.5 64t11.5 94.5q0 91 -35 152.5t-102 93t-163 31.5q-107 0 -185.5 -43t-121 -122.5t-42.5 -188.5
q0 -101 40.5 -174.5t114 -113t173.5 -39.5q69 0 126.5 17t104.5 51l47 -88q-46 -38 -118.5 -59.5t-159.5 -21.5zM466 164q30 0 53.5 18.5t36 53.5t12.5 82q0 38 -16 58.5t-51 20.5q-32 0 -55.5 -18t-37 -50t-13.5 -75q0 -45 18.5 -67.5t52.5 -22.5z" />
    <glyph glyph-name="A" unicode="A" horiz-adv-x="769" 
d="M-22 0l330 705h150l332 -705h-185l-85 194l71 -51h-414l70 51l-84 -194h-185zM382 515l-117 -279l-28 47h293l-25 -47l-118 279h-5z" />
    <glyph glyph-name="B" unicode="B" horiz-adv-x="701" 
d="M65 0v705h342q118 0 181.5 -49t63.5 -133q0 -62 -36.5 -106t-99.5 -60v16q75 -13 115.5 -57.5t40.5 -115.5q0 -93 -68 -146.5t-186 -53.5h-353zM242 135h152q52 0 77.5 19t25.5 59q0 41 -25.5 59t-77.5 18h-152v-155zM242 425h131q53 0 77.5 18t24.5 55t-24.5 54.5
t-77.5 17.5h-131v-145z" />
    <glyph glyph-name="C" unicode="C" horiz-adv-x="685" 
d="M419 -11q-115 0 -198.5 45t-129 127t-45.5 192t45.5 191.5t129 126.5t198.5 45q73 0 133 -19.5t101 -55.5l-55 -145q-46 33 -84.5 46.5t-87.5 13.5q-90 0 -138.5 -52.5t-48.5 -150.5q0 -99 48.5 -151.5t138.5 -52.5q49 0 87.5 13.5t84.5 46.5l55 -145q-41 -36 -101 -55.5
t-133 -19.5z" />
    <glyph glyph-name="D" unicode="D" horiz-adv-x="781" 
d="M65 0v705h284q125 0 211 -42.5t130.5 -121t44.5 -188.5q0 -109 -44.5 -188t-130.5 -122t-211 -43h-284zM250 150h87q109 0 161.5 50t52.5 153q0 104 -52.5 153.5t-161.5 49.5h-87v-406z" />
    <glyph glyph-name="E" unicode="E" horiz-adv-x="603" 
d="M65 0v705h506v-141h-329v-135h305v-142h-305v-145h329v-142h-506z" />
    <glyph glyph-name="F" unicode="F" horiz-adv-x="583" 
d="M65 0v705h495v-141h-310v-143h287v-141h-287v-280h-185z" />
    <glyph glyph-name="G" unicode="G" horiz-adv-x="750" 
d="M425 -11q-123 0 -207.5 45t-128 126t-43.5 189q0 112 47.5 194.5t136.5 127.5t214 45q77 0 136.5 -18t102.5 -52l-57 -141q-31 21 -58.5 32.5t-56 16.5t-65.5 5q-104 0 -155.5 -53.5t-51.5 -156.5q0 -102 47 -154t149 -52q31 0 67.5 6t74.5 18l-33 -66v168h-146v128h297
v-353q-57 -27 -127.5 -41t-142.5 -14z" />
    <glyph glyph-name="H" unicode="H" horiz-adv-x="784" 
d="M65 0v705h185v-272h284v272h185v-705h-185v282h-284v-282h-185z" />
    <glyph glyph-name="I" unicode="I" horiz-adv-x="315" 
d="M65 0v705h185v-705h-185z" />
    <glyph glyph-name="J" unicode="J" horiz-adv-x="401" 
d="M102 -187q-18 0 -45 2t-54 8v141q19 -4 38 -5.5t30 -1.5q45 0 62.5 25t17.5 81v642h185v-642q0 -84 -23.5 -140t-74.5 -83t-136 -27z" />
    <glyph glyph-name="K" unicode="K" horiz-adv-x="704" 
d="M65 0v705h185v-302h2l270 302h216l-342 -371v73l361 -407h-223l-282 318h-2v-318h-185z" />
    <glyph glyph-name="L" unicode="L" horiz-adv-x="578" 
d="M65 0v705h185v-552h302v-153h-487z" />
    <glyph glyph-name="M" unicode="M" horiz-adv-x="884" 
d="M68 0v705h160l231 -517h-33l230 517h161v-705h-167v432h43l-200 -432h-104l-201 432h46v-432h-166z" />
    <glyph glyph-name="N" unicode="N" horiz-adv-x="765" 
d="M65 0v705h136l357 -443h-29v443h171v-705h-136l-355 443h29v-443h-173z" />
    <glyph glyph-name="O" unicode="O" horiz-adv-x="804" 
d="M46 353q0 110 43 191.5t123 126.5t189 45q110 0 190 -45t123.5 -126.5t43.5 -191.5q0 -109 -43.5 -191t-123.5 -127.5t-190 -45.5q-109 0 -188.5 45.5t-123 127.5t-43.5 191zM239 353q0 -99 40 -154.5t122 -55.5t123 55.5t41 154.5t-41 154t-123 55t-122 -54.5
t-40 -154.5z" />
    <glyph glyph-name="P" unicode="P" horiz-adv-x="684" 
d="M65 0v705h346q122 0 184 -59.5t62 -161.5q0 -101 -62 -161t-184 -60h-161v-263h-185zM250 405h137q47 0 70 20.5t23 58.5t-23 59t-70 21h-137v-159z" />
    <glyph glyph-name="Q" unicode="Q" horiz-adv-x="804" 
d="M589 -193q-35 18 -69.5 46.5t-63.5 65.5t-49 76l140 65q24 -51 69.5 -93.5t95.5 -68.5zM46 353q0 110 43 191.5t123 126.5t189 45q110 0 190 -45t123.5 -126.5t43.5 -191.5q0 -109 -43.5 -191t-123.5 -127.5t-190 -45.5q-109 0 -188.5 45.5t-123 127.5t-43.5 191z
M239 353q0 -99 40 -154.5t122 -55.5t123 55.5t41 154.5t-41 154t-123 55t-122 -54.5t-40 -154.5z" />
    <glyph glyph-name="R" unicode="R" horiz-adv-x="713" 
d="M65 0v705h333q122 0 188.5 -58t66.5 -161q0 -69 -30 -117.5t-87 -75t-136 -26.5l9 25h50q44 0 78 -24t56 -67l107 -201h-202l-115 225q-11 22 -32.5 30t-48.5 8h-52v-263h-185zM250 394h116q54 0 82 21.5t28 64.5q0 42 -28 63t-82 21h-116v-170z" />
    <glyph glyph-name="S" unicode="S" horiz-adv-x="671" 
d="M330 -11q-85 0 -161.5 20.5t-128.5 55.5l52 143q33 -21 72 -36t81.5 -23.5t86.5 -8.5q66 0 91.5 17t25.5 44q0 24 -17 37.5t-64 23.5l-122 25q-97 20 -145 69.5t-48 129.5q0 70 37.5 121.5t105.5 80t159 28.5q75 0 141 -20.5t108 -56.5l-52 -134q-40 29 -90 44.5
t-111 15.5q-58 0 -87.5 -17.5t-29.5 -49.5q0 -22 17.5 -37.5t64.5 -25.5l120 -24q97 -19 145.5 -68t48.5 -128q0 -68 -37.5 -119t-104.5 -79t-158 -28z" />
    <glyph glyph-name="T" unicode="T" horiz-adv-x="638" 
d="M226 0v556h-214v149h613v-149h-214v-556h-185z" />
    <glyph glyph-name="U" unicode="U" horiz-adv-x="751" 
d="M378 -11q-158 0 -237 78t-79 233v405h184v-406q0 -77 32 -116.5t100 -39.5t100 39.5t32 116.5v406h182v-405q0 -155 -78 -233t-236 -78z" />
    <glyph glyph-name="V" unicode="V" horiz-adv-x="749" 
d="M300 0l-320 705h198l228 -536h-55l227 536h191l-320 -705h-149z" />
    <glyph glyph-name="W" unicode="W" horiz-adv-x="1131" 
d="M266 0l-252 705h190l165 -510h-46l184 510h132l166 -510h-44l178 510h178l-253 -705h-148l-160 459h23l-164 -459h-149z" />
    <glyph glyph-name="X" unicode="X" horiz-adv-x="693" 
d="M-28 0l300 397v-83l-294 391h215l182 -257h-59l182 257h216l-295 -391v83l302 -397h-216l-189 263h59l-189 -263h-214z" />
    <glyph glyph-name="Y" unicode="Y" horiz-adv-x="656" 
d="M236 0v337l37 -102l-316 470h213l179 -283h-36l179 283h206l-314 -470l37 102v-337h-185z" />
    <glyph glyph-name="Z" unicode="Z" horiz-adv-x="623" 
d="M47 0v135l357 471v-51h-357v150h533v-135l-358 -471v51h373v-150h-548z" />
    <glyph glyph-name="bracketleft" unicode="[" horiz-adv-x="399" 
d="M97 -180v885h282v-131h-107v-623h107v-131h-282z" />
    <glyph glyph-name="backslash" unicode="\" horiz-adv-x="352" 
d="M237 -63l-265 820h142l265 -820h-142z" />
    <glyph glyph-name="bracketright" unicode="]" horiz-adv-x="399" 
d="M20 -180v131h107v623h-107v131h282v-885h-282z" />
    <glyph glyph-name="asciicircum" unicode="^" horiz-adv-x="600" 
d="M42 140l192 488h132l192 -488h-131l-170 444h86l-170 -444h-131z" />
    <glyph glyph-name="underscore" unicode="_" horiz-adv-x="505" 
d="M17 -101v101h471v-101h-471z" />
    <glyph glyph-name="grave" unicode="`" horiz-adv-x="500" 
d="M193 557l-154 205h167l101 -205h-114z" />
    <glyph glyph-name="a" unicode="a" horiz-adv-x="644" 
d="M255 -11q-66 0 -116 31.5t-78.5 91.5t-28.5 142q0 83 28.5 142.5t78.5 91t116 31.5q59 0 106.5 -28t62.5 -73h-10l11 90h171q-3 -34 -5.5 -69t-2.5 -69v-370h-176l-2 86h12q-15 -44 -62.5 -70.5t-104.5 -26.5zM312 121q45 0 73 31.5t28 101.5t-28 101.5t-73 31.5
t-73 -31.5t-28 -101.5t27.5 -101.5t73.5 -31.5z" />
    <glyph glyph-name="b" unicode="b" horiz-adv-x="644" 
d="M388 -11q-58 0 -105.5 28t-62.5 74h11v-91h-176v736h178v-314h-12q17 44 63.5 70.5t103.5 26.5q66 0 116.5 -32t79 -92t28.5 -142q0 -83 -28.5 -142t-79 -90.5t-116.5 -31.5zM332 121q44 0 72.5 31t28.5 101t-28.5 102t-72.5 32q-45 0 -73 -31.5t-28 -101.5t28 -101.5
t73 -31.5z" />
    <glyph glyph-name="c" unicode="c" horiz-adv-x="514" 
d="M312 -11q-84 0 -147 32t-98 91.5t-35 142.5t35 142t98 90.5t147 31.5q52 0 102 -14t81 -40l-50 -121q-24 20 -54.5 30.5t-59.5 10.5q-55 0 -85.5 -33t-30.5 -97t30.5 -97.5t85.5 -33.5q28 0 59 10.5t55 29.5l50 -121q-32 -25 -81.5 -39.5t-101.5 -14.5z" />
    <glyph glyph-name="d" unicode="d" horiz-adv-x="644" 
d="M257 -11q-65 0 -116 31.5t-80 91.5t-29 142q0 83 28.5 142.5t80 91t116.5 31.5q58 0 105 -26.5t63 -70.5h-15v314h178v-736h-175v91h13q-14 -46 -61.5 -74t-107.5 -28zM314 121q44 0 72.5 31.5t28.5 101.5t-28.5 101.5t-72.5 31.5q-45 0 -73.5 -31.5t-28.5 -101.5
t28.5 -101.5t73.5 -31.5z" />
    <glyph glyph-name="e" unicode="e" horiz-adv-x="552" 
d="M323 -11q-138 0 -214.5 71t-76.5 195q0 77 32 137t90 93.5t136 33.5q77 0 128.5 -33.5t77.5 -92t26 -135.5v-38h-341v84h210l-17 -14q0 57 -21.5 84.5t-60.5 27.5q-45 0 -68.5 -33.5t-23.5 -100.5v-18q0 -67 33 -98t95 -31q40 0 75.5 9t67.5 29l46 -116q-38 -26 -88 -40
t-106 -14z" />
    <glyph glyph-name="f" unicode="f" horiz-adv-x="404" 
d="M98 0v377h-95v131h145l-50 -46v69q0 105 55 157t166 52q25 0 53 -3t50 -12v-136q-14 5 -32 7.5t-35 2.5q-20 0 -38.5 -6.5t-30 -22.5t-11.5 -44v-45l-25 27h148v-131h-122v-377h-178z" />
    <glyph glyph-name="g" unicode="g" horiz-adv-x="644" 
d="M304 -224q-76 0 -133.5 13.5t-103.5 41.5l31 126q27 -16 59 -27t66.5 -16.5t65.5 -5.5q64 0 95 29.5t31 83.5v89h10q-16 -44 -63 -70.5t-104 -26.5q-68 0 -118.5 30.5t-79 87.5t-28.5 135t28.5 135t79 87.5t118.5 30.5q59 0 104 -26t61 -69l-8 2l11 82h171q-4 -34 -6 -69
t-2 -69v-329q0 -128 -73 -196.5t-212 -68.5zM313 145q46 0 73 31t27 90q0 60 -27 90.5t-73 30.5q-47 0 -74 -30.5t-27 -90.5q0 -59 27 -90t74 -31z" />
    <glyph glyph-name="h" unicode="h" horiz-adv-x="623" 
d="M55 0v736h178v-317h-15q25 49 71 74.5t105 25.5q89 0 133 -53t44 -161v-305h-178v297q0 46 -16.5 66t-49.5 20q-43 0 -68.5 -27t-25.5 -71v-285h-178z" />
    <glyph glyph-name="i" unicode="i" horiz-adv-x="288" 
d="M55 0v508h178v-508h-178zM51 580v160h187v-160h-187z" />
    <glyph glyph-name="j" unicode="j" horiz-adv-x="288" 
d="M23 -225q-24 0 -48 3t-46 12v137q15 -5 28.5 -7t28.5 -2q29 0 48.5 16.5t19.5 59.5v514h178v-520q0 -105 -49.5 -159t-159.5 -54zM49 580v160h187v-160h-187z" />
    <glyph glyph-name="k" unicode="k" horiz-adv-x="596" 
d="M55 0v736h178v-433h2l170 205h210l-230 -272v61l239 -297h-215l-174 213h-2v-213h-178z" />
    <glyph glyph-name="l" unicode="l" horiz-adv-x="288" 
d="M55 0v736h178v-736h-178z" />
    <glyph glyph-name="m" unicode="m" horiz-adv-x="924" 
d="M55 0v370q0 34 -2 69t-6 69h172l10 -88h-11q22 46 65 72.5t101 26.5q56 0 95.5 -26.5t57.5 -83.5h-17q25 52 72.5 81t106.5 29q87 0 130 -52.5t43 -163.5v-303h-179v297q0 47 -14 66.5t-45 19.5q-39 0 -60.5 -28t-21.5 -77v-278h-178v297q0 47 -14.5 66.5t-44.5 19.5
q-39 0 -60.5 -28t-21.5 -77v-278h-178z" />
    <glyph glyph-name="n" unicode="n" horiz-adv-x="623" 
d="M55 0v370q0 34 -2 69t-6 69h172l10 -88h-11q25 48 71 73.5t104 25.5q89 0 133.5 -52.5t44.5 -163.5v-303h-178v295q0 49 -17 68.5t-49 19.5q-42 0 -68 -27.5t-26 -72.5v-283h-178z" />
    <glyph glyph-name="o" unicode="o" horiz-adv-x="617" 
d="M309 -11q-85 0 -147 32t-96 91.5t-34 141.5q0 83 34 142t96 91t147 32q84 0 146 -32t96 -91.5t34 -141.5q0 -81 -34 -141t-96 -92t-146 -32zM309 121q44 0 70 31.5t26 101.5t-26 101.5t-70 31.5q-45 0 -71 -31.5t-26 -101.5t26 -101.5t71 -31.5z" />
    <glyph glyph-name="p" unicode="p" horiz-adv-x="644" 
d="M55 -216v586q0 34 -2 69t-6 69h172l11 -90h-10q14 45 62 73t107 28q66 0 116 -31.5t78.5 -91t28.5 -142.5q0 -82 -28.5 -142t-78.5 -91.5t-116 -31.5q-58 0 -105 26.5t-62 70.5h11v-302h-178zM332 121q46 0 73.5 31.5t27.5 101.5t-27.5 101.5t-73.5 31.5q-45 0 -73 -31.5
t-28 -101.5t28 -101.5t73 -31.5z" />
    <glyph glyph-name="q" unicode="q" horiz-adv-x="644" 
d="M410 -216v302h12q-15 -44 -62.5 -70.5t-104.5 -26.5q-66 0 -116 31.5t-78.5 91.5t-28.5 142q0 83 28.5 142.5t78.5 91t116 31.5q59 0 106.5 -28t62.5 -73h-10l11 90h171q-3 -34 -5.5 -69t-2.5 -69v-586h-178zM312 121q45 0 73 31.5t28 101.5t-28 101.5t-73 31.5
t-73 -31.5t-28 -101.5t27.5 -101.5t73.5 -31.5z" />
    <glyph glyph-name="r" unicode="r" horiz-adv-x="429" 
d="M55 0v369q0 35 -2 70t-6 69h172l19 -156h-27q10 57 32 94t55 55t78 18q21 0 31.5 -1.5t22.5 -6.5v-156q-25 11 -40 14t-39 3q-41 0 -67 -14.5t-37.5 -44.5t-11.5 -77v-236h-180z" />
    <glyph glyph-name="s" unicode="s" horiz-adv-x="506" 
d="M250 -11q-71 0 -128.5 14.5t-97.5 39.5l43 116q39 -22 87.5 -36t96.5 -14q38 0 55.5 11.5t17.5 30.5q0 15 -11 24t-33 13l-108 19q-64 12 -99.5 47.5t-35.5 92.5q0 52 28 90.5t80 60t123 21.5q58 0 110.5 -13t91.5 -41l-46 -113q-31 21 -72.5 34.5t-77.5 13.5
q-43 0 -61 -12.5t-18 -30.5q0 -14 10 -23.5t32 -13.5l108 -19q66 -11 101.5 -45.5t35.5 -93.5q0 -55 -29.5 -93.5t-81.5 -59t-121 -20.5z" />
    <glyph glyph-name="t" unicode="t" horiz-adv-x="414" 
d="M315 -11q-108 0 -162.5 51.5t-54.5 156.5v180h-95v131h95v120l178 42v-162h124v-131h-124v-173q0 -44 20 -58.5t48 -14.5q17 0 29.5 2.5t26.5 7.5v-137q-22 -9 -43.5 -12t-41.5 -3z" />
    <glyph glyph-name="u" unicode="u" horiz-adv-x="618" 
d="M242 -11q-97 0 -143.5 53.5t-46.5 162.5v303h178v-304q0 -40 16.5 -59.5t50.5 -19.5q38 0 62.5 27.5t24.5 72.5v283h178v-508h-173v91h15q-24 -49 -65 -75.5t-97 -26.5z" />
    <glyph glyph-name="v" unicode="v" horiz-adv-x="559" 
d="M203 0l-221 508h187l131 -338h-36l137 338h175l-223 -508h-150z" />
    <glyph glyph-name="w" unicode="w" horiz-adv-x="900" 
d="M202 0l-211 508h181l126 -334h-25l124 334h113l125 -334h-21l124 334h170l-209 -508h-149l-137 345h68l-130 -345h-149z" />
    <glyph glyph-name="x" unicode="x" horiz-adv-x="566" 
d="M-35 0l246 300v-77l-232 285h208l126 -165h-64l127 165h207l-232 -286v80l247 -302h-210l-139 179h64l-140 -179h-208z" />
    <glyph glyph-name="y" unicode="y" horiz-adv-x="558" 
d="M57 -227l-42 138q48 9 80.5 19.5t53.5 28.5t33 47l25 58l-4 -67l-222 511h188l130 -337h-33l134 337h176l-228 -519q-27 -61 -57.5 -100t-66 -62t-77 -34.5t-90.5 -19.5z" />
    <glyph glyph-name="z" unicode="z" horiz-adv-x="534" 
d="M46 0v115l288 303v-41h-288v131h446v-115l-292 -308v45h303v-130h-457z" />
    <glyph glyph-name="braceleft" unicode="{" horiz-adv-x="436" 
d="M288 -180q-69 0 -106 38.5t-37 106.5v153q0 39 -12.5 56t-46.5 20l-51 4v127l51 5q34 3 46.5 19.5t12.5 56.5v154q0 69 37 107t106 38h131v-131h-57q-22 0 -32 -10.5t-10 -33.5v-146q0 -32 -15 -61t-38.5 -46.5t-52.5 -17.5v4q29 0 52.5 -17t38.5 -45t15 -61v-145
q0 -22 10 -33t32 -11h57v-131h-131z" />
    <glyph glyph-name="bar" unicode="|" horiz-adv-x="304" 
d="M63 -181v887h178v-887h-178z" />
    <glyph glyph-name="braceright" unicode="}" horiz-adv-x="436" 
d="M17 -180v131h58q23 0 32 11t9 33v146q0 33 15 61.5t39 46t52 17.5v-4q-28 0 -52 17t-39 45.5t-15 61.5v144q0 23 -9 33.5t-32 10.5h-58v131h131q69 0 106 -38t37 -107v-153q0 -39 13 -56t46 -20l51 -4v-127l-51 -5q-33 -2 -46 -19t-13 -57v-154q0 -68 -37 -106.5
t-106 -38.5h-131z" />
    <glyph glyph-name="asciitilde" unicode="~" horiz-adv-x="600" 
d="M403 199q-21 0 -46 6.5t-62 26.5q-33 16 -53.5 23.5t-34.5 7.5q-44 0 -65 -58l-87 58q16 50 54.5 81.5t86.5 31.5q23 0 49.5 -8t61.5 -26q33 -16 53 -23t32 -7q45 0 65 57l88 -59q-15 -49 -54.5 -80t-87.5 -31z" />
    <glyph glyph-name="uni00A0" unicode="&#xa0;" horiz-adv-x="289" 
 />
    <glyph glyph-name="exclamdown" unicode="&#xa1;" horiz-adv-x="272" 
d="M27 -180l55 450h107l56 -450h-218zM43 326v182h185v-182h-185z" />
    <glyph glyph-name="cent" unicode="&#xa2;" horiz-adv-x="600" 
d="M247 -115v151l33 -40q-65 13 -112 47.5t-72 86t-25 116.5q0 62 26 113t72.5 85.5t110.5 47.5l-33 -39v159h138v-148l-37 34q57 0 107.5 -15.5t81.5 -42.5l-45 -121q-26 19 -60 32t-67 13q-54 0 -83 -32.5t-29 -81.5q0 -51 28.5 -85t83.5 -34q32 0 66.5 13t60.5 32
l45 -120q-33 -26 -82 -44t-109 -21l39 35v-141h-138z" />
    <glyph glyph-name="sterling" unicode="&#xa3;" horiz-adv-x="600" 
d="M39 0v120q33 10 50 26t17 47v109h-68v103h68v76q0 70 28.5 123t87 82.5t147.5 29.5q65 0 121 -17.5t97 -48.5l-58 -129q-40 28 -75.5 40.5t-69.5 12.5q-50 0 -72 -22.5t-22 -65.5v-81h150v-103h-148v-72q0 -33 -13.5 -55.5t-41.5 -32.5v5h337v-147h-535z" />
    <glyph glyph-name="currency" unicode="&#xa4;" horiz-adv-x="600" 
d="M86 -34l-60 60l72 75q-20 31 -32 67.5t-12 76.5q0 41 12 77.5t32 67.5l-72 74l61 61l73 -74q30 20 65 31t72 11q38 0 73 -10.5t63 -31.5l75 77l66 -67l-76 -76q21 -30 31 -65.5t10 -74.5t-11 -75.5t-31 -66.5l74 -77l-60 -59l-73 75q-30 -22 -65.5 -33.5t-75.5 -11.5
q-38 0 -73.5 11.5t-64.5 31.5zM298 134q28 0 51.5 15.5t37.5 40.5t14 55q0 31 -14 56t-37.5 39.5t-51.5 15.5q-29 1 -53 -14.5t-38 -40.5t-14 -56q0 -30 14 -55t37.5 -40.5t53.5 -15.5z" />
    <glyph glyph-name="yen" unicode="&#xa5;" horiz-adv-x="600" 
d="M208 0v151h-145v99h145v61h-145v98h116v-20l-208 316h196l151 -247h-37l152 247h196l-209 -316v20h117v-98h-146v-61h146v-99h-146v-151h-183z" />
    <glyph glyph-name="brokenbar" unicode="&#xa6;" horiz-adv-x="304" 
d="M63 371v335h178v-335h-178zM63 -181v335h178v-335h-178z" />
    <glyph glyph-name="section" unicode="&#xa7;" horiz-adv-x="603" 
d="M284 -191q-73 0 -135 16t-103 44l46 116q23 -15 55.5 -28t69 -20.5t68.5 -7.5q42 0 65 14.5t23 43.5q0 18 -14 32.5t-46 29.5l-150 64q-47 21 -77.5 47t-45 57.5t-14.5 68.5q0 54 27 96t82 73l-13 -46q-27 23 -40.5 51.5t-13.5 64.5q0 60 31 102.5t88.5 65.5t136.5 23
q70 0 126.5 -13.5t92.5 -40.5l-44 -112q-37 21 -85.5 33.5t-90.5 12.5q-41 0 -64 -15t-23 -43q0 -18 14 -32.5t46 -29.5l150 -64q47 -21 77.5 -47t45 -57t14.5 -69q0 -54 -26.5 -96t-82.5 -73l14 46q26 -22 39.5 -52t13.5 -64q0 -59 -31 -102t-88.5 -66t-137.5 -23zM182 320
q0 -25 17.5 -46t55.5 -38l130 -57q15 -7 29.5 -15t25.5 -16l-38 -6q26 32 26 63q0 26 -18 47t-56 37l-130 57q-14 7 -28.5 15.5t-25.5 15.5l37 6q-13 -16 -19 -31.5t-6 -31.5z" />
    <glyph glyph-name="dieresis" unicode="&#xa8;" horiz-adv-x="500" 
d="M279 582v150h149v-150h-149zM72 582v150h149v-150h-149z" />
    <glyph glyph-name="copyright" unicode="&#xa9;" horiz-adv-x="815" 
d="M408 -11q-78 0 -144 27.5t-115.5 77t-77 116t-27.5 143.5t27.5 143.5t77 115.5t115.5 76.5t144 27.5q77 0 143.5 -27.5t115.5 -76.5t76.5 -115.5t27.5 -143.5t-27.5 -143.5t-76.5 -116t-115.5 -77t-143.5 -27.5zM431 137q-104 0 -165.5 58t-61.5 158t61.5 157.5
t165.5 57.5q40 0 81 -11t66 -32l-40 -102q-18 15 -42 24t-51 9q-43 0 -68.5 -27.5t-25.5 -75.5q0 -49 25.5 -76t68.5 -27q27 0 51 8.5t42 24.5l40 -103q-25 -20 -66 -31.5t-81 -11.5zM408 53q64 0 118 22.5t94 63.5t61.5 95.5t21.5 118.5t-21.5 118.5t-61.5 95t-94 63
t-118 22.5q-65 0 -119 -22.5t-94 -63t-61.5 -95t-21.5 -118.5t21.5 -118.5t61.5 -95.5t94 -63.5t119 -22.5z" />
    <glyph glyph-name="ordfeminine" unicode="&#xaa;" horiz-adv-x="358" 
d="M135 404q-54 0 -86 28.5t-32 70.5q0 48 41.5 68.5t131.5 20.5h43v-55h-39q-39 0 -53.5 -7.5t-14.5 -24.5q0 -12 10 -21t30 -9q23 0 39 16.5t16 46.5v58q0 21 -13.5 30.5t-43.5 9.5q-23 0 -52 -6t-54 -19l-26 75q26 14 66 22t76 8q157 0 157 -126v-179h-104v56h-3
q-14 -30 -35.5 -46.5t-53.5 -16.5z" />
    <glyph glyph-name="guillemotleft" unicode="&#xab;" horiz-adv-x="561" 
d="M156 84l-136 183l135 185h144l-129 -184l129 -184h-143zM395 84l-136 183l135 185h144l-129 -184l129 -184h-143z" />
    <glyph glyph-name="logicalnot" unicode="&#xac;" horiz-adv-x="600" 
d="M421 129v198h-366v119h490v-317h-124z" />
    <glyph glyph-name="uni00AD" unicode="&#xad;" horiz-adv-x="449" 
d="M61 207v138h327v-138h-327z" />
    <glyph glyph-name="registered" unicode="&#xae;" horiz-adv-x="815" 
d="M408 -11q-78 0 -144 27.5t-115.5 77t-77 116t-27.5 143.5t27.5 143.5t77 115.5t115.5 76.5t144 27.5q77 0 143.5 -27.5t115.5 -76.5t76.5 -115.5t27.5 -143.5t-27.5 -143.5t-76.5 -116t-115.5 -77t-143.5 -27.5zM408 53q64 0 118 22.5t94 63.5t61.5 95.5t21.5 118.5
t-21.5 118.5t-61.5 95t-94 63t-118 22.5q-65 0 -119 -22.5t-94 -63t-61.5 -95t-21.5 -118.5t21.5 -118.5t61.5 -95.5t94 -63.5t119 -22.5zM240 142v424h197q73 0 113 -37t40 -91q0 -58 -38.5 -89t-106.5 -31l34 12q35 0 56 -17.5t33 -70.5l25 -100h-132l-29 119
q-4 18 -14 24.5t-24 6.5h-42l19 12v-162h-131zM370 386h48q24 0 36 10t12 33t-12.5 33t-35.5 10h-48v-86z" />
    <glyph glyph-name="macron" unicode="&#xaf;" horiz-adv-x="500" 
d="M81 605v97h338v-97h-338z" />
    <glyph glyph-name="degree" unicode="&#xb0;" horiz-adv-x="389" 
d="M194 391q-48 0 -85.5 21.5t-59.5 58.5t-22 83q0 47 22 83t60 57.5t85 21.5q48 0 86 -21t59.5 -57.5t21.5 -83.5t-21.5 -84t-59.5 -58t-86 -21zM194 482q30 0 49 21t19 50q0 30 -19 51t-49 21q-29 0 -48 -21t-19 -51q0 -29 19 -50t48 -21z" />
    <glyph glyph-name="plusminus" unicode="&#xb1;" horiz-adv-x="600" 
d="M238 153v130h-183v120h183v129h124v-129h183v-120h-183v-130h-124zM55 0v119h490v-119h-490z" />
    <glyph glyph-name="uni00B2" unicode="&#xb2;" horiz-adv-x="380" 
d="M39 282v101l115 110q21 20 30.5 36t9.5 32q0 36 -46 36q-21 0 -47.5 -7.5t-46.5 -20.5l-21 105q27 15 65 25t85 10q75 0 118 -34t43 -92q0 -33 -16.5 -64t-54.5 -65l-75 -68v9h159v-113h-318z" />
    <glyph glyph-name="uni00B3" unicode="&#xb3;" horiz-adv-x="380" 
d="M188 276q-51 0 -92.5 7t-73.5 22l20 101q26 -13 59 -19t70 -6q31 0 46 9.5t15 26.5q0 14 -12 21t-33 7h-91v98h77q23 0 34 8t11 22q0 15 -13.5 23.5t-41.5 8.5q-30 0 -61 -9t-50 -20l-22 101q27 16 68 24t91 8q76 0 119.5 -30.5t43.5 -83.5q0 -40 -28.5 -68.5
t-71.5 -34.5v15q52 -3 81.5 -30.5t29.5 -76.5q0 -57 -48.5 -90.5t-126.5 -33.5z" />
    <glyph glyph-name="acute" unicode="&#xb4;" horiz-adv-x="500" 
d="M193 557l101 205h167l-154 -205h-114z" />
    <glyph glyph-name="uni00B5" unicode="&#xb5;" horiz-adv-x="593" 
d="M46 -187v695h178v-310q0 -36 15 -54t47 -18q37 0 60.5 26t23.5 69v287h178v-508h-174v90h-1q-7 -49 -34 -75t-57 -26q-26 0 -43 10t-29 32v0l14 -218h-178z" />
    <glyph glyph-name="paragraph" unicode="&#xb6;" horiz-adv-x="671" 
d="M256 -180v428q-69 0 -121 28.5t-81 80t-29 120.5q0 70 29.5 121t82 79t122.5 28h347v-885h-123v763h-105v-763h-122z" />
    <glyph glyph-name="periodcentered" unicode="&#xb7;" horiz-adv-x="275" 
d="M44 186v182h186v-182h-186z" />
    <glyph glyph-name="cedilla" unicode="&#xb8;" horiz-adv-x="500" 
d="M248 -198q-33 0 -64 5.5t-54 17.5l24 70q17 -8 36.5 -12.5t38.5 -4.5q26 0 37.5 5t11.5 16q0 18 -36 18q-8 0 -16 -1t-19 -3l-21 21l12 86h85l-12 -77l-41 17q11 5 23.5 7t22.5 2q47 0 73 -20t26 -56q0 -42 -35.5 -66.5t-91.5 -24.5z" />
    <glyph glyph-name="uni00B9" unicode="&#xb9;" horiz-adv-x="380" 
d="M36 282v113h101v189h55l-144 -70v127l129 64h100v-310h84v-113h-325z" />
    <glyph glyph-name="ordmasculine" unicode="&#xba;" horiz-adv-x="374" 
d="M187 406q-49 0 -87.5 19.5t-60.5 54.5t-22 82q0 48 22 82.5t60.5 53t87.5 18.5t88 -18.5t61 -53t22 -82.5q0 -47 -22 -82t-61 -54.5t-88 -19.5zM187 490q27 0 42.5 18t15.5 54t-15.5 54t-42.5 18q-26 0 -41.5 -17.5t-15.5 -54.5q0 -36 15.5 -54t41.5 -18z" />
    <glyph glyph-name="guillemotright" unicode="&#xbb;" horiz-adv-x="561" 
d="M168 84h-145l130 184l-130 184h146l133 -185zM407 84h-145l130 184l-130 184h146l133 -185z" />
    <glyph glyph-name="onequarter" unicode="&#xbc;" horiz-adv-x="936" 
d="M36 282v113h101v189h55l-144 -70v127l129 64h100v-310h84v-113h-325zM364 -11h-148l424 727h147zM752 0v63h-187v92l197 268h116v-260h53v-100h-53v-63h-126zM757 163v132h10l-106 -146v14h96z" />
    <glyph glyph-name="onehalf" unicode="&#xbd;" horiz-adv-x="988" 
d="M36 282v113h101v189h55l-144 -70v127l129 64h100v-310h84v-113h-325zM364 -11h-148l424 727h147zM647 0v101l115 110q21 20 30.5 36t9.5 32q0 36 -46 36q-21 0 -47.5 -7.5t-46.5 -20.5l-21 105q27 15 65 25t85 10q75 0 118 -34t43 -92q0 -33 -16.5 -64t-54.5 -65l-75 -68
v9h159v-113h-318z" />
    <glyph glyph-name="threequarters" unicode="&#xbe;" horiz-adv-x="936" 
d="M188 276q-51 0 -92.5 7t-73.5 22l20 101q26 -13 59 -19t70 -6q31 0 46 9.5t15 26.5q0 14 -12 21t-33 7h-91v98h77q23 0 34 8t11 22q0 15 -13.5 23.5t-41.5 8.5q-30 0 -61 -9t-50 -20l-22 101q27 16 68 24t91 8q76 0 119.5 -30.5t43.5 -83.5q0 -40 -28.5 -68.5
t-71.5 -34.5v15q52 -3 81.5 -30.5t29.5 -76.5q0 -57 -48.5 -90.5t-126.5 -33.5zM364 -11h-148l424 727h147zM752 0v63h-187v92l197 268h116v-260h53v-100h-53v-63h-126zM757 163v132h10l-106 -146v14h96z" />
    <glyph glyph-name="questiondown" unicode="&#xbf;" horiz-adv-x="483" 
d="M239 -196q-63 0 -113 18.5t-79 57t-29 97.5q0 32 9.5 59.5t30.5 53t57 51.5q49 36 65.5 61t22.5 48l5 20h105v-41q0 -42 -15.5 -76.5t-53.5 -71.5q-25 -25 -35.5 -44.5t-10.5 -38.5q0 -22 18.5 -35t52.5 -13q39 0 79 14t76 36v-147q-36 -23 -87 -36t-98 -13zM354 508
v-182h-186v182h186z" />
    <glyph glyph-name="Agrave" unicode="&#xc0;" horiz-adv-x="769" 
d="M-22 0l330 705h150l332 -705h-185l-85 194l71 -51h-414l70 51l-84 -194h-185zM382 515l-117 -279l-28 47h293l-25 -47l-118 279h-5zM323 765l-174 176h178l118 -176h-122z" />
    <glyph glyph-name="Aacute" unicode="&#xc1;" horiz-adv-x="769" 
d="M-22 0l330 705h150l332 -705h-185l-85 194l71 -51h-414l70 51l-84 -194h-185zM382 515l-117 -279l-28 47h293l-25 -47l-118 279h-5zM323 765l118 176h178l-174 -176h-122z" />
    <glyph glyph-name="Acircumflex" unicode="&#xc2;" horiz-adv-x="769" 
d="M-22 0l330 705h150l332 -705h-185l-85 194l71 -51h-414l70 51l-84 -194h-185zM382 515l-117 -279l-28 47h293l-25 -47l-118 279h-5zM185 765l126 176h146l126 -176h-119l-80 86l-80 -86h-119z" />
    <glyph glyph-name="Atilde" unicode="&#xc3;" horiz-adv-x="769" 
d="M-22 0l330 705h150l332 -705h-185l-85 194l71 -51h-414l70 51l-84 -194h-185zM382 515l-117 -279l-28 47h293l-25 -47l-118 279h-5zM225 759l-81 6q5 79 46.5 122t104.5 43q24 0 48.5 -7t56.5 -23q27 -13 45 -18.5t31 -5.5q29 0 45 14.5t22 44.5l81 -5q-4 -80 -46 -122.5
t-105 -42.5q-25 0 -49.5 7.5t-58.5 22.5q-26 13 -41.5 18t-31.5 5q-28 0 -44.5 -14.5t-22.5 -44.5z" />
    <glyph glyph-name="Adieresis" unicode="&#xc4;" horiz-adv-x="769" 
d="M-22 0l330 705h150l332 -705h-185l-85 194l71 -51h-414l70 51l-84 -194h-185zM382 515l-117 -279l-28 47h293l-25 -47l-118 279h-5zM413 771v149h149v-149h-149zM206 771v149h149v-149h-149z" />
    <glyph glyph-name="Aring" unicode="&#xc5;" horiz-adv-x="769" 
d="M-22 0l330 705h150l332 -705h-185l-85 194l71 -51h-414l70 51l-84 -194h-185zM382 515l-117 -279l-28 47h293l-25 -47l-118 279h-5zM384 752q-38 0 -68.5 17t-48.5 47t-18 67t18 66.5t48.5 46.5t68.5 17q39 0 69 -17t48 -46.5t18 -67.5q0 -36 -18 -66t-48 -47t-69 -17z
M384 825q25 0 41 16.5t16 40.5q0 25 -16 41t-41 16q-24 0 -40.5 -16t-16.5 -41q0 -24 16.5 -40.5t40.5 -16.5z" />
    <glyph glyph-name="AE" unicode="&#xc6;" horiz-adv-x="1030" 
d="M-42 0l451 705h588v-141h-350l25 19l15 -205l-18 51h306v-142h-308l26 10l14 -189l-22 34h312v-142h-446l-14 191l31 -48h-350l51 47l-116 -190h-195zM495 563l-196 -323l-11 44h259l-12 -51l-25 330h-15z" />
    <glyph glyph-name="Ccedilla" unicode="&#xc7;" horiz-adv-x="685" 
d="M419 -11q-115 0 -198.5 45t-129 127t-45.5 192t45.5 191.5t129 126.5t198.5 45q73 0 133 -19.5t101 -55.5l-55 -145q-46 33 -84.5 46.5t-87.5 13.5q-90 0 -138.5 -52.5t-48.5 -150.5q0 -99 48.5 -151.5t138.5 -52.5q49 0 87.5 13.5t84.5 46.5l55 -145q-41 -36 -101 -55.5
t-133 -19.5zM404 -198q-33 0 -64 5.5t-54 17.5l24 70q17 -8 36.5 -12.5t38.5 -4.5q26 0 37.5 5t11.5 16q0 18 -36 18q-8 0 -16 -1t-19 -3l-21 21l12 86h85l-12 -77l-41 17q11 5 23.5 7t22.5 2q47 0 73 -20t26 -56q0 -42 -35.5 -66.5t-91.5 -24.5z" />
    <glyph glyph-name="Egrave" unicode="&#xc8;" horiz-adv-x="603" 
d="M65 0v705h506v-141h-329v-135h305v-142h-305v-145h329v-142h-506zM278 765l-174 176h178l118 -176h-122z" />
    <glyph glyph-name="Eacute" unicode="&#xc9;" horiz-adv-x="603" 
d="M65 0v705h506v-141h-329v-135h305v-142h-305v-145h329v-142h-506zM278 765l118 176h178l-174 -176h-122z" />
    <glyph glyph-name="Ecircumflex" unicode="&#xca;" horiz-adv-x="603" 
d="M65 0v705h506v-141h-329v-135h305v-142h-305v-145h329v-142h-506zM140 765l126 176h146l126 -176h-119l-80 86l-80 -86h-119z" />
    <glyph glyph-name="Edieresis" unicode="&#xcb;" horiz-adv-x="603" 
d="M65 0v705h506v-141h-329v-135h305v-142h-305v-145h329v-142h-506zM368 771v149h149v-149h-149zM161 771v149h149v-149h-149z" />
    <glyph glyph-name="Igrave" unicode="&#xcc;" horiz-adv-x="315" 
d="M65 0v705h185v-705h-185zM96 765l-174 176h178l118 -176h-122z" />
    <glyph glyph-name="Iacute" unicode="&#xcd;" horiz-adv-x="315" 
d="M65 0v705h185v-705h-185zM96 765l118 176h178l-174 -176h-122z" />
    <glyph glyph-name="Icircumflex" unicode="&#xce;" horiz-adv-x="315" 
d="M65 0v705h185v-705h-185zM-42 765l126 176h146l126 -176h-119l-80 86l-80 -86h-119z" />
    <glyph glyph-name="Idieresis" unicode="&#xcf;" horiz-adv-x="315" 
d="M65 0v705h185v-705h-185zM186 771v149h149v-149h-149zM-21 771v149h149v-149h-149z" />
    <glyph glyph-name="Eth" unicode="&#xd0;" horiz-adv-x="781" 
d="M65 0v705h284q125 0 211 -42.5t130.5 -121t44.5 -188.5q0 -109 -44.5 -188t-130.5 -122t-211 -43h-284zM250 150h87q109 0 161.5 50t52.5 153q0 104 -52.5 153.5t-161.5 49.5h-87v-406zM-16 291v130h450v-130h-450z" />
    <glyph glyph-name="Ntilde" unicode="&#xd1;" horiz-adv-x="765" 
d="M65 0v705h136l357 -443h-29v443h171v-705h-136l-355 443h29v-443h-173zM227 759l-81 6q5 79 46.5 122t104.5 43q24 0 48.5 -7t56.5 -23q27 -13 45 -18.5t31 -5.5q29 0 45 14.5t22 44.5l81 -5q-4 -80 -46 -122.5t-105 -42.5q-25 0 -49.5 7.5t-58.5 22.5q-26 13 -41.5 18
t-31.5 5q-28 0 -44.5 -14.5t-22.5 -44.5z" />
    <glyph glyph-name="Ograve" unicode="&#xd2;" horiz-adv-x="804" 
d="M46 353q0 110 43 191.5t123 126.5t189 45q110 0 190 -45t123.5 -126.5t43.5 -191.5q0 -109 -43.5 -191t-123.5 -127.5t-190 -45.5q-109 0 -188.5 45.5t-123 127.5t-43.5 191zM239 353q0 -99 40 -154.5t122 -55.5t123 55.5t41 154.5t-41 154t-123 55t-122 -54.5
t-40 -154.5zM341 765l-174 176h178l118 -176h-122z" />
    <glyph glyph-name="Oacute" unicode="&#xd3;" horiz-adv-x="804" 
d="M46 353q0 110 43 191.5t123 126.5t189 45q110 0 190 -45t123.5 -126.5t43.5 -191.5q0 -109 -43.5 -191t-123.5 -127.5t-190 -45.5q-109 0 -188.5 45.5t-123 127.5t-43.5 191zM239 353q0 -99 40 -154.5t122 -55.5t123 55.5t41 154.5t-41 154t-123 55t-122 -54.5
t-40 -154.5zM341 765l118 176h178l-174 -176h-122z" />
    <glyph glyph-name="Ocircumflex" unicode="&#xd4;" horiz-adv-x="804" 
d="M46 353q0 110 43 191.5t123 126.5t189 45q110 0 190 -45t123.5 -126.5t43.5 -191.5q0 -109 -43.5 -191t-123.5 -127.5t-190 -45.5q-109 0 -188.5 45.5t-123 127.5t-43.5 191zM239 353q0 -99 40 -154.5t122 -55.5t123 55.5t41 154.5t-41 154t-123 55t-122 -54.5
t-40 -154.5zM203 765l126 176h146l126 -176h-119l-80 86l-80 -86h-119z" />
    <glyph glyph-name="Otilde" unicode="&#xd5;" horiz-adv-x="804" 
d="M46 353q0 110 43 191.5t123 126.5t189 45q110 0 190 -45t123.5 -126.5t43.5 -191.5q0 -109 -43.5 -191t-123.5 -127.5t-190 -45.5q-109 0 -188.5 45.5t-123 127.5t-43.5 191zM239 353q0 -99 40 -154.5t122 -55.5t123 55.5t41 154.5t-41 154t-123 55t-122 -54.5
t-40 -154.5zM243 759l-81 6q5 79 46.5 122t104.5 43q24 0 48.5 -7t56.5 -23q27 -13 45 -18.5t31 -5.5q29 0 45 14.5t22 44.5l81 -5q-4 -80 -46 -122.5t-105 -42.5q-25 0 -49.5 7.5t-58.5 22.5q-26 13 -41.5 18t-31.5 5q-28 0 -44.5 -14.5t-22.5 -44.5z" />
    <glyph glyph-name="Odieresis" unicode="&#xd6;" horiz-adv-x="804" 
d="M46 353q0 110 43 191.5t123 126.5t189 45q110 0 190 -45t123.5 -126.5t43.5 -191.5q0 -109 -43.5 -191t-123.5 -127.5t-190 -45.5q-109 0 -188.5 45.5t-123 127.5t-43.5 191zM239 353q0 -99 40 -154.5t122 -55.5t123 55.5t41 154.5t-41 154t-123 55t-122 -54.5
t-40 -154.5zM431 771v149h149v-149h-149zM224 771v149h149v-149h-149z" />
    <glyph glyph-name="multiply" unicode="&#xd7;" horiz-adv-x="600" 
d="M150 52l-84 84l150 151l-150 149l84 85l150 -151l151 151l83 -85l-150 -149l150 -151l-83 -84l-151 150z" />
    <glyph glyph-name="Oslash" unicode="&#xd8;" horiz-adv-x="804" 
d="M46 353q0 110 43 191.5t123 126.5t189 45q110 0 190 -45t123.5 -126.5t43.5 -191.5q0 -109 -43.5 -191t-123.5 -127.5t-190 -45.5q-109 0 -188.5 45.5t-123 127.5t-43.5 191zM239 353q0 -99 40 -154.5t122 -55.5t123 55.5t41 154.5t-41 154t-123 55t-122 -54.5
t-40 -154.5zM313 52l-73 -127l-116 68l74 128l59 74l225 384l26 74l74 127l115 -68l-74 -128l-59 -73l-224 -385z" />
    <glyph glyph-name="Ugrave" unicode="&#xd9;" horiz-adv-x="751" 
d="M378 -11q-158 0 -237 78t-79 233v405h184v-406q0 -77 32 -116.5t100 -39.5t100 39.5t32 116.5v406h182v-405q0 -155 -78 -233t-236 -78zM317 765l-174 176h178l118 -176h-122z" />
    <glyph glyph-name="Uacute" unicode="&#xda;" horiz-adv-x="751" 
d="M378 -11q-158 0 -237 78t-79 233v405h184v-406q0 -77 32 -116.5t100 -39.5t100 39.5t32 116.5v406h182v-405q0 -155 -78 -233t-236 -78zM317 765l118 176h178l-174 -176h-122z" />
    <glyph glyph-name="Ucircumflex" unicode="&#xdb;" horiz-adv-x="751" 
d="M378 -11q-158 0 -237 78t-79 233v405h184v-406q0 -77 32 -116.5t100 -39.5t100 39.5t32 116.5v406h182v-405q0 -155 -78 -233t-236 -78zM179 765l126 176h146l126 -176h-119l-80 86l-80 -86h-119z" />
    <glyph glyph-name="Udieresis" unicode="&#xdc;" horiz-adv-x="751" 
d="M378 -11q-158 0 -237 78t-79 233v405h184v-406q0 -77 32 -116.5t100 -39.5t100 39.5t32 116.5v406h182v-405q0 -155 -78 -233t-236 -78zM407 771v149h149v-149h-149zM200 771v149h149v-149h-149z" />
    <glyph glyph-name="Yacute" unicode="&#xdd;" horiz-adv-x="656" 
d="M236 0v337l37 -102l-316 470h213l179 -283h-36l179 283h206l-314 -470l37 102v-337h-185zM267 765l118 176h178l-174 -176h-122z" />
    <glyph glyph-name="Thorn" unicode="&#xde;" horiz-adv-x="686" 
d="M65 0v705h185v-108h154q120 0 186.5 -59.5t66.5 -161.5q0 -101 -66.5 -161t-186.5 -60h-154v-155h-185zM250 296h138q45 0 69 21t24 59t-24 58.5t-69 20.5h-138v-159z" />
    <glyph glyph-name="germandbls" unicode="&#xdf;" horiz-adv-x="721" 
d="M55 0v450q0 147 78 221.5t227 74.5q77 0 134 -23t89 -67t32 -107q0 -56 -35 -105t-126 -86v32q77 -21 133 -47.5t86 -67t30 -101.5q0 -56 -28.5 -98t-80 -64.5t-120.5 -22.5q-46 0 -80.5 6t-62 18t-54.5 29l40 116q38 -21 73 -33.5t77 -12.5q34 0 51.5 15t17.5 41
t-19 48.5t-65.5 43.5t-127.5 40v131q46 14 73.5 30t39 35.5t11.5 43.5q0 36 -24 57.5t-64 21.5q-62 0 -94.5 -34.5t-32.5 -108.5v-476h-178z" />
    <glyph glyph-name="agrave" unicode="&#xe0;" horiz-adv-x="644" 
d="M255 -11q-66 0 -116 31.5t-78.5 91.5t-28.5 142q0 83 28.5 142.5t78.5 91t116 31.5q59 0 106.5 -28t62.5 -73h-10l11 90h171q-3 -34 -5.5 -69t-2.5 -69v-370h-176l-2 86h12q-15 -44 -62.5 -70.5t-104.5 -26.5zM312 121q45 0 73 31.5t28 101.5t-28 101.5t-73 31.5
t-73 -31.5t-28 -101.5t27.5 -101.5t73.5 -31.5zM260 557l-154 205h167l101 -205h-114z" />
    <glyph glyph-name="aacute" unicode="&#xe1;" horiz-adv-x="644" 
d="M255 -11q-66 0 -116 31.5t-78.5 91.5t-28.5 142q0 83 28.5 142.5t78.5 91t116 31.5q59 0 106.5 -28t62.5 -73h-10l11 90h171q-3 -34 -5.5 -69t-2.5 -69v-370h-176l-2 86h12q-15 -44 -62.5 -70.5t-104.5 -26.5zM312 121q45 0 73 31.5t28 101.5t-28 101.5t-73 31.5
t-73 -31.5t-28 -101.5t27.5 -101.5t73.5 -31.5zM260 557l101 205h167l-154 -205h-114z" />
    <glyph glyph-name="acircumflex" unicode="&#xe2;" horiz-adv-x="644" 
d="M255 -11q-66 0 -116 31.5t-78.5 91.5t-28.5 142q0 83 28.5 142.5t78.5 91t116 31.5q59 0 106.5 -28t62.5 -73h-10l11 90h171q-3 -34 -5.5 -69t-2.5 -69v-370h-176l-2 86h12q-15 -44 -62.5 -70.5t-104.5 -26.5zM312 121q45 0 73 31.5t28 101.5t-28 101.5t-73 31.5
t-73 -31.5t-28 -101.5t27.5 -101.5t73.5 -31.5zM132 557l111 205h148l111 -205h-107l-78 113l-78 -113h-107z" />
    <glyph glyph-name="atilde" unicode="&#xe3;" horiz-adv-x="644" 
d="M255 -11q-66 0 -116 31.5t-78.5 91.5t-28.5 142q0 83 28.5 142.5t78.5 91t116 31.5q59 0 106.5 -28t62.5 -73h-10l11 90h171q-3 -34 -5.5 -69t-2.5 -69v-370h-176l-2 86h12q-15 -44 -62.5 -70.5t-104.5 -26.5zM312 121q45 0 73 31.5t28 101.5t-28 101.5t-73 31.5
t-73 -31.5t-28 -101.5t27.5 -101.5t73.5 -31.5zM188 577l-82 5q5 80 42.5 122.5t93.5 42.5q22 0 42 -7t42 -22q21 -13 34 -18.5t27 -5.5q49 0 59 59l82 -6q-4 -79 -42 -122t-93 -43q-23 0 -43 8t-44 23q-18 13 -31.5 18t-27.5 5q-27 0 -40.5 -16t-18.5 -43z" />
    <glyph glyph-name="adieresis" unicode="&#xe4;" horiz-adv-x="644" 
d="M255 -11q-66 0 -116 31.5t-78.5 91.5t-28.5 142q0 83 28.5 142.5t78.5 91t116 31.5q59 0 106.5 -28t62.5 -73h-10l11 90h171q-3 -34 -5.5 -69t-2.5 -69v-370h-176l-2 86h12q-15 -44 -62.5 -70.5t-104.5 -26.5zM312 121q45 0 73 31.5t28 101.5t-28 101.5t-73 31.5
t-73 -31.5t-28 -101.5t27.5 -101.5t73.5 -31.5zM346 582v150h149v-150h-149zM139 582v150h149v-150h-149z" />
    <glyph glyph-name="aring" unicode="&#xe5;" horiz-adv-x="644" 
d="M255 -11q-66 0 -116 31.5t-78.5 91.5t-28.5 142q0 83 28.5 142.5t78.5 91t116 31.5q59 0 106.5 -28t62.5 -73h-10l11 90h171q-3 -34 -5.5 -69t-2.5 -69v-370h-176l-2 86h12q-15 -44 -62.5 -70.5t-104.5 -26.5zM312 121q45 0 73 31.5t28 101.5t-28 101.5t-73 31.5
t-73 -31.5t-28 -101.5t27.5 -101.5t73.5 -31.5zM317 545q-38 0 -68.5 17t-48.5 47t-18 66q0 37 18 66.5t48.5 47t68.5 17.5q39 0 69 -17.5t48 -47t18 -66.5t-18 -66.5t-48 -46.5t-69 -17zM317 618q25 0 41 16t16 41t-16 41t-41 16q-24 0 -40.5 -16t-16.5 -41t16.5 -41
t40.5 -16z" />
    <glyph glyph-name="ae" unicode="&#xe6;" horiz-adv-x="861" 
d="M223 -11q-61 0 -105 23.5t-67 62t-23 81.5q0 55 26 88.5t87 49t165 15.5h49v-84h-52q-42 0 -69 -7.5t-39.5 -21.5t-12.5 -34q0 -24 17.5 -40t50.5 -16q26 0 47 11.5t33 32.5t12 49v122q0 36 -20.5 51.5t-64.5 15.5q-42 0 -80.5 -9.5t-82.5 -31.5l-46 118q40 24 99 39
t120 15q69 0 118.5 -20t74.5 -64h-39q38 43 81 63.5t99 20.5q106 0 167.5 -67.5t61.5 -189.5v-37h-334v84h203l-17 -18q0 56 -22 83.5t-59 27.5q-44 0 -68 -32t-24 -100v-9q0 -74 30.5 -107.5t94.5 -33.5q39 0 76 9t69 31l46 -116q-38 -28 -90 -41.5t-108 -13.5
q-87 0 -145.5 31.5t-88.5 91.5h29q-21 -58 -72 -90.5t-127 -32.5z" />
    <glyph glyph-name="ccedilla" unicode="&#xe7;" horiz-adv-x="514" 
d="M312 -11q-84 0 -147 32t-98 91.5t-35 142.5t35 142t98 90.5t147 31.5q52 0 102 -14t81 -40l-50 -121q-24 20 -54.5 30.5t-59.5 10.5q-55 0 -85.5 -33t-30.5 -97t30.5 -97.5t85.5 -33.5q28 0 59 10.5t55 29.5l50 -121q-32 -25 -81.5 -39.5t-101.5 -14.5zM298 -198
q-33 0 -64 5.5t-54 17.5l24 70q17 -8 36.5 -12.5t38.5 -4.5q26 0 37.5 5t11.5 16q0 18 -36 18q-8 0 -16 -1t-19 -3l-21 21l12 86h85l-12 -77l-41 17q11 5 23.5 7t22.5 2q47 0 73 -20t26 -56q0 -42 -35.5 -66.5t-91.5 -24.5z" />
    <glyph glyph-name="egrave" unicode="&#xe8;" horiz-adv-x="552" 
d="M323 -11q-138 0 -214.5 71t-76.5 195q0 77 32 137t90 93.5t136 33.5q77 0 128.5 -33.5t77.5 -92t26 -135.5v-38h-341v84h210l-17 -14q0 57 -21.5 84.5t-60.5 27.5q-45 0 -68.5 -33.5t-23.5 -100.5v-18q0 -67 33 -98t95 -31q40 0 75.5 9t67.5 29l46 -116q-38 -26 -88 -40
t-106 -14zM233 557l-154 205h167l101 -205h-114z" />
    <glyph glyph-name="eacute" unicode="&#xe9;" horiz-adv-x="552" 
d="M323 -11q-138 0 -214.5 71t-76.5 195q0 77 32 137t90 93.5t136 33.5q77 0 128.5 -33.5t77.5 -92t26 -135.5v-38h-341v84h210l-17 -14q0 57 -21.5 84.5t-60.5 27.5q-45 0 -68.5 -33.5t-23.5 -100.5v-18q0 -67 33 -98t95 -31q40 0 75.5 9t67.5 29l46 -116q-38 -26 -88 -40
t-106 -14zM233 557l101 205h167l-154 -205h-114z" />
    <glyph glyph-name="ecircumflex" unicode="&#xea;" horiz-adv-x="552" 
d="M323 -11q-138 0 -214.5 71t-76.5 195q0 77 32 137t90 93.5t136 33.5q77 0 128.5 -33.5t77.5 -92t26 -135.5v-38h-341v84h210l-17 -14q0 57 -21.5 84.5t-60.5 27.5q-45 0 -68.5 -33.5t-23.5 -100.5v-18q0 -67 33 -98t95 -31q40 0 75.5 9t67.5 29l46 -116q-38 -26 -88 -40
t-106 -14zM105 557l111 205h148l111 -205h-107l-78 113l-78 -113h-107z" />
    <glyph glyph-name="edieresis" unicode="&#xeb;" horiz-adv-x="552" 
d="M323 -11q-138 0 -214.5 71t-76.5 195q0 77 32 137t90 93.5t136 33.5q77 0 128.5 -33.5t77.5 -92t26 -135.5v-38h-341v84h210l-17 -14q0 57 -21.5 84.5t-60.5 27.5q-45 0 -68.5 -33.5t-23.5 -100.5v-18q0 -67 33 -98t95 -31q40 0 75.5 9t67.5 29l46 -116q-38 -26 -88 -40
t-106 -14zM319 582v150h149v-150h-149zM112 582v150h149v-150h-149z" />
    <glyph glyph-name="igrave" unicode="&#xec;" horiz-adv-x="288" 
d="M55 0v508h178v-508h-178zM87 557l-154 205h167l101 -205h-114z" />
    <glyph glyph-name="iacute" unicode="&#xed;" horiz-adv-x="288" 
d="M55 0v508h178v-508h-178zM87 557l101 205h167l-154 -205h-114z" />
    <glyph glyph-name="icircumflex" unicode="&#xee;" horiz-adv-x="288" 
d="M55 0v508h178v-508h-178zM-41 557l111 205h148l111 -205h-107l-78 113l-78 -113h-107z" />
    <glyph glyph-name="idieresis" unicode="&#xef;" horiz-adv-x="288" 
d="M55 0v508h178v-508h-178zM173 582v150h149v-150h-149zM-34 582v150h149v-150h-149z" />
    <glyph glyph-name="eth" unicode="&#xf0;" horiz-adv-x="626" 
d="M304 -11q-81 0 -142 29.5t-95.5 82t-34.5 120.5q0 67 32 118t89 80t131 29q66 0 110 -26.5t68 -87.5h-34q0 62 -30.5 119.5t-85.5 101.5l28 -4l-203 -93l-34 73l159 73l-2 -15q-30 17 -65 29.5t-73 19.5l29 109q81 -7 146 -31t114 -60l-30 3l125 57l35 -72l-100 -46l8 26
q51 -46 83 -103t47 -116.5t15 -115.5q0 -92 -34.5 -159.5t-98.5 -104t-157 -36.5zM310 122q47 0 72.5 27t25.5 71q0 46 -25 72t-73 26q-46 0 -72 -26t-26 -72t26.5 -72t71.5 -26z" />
    <glyph glyph-name="ntilde" unicode="&#xf1;" horiz-adv-x="623" 
d="M55 0v370q0 34 -2 69t-6 69h172l10 -88h-11q25 48 71 73.5t104 25.5q89 0 133.5 -52.5t44.5 -163.5v-303h-178v295q0 49 -17 68.5t-49 19.5q-42 0 -68 -27.5t-26 -72.5v-283h-178zM184 577l-82 5q5 80 42.5 122.5t93.5 42.5q22 0 42 -7t42 -22q21 -13 34 -18.5t27 -5.5
q49 0 59 59l82 -6q-4 -79 -42 -122t-93 -43q-23 0 -43 8t-44 23q-18 13 -31.5 18t-27.5 5q-27 0 -40.5 -16t-18.5 -43z" />
    <glyph glyph-name="ograve" unicode="&#xf2;" horiz-adv-x="617" 
d="M309 -11q-85 0 -147 32t-96 91.5t-34 141.5q0 83 34 142t96 91t147 32q84 0 146 -32t96 -91.5t34 -141.5q0 -81 -34 -141t-96 -92t-146 -32zM309 121q44 0 70 31.5t26 101.5t-26 101.5t-70 31.5q-45 0 -71 -31.5t-26 -101.5t26 -101.5t71 -31.5zM252 557l-154 205h167
l101 -205h-114z" />
    <glyph glyph-name="oacute" unicode="&#xf3;" horiz-adv-x="617" 
d="M309 -11q-85 0 -147 32t-96 91.5t-34 141.5q0 83 34 142t96 91t147 32q84 0 146 -32t96 -91.5t34 -141.5q0 -81 -34 -141t-96 -92t-146 -32zM309 121q44 0 70 31.5t26 101.5t-26 101.5t-70 31.5q-45 0 -71 -31.5t-26 -101.5t26 -101.5t71 -31.5zM252 557l101 205h167
l-154 -205h-114z" />
    <glyph glyph-name="ocircumflex" unicode="&#xf4;" horiz-adv-x="617" 
d="M309 -11q-85 0 -147 32t-96 91.5t-34 141.5q0 83 34 142t96 91t147 32q84 0 146 -32t96 -91.5t34 -141.5q0 -81 -34 -141t-96 -92t-146 -32zM309 121q44 0 70 31.5t26 101.5t-26 101.5t-70 31.5q-45 0 -71 -31.5t-26 -101.5t26 -101.5t71 -31.5zM124 557l111 205h148
l111 -205h-107l-78 113l-78 -113h-107z" />
    <glyph glyph-name="otilde" unicode="&#xf5;" horiz-adv-x="617" 
d="M309 -11q-85 0 -147 32t-96 91.5t-34 141.5q0 83 34 142t96 91t147 32q84 0 146 -32t96 -91.5t34 -141.5q0 -81 -34 -141t-96 -92t-146 -32zM309 121q44 0 70 31.5t26 101.5t-26 101.5t-70 31.5q-45 0 -71 -31.5t-26 -101.5t26 -101.5t71 -31.5zM180 577l-82 5
q5 80 42.5 122.5t93.5 42.5q22 0 42 -7t42 -22q21 -13 34 -18.5t27 -5.5q49 0 59 59l82 -6q-4 -79 -42 -122t-93 -43q-23 0 -43 8t-44 23q-18 13 -31.5 18t-27.5 5q-27 0 -40.5 -16t-18.5 -43z" />
    <glyph glyph-name="odieresis" unicode="&#xf6;" horiz-adv-x="617" 
d="M309 -11q-85 0 -147 32t-96 91.5t-34 141.5q0 83 34 142t96 91t147 32q84 0 146 -32t96 -91.5t34 -141.5q0 -81 -34 -141t-96 -92t-146 -32zM309 121q44 0 70 31.5t26 101.5t-26 101.5t-70 31.5q-45 0 -71 -31.5t-26 -101.5t26 -101.5t71 -31.5zM338 582v150h149v-150
h-149zM131 582v150h149v-150h-149z" />
    <glyph glyph-name="divide" unicode="&#xf7;" horiz-adv-x="600" 
d="M55 228v118h490v-118h-490zM232 29v126h125v-126h-125zM232 419v126h125v-126h-125z" />
    <glyph glyph-name="oslash" unicode="&#xf8;" horiz-adv-x="617" 
d="M309 -11q-85 0 -147 32t-96 91.5t-34 141.5q0 83 34 142t96 91t147 32q84 0 146 -32t96 -91.5t34 -141.5q0 -81 -34 -141t-96 -92t-146 -32zM308 121q58 0 86 34.5t28 98.5t-28 98.5t-86 34.5q-57 0 -85 -34t-28 -99q0 -64 28 -98.5t85 -34.5zM177 -61l-78 47l342 584
l79 -47z" />
    <glyph glyph-name="ugrave" unicode="&#xf9;" horiz-adv-x="618" 
d="M242 -11q-97 0 -143.5 53.5t-46.5 162.5v303h178v-304q0 -40 16.5 -59.5t50.5 -19.5q38 0 62.5 27.5t24.5 72.5v283h178v-508h-173v91h15q-24 -49 -65 -75.5t-97 -26.5zM251 557l-154 205h167l101 -205h-114z" />
    <glyph glyph-name="uacute" unicode="&#xfa;" horiz-adv-x="618" 
d="M242 -11q-97 0 -143.5 53.5t-46.5 162.5v303h178v-304q0 -40 16.5 -59.5t50.5 -19.5q38 0 62.5 27.5t24.5 72.5v283h178v-508h-173v91h15q-24 -49 -65 -75.5t-97 -26.5zM251 557l101 205h167l-154 -205h-114z" />
    <glyph glyph-name="ucircumflex" unicode="&#xfb;" horiz-adv-x="618" 
d="M242 -11q-97 0 -143.5 53.5t-46.5 162.5v303h178v-304q0 -40 16.5 -59.5t50.5 -19.5q38 0 62.5 27.5t24.5 72.5v283h178v-508h-173v91h15q-24 -49 -65 -75.5t-97 -26.5zM123 557l111 205h148l111 -205h-107l-78 113l-78 -113h-107z" />
    <glyph glyph-name="udieresis" unicode="&#xfc;" horiz-adv-x="618" 
d="M242 -11q-97 0 -143.5 53.5t-46.5 162.5v303h178v-304q0 -40 16.5 -59.5t50.5 -19.5q38 0 62.5 27.5t24.5 72.5v283h178v-508h-173v91h15q-24 -49 -65 -75.5t-97 -26.5zM337 582v150h149v-150h-149zM130 582v150h149v-150h-149z" />
    <glyph glyph-name="yacute" unicode="&#xfd;" horiz-adv-x="558" 
d="M57 -227l-42 138q48 9 80.5 19.5t53.5 28.5t33 47l25 58l-4 -67l-222 511h188l130 -337h-33l134 337h176l-228 -519q-27 -61 -57.5 -100t-66 -62t-77 -34.5t-90.5 -19.5zM221 557l101 205h167l-154 -205h-114z" />
    <glyph glyph-name="thorn" unicode="&#xfe;" horiz-adv-x="644" 
d="M55 -216v952h178v-318h-13q14 45 61.5 73t106.5 28q66 0 116.5 -31.5t79 -91t28.5 -142.5q0 -82 -28.5 -142t-78 -91.5t-116.5 -31.5q-58 0 -105 26.5t-62 70.5h11v-302h-178zM332 121q46 0 73.5 31.5t27.5 101.5t-27.5 101.5t-73.5 31.5q-45 0 -73 -31.5t-28 -101.5
t28 -101.5t73 -31.5z" />
    <glyph glyph-name="ydieresis" unicode="&#xff;" horiz-adv-x="558" 
d="M57 -227l-42 138q48 9 80.5 19.5t53.5 28.5t33 47l25 58l-4 -67l-222 511h188l130 -337h-33l134 337h176l-228 -519q-27 -61 -57.5 -100t-66 -62t-77 -34.5t-90.5 -19.5zM307 582v150h149v-150h-149zM100 582v150h149v-150h-149z" />
    <glyph glyph-name="Amacron" unicode="&#x100;" horiz-adv-x="769" 
d="M-22 0l330 705h150l332 -705h-185l-85 194l71 -51h-414l70 51l-84 -194h-185zM382 515l-117 -279l-28 47h293l-25 -47l-118 279h-5zM200 796v97h368v-97h-368z" />
    <glyph glyph-name="amacron" unicode="&#x101;" horiz-adv-x="644" 
d="M255 -11q-66 0 -116 31.5t-78.5 91.5t-28.5 142q0 83 28.5 142.5t78.5 91t116 31.5q59 0 106.5 -28t62.5 -73h-10l11 90h171q-3 -34 -5.5 -69t-2.5 -69v-370h-176l-2 86h12q-15 -44 -62.5 -70.5t-104.5 -26.5zM312 121q45 0 73 31.5t28 101.5t-28 101.5t-73 31.5
t-73 -31.5t-28 -101.5t27.5 -101.5t73.5 -31.5zM148 605v97h338v-97h-338z" />
    <glyph glyph-name="Abreve" unicode="&#x102;" horiz-adv-x="769" 
d="M-22 0l330 705h150l332 -705h-185l-85 194l71 -51h-414l70 51l-84 -194h-185zM382 515l-117 -279l-28 47h293l-25 -47l-118 279h-5zM384 760q-86 0 -140 46.5t-59 125.5l95 12q5 -39 31.5 -62t71.5 -23t73 23t32 62l95 -12q-5 -79 -58.5 -125.5t-140.5 -46.5z" />
    <glyph glyph-name="abreve" unicode="&#x103;" horiz-adv-x="644" 
d="M255 -11q-66 0 -116 31.5t-78.5 91.5t-28.5 142q0 83 28.5 142.5t78.5 91t116 31.5q59 0 106.5 -28t62.5 -73h-10l11 90h171q-3 -34 -5.5 -69t-2.5 -69v-370h-176l-2 86h12q-15 -44 -62.5 -70.5t-104.5 -26.5zM312 121q45 0 73 31.5t28 101.5t-28 101.5t-73 31.5
t-73 -31.5t-28 -101.5t27.5 -101.5t73.5 -31.5zM317 553q-53 0 -93.5 24.5t-63 69t-23.5 103.5l95 9q4 -51 26 -78t59 -27q38 0 59.5 27t25.5 78l95 -9q0 -59 -23 -103.5t-63.5 -69t-93.5 -24.5z" />
    <glyph glyph-name="Aogonek" unicode="&#x104;" horiz-adv-x="769" 
d="M-22 0l330 705h150l332 -705h-185l-85 194l71 -51h-414l70 51l-84 -194h-185zM382 515l-117 -279l-28 47h293l-25 -47l-118 279h-5zM698 -198q-63 0 -98 30t-35 81q0 46 30.5 82t79.5 53l48 -48q-18 -7 -30 -17.5t-17.5 -23t-5.5 -25.5q0 -21 15.5 -33t37.5 -12
q16 0 28.5 3t27.5 7l16 -80q-25 -9 -47 -13t-50 -4z" />
    <glyph glyph-name="aogonek" unicode="&#x105;" horiz-adv-x="644" 
d="M255 -11q-66 0 -116 31.5t-78.5 91.5t-28.5 142q0 83 28.5 142.5t78.5 91t116 31.5q59 0 106.5 -28t62.5 -73h-10l11 90h171q-3 -34 -5.5 -69t-2.5 -69v-370h-176l-2 86h12q-15 -44 -62.5 -70.5t-104.5 -26.5zM312 121q45 0 73 31.5t28 101.5t-28 101.5t-73 31.5
t-73 -31.5t-28 -101.5t27.5 -101.5t73.5 -31.5zM529 -198q-63 0 -98 30t-35 81q0 46 30.5 82t79.5 53l48 -48q-18 -7 -30 -17.5t-17.5 -23t-5.5 -25.5q0 -21 15.5 -33t37.5 -12q16 0 28.5 3t27.5 7l16 -80q-25 -9 -47 -13t-50 -4z" />
    <glyph glyph-name="Cacute" unicode="&#x106;" horiz-adv-x="685" 
d="M419 -11q-115 0 -198.5 45t-129 127t-45.5 192t45.5 191.5t129 126.5t198.5 45q73 0 133 -19.5t101 -55.5l-55 -145q-46 33 -84.5 46.5t-87.5 13.5q-90 0 -138.5 -52.5t-48.5 -150.5q0 -99 48.5 -151.5t138.5 -52.5q49 0 87.5 13.5t84.5 46.5l55 -145q-41 -36 -101 -55.5
t-133 -19.5zM345 765l118 176h178l-174 -176h-122z" />
    <glyph glyph-name="cacute" unicode="&#x107;" horiz-adv-x="514" 
d="M312 -11q-84 0 -147 32t-98 91.5t-35 142.5t35 142t98 90.5t147 31.5q52 0 102 -14t81 -40l-50 -121q-24 20 -54.5 30.5t-59.5 10.5q-55 0 -85.5 -33t-30.5 -97t30.5 -97.5t85.5 -33.5q28 0 59 10.5t55 29.5l50 -121q-32 -25 -81.5 -39.5t-101.5 -14.5zM243 557l101 205
h167l-154 -205h-114z" />
    <glyph glyph-name="Ccircumflex" unicode="&#x108;" horiz-adv-x="685" 
d="M419 -11q-115 0 -198.5 45t-129 127t-45.5 192t45.5 191.5t129 126.5t198.5 45q73 0 133 -19.5t101 -55.5l-55 -145q-46 33 -84.5 46.5t-87.5 13.5q-90 0 -138.5 -52.5t-48.5 -150.5q0 -99 48.5 -151.5t138.5 -52.5q49 0 87.5 13.5t84.5 46.5l55 -145q-41 -36 -101 -55.5
t-133 -19.5zM207 765l126 176h146l126 -176h-119l-80 86l-80 -86h-119z" />
    <glyph glyph-name="ccircumflex" unicode="&#x109;" horiz-adv-x="514" 
d="M312 -11q-84 0 -147 32t-98 91.5t-35 142.5t35 142t98 90.5t147 31.5q52 0 102 -14t81 -40l-50 -121q-24 20 -54.5 30.5t-59.5 10.5q-55 0 -85.5 -33t-30.5 -97t30.5 -97.5t85.5 -33.5q28 0 59 10.5t55 29.5l50 -121q-32 -25 -81.5 -39.5t-101.5 -14.5zM115 557l111 205
h148l111 -205h-107l-78 113l-78 -113h-107z" />
    <glyph glyph-name="Cdotaccent" unicode="&#x10a;" horiz-adv-x="685" 
d="M419 -11q-115 0 -198.5 45t-129 127t-45.5 192t45.5 191.5t129 126.5t198.5 45q73 0 133 -19.5t101 -55.5l-55 -145q-46 33 -84.5 46.5t-87.5 13.5q-90 0 -138.5 -52.5t-48.5 -150.5q0 -99 48.5 -151.5t138.5 -52.5q49 0 87.5 13.5t84.5 46.5l55 -145q-41 -36 -101 -55.5
t-133 -19.5zM326 778v150h160v-150h-160z" />
    <glyph glyph-name="cdotaccent" unicode="&#x10b;" horiz-adv-x="514" 
d="M312 -11q-84 0 -147 32t-98 91.5t-35 142.5t35 142t98 90.5t147 31.5q52 0 102 -14t81 -40l-50 -121q-24 20 -54.5 30.5t-59.5 10.5q-55 0 -85.5 -33t-30.5 -97t30.5 -97.5t85.5 -33.5q28 0 59 10.5t55 29.5l50 -121q-32 -25 -81.5 -39.5t-101.5 -14.5zM220 583v150h160
v-150h-160z" />
    <glyph glyph-name="Ccaron" unicode="&#x10c;" horiz-adv-x="685" 
d="M419 -11q-115 0 -198.5 45t-129 127t-45.5 192t45.5 191.5t129 126.5t198.5 45q73 0 133 -19.5t101 -55.5l-55 -145q-46 33 -84.5 46.5t-87.5 13.5q-90 0 -138.5 -52.5t-48.5 -150.5q0 -99 48.5 -151.5t138.5 -52.5q49 0 87.5 13.5t84.5 46.5l55 -145q-41 -36 -101 -55.5
t-133 -19.5zM333 765l-126 176h119l80 -86l80 86h119l-126 -176h-146z" />
    <glyph glyph-name="ccaron" unicode="&#x10d;" horiz-adv-x="514" 
d="M312 -11q-84 0 -147 32t-98 91.5t-35 142.5t35 142t98 90.5t147 31.5q52 0 102 -14t81 -40l-50 -121q-24 20 -54.5 30.5t-59.5 10.5q-55 0 -85.5 -33t-30.5 -97t30.5 -97.5t85.5 -33.5q28 0 59 10.5t55 29.5l50 -121q-32 -25 -81.5 -39.5t-101.5 -14.5zM226 557l-111 205
h107l78 -113l78 113h107l-111 -205h-148z" />
    <glyph glyph-name="Dcaron" unicode="&#x10e;" horiz-adv-x="781" 
d="M65 0v705h284q125 0 211 -42.5t130.5 -121t44.5 -188.5q0 -109 -44.5 -188t-130.5 -122t-211 -43h-284zM250 150h87q109 0 161.5 50t52.5 153q0 104 -52.5 153.5t-161.5 49.5h-87v-406zM325 765l-126 176h119l80 -86l80 86h119l-126 -176h-146z" />
    <glyph glyph-name="dcaron" unicode="&#x10f;" horiz-adv-x="644" 
d="M257 -11q-65 0 -116 31.5t-80 91.5t-29 142q0 83 28.5 142.5t80 91t116.5 31.5q58 0 105 -26.5t63 -70.5h-15v314h178v-736h-175v91h13q-14 -46 -61.5 -74t-107.5 -28zM314 121q44 0 72.5 31.5t28.5 101.5t-28.5 101.5t-72.5 31.5q-45 0 -73.5 -31.5t-28.5 -101.5
t28.5 -101.5t73.5 -31.5zM621 541v195h106l-29 -195h-77z" />
    <glyph glyph-name="Dcroat" unicode="&#x110;" horiz-adv-x="781" 
d="M65 0v705h284q125 0 211 -42.5t130.5 -121t44.5 -188.5q0 -109 -44.5 -188t-130.5 -122t-211 -43h-284zM250 150h87q109 0 161.5 50t52.5 153q0 104 -52.5 153.5t-161.5 49.5h-87v-406zM-16 291v130h450v-130h-450z" />
    <glyph glyph-name="dcroat" unicode="&#x111;" horiz-adv-x="644" 
d="M255 -11q-65 0 -115.5 30t-79 87t-28.5 135q0 79 28.5 135t78.5 86.5t116 30.5q57 0 103 -26t62 -68h-11v153h-189v122h189v62h178v-62h86v-122h-86v-552h-176v88h10q-14 -45 -60.5 -72t-105.5 -27zM312 120q43 0 71 29.5t28 91.5q0 63 -28 91.5t-71 28.5
q-44 0 -72.5 -29t-28.5 -91t28.5 -91.5t72.5 -29.5z" />
    <glyph glyph-name="Emacron" unicode="&#x112;" horiz-adv-x="603" 
d="M65 0v705h506v-141h-329v-135h305v-142h-305v-145h329v-142h-506zM155 796v97h368v-97h-368z" />
    <glyph glyph-name="emacron" unicode="&#x113;" horiz-adv-x="552" 
d="M323 -11q-138 0 -214.5 71t-76.5 195q0 77 32 137t90 93.5t136 33.5q77 0 128.5 -33.5t77.5 -92t26 -135.5v-38h-341v84h210l-17 -14q0 57 -21.5 84.5t-60.5 27.5q-45 0 -68.5 -33.5t-23.5 -100.5v-18q0 -67 33 -98t95 -31q40 0 75.5 9t67.5 29l46 -116q-38 -26 -88 -40
t-106 -14zM121 605v97h338v-97h-338z" />
    <glyph glyph-name="Ebreve" unicode="&#x114;" horiz-adv-x="603" 
d="M65 0v705h506v-141h-329v-135h305v-142h-305v-145h329v-142h-506zM339 760q-86 0 -140 46.5t-59 125.5l95 12q5 -39 31.5 -62t71.5 -23t73 23t32 62l95 -12q-5 -79 -58.5 -125.5t-140.5 -46.5z" />
    <glyph glyph-name="ebreve" unicode="&#x115;" horiz-adv-x="552" 
d="M323 -11q-138 0 -214.5 71t-76.5 195q0 77 32 137t90 93.5t136 33.5q77 0 128.5 -33.5t77.5 -92t26 -135.5v-38h-341v84h210l-17 -14q0 57 -21.5 84.5t-60.5 27.5q-45 0 -68.5 -33.5t-23.5 -100.5v-18q0 -67 33 -98t95 -31q40 0 75.5 9t67.5 29l46 -116q-38 -26 -88 -40
t-106 -14zM290 553q-53 0 -93.5 24.5t-63 69t-23.5 103.5l95 9q4 -51 26 -78t59 -27q38 0 59.5 27t25.5 78l95 -9q0 -59 -23 -103.5t-63.5 -69t-93.5 -24.5z" />
    <glyph glyph-name="Edotaccent" unicode="&#x116;" horiz-adv-x="603" 
d="M65 0v705h506v-141h-329v-135h305v-142h-305v-145h329v-142h-506zM259 778v150h160v-150h-160z" />
    <glyph glyph-name="edotaccent" unicode="&#x117;" horiz-adv-x="552" 
d="M323 -11q-138 0 -214.5 71t-76.5 195q0 77 32 137t90 93.5t136 33.5q77 0 128.5 -33.5t77.5 -92t26 -135.5v-38h-341v84h210l-17 -14q0 57 -21.5 84.5t-60.5 27.5q-45 0 -68.5 -33.5t-23.5 -100.5v-18q0 -67 33 -98t95 -31q40 0 75.5 9t67.5 29l46 -116q-38 -26 -88 -40
t-106 -14zM210 583v150h160v-150h-160z" />
    <glyph glyph-name="Eogonek" unicode="&#x118;" horiz-adv-x="603" 
d="M65 0v705h506v-141h-329v-135h305v-142h-305v-145h329v-142h-506zM494 -198q-63 0 -98 30t-35 81q0 46 30.5 82t79.5 53l48 -48q-18 -7 -30 -17.5t-17.5 -23t-5.5 -25.5q0 -21 15.5 -33t37.5 -12q16 0 28.5 3t27.5 7l16 -80q-25 -9 -47 -13t-50 -4z" />
    <glyph glyph-name="eogonek" unicode="&#x119;" horiz-adv-x="552" 
d="M323 -11q-138 0 -214.5 71t-76.5 195q0 77 32 137t90 93.5t136 33.5q77 0 128.5 -33.5t77.5 -92t26 -135.5v-38h-341v84h210l-17 -14q0 57 -21.5 84.5t-60.5 27.5q-45 0 -68.5 -33.5t-23.5 -100.5v-18q0 -67 33 -98t95 -31q40 0 75.5 9t67.5 29l46 -116q-38 -26 -88 -40
t-106 -14zM381 -198q-63 0 -98 30t-35 81q0 46 30.5 82t79.5 53l48 -48q-18 -7 -30 -17.5t-17.5 -23t-5.5 -25.5q0 -21 15.5 -33t37.5 -12q16 0 28.5 3t27.5 7l16 -80q-25 -9 -47 -13t-50 -4z" />
    <glyph glyph-name="Ecaron" unicode="&#x11a;" horiz-adv-x="603" 
d="M65 0v705h506v-141h-329v-135h305v-142h-305v-145h329v-142h-506zM266 765l-126 176h119l80 -86l80 86h119l-126 -176h-146z" />
    <glyph glyph-name="ecaron" unicode="&#x11b;" horiz-adv-x="552" 
d="M323 -11q-138 0 -214.5 71t-76.5 195q0 77 32 137t90 93.5t136 33.5q77 0 128.5 -33.5t77.5 -92t26 -135.5v-38h-341v84h210l-17 -14q0 57 -21.5 84.5t-60.5 27.5q-45 0 -68.5 -33.5t-23.5 -100.5v-18q0 -67 33 -98t95 -31q40 0 75.5 9t67.5 29l46 -116q-38 -26 -88 -40
t-106 -14zM216 557l-111 205h107l78 -113l78 113h107l-111 -205h-148z" />
    <glyph glyph-name="Gcircumflex" unicode="&#x11c;" horiz-adv-x="750" 
d="M425 -11q-123 0 -207.5 45t-128 126t-43.5 189q0 112 47.5 194.5t136.5 127.5t214 45q77 0 136.5 -18t102.5 -52l-57 -141q-31 21 -58.5 32.5t-56 16.5t-65.5 5q-104 0 -155.5 -53.5t-51.5 -156.5q0 -102 47 -154t149 -52q31 0 67.5 6t74.5 18l-33 -66v168h-146v128h297
v-353q-57 -27 -127.5 -41t-142.5 -14zM222 765l126 176h146l126 -176h-119l-80 86l-80 -86h-119z" />
    <glyph glyph-name="gcircumflex" unicode="&#x11d;" horiz-adv-x="644" 
d="M304 -224q-76 0 -133.5 13.5t-103.5 41.5l31 126q27 -16 59 -27t66.5 -16.5t65.5 -5.5q64 0 95 29.5t31 83.5v89h10q-16 -44 -63 -70.5t-104 -26.5q-68 0 -118.5 30.5t-79 87.5t-28.5 135t28.5 135t79 87.5t118.5 30.5q59 0 104 -26t61 -69l-8 2l11 82h171q-4 -34 -6 -69
t-2 -69v-329q0 -128 -73 -196.5t-212 -68.5zM313 145q46 0 73 31t27 90q0 60 -27 90.5t-73 30.5q-47 0 -74 -30.5t-27 -90.5q0 -59 27 -90t74 -31zM141 557l111 205h148l111 -205h-107l-78 113l-78 -113h-107z" />
    <glyph glyph-name="Gbreve" unicode="&#x11e;" horiz-adv-x="750" 
d="M425 -11q-123 0 -207.5 45t-128 126t-43.5 189q0 112 47.5 194.5t136.5 127.5t214 45q77 0 136.5 -18t102.5 -52l-57 -141q-31 21 -58.5 32.5t-56 16.5t-65.5 5q-104 0 -155.5 -53.5t-51.5 -156.5q0 -102 47 -154t149 -52q31 0 67.5 6t74.5 18l-33 -66v168h-146v128h297
v-353q-57 -27 -127.5 -41t-142.5 -14zM421 760q-86 0 -140 46.5t-59 125.5l95 12q5 -39 31.5 -62t71.5 -23t73 23t32 62l95 -12q-5 -79 -58.5 -125.5t-140.5 -46.5z" />
    <glyph glyph-name="gbreve" unicode="&#x11f;" horiz-adv-x="644" 
d="M304 -224q-76 0 -133.5 13.5t-103.5 41.5l31 126q27 -16 59 -27t66.5 -16.5t65.5 -5.5q64 0 95 29.5t31 83.5v89h10q-16 -44 -63 -70.5t-104 -26.5q-68 0 -118.5 30.5t-79 87.5t-28.5 135t28.5 135t79 87.5t118.5 30.5q59 0 104 -26t61 -69l-8 2l11 82h171q-4 -34 -6 -69
t-2 -69v-329q0 -128 -73 -196.5t-212 -68.5zM313 145q46 0 73 31t27 90q0 60 -27 90.5t-73 30.5q-47 0 -74 -30.5t-27 -90.5q0 -59 27 -90t74 -31zM326 553q-53 0 -93.5 24.5t-63 69t-23.5 103.5l95 9q4 -51 26 -78t59 -27q38 0 59.5 27t25.5 78l95 -9q0 -59 -23 -103.5
t-63.5 -69t-93.5 -24.5z" />
    <glyph glyph-name="Gdotaccent" unicode="&#x120;" horiz-adv-x="750" 
d="M425 -11q-123 0 -207.5 45t-128 126t-43.5 189q0 112 47.5 194.5t136.5 127.5t214 45q77 0 136.5 -18t102.5 -52l-57 -141q-31 21 -58.5 32.5t-56 16.5t-65.5 5q-104 0 -155.5 -53.5t-51.5 -156.5q0 -102 47 -154t149 -52q31 0 67.5 6t74.5 18l-33 -66v168h-146v128h297
v-353q-57 -27 -127.5 -41t-142.5 -14zM341 778v150h160v-150h-160z" />
    <glyph glyph-name="gdotaccent" unicode="&#x121;" horiz-adv-x="644" 
d="M304 -224q-76 0 -133.5 13.5t-103.5 41.5l31 126q27 -16 59 -27t66.5 -16.5t65.5 -5.5q64 0 95 29.5t31 83.5v89h10q-16 -44 -63 -70.5t-104 -26.5q-68 0 -118.5 30.5t-79 87.5t-28.5 135t28.5 135t79 87.5t118.5 30.5q59 0 104 -26t61 -69l-8 2l11 82h171q-4 -34 -6 -69
t-2 -69v-329q0 -128 -73 -196.5t-212 -68.5zM313 145q46 0 73 31t27 90q0 60 -27 90.5t-73 30.5q-47 0 -74 -30.5t-27 -90.5q0 -59 27 -90t74 -31zM246 583v150h160v-150h-160z" />
    <glyph glyph-name="uni0122" unicode="&#x122;" horiz-adv-x="750" 
d="M425 -11q-123 0 -207.5 45t-128 126t-43.5 189q0 112 47.5 194.5t136.5 127.5t214 45q77 0 136.5 -18t102.5 -52l-57 -141q-31 21 -58.5 32.5t-56 16.5t-65.5 5q-104 0 -155.5 -53.5t-51.5 -156.5q0 -102 47 -154t149 -52q31 0 67.5 6t74.5 18l-33 -66v168h-146v128h297
v-353q-57 -27 -127.5 -41t-142.5 -14zM450 -290l-61 40q22 19 30 38.5t8 41.5l36 -20h-118v125h169v-75q0 -46 -14 -83t-50 -67z" />
    <glyph glyph-name="uni0123" unicode="&#x123;" horiz-adv-x="644" 
d="M304 -224q-76 0 -133.5 13.5t-103.5 41.5l31 126q27 -16 59 -27t66.5 -16.5t65.5 -5.5q64 0 95 29.5t31 83.5v89h10q-16 -44 -63 -70.5t-104 -26.5q-68 0 -118.5 30.5t-79 87.5t-28.5 135t28.5 135t79 87.5t118.5 30.5q59 0 104 -26t61 -69l-8 2l11 82h171q-4 -34 -6 -69
t-2 -69v-329q0 -128 -73 -196.5t-212 -68.5zM313 145q46 0 73 31t27 90q0 60 -27 90.5t-73 30.5q-47 0 -74 -30.5t-27 -90.5q0 -59 27 -90t74 -31zM241 560v75q0 47 14 83.5t50 67.5l61 -41q-22 -18 -30 -38t-8 -41l-36 20h118v-126h-169z" />
    <glyph glyph-name="Hcircumflex" unicode="&#x124;" horiz-adv-x="784" 
d="M65 0v705h185v-272h284v272h185v-705h-185v282h-284v-282h-185zM193 765l126 176h146l126 -176h-119l-80 86l-80 -86h-119z" />
    <glyph glyph-name="hcircumflex" unicode="&#x125;" horiz-adv-x="623" 
d="M55 0v736h178v-317h-15q25 49 71 74.5t105 25.5q89 0 133 -53t44 -161v-305h-178v297q0 46 -16.5 66t-49.5 20q-43 0 -68.5 -27t-25.5 -71v-285h-178zM116 791l126 176h146l126 -176h-119l-80 86l-80 -86h-119z" />
    <glyph glyph-name="Hbar" unicode="&#x126;" horiz-adv-x="855" 
d="M101 0v501h-80v129h80v75h185v-75h284v75h184v-75h80v-129h-80v-501h-184v263h-284v-263h-185zM286 414h284v87h-284v-87z" />
    <glyph glyph-name="hbar" unicode="&#x127;" horiz-adv-x="623" 
d="M55 0v552h-86v122h86v62h178v-62h189v-122h-189v-150h-15q25 48 71 73.5t105 25.5q90 0 133.5 -52.5t43.5 -161.5v-287h-178v279q0 46 -16.5 65.5t-49.5 19.5q-43 0 -68.5 -26t-25.5 -69v-269h-178z" />
    <glyph glyph-name="Itilde" unicode="&#x128;" horiz-adv-x="315" 
d="M65 0v705h185v-705h-185zM-2 759l-81 6q5 79 46.5 122t104.5 43q24 0 48.5 -7t56.5 -23q27 -13 45 -18.5t31 -5.5q29 0 45 14.5t22 44.5l81 -5q-4 -80 -46 -122.5t-105 -42.5q-25 0 -49.5 7.5t-58.5 22.5q-26 13 -41.5 18t-31.5 5q-28 0 -44.5 -14.5t-22.5 -44.5z" />
    <glyph glyph-name="itilde" unicode="&#x129;" horiz-adv-x="288" 
d="M55 0v508h178v-508h-178zM15 577l-82 5q5 80 42.5 122.5t93.5 42.5q22 0 42 -7t42 -22q21 -13 34 -18.5t27 -5.5q49 0 59 59l82 -6q-4 -79 -42 -122t-93 -43q-23 0 -43 8t-44 23q-18 13 -31.5 18t-27.5 5q-27 0 -40.5 -16t-18.5 -43z" />
    <glyph glyph-name="Imacron" unicode="&#x12a;" horiz-adv-x="315" 
d="M65 0v705h185v-705h-185zM-27 796v97h368v-97h-368z" />
    <glyph glyph-name="imacron" unicode="&#x12b;" horiz-adv-x="288" 
d="M55 0v508h178v-508h-178zM-25 605v97h338v-97h-338z" />
    <glyph glyph-name="Ibreve" unicode="&#x12c;" horiz-adv-x="315" 
d="M65 0v705h185v-705h-185zM157 760q-86 0 -140 46.5t-59 125.5l95 12q5 -39 31.5 -62t71.5 -23t73 23t32 62l95 -12q-5 -79 -58.5 -125.5t-140.5 -46.5z" />
    <glyph glyph-name="ibreve" unicode="&#x12d;" horiz-adv-x="288" 
d="M55 0v508h178v-508h-178zM144 553q-53 0 -93.5 24.5t-63 69t-23.5 103.5l95 9q4 -51 26 -78t59 -27q38 0 59.5 27t25.5 78l95 -9q0 -59 -23 -103.5t-63.5 -69t-93.5 -24.5z" />
    <glyph glyph-name="Iogonek" unicode="&#x12e;" horiz-adv-x="315" 
d="M65 0v705h185v-705h-185zM180 -198q-63 0 -98 30t-35 81q0 46 30.5 82t79.5 53l48 -48q-18 -7 -30 -17.5t-17.5 -23t-5.5 -25.5q0 -21 15.5 -33t37.5 -12q16 0 28.5 3t27.5 7l16 -80q-25 -9 -47 -13t-50 -4z" />
    <glyph glyph-name="iogonek" unicode="&#x12f;" horiz-adv-x="288" 
d="M55 0v508h178v-508h-178zM50 577v161h188v-161h-188zM166 -198q-63 0 -98 30t-35 81q0 46 30.5 82t79.5 53l48 -48q-18 -7 -30 -17.5t-17.5 -23t-5.5 -25.5q0 -21 15.5 -33t37.5 -12q16 0 28.5 3t27.5 7l16 -80q-25 -9 -47 -13t-50 -4z" />
    <glyph glyph-name="Idotaccent" unicode="&#x130;" horiz-adv-x="315" 
d="M65 0v705h185v-705h-185zM77 778v150h160v-150h-160z" />
    <glyph glyph-name="dotlessi" unicode="&#x131;" horiz-adv-x="288" 
d="M55 0v508h178v-508h-178z" />
    <glyph glyph-name="IJ" unicode="&#x132;" horiz-adv-x="716" 
d="M65 0v705h185v-705h-185zM417 -187q-18 0 -45 2t-54 8v141q19 -4 38 -5.5t30 -1.5q45 0 62.5 25t17.5 81v642h185v-642q0 -84 -23.5 -140t-74.5 -83t-136 -27z" />
    <glyph glyph-name="Jcircumflex" unicode="&#x134;" horiz-adv-x="401" 
d="M102 -187q-18 0 -45 2t-54 8v141q19 -4 38 -5.5t30 -1.5q45 0 62.5 25t17.5 81v642h185v-642q0 -84 -23.5 -140t-74.5 -83t-136 -27zM47 765l126 176h146l126 -176h-119l-80 86l-80 -86h-119z" />
    <glyph glyph-name="jcircumflex" unicode="&#x135;" horiz-adv-x="288" 
d="M25 -225q-24 0 -48.5 3t-45.5 12v137q14 -5 28 -7t29 -2q28 0 48 16.5t20 59.5v514h178v-520q0 -105 -49.5 -159t-159.5 -54zM-41 557l111 205h148l111 -205h-107l-78 113l-78 -113h-107z" />
    <glyph glyph-name="uni0136" unicode="&#x136;" horiz-adv-x="704" 
d="M65 0v705h185v-302h2l270 302h216l-342 -371v73l361 -407h-223l-282 318h-2v-318h-185zM378 -290l-61 40q22 19 30 38.5t8 41.5l36 -20h-118v125h169v-75q0 -46 -14 -83t-50 -67z" />
    <glyph glyph-name="uni0137" unicode="&#x137;" horiz-adv-x="596" 
d="M55 0v736h178v-433h2l170 205h210l-230 -272v61l239 -297h-215l-174 213h-2v-213h-178zM317 -290l-61 40q22 19 30 38.5t8 41.5l36 -20h-118v125h169v-75q0 -46 -14 -83t-50 -67z" />
    <glyph glyph-name="kgreenlandic" unicode="&#x138;" horiz-adv-x="596" 
d="M55 0v508h178v-205h2l170 205h210l-230 -272v61l239 -297h-215l-174 213h-2v-213h-178z" />
    <glyph glyph-name="Lacute" unicode="&#x139;" horiz-adv-x="578" 
d="M65 0v705h185v-552h302v-153h-487zM96 765l118 176h178l-174 -176h-122z" />
    <glyph glyph-name="lacute" unicode="&#x13a;" horiz-adv-x="288" 
d="M55 0v736h178v-736h-178zM83 791l118 176h178l-174 -176h-122z" />
    <glyph glyph-name="uni013B" unicode="&#x13b;" horiz-adv-x="578" 
d="M65 0v705h185v-552h302v-153h-487zM339 -290l-61 40q22 19 30 38.5t8 41.5l36 -20h-118v125h169v-75q0 -46 -14 -83t-50 -67z" />
    <glyph glyph-name="uni013C" unicode="&#x13c;" horiz-adv-x="288" 
d="M55 0v736h178v-736h-178zM164 -290l-61 40q22 19 30 38.5t8 41.5l36 -20h-118v125h169v-75q0 -46 -14 -83t-50 -67z" />
    <glyph glyph-name="Lcaron" unicode="&#x13d;" horiz-adv-x="578" 
d="M65 0v705h185v-552h302v-153h-487zM347 456v249h128l-26 -249h-102z" />
    <glyph glyph-name="lcaron" unicode="&#x13e;" horiz-adv-x="288" 
d="M55 0v736h178v-736h-178zM268 541v195h106l-29 -195h-77z" />
    <glyph glyph-name="Ldot" unicode="&#x13f;" horiz-adv-x="578" 
d="M65 0v705h185v-552h302v-153h-487zM365 319v159h186v-159h-186z" />
    <glyph glyph-name="ldot" unicode="&#x140;" horiz-adv-x="288" 
d="M55 0v736h178v-736h-178zM281 272v159h186v-159h-186z" />
    <glyph glyph-name="Lslash" unicode="&#x141;" horiz-adv-x="578" 
d="M65 0v705h185v-552h302v-153h-487zM13 198l-65 118l448 258l66 -118z" />
    <glyph glyph-name="lslash" unicode="&#x142;" horiz-adv-x="288" 
d="M55 0v736h178v-736h-178zM1 214l-66 117l352 204l66 -118z" />
    <glyph glyph-name="Nacute" unicode="&#x143;" horiz-adv-x="765" 
d="M65 0v705h136l357 -443h-29v443h171v-705h-136l-355 443h29v-443h-173zM325 765l118 176h178l-174 -176h-122z" />
    <glyph glyph-name="nacute" unicode="&#x144;" horiz-adv-x="623" 
d="M55 0v370q0 34 -2 69t-6 69h172l10 -88h-11q25 48 71 73.5t104 25.5q89 0 133.5 -52.5t44.5 -163.5v-303h-178v295q0 49 -17 68.5t-49 19.5q-42 0 -68 -27.5t-26 -72.5v-283h-178zM256 557l101 205h167l-154 -205h-114z" />
    <glyph glyph-name="uni0145" unicode="&#x145;" horiz-adv-x="765" 
d="M65 0v705h136l357 -443h-29v443h171v-705h-136l-355 443h29v-443h-173zM407 -290l-61 40q22 19 30 38.5t8 41.5l36 -20h-118v125h169v-75q0 -46 -14 -83t-50 -67z" />
    <glyph glyph-name="uni0146" unicode="&#x146;" horiz-adv-x="623" 
d="M55 0v370q0 34 -2 69t-6 69h172l10 -88h-11q25 48 71 73.5t104 25.5q89 0 133.5 -52.5t44.5 -163.5v-303h-178v295q0 49 -17 68.5t-49 19.5q-42 0 -68 -27.5t-26 -72.5v-283h-178zM333 -290l-61 40q22 19 30 38.5t8 41.5l36 -20h-118v125h169v-75q0 -46 -14 -83t-50 -67z
" />
    <glyph glyph-name="Ncaron" unicode="&#x147;" horiz-adv-x="765" 
d="M65 0v705h136l357 -443h-29v443h171v-705h-136l-355 443h29v-443h-173zM313 765l-126 176h119l80 -86l80 86h119l-126 -176h-146z" />
    <glyph glyph-name="ncaron" unicode="&#x148;" horiz-adv-x="623" 
d="M55 0v370q0 34 -2 69t-6 69h172l10 -88h-11q25 48 71 73.5t104 25.5q89 0 133.5 -52.5t44.5 -163.5v-303h-178v295q0 49 -17 68.5t-49 19.5q-42 0 -68 -27.5t-26 -72.5v-283h-178zM239 557l-111 205h107l78 -113l78 113h107l-111 -205h-148z" />
    <glyph glyph-name="napostrophe" unicode="&#x149;" horiz-adv-x="706" 
d="M141 561l-60 41q21 18 29 37t8 40l36 -20h-118v127h169v-76q0 -45 -13.5 -81.5t-50.5 -67.5zM137 0v370q0 34 -2 69t-6 69h172l10 -88h-11q25 48 71 73.5t104 25.5q89 0 133.5 -52.5t44.5 -163.5v-303h-178v295q0 49 -17 68.5t-49 19.5q-42 0 -68 -27.5t-26 -72.5v-283
h-178z" />
    <glyph glyph-name="Eng" unicode="&#x14a;" horiz-adv-x="765" 
d="M423 -193l-13 125l54 6q33 3 49 18.5t16 46.5v64l35 -67l-355 443h29v-443h-173v705h136l357 -443h-29v443h171v-676q0 -74 -21.5 -120t-72 -69.5t-138.5 -29.5z" />
    <glyph glyph-name="eng" unicode="&#x14b;" horiz-adv-x="623" 
d="M55 0v370q0 34 -2 69t-6 69h172l10 -88h-11q25 48 71 73.5t104 25.5q89 0 133.5 -52.5t44.5 -163.5v-314q0 -105 -50.5 -159.5t-161.5 -54.5q-25 0 -48.5 3t-44.5 12v137q14 -5 27 -7t30 -2q29 0 49.5 17t20.5 60v300q0 49 -17 68.5t-48 19.5q-43 0 -69 -27.5t-26 -72.5
v-283h-178z" />
    <glyph glyph-name="Omacron" unicode="&#x14c;" horiz-adv-x="804" 
d="M46 353q0 110 43 191.5t123 126.5t189 45q110 0 190 -45t123.5 -126.5t43.5 -191.5q0 -109 -43.5 -191t-123.5 -127.5t-190 -45.5q-109 0 -188.5 45.5t-123 127.5t-43.5 191zM239 353q0 -99 40 -154.5t122 -55.5t123 55.5t41 154.5t-41 154t-123 55t-122 -54.5
t-40 -154.5zM218 796v97h368v-97h-368z" />
    <glyph glyph-name="omacron" unicode="&#x14d;" horiz-adv-x="617" 
d="M309 -11q-85 0 -147 32t-96 91.5t-34 141.5q0 83 34 142t96 91t147 32q84 0 146 -32t96 -91.5t34 -141.5q0 -81 -34 -141t-96 -92t-146 -32zM309 121q44 0 70 31.5t26 101.5t-26 101.5t-70 31.5q-45 0 -71 -31.5t-26 -101.5t26 -101.5t71 -31.5zM140 605v97h338v-97h-338
z" />
    <glyph glyph-name="Obreve" unicode="&#x14e;" horiz-adv-x="804" 
d="M46 353q0 110 43 191.5t123 126.5t189 45q110 0 190 -45t123.5 -126.5t43.5 -191.5q0 -109 -43.5 -191t-123.5 -127.5t-190 -45.5q-109 0 -188.5 45.5t-123 127.5t-43.5 191zM239 353q0 -99 40 -154.5t122 -55.5t123 55.5t41 154.5t-41 154t-123 55t-122 -54.5
t-40 -154.5zM402 760q-86 0 -140 46.5t-59 125.5l95 12q5 -39 31.5 -62t71.5 -23t73 23t32 62l95 -12q-5 -79 -58.5 -125.5t-140.5 -46.5z" />
    <glyph glyph-name="obreve" unicode="&#x14f;" horiz-adv-x="617" 
d="M309 -11q-85 0 -147 32t-96 91.5t-34 141.5q0 83 34 142t96 91t147 32q84 0 146 -32t96 -91.5t34 -141.5q0 -81 -34 -141t-96 -92t-146 -32zM309 121q44 0 70 31.5t26 101.5t-26 101.5t-70 31.5q-45 0 -71 -31.5t-26 -101.5t26 -101.5t71 -31.5zM309 553
q-53 0 -93.5 24.5t-63 69t-23.5 103.5l95 9q4 -51 26 -78t59 -27q38 0 59.5 27t25.5 78l95 -9q0 -59 -23 -103.5t-63.5 -69t-93.5 -24.5z" />
    <glyph glyph-name="Ohungarumlaut" unicode="&#x150;" horiz-adv-x="804" 
d="M46 353q0 110 43 191.5t123 126.5t189 45q110 0 190 -45t123.5 -126.5t43.5 -191.5q0 -109 -43.5 -191t-123.5 -127.5t-190 -45.5q-109 0 -188.5 45.5t-123 127.5t-43.5 191zM239 353q0 -99 40 -154.5t122 -55.5t123 55.5t41 154.5t-41 154t-123 55t-122 -54.5
t-40 -154.5zM267 765l85 176h150l-136 -176h-99zM438 765l101 176h150l-152 -176h-99z" />
    <glyph glyph-name="ohungarumlaut" unicode="&#x151;" horiz-adv-x="617" 
d="M309 -11q-85 0 -147 32t-96 91.5t-34 141.5q0 83 34 142t96 91t147 32q84 0 146 -32t96 -91.5t34 -141.5q0 -81 -34 -141t-96 -92t-146 -32zM309 121q44 0 70 31.5t26 101.5t-26 101.5t-70 31.5q-45 0 -71 -31.5t-26 -101.5t26 -101.5t71 -31.5zM348 557l44 205h141
l-94 -205h-91zM174 557l44 205h141l-94 -205h-91z" />
    <glyph glyph-name="OE" unicode="&#x152;" horiz-adv-x="1054" 
d="M527 0v705h494v-141h-318v-135h295v-142h-295v-145h318v-142h-494zM385 -11q-105 0 -181 45.5t-117 127.5t-41 191q0 110 40.5 191.5t116.5 126.5t182 45q39 0 81 -9.5t72 -34.5v-178q-19 33 -53.5 50.5t-83.5 17.5q-82 0 -122 -54.5t-40 -154.5q0 -99 40 -154.5
t122 -55.5q49 0 84 15t54 47v-165q-18 -17 -44 -28t-55 -17t-55 -6z" />
    <glyph glyph-name="oe" unicode="&#x153;" horiz-adv-x="928" 
d="M306 -11q-83 0 -145 32.5t-95.5 92.5t-33.5 142t33.5 141t95.5 90.5t145 31.5q72 0 121.5 -24.5t82.5 -73.5h-34q34 48 80.5 73t111.5 25q105 0 167 -68t62 -189v-38h-335v84h206l-19 -17q0 56 -21.5 83.5t-58.5 27.5q-46 0 -69 -33t-23 -101v-8q0 -76 33.5 -107.5
t98.5 -31.5q38 0 71.5 9.5t65.5 28.5l47 -116q-26 -19 -58.5 -31t-63.5 -17.5t-56 -5.5q-86 0 -144.5 27.5t-93.5 78.5h35q-34 -52 -84 -79t-122 -27zM309 121q45 0 71 32t26 102q0 69 -26.5 100.5t-70.5 31.5q-45 0 -71 -31.5t-26 -100.5q0 -70 26.5 -102t70.5 -32z" />
    <glyph glyph-name="Racute" unicode="&#x154;" horiz-adv-x="713" 
d="M65 0v705h333q122 0 188.5 -58t66.5 -161q0 -69 -30 -117.5t-87 -75t-136 -26.5l9 25h50q44 0 78 -24t56 -67l107 -201h-202l-115 225q-11 22 -32.5 30t-48.5 8h-52v-263h-185zM250 394h116q54 0 82 21.5t28 64.5q0 42 -28 63t-82 21h-116v-170zM303 765l118 176h178
l-174 -176h-122z" />
    <glyph glyph-name="racute" unicode="&#x155;" horiz-adv-x="429" 
d="M55 0v369q0 35 -2 70t-6 69h172l19 -156h-27q10 57 32 94t55 55t78 18q21 0 31.5 -1.5t22.5 -6.5v-156q-25 11 -40 14t-39 3q-41 0 -67 -14.5t-37.5 -44.5t-11.5 -77v-236h-180zM201 557l101 205h167l-154 -205h-114z" />
    <glyph glyph-name="uni0156" unicode="&#x156;" horiz-adv-x="713" 
d="M65 0v705h333q122 0 188.5 -58t66.5 -161q0 -69 -30 -117.5t-87 -75t-136 -26.5l9 25h50q44 0 78 -24t56 -67l107 -201h-202l-115 225q-11 22 -32.5 30t-48.5 8h-52v-263h-185zM250 394h116q54 0 82 21.5t28 64.5q0 42 -28 63t-82 21h-116v-170zM385 -290l-61 40
q22 19 30 38.5t8 41.5l36 -20h-118v125h169v-75q0 -46 -14 -83t-50 -67z" />
    <glyph glyph-name="uni0157" unicode="&#x157;" horiz-adv-x="429" 
d="M55 0v369q0 35 -2 70t-6 69h172l19 -156h-27q10 57 32 94t55 55t78 18q21 0 31.5 -1.5t22.5 -6.5v-156q-25 11 -40 14t-39 3q-41 0 -67 -14.5t-37.5 -44.5t-11.5 -77v-236h-180zM164 -290l-61 40q22 19 30 38.5t8 41.5l36 -20h-118v125h169v-75q0 -46 -14 -83t-50 -67z
" />
    <glyph glyph-name="Rcaron" unicode="&#x158;" horiz-adv-x="713" 
d="M65 0v705h333q122 0 188.5 -58t66.5 -161q0 -69 -30 -117.5t-87 -75t-136 -26.5l9 25h50q44 0 78 -24t56 -67l107 -201h-202l-115 225q-11 22 -32.5 30t-48.5 8h-52v-263h-185zM250 394h116q54 0 82 21.5t28 64.5q0 42 -28 63t-82 21h-116v-170zM291 765l-126 176h119
l80 -86l80 86h119l-126 -176h-146z" />
    <glyph glyph-name="rcaron" unicode="&#x159;" horiz-adv-x="429" 
d="M55 0v369q0 35 -2 70t-6 69h172l19 -156h-27q10 57 32 94t55 55t78 18q21 0 31.5 -1.5t22.5 -6.5v-156q-25 11 -40 14t-39 3q-41 0 -67 -14.5t-37.5 -44.5t-11.5 -77v-236h-180zM184 557l-111 205h107l78 -113l78 113h107l-111 -205h-148z" />
    <glyph glyph-name="Sacute" unicode="&#x15a;" horiz-adv-x="671" 
d="M330 -11q-85 0 -161.5 20.5t-128.5 55.5l52 143q33 -21 72 -36t81.5 -23.5t86.5 -8.5q66 0 91.5 17t25.5 44q0 24 -17 37.5t-64 23.5l-122 25q-97 20 -145 69.5t-48 129.5q0 70 37.5 121.5t105.5 80t159 28.5q75 0 141 -20.5t108 -56.5l-52 -134q-40 29 -90 44.5
t-111 15.5q-58 0 -87.5 -17.5t-29.5 -49.5q0 -22 17.5 -37.5t64.5 -25.5l120 -24q97 -19 145.5 -68t48.5 -128q0 -68 -37.5 -119t-104.5 -79t-158 -28zM281 765l118 176h178l-174 -176h-122z" />
    <glyph glyph-name="sacute" unicode="&#x15b;" horiz-adv-x="506" 
d="M250 -11q-71 0 -128.5 14.5t-97.5 39.5l43 116q39 -22 87.5 -36t96.5 -14q38 0 55.5 11.5t17.5 30.5q0 15 -11 24t-33 13l-108 19q-64 12 -99.5 47.5t-35.5 92.5q0 52 28 90.5t80 60t123 21.5q58 0 110.5 -13t91.5 -41l-46 -113q-31 21 -72.5 34.5t-77.5 13.5
q-43 0 -61 -12.5t-18 -30.5q0 -14 10 -23.5t32 -13.5l108 -19q66 -11 101.5 -45.5t35.5 -93.5q0 -55 -29.5 -93.5t-81.5 -59t-121 -20.5zM202 557l101 205h167l-154 -205h-114z" />
    <glyph glyph-name="Scircumflex" unicode="&#x15c;" horiz-adv-x="671" 
d="M330 -11q-85 0 -161.5 20.5t-128.5 55.5l52 143q33 -21 72 -36t81.5 -23.5t86.5 -8.5q66 0 91.5 17t25.5 44q0 24 -17 37.5t-64 23.5l-122 25q-97 20 -145 69.5t-48 129.5q0 70 37.5 121.5t105.5 80t159 28.5q75 0 141 -20.5t108 -56.5l-52 -134q-40 29 -90 44.5
t-111 15.5q-58 0 -87.5 -17.5t-29.5 -49.5q0 -22 17.5 -37.5t64.5 -25.5l120 -24q97 -19 145.5 -68t48.5 -128q0 -68 -37.5 -119t-104.5 -79t-158 -28zM143 765l126 176h146l126 -176h-119l-80 86l-80 -86h-119z" />
    <glyph glyph-name="scircumflex" unicode="&#x15d;" horiz-adv-x="506" 
d="M250 -11q-71 0 -128.5 14.5t-97.5 39.5l43 116q39 -22 87.5 -36t96.5 -14q38 0 55.5 11.5t17.5 30.5q0 15 -11 24t-33 13l-108 19q-64 12 -99.5 47.5t-35.5 92.5q0 52 28 90.5t80 60t123 21.5q58 0 110.5 -13t91.5 -41l-46 -113q-31 21 -72.5 34.5t-77.5 13.5
q-43 0 -61 -12.5t-18 -30.5q0 -14 10 -23.5t32 -13.5l108 -19q66 -11 101.5 -45.5t35.5 -93.5q0 -55 -29.5 -93.5t-81.5 -59t-121 -20.5zM74 557l111 205h148l111 -205h-107l-78 113l-78 -113h-107z" />
    <glyph glyph-name="Scedilla" unicode="&#x15e;" horiz-adv-x="671" 
d="M330 -11q-85 0 -161.5 20.5t-128.5 55.5l52 143q33 -21 72 -36t81.5 -23.5t86.5 -8.5q66 0 91.5 17t25.5 44q0 24 -17 37.5t-64 23.5l-122 25q-97 20 -145 69.5t-48 129.5q0 70 37.5 121.5t105.5 80t159 28.5q75 0 141 -20.5t108 -56.5l-52 -134q-40 29 -90 44.5
t-111 15.5q-58 0 -87.5 -17.5t-29.5 -49.5q0 -22 17.5 -37.5t64.5 -25.5l120 -24q97 -19 145.5 -68t48.5 -128q0 -68 -37.5 -119t-104.5 -79t-158 -28zM334 -198q-33 0 -64 5.5t-54 17.5l24 70q17 -8 36.5 -12.5t38.5 -4.5q26 0 37.5 5t11.5 16q0 18 -36 18q-8 0 -16 -1
t-19 -3l-21 21l12 86h85l-12 -77l-41 17q11 5 23.5 7t22.5 2q47 0 73 -20t26 -56q0 -42 -35.5 -66.5t-91.5 -24.5z" />
    <glyph glyph-name="scedilla" unicode="&#x15f;" horiz-adv-x="506" 
d="M250 -11q-71 0 -128.5 14.5t-97.5 39.5l43 116q39 -22 87.5 -36t96.5 -14q38 0 55.5 11.5t17.5 30.5q0 15 -11 24t-33 13l-108 19q-64 12 -99.5 47.5t-35.5 92.5q0 52 28 90.5t80 60t123 21.5q58 0 110.5 -13t91.5 -41l-46 -113q-31 21 -72.5 34.5t-77.5 13.5
q-43 0 -61 -12.5t-18 -30.5q0 -14 10 -23.5t32 -13.5l108 -19q66 -11 101.5 -45.5t35.5 -93.5q0 -55 -29.5 -93.5t-81.5 -59t-121 -20.5zM249 -198q-33 0 -64 5.5t-54 17.5l24 70q17 -8 36.5 -12.5t38.5 -4.5q26 0 37.5 5t11.5 16q0 18 -36 18q-8 0 -16 -1t-19 -3l-21 21
l12 86h85l-12 -77l-41 17q11 5 23.5 7t22.5 2q47 0 73 -20t26 -56q0 -42 -35.5 -66.5t-91.5 -24.5z" />
    <glyph glyph-name="Scaron" unicode="&#x160;" horiz-adv-x="671" 
d="M330 -11q-85 0 -161.5 20.5t-128.5 55.5l52 143q33 -21 72 -36t81.5 -23.5t86.5 -8.5q66 0 91.5 17t25.5 44q0 24 -17 37.5t-64 23.5l-122 25q-97 20 -145 69.5t-48 129.5q0 70 37.5 121.5t105.5 80t159 28.5q75 0 141 -20.5t108 -56.5l-52 -134q-40 29 -90 44.5
t-111 15.5q-58 0 -87.5 -17.5t-29.5 -49.5q0 -22 17.5 -37.5t64.5 -25.5l120 -24q97 -19 145.5 -68t48.5 -128q0 -68 -37.5 -119t-104.5 -79t-158 -28zM269 765l-126 176h119l80 -86l80 86h119l-126 -176h-146z" />
    <glyph glyph-name="scaron" unicode="&#x161;" horiz-adv-x="506" 
d="M250 -11q-71 0 -128.5 14.5t-97.5 39.5l43 116q39 -22 87.5 -36t96.5 -14q38 0 55.5 11.5t17.5 30.5q0 15 -11 24t-33 13l-108 19q-64 12 -99.5 47.5t-35.5 92.5q0 52 28 90.5t80 60t123 21.5q58 0 110.5 -13t91.5 -41l-46 -113q-31 21 -72.5 34.5t-77.5 13.5
q-43 0 -61 -12.5t-18 -30.5q0 -14 10 -23.5t32 -13.5l108 -19q66 -11 101.5 -45.5t35.5 -93.5q0 -55 -29.5 -93.5t-81.5 -59t-121 -20.5zM185 557l-111 205h107l78 -113l78 113h107l-111 -205h-148z" />
    <glyph glyph-name="uni0162" unicode="&#x162;" horiz-adv-x="638" 
d="M226 0v556h-214v149h613v-149h-214v-556h-185zM317 -198q-33 0 -64 5.5t-54 17.5l24 70q17 -8 36.5 -12.5t38.5 -4.5q26 0 37.5 5t11.5 16q0 18 -36 18q-8 0 -16 -1t-19 -3l-21 21l12 86h85l-12 -77l-41 17q11 5 23.5 7t22.5 2q47 0 73 -20t26 -56q0 -42 -35.5 -66.5
t-91.5 -24.5z" />
    <glyph glyph-name="uni0163" unicode="&#x163;" horiz-adv-x="414" 
d="M315 -11q-108 0 -162.5 51.5t-54.5 156.5v180h-95v131h95v120l178 42v-162h124v-131h-124v-173q0 -44 20 -58.5t48 -14.5q17 0 29.5 2.5t26.5 7.5v-137q-22 -9 -43.5 -12t-41.5 -3zM257 -198q-33 0 -64 5.5t-54 17.5l24 70q17 -8 36.5 -12.5t38.5 -4.5q26 0 37.5 5
t11.5 16q0 18 -36 18q-8 0 -16 -1t-19 -3l-21 21l12 86h85l-12 -77l-41 17q11 5 23.5 7t22.5 2q47 0 73 -20t26 -56q0 -42 -35.5 -66.5t-91.5 -24.5z" />
    <glyph glyph-name="Tcaron" unicode="&#x164;" horiz-adv-x="638" 
d="M226 0v556h-214v149h613v-149h-214v-556h-185zM246 765l-126 176h119l80 -86l80 86h119l-126 -176h-146z" />
    <glyph glyph-name="tcaron" unicode="&#x165;" horiz-adv-x="414" 
d="M315 -11q-108 0 -162.5 51.5t-54.5 156.5v180h-95v131h95v120l178 42v-162h124v-131h-124v-173q0 -44 20 -58.5t48 -14.5q17 0 29.5 2.5t26.5 7.5v-137q-22 -9 -43.5 -12t-41.5 -3zM318 554v177h106l-29 -177h-77z" />
    <glyph glyph-name="Tbar" unicode="&#x166;" horiz-adv-x="638" 
d="M226 0v556h-214v149h613v-149h-214v-556h-185zM93 291v130h450v-130h-450z" />
    <glyph glyph-name="tbar" unicode="&#x167;" horiz-adv-x="414" 
d="M315 -11q-108 0 -162.5 51.5t-54.5 156.5v180h-95v131h95v120l178 42v-162h124v-131h-124v-173q0 -44 20 -58.5t48 -14.5q17 0 29.5 2.5t26.5 7.5v-137q-22 -9 -43.5 -12t-41.5 -3zM33 212v102h347v-102h-347z" />
    <glyph glyph-name="Utilde" unicode="&#x168;" horiz-adv-x="751" 
d="M378 -11q-158 0 -237 78t-79 233v405h184v-406q0 -77 32 -116.5t100 -39.5t100 39.5t32 116.5v406h182v-405q0 -155 -78 -233t-236 -78zM219 759l-81 6q5 79 46.5 122t104.5 43q24 0 48.5 -7t56.5 -23q27 -13 45 -18.5t31 -5.5q29 0 45 14.5t22 44.5l81 -5
q-4 -80 -46 -122.5t-105 -42.5q-25 0 -49.5 7.5t-58.5 22.5q-26 13 -41.5 18t-31.5 5q-28 0 -44.5 -14.5t-22.5 -44.5z" />
    <glyph glyph-name="utilde" unicode="&#x169;" horiz-adv-x="618" 
d="M242 -11q-97 0 -143.5 53.5t-46.5 162.5v303h178v-304q0 -40 16.5 -59.5t50.5 -19.5q38 0 62.5 27.5t24.5 72.5v283h178v-508h-173v91h15q-24 -49 -65 -75.5t-97 -26.5zM179 577l-82 5q5 80 42.5 122.5t93.5 42.5q22 0 42 -7t42 -22q21 -13 34 -18.5t27 -5.5q49 0 59 59
l82 -6q-4 -79 -42 -122t-93 -43q-23 0 -43 8t-44 23q-18 13 -31.5 18t-27.5 5q-27 0 -40.5 -16t-18.5 -43z" />
    <glyph glyph-name="Umacron" unicode="&#x16a;" horiz-adv-x="751" 
d="M378 -11q-158 0 -237 78t-79 233v405h184v-406q0 -77 32 -116.5t100 -39.5t100 39.5t32 116.5v406h182v-405q0 -155 -78 -233t-236 -78zM194 796v97h368v-97h-368z" />
    <glyph glyph-name="umacron" unicode="&#x16b;" horiz-adv-x="618" 
d="M242 -11q-97 0 -143.5 53.5t-46.5 162.5v303h178v-304q0 -40 16.5 -59.5t50.5 -19.5q38 0 62.5 27.5t24.5 72.5v283h178v-508h-173v91h15q-24 -49 -65 -75.5t-97 -26.5zM139 605v97h338v-97h-338z" />
    <glyph glyph-name="Ubreve" unicode="&#x16c;" horiz-adv-x="751" 
d="M378 -11q-158 0 -237 78t-79 233v405h184v-406q0 -77 32 -116.5t100 -39.5t100 39.5t32 116.5v406h182v-405q0 -155 -78 -233t-236 -78zM378 760q-86 0 -140 46.5t-59 125.5l95 12q5 -39 31.5 -62t71.5 -23t73 23t32 62l95 -12q-5 -79 -58.5 -125.5t-140.5 -46.5z" />
    <glyph glyph-name="ubreve" unicode="&#x16d;" horiz-adv-x="618" 
d="M242 -11q-97 0 -143.5 53.5t-46.5 162.5v303h178v-304q0 -40 16.5 -59.5t50.5 -19.5q38 0 62.5 27.5t24.5 72.5v283h178v-508h-173v91h15q-24 -49 -65 -75.5t-97 -26.5zM308 553q-53 0 -93.5 24.5t-63 69t-23.5 103.5l95 9q4 -51 26 -78t59 -27q38 0 59.5 27t25.5 78
l95 -9q0 -59 -23 -103.5t-63.5 -69t-93.5 -24.5z" />
    <glyph glyph-name="Uring" unicode="&#x16e;" horiz-adv-x="751" 
d="M378 -11q-158 0 -237 78t-79 233v405h184v-406q0 -77 32 -116.5t100 -39.5t100 39.5t32 116.5v406h182v-405q0 -155 -78 -233t-236 -78zM378 752q-38 0 -68.5 17t-48.5 47t-18 67t18 66.5t48.5 46.5t68.5 17q39 0 69 -17t48 -46.5t18 -67.5q0 -36 -18 -66t-48 -47
t-69 -17zM378 825q25 0 41 16.5t16 40.5q0 25 -16 41t-41 16q-24 0 -40.5 -16t-16.5 -41q0 -24 16.5 -40.5t40.5 -16.5z" />
    <glyph glyph-name="uring" unicode="&#x16f;" horiz-adv-x="618" 
d="M242 -11q-97 0 -143.5 53.5t-46.5 162.5v303h178v-304q0 -40 16.5 -59.5t50.5 -19.5q38 0 62.5 27.5t24.5 72.5v283h178v-508h-173v91h15q-24 -49 -65 -75.5t-97 -26.5zM308 545q-38 0 -68.5 17t-48.5 47t-18 66q0 37 18 66.5t48.5 47t68.5 17.5q39 0 69 -17.5t48 -47
t18 -66.5t-18 -66.5t-48 -46.5t-69 -17zM308 618q25 0 41 16t16 41t-16 41t-41 16q-24 0 -40.5 -16t-16.5 -41t16.5 -41t40.5 -16z" />
    <glyph glyph-name="Uhungarumlaut" unicode="&#x170;" horiz-adv-x="751" 
d="M378 -11q-158 0 -237 78t-79 233v405h184v-406q0 -77 32 -116.5t100 -39.5t100 39.5t32 116.5v406h182v-405q0 -155 -78 -233t-236 -78zM243 765l85 176h150l-136 -176h-99zM414 765l101 176h150l-152 -176h-99z" />
    <glyph glyph-name="uhungarumlaut" unicode="&#x171;" horiz-adv-x="618" 
d="M242 -11q-97 0 -143.5 53.5t-46.5 162.5v303h178v-304q0 -40 16.5 -59.5t50.5 -19.5q38 0 62.5 27.5t24.5 72.5v283h178v-508h-173v91h15q-24 -49 -65 -75.5t-97 -26.5zM347 557l44 205h141l-94 -205h-91zM173 557l44 205h141l-94 -205h-91z" />
    <glyph glyph-name="Uogonek" unicode="&#x172;" horiz-adv-x="751" 
d="M378 -11q-158 0 -237 78t-79 233v405h184v-406q0 -77 32 -116.5t100 -39.5t100 39.5t32 116.5v406h182v-405q0 -155 -78 -233t-236 -78zM456 -198q-63 0 -98 30t-35 81q0 46 30.5 82t79.5 53l48 -48q-18 -7 -30 -17.5t-17.5 -23t-5.5 -25.5q0 -21 15.5 -33t37.5 -12
q16 0 28.5 3t27.5 7l16 -80q-25 -9 -47 -13t-50 -4z" />
    <glyph glyph-name="uogonek" unicode="&#x173;" horiz-adv-x="618" 
d="M242 -11q-97 0 -143.5 53.5t-46.5 162.5v303h178v-304q0 -40 16.5 -59.5t50.5 -19.5q38 0 62.5 27.5t24.5 72.5v283h178v-508h-173v91h15q-24 -49 -65 -75.5t-97 -26.5zM489 -198q-63 0 -98 30t-35 81q0 46 30.5 82t79.5 53l48 -48q-18 -7 -30 -17.5t-17.5 -23
t-5.5 -25.5q0 -21 15.5 -33t37.5 -12q16 0 28.5 3t27.5 7l16 -80q-25 -9 -47 -13t-50 -4z" />
    <glyph glyph-name="Wcircumflex" unicode="&#x174;" horiz-adv-x="1131" 
d="M266 0l-252 705h190l165 -510h-46l184 510h132l166 -510h-44l178 510h178l-253 -705h-148l-160 459h23l-164 -459h-149zM367 765l126 176h146l126 -176h-119l-80 86l-80 -86h-119z" />
    <glyph glyph-name="wcircumflex" unicode="&#x175;" horiz-adv-x="900" 
d="M202 0l-211 508h181l126 -334h-25l124 334h113l125 -334h-21l124 334h170l-209 -508h-149l-137 345h68l-130 -345h-149zM265 557l111 205h148l111 -205h-107l-78 113l-78 -113h-107z" />
    <glyph glyph-name="Ycircumflex" unicode="&#x176;" horiz-adv-x="656" 
d="M236 0v337l37 -102l-316 470h213l179 -283h-36l179 283h206l-314 -470l37 102v-337h-185zM129 765l126 176h146l126 -176h-119l-80 86l-80 -86h-119z" />
    <glyph glyph-name="ycircumflex" unicode="&#x177;" horiz-adv-x="558" 
d="M57 -227l-42 138q48 9 80.5 19.5t53.5 28.5t33 47l25 58l-4 -67l-222 511h188l130 -337h-33l134 337h176l-228 -519q-27 -61 -57.5 -100t-66 -62t-77 -34.5t-90.5 -19.5zM93 557l111 205h148l111 -205h-107l-78 113l-78 -113h-107z" />
    <glyph glyph-name="Ydieresis" unicode="&#x178;" horiz-adv-x="656" 
d="M236 0v337l37 -102l-316 470h213l179 -283h-36l179 283h206l-314 -470l37 102v-337h-185zM357 771v149h149v-149h-149zM150 771v149h149v-149h-149z" />
    <glyph glyph-name="Zacute" unicode="&#x179;" horiz-adv-x="623" 
d="M47 0v135l357 471v-51h-357v150h533v-135l-358 -471v51h373v-150h-548zM260 765l118 176h178l-174 -176h-122z" />
    <glyph glyph-name="zacute" unicode="&#x17a;" horiz-adv-x="534" 
d="M46 0v115l288 303v-41h-288v131h446v-115l-292 -308v45h303v-130h-457zM220 557l101 205h167l-154 -205h-114z" />
    <glyph glyph-name="Zdotaccent" unicode="&#x17b;" horiz-adv-x="623" 
d="M47 0v135l357 471v-51h-357v150h533v-135l-358 -471v51h373v-150h-548zM241 778v150h160v-150h-160z" />
    <glyph glyph-name="zdotaccent" unicode="&#x17c;" horiz-adv-x="534" 
d="M46 0v115l288 303v-41h-288v131h446v-115l-292 -308v45h303v-130h-457zM197 583v150h160v-150h-160z" />
    <glyph glyph-name="Zcaron" unicode="&#x17d;" horiz-adv-x="623" 
d="M47 0v135l357 471v-51h-357v150h533v-135l-358 -471v51h373v-150h-548zM248 765l-126 176h119l80 -86l80 86h119l-126 -176h-146z" />
    <glyph glyph-name="zcaron" unicode="&#x17e;" horiz-adv-x="534" 
d="M46 0v115l288 303v-41h-288v131h446v-115l-292 -308v45h303v-130h-457zM203 557l-111 205h107l78 -113l78 113h107l-111 -205h-148z" />
    <glyph glyph-name="uni0181" unicode="&#x181;" horiz-adv-x="887" 
d="M251 0v580h-20q-44 0 -64 -19.5t-20 -63.5v-52h-147v57q0 100 59 151.5t178 51.5h357q116 0 179.5 -49t63.5 -133q0 -62 -36 -106t-99 -60v16q75 -13 115.5 -58t40.5 -115q0 -93 -68.5 -146.5t-186.5 -53.5h-352zM427 135h153q53 0 77.5 19.5t24.5 58.5t-24.5 58
t-77.5 19h-153v-155zM427 425h133q52 0 76.5 18t24.5 55t-24.5 54.5t-76.5 17.5h-133v-145z" />
    <glyph glyph-name="uni018A" unicode="&#x18a;" horiz-adv-x="966" 
d="M251 0v580h-20q-44 0 -64 -19.5t-20 -63.5v-52h-147v57q0 100 58.5 151.5t175.5 51.5h300q185 0 285.5 -92t100.5 -260q0 -169 -100.5 -261t-285.5 -92h-283zM435 150h88q109 0 161.5 50t52.5 153q0 104 -52.5 153.5t-161.5 49.5h-88v-406z" />
    <glyph glyph-name="uni018F" unicode="&#x18f;" horiz-adv-x="785" 
d="M396 -11q-121 0 -198.5 47.5t-114.5 133t-37 196.5v56h548v-139h-409l45 70q0 -74 15 -122t50 -71.5t93 -23.5q77 0 121.5 54t44.5 163q0 103 -49 156t-160 53q-40 0 -74.5 -6.5t-66.5 -20t-66 -34.5l-60 139q56 35 126 55.5t165 20.5q118 0 200.5 -43.5t125.5 -125.5
t43 -195q0 -110 -43.5 -192t-121 -126.5t-177.5 -44.5z" />
    <glyph glyph-name="florin" unicode="&#x192;" horiz-adv-x="600" 
d="M21 -191v138h69q28 0 45.5 17.5t26.5 57.5l77 362l31 -23h-131v131h152l-34 -20l7 34q19 101 82.5 155.5t157.5 54.5h74v-139h-53q-38 0 -57.5 -18t-28.5 -57l-6 -30l-23 20h130v-131h-150l24 23l-78 -366q-21 -100 -82 -154.5t-150 -54.5h-83z" />
    <glyph glyph-name="Ohorn" unicode="&#x1a0;" horiz-adv-x="804" 
d="M46 353q0 110 43 191.5t123 126.5t189 45q110 0 190 -45t123.5 -126.5t43.5 -191.5q0 -109 -43.5 -191t-123.5 -127.5t-190 -45.5q-109 0 -188.5 45.5t-123 127.5t-43.5 191zM239 353q0 -99 40 -154.5t122 -55.5t123 55.5t41 154.5t-41 154t-123 55t-122 -54.5
t-40 -154.5zM511 624l-37 85q18 -1 31 -2.5t25 -1.5q28 0 46.5 7t28.5 28t10 62v27h152v-48q0 -40 -18.5 -76t-50.5 -58.5t-72 -22.5h-115z" />
    <glyph glyph-name="ohorn" unicode="&#x1a1;" horiz-adv-x="617" 
d="M309 -11q-85 0 -147 32t-96 91.5t-34 141.5q0 83 34 142t96 91t147 32q84 0 146 -32t96 -91.5t34 -141.5q0 -81 -34 -141t-96 -92t-146 -32zM309 121q44 0 70 31.5t26 101.5t-26 101.5t-70 31.5q-45 0 -71 -31.5t-26 -101.5t26 -101.5t71 -31.5zM476 428l-107 65v15
q27 1 45.5 7.5t28.5 27.5t10 62v27h152v-48q0 -40 -16.5 -73.5t-45 -55.5t-67.5 -27z" />
    <glyph glyph-name="Uhorn" unicode="&#x1af;" horiz-adv-x="751" 
d="M378 -11q-158 0 -237 78t-79 233v405h184v-406q0 -77 32 -116.5t100 -39.5t100 39.5t32 116.5v406h182v-405q0 -155 -78 -233t-236 -78zM686 624l-107 66v15q27 0 45.5 7t28.5 28t10 62v27h152v-48q0 -40 -16.5 -73.5t-45 -55.5t-67.5 -28z" />
    <glyph glyph-name="uhorn" unicode="&#x1b0;" horiz-adv-x="618" 
d="M242 -11q-97 0 -143.5 53.5t-46.5 162.5v303h178v-304q0 -40 16.5 -59.5t50.5 -19.5q38 0 62.5 27.5t24.5 72.5v283h178v-508h-173v91h15q-24 -49 -65 -75.5t-97 -26.5zM543 428l-107 65v15q27 1 45.5 7.5t28.5 27.5t10 62v27h152v-48q0 -40 -16.5 -73.5t-45 -55.5
t-67.5 -27z" />
    <glyph glyph-name="uni01B3" unicode="&#x1b3;" horiz-adv-x="656" 
d="M236 0v360l37 -101l-316 446h213l179 -259h-36l111 162q37 55 87.5 81.5t122.5 26.5q23 0 47 -3.5t38 -10.5v-122q-11 4 -23.5 5t-28.5 1q-24 0 -46.5 -10.5t-40.5 -35.5l-196 -281l37 101v-360h-185z" />
    <glyph glyph-name="uni01B4" unicode="&#x1b4;" horiz-adv-x="611" 
d="M57 -227l-42 138q48 9 80.5 19.5t53.5 28.5t33 47l25 58l-4 -67l-222 511h188l130 -337h-33l85 214q25 61 71.5 97.5t132.5 36.5q24 0 48.5 -3.5t38.5 -10.5l-23 -128q-10 4 -19.5 5t-19.5 1q-29 0 -51 -15.5t-39 -52.5l-142 -326q-27 -61 -57.5 -100t-66 -62t-77 -34.5
t-90.5 -19.5z" />
    <glyph glyph-name="uni01C4" unicode="&#x1c4;" horiz-adv-x="1388" 
d="M65 0v705h284q125 0 211 -42.5t130.5 -121t44.5 -188.5q0 -109 -44.5 -188t-130.5 -122t-211 -43h-284zM250 150h87q109 0 161.5 50t52.5 153q0 104 -52.5 153.5t-161.5 49.5h-87v-406zM813 0v135l357 471v-51h-357v150h533v-135l-358 -471v51h373v-150h-548zM1014 765
l-126 176h119l80 -86l80 86h119l-126 -176h-146z" />
    <glyph glyph-name="uni01C5" unicode="&#x1c5;" horiz-adv-x="1315" 
d="M65 0v705h284q125 0 211 -42.5t130.5 -121t44.5 -188.5q0 -109 -44.5 -188t-130.5 -122t-211 -43h-284zM250 150h87q109 0 161.5 50t52.5 153q0 104 -52.5 153.5t-161.5 49.5h-87v-406zM827 0v115l288 303v-41h-288v131h446v-115l-292 -308v45h303v-130h-457zM984 557
l-111 205h107l78 -113l78 113h107l-111 -205h-148z" />
    <glyph glyph-name="uni01C6" unicode="&#x1c6;" horiz-adv-x="1178" 
d="M257 -11q-65 0 -116 31.5t-80 91.5t-29 142q0 83 28.5 142.5t80 91t116.5 31.5q58 0 105 -26.5t63 -70.5h-15v314h178v-736h-175v91h13q-14 -46 -61.5 -74t-107.5 -28zM314 121q44 0 72.5 31.5t28.5 101.5t-28.5 101.5t-72.5 31.5q-45 0 -73.5 -31.5t-28.5 -101.5
t28.5 -101.5t73.5 -31.5zM690 0v115l288 303v-41h-288v131h446v-115l-292 -308v45h303v-130h-457zM847 557l-111 205h107l78 -113l78 113h107l-111 -205h-148z" />
    <glyph glyph-name="uni01C7" unicode="&#x1c7;" horiz-adv-x="1019" 
d="M65 0v705h185v-552h302v-153h-487zM720 -187q-18 0 -45 2t-54 8v141q19 -4 38 -5.5t30 -1.5q45 0 62.5 25t17.5 81v642h185v-642q0 -84 -23.5 -140t-74.5 -83t-136 -27z" />
    <glyph glyph-name="uni01C8" unicode="&#x1c8;" horiz-adv-x="866" 
d="M65 0v705h185v-552h302v-153h-487zM601 -225q-24 0 -48 3t-46 12v137q15 -5 28.5 -7t28.5 -2q29 0 48.5 16.5t19.5 59.5v514h178v-520q0 -105 -49.5 -159t-159.5 -54zM627 580v160h187v-160h-187z" />
    <glyph glyph-name="uni01C9" unicode="&#x1c9;" horiz-adv-x="575" 
d="M55 0v736h178v-736h-178zM311 -225q-24 0 -48 3t-46 12v137q15 -5 28.5 -7t28.5 -2q29 0 48.5 16.5t19.5 59.5v514h178v-520q0 -105 -49.5 -159t-159.5 -54zM337 580v160h187v-160h-187z" />
    <glyph glyph-name="uni01CA" unicode="&#x1ca;" horiz-adv-x="1166" 
d="M65 0v705h136l357 -443h-29v443h171v-705h-136l-355 443h29v-443h-173zM867 -187q-18 0 -45 2t-54 8v141q19 -4 38 -5.5t30 -1.5q45 0 62.5 25t17.5 81v642h185v-642q0 -84 -23.5 -140t-74.5 -83t-136 -27z" />
    <glyph glyph-name="uni01CB" unicode="&#x1cb;" horiz-adv-x="1053" 
d="M65 0v705h136l357 -443h-29v443h171v-705h-136l-355 443h29v-443h-173zM788 -225q-24 0 -48 3t-46 12v137q15 -5 28.5 -7t28.5 -2q29 0 48.5 16.5t19.5 59.5v514h178v-520q0 -105 -49.5 -159t-159.5 -54zM814 580v160h187v-160h-187z" />
    <glyph glyph-name="uni01CC" unicode="&#x1cc;" horiz-adv-x="911" 
d="M55 0v370q0 34 -2 69t-6 69h172l10 -88h-11q25 48 71 73.5t104 25.5q89 0 133.5 -52.5t44.5 -163.5v-303h-178v295q0 49 -17 68.5t-49 19.5q-42 0 -68 -27.5t-26 -72.5v-283h-178zM646 -225q-24 0 -48 3t-46 12v137q15 -5 28.5 -7t28.5 -2q29 0 48.5 16.5t19.5 59.5v514
h178v-520q0 -105 -49.5 -159t-159.5 -54zM672 580v160h187v-160h-187z" />
    <glyph glyph-name="uni01CD" unicode="&#x1cd;" horiz-adv-x="769" 
d="M-22 0l330 705h150l332 -705h-185l-85 194l71 -51h-414l70 51l-84 -194h-185zM382 515l-117 -279l-28 47h293l-25 -47l-118 279h-5zM311 765l-126 176h119l80 -86l80 86h119l-126 -176h-146z" />
    <glyph glyph-name="uni01CE" unicode="&#x1ce;" horiz-adv-x="644" 
d="M255 -11q-66 0 -116 31.5t-78.5 91.5t-28.5 142q0 83 28.5 142.5t78.5 91t116 31.5q59 0 106.5 -28t62.5 -73h-10l11 90h171q-3 -34 -5.5 -69t-2.5 -69v-370h-176l-2 86h12q-15 -44 -62.5 -70.5t-104.5 -26.5zM312 121q45 0 73 31.5t28 101.5t-28 101.5t-73 31.5
t-73 -31.5t-28 -101.5t27.5 -101.5t73.5 -31.5zM243 557l-111 205h107l78 -113l78 113h107l-111 -205h-148z" />
    <glyph glyph-name="uni01D4" unicode="&#x1d4;" horiz-adv-x="618" 
d="M242 -11q-97 0 -143.5 53.5t-46.5 162.5v303h178v-304q0 -40 16.5 -59.5t50.5 -19.5q38 0 62.5 27.5t24.5 72.5v283h178v-508h-173v91h15q-24 -49 -65 -75.5t-97 -26.5zM234 557l-111 205h107l78 -113l78 113h107l-111 -205h-148z" />
    <glyph glyph-name="uni01E5" unicode="&#x1e5;" horiz-adv-x="646" 
d="M303 -223q-76 0 -133.5 13t-104.5 41l32 129q25 -18 58 -31.5t68 -21t65 -7.5q96 0 119 62l8 -13h-128v70h147l-21 -32q1 6 1.5 11t0.5 10v135h9q-16 -42 -63 -67t-104 -25q-67 0 -117.5 28t-79 81t-28.5 125t28.5 125t79 81t117.5 28q56 0 103 -25t63 -67l-9 -3l11 84
h171q-3 -34 -5.5 -69t-2.5 -69l1 -328v-18.5t-1 -17.5l-17 13h69v-70h-79l21 18q-19 -93 -90.5 -141.5t-188.5 -48.5zM312 180q46 0 73 26.5t27 76.5q0 51 -27 77.5t-73 26.5q-47 0 -73.5 -26.5t-26.5 -77.5t26.5 -77t73.5 -26z" />
    <glyph glyph-name="Gcaron" unicode="&#x1e6;" horiz-adv-x="750" 
d="M425 -11q-123 0 -207.5 45t-128 126t-43.5 189q0 112 47.5 194.5t136.5 127.5t214 45q77 0 136.5 -18t102.5 -52l-57 -141q-31 21 -58.5 32.5t-56 16.5t-65.5 5q-104 0 -155.5 -53.5t-51.5 -156.5q0 -102 47 -154t149 -52q31 0 67.5 6t74.5 18l-33 -66v168h-146v128h297
v-353q-57 -27 -127.5 -41t-142.5 -14zM348 765l-126 176h119l80 -86l80 86h119l-126 -176h-146z" />
    <glyph glyph-name="gcaron" unicode="&#x1e7;" horiz-adv-x="644" 
d="M304 -224q-76 0 -133.5 13.5t-103.5 41.5l31 126q27 -16 59 -27t66.5 -16.5t65.5 -5.5q64 0 95 29.5t31 83.5v89h10q-16 -44 -63 -70.5t-104 -26.5q-68 0 -118.5 30.5t-79 87.5t-28.5 135t28.5 135t79 87.5t118.5 30.5q59 0 104 -26t61 -69l-8 2l11 82h171q-4 -34 -6 -69
t-2 -69v-329q0 -128 -73 -196.5t-212 -68.5zM313 145q46 0 73 31t27 90q0 60 -27 90.5t-73 30.5q-47 0 -74 -30.5t-27 -90.5q0 -59 27 -90t74 -31zM252 557l-111 205h107l78 -113l78 113h107l-111 -205h-148z" />
    <glyph glyph-name="uni01E9" unicode="&#x1e9;" horiz-adv-x="596" 
d="M55 0v736h178v-433h2l170 205h210l-230 -272v61l239 -297h-215l-174 213h-2v-213h-178zM227 791l-126 176h119l80 -86l80 86h119l-126 -176h-146z" />
    <glyph glyph-name="uni01EA" unicode="&#x1ea;" horiz-adv-x="804" 
d="M46 353q0 110 43 191.5t123 126.5t189 45q110 0 190 -45t123.5 -126.5t43.5 -191.5q0 -109 -43.5 -191t-123.5 -127.5t-190 -45.5q-109 0 -188.5 45.5t-123 127.5t-43.5 191zM239 353q0 -99 40 -154.5t122 -55.5t123 55.5t41 154.5t-41 154t-123 55t-122 -54.5
t-40 -154.5zM450 -198q-63 0 -98 30t-35 81q0 46 30.5 82t79.5 53l48 -48q-18 -7 -30 -17.5t-17.5 -23t-5.5 -25.5q0 -21 15.5 -33t37.5 -12q16 0 28.5 3t27.5 7l16 -80q-25 -9 -47 -13t-50 -4z" />
    <glyph glyph-name="uni01EB" unicode="&#x1eb;" horiz-adv-x="617" 
d="M309 -11q-85 0 -147 32t-96 91.5t-34 141.5q0 83 34 142t96 91t147 32q84 0 146 -32t96 -91.5t34 -141.5q0 -81 -34 -141t-96 -92t-146 -32zM309 121q44 0 70 31.5t26 101.5t-26 101.5t-70 31.5q-45 0 -71 -31.5t-26 -101.5t26 -101.5t71 -31.5zM341 -198q-63 0 -98 30
t-35 81q0 46 30.5 82t79.5 53l48 -48q-18 -7 -30 -17.5t-17.5 -23t-5.5 -25.5q0 -21 15.5 -33t37.5 -12q16 0 28.5 3t27.5 7l16 -80q-25 -9 -47 -13t-50 -4z" />
    <glyph glyph-name="Aringacute" unicode="&#x1fa;" horiz-adv-x="769" 
d="M-22 0l330 705h150l332 -705h-185l-85 194l71 -51h-414l70 51l-84 -194h-185zM382 515l-117 -279l-28 47h293l-25 -47l-118 279h-5zM384 752q-35 0 -64 16t-46 44t-17 62q0 35 17 62.5t46 43.5t64 16q17 0 32 -3.5t29 -10.5l58 53h125l-128 -111q11 -23 11 -50
q0 -34 -17 -62t-45.5 -44t-64.5 -16zM384 817q25 0 41 16.5t16 40.5q0 25 -16 41t-41 16q-24 0 -40.5 -16t-16.5 -41t16.5 -41t40.5 -16z" />
    <glyph glyph-name="aringacute" unicode="&#x1fb;" horiz-adv-x="644" 
d="M255 -11q-66 0 -116 31.5t-78.5 91.5t-28.5 142q0 83 28.5 142.5t78.5 91t116 31.5q59 0 106.5 -28t62.5 -73h-10l11 90h171q-3 -34 -5.5 -69t-2.5 -69v-370h-176l-2 86h12q-15 -44 -62.5 -70.5t-104.5 -26.5zM312 121q45 0 73 31.5t28 101.5t-28 101.5t-73 31.5
t-73 -31.5t-28 -101.5t27.5 -101.5t73.5 -31.5zM317 537q-35 0 -64 16t-46 43.5t-17 62.5t17 62.5t46 43.5t64 16q17 0 32 -4t29 -11l58 53h125l-128 -110q11 -24 11 -50q0 -35 -17 -62.5t-45.5 -43.5t-64.5 -16zM317 601q25 0 41 16.5t16 41.5t-16 40.5t-41 15.5
q-24 0 -40.5 -15.5t-16.5 -40.5t16.5 -41.5t40.5 -16.5z" />
    <glyph glyph-name="AEacute" unicode="&#x1fc;" horiz-adv-x="1030" 
d="M-42 0l451 705h588v-141h-350l25 19l15 -205l-18 51h306v-142h-308l26 10l14 -189l-22 34h312v-142h-446l-14 191l31 -48h-350l51 47l-116 -190h-195zM495 563l-196 -323l-11 44h259l-12 -51l-25 330h-15zM461 765l118 176h178l-174 -176h-122z" />
    <glyph glyph-name="aeacute" unicode="&#x1fd;" horiz-adv-x="861" 
d="M223 -11q-61 0 -105 23.5t-67 62t-23 81.5q0 55 26 88.5t87 49t165 15.5h49v-84h-52q-42 0 -69 -7.5t-39.5 -21.5t-12.5 -34q0 -24 17.5 -40t50.5 -16q26 0 47 11.5t33 32.5t12 49v122q0 36 -20.5 51.5t-64.5 15.5q-42 0 -80.5 -9.5t-82.5 -31.5l-46 118q40 24 99 39
t120 15q69 0 118.5 -20t74.5 -64h-39q38 43 81 63.5t99 20.5q106 0 167.5 -67.5t61.5 -189.5v-37h-334v84h203l-17 -18q0 56 -22 83.5t-59 27.5q-44 0 -68 -32t-24 -100v-9q0 -74 30.5 -107.5t94.5 -33.5q39 0 76 9t69 31l46 -116q-38 -28 -90 -41.5t-108 -13.5
q-87 0 -145.5 31.5t-88.5 91.5h29q-21 -58 -72 -90.5t-127 -32.5zM376 557l101 205h167l-154 -205h-114z" />
    <glyph glyph-name="Oslashacute" unicode="&#x1fe;" horiz-adv-x="804" 
d="M46 353q0 110 43 191.5t123 126.5t189 45q110 0 190 -45t123.5 -126.5t43.5 -191.5q0 -109 -43.5 -191t-123.5 -127.5t-190 -45.5q-109 0 -188.5 45.5t-123 127.5t-43.5 191zM239 353q0 -99 40 -154.5t122 -55.5t123 55.5t41 154.5t-41 154t-123 55t-122 -54.5
t-40 -154.5zM313 52l-73 -127l-116 68l74 128l59 74l225 384l26 74l74 127l115 -68l-74 -128l-59 -73l-224 -385zM341 765l118 176h178l-174 -176h-122z" />
    <glyph glyph-name="oslashacute" unicode="&#x1ff;" horiz-adv-x="617" 
d="M309 -11q-85 0 -147 32t-96 91.5t-34 141.5q0 83 34 142t96 91t147 32q84 0 146 -32t96 -91.5t34 -141.5q0 -81 -34 -141t-96 -92t-146 -32zM308 121q58 0 86 34.5t28 98.5t-28 98.5t-86 34.5q-57 0 -85 -34t-28 -99q0 -64 28 -98.5t85 -34.5zM177 -61l-78 47l342 584
l79 -47zM253 557l101 205h167l-154 -205h-114z" />
    <glyph glyph-name="uni0200" unicode="&#x200;" horiz-adv-x="769" 
d="M-22 0l330 705h150l332 -705h-185l-85 194l71 -51h-414l70 51l-84 -194h-185zM382 515l-117 -279l-28 47h293l-25 -47l-118 279h-5zM420 765l-136 176h150l85 -176h-99zM249 765l-152 176h150l101 -176h-99z" />
    <glyph glyph-name="uni0201" unicode="&#x201;" horiz-adv-x="644" 
d="M255 -11q-66 0 -116 31.5t-78.5 91.5t-28.5 142q0 83 28.5 142.5t78.5 91t116 31.5q59 0 106.5 -28t62.5 -73h-10l11 90h171q-3 -34 -5.5 -69t-2.5 -69v-370h-176l-2 86h12q-15 -44 -62.5 -70.5t-104.5 -26.5zM312 121q45 0 73 31.5t28 101.5t-28 101.5t-73 31.5
t-73 -31.5t-28 -101.5t27.5 -101.5t73.5 -31.5zM361 557l-94 205h141l44 -205h-91zM187 557l-94 205h141l44 -205h-91z" />
    <glyph glyph-name="uni0202" unicode="&#x202;" horiz-adv-x="769" 
d="M-22 0l330 705h150l332 -705h-185l-85 194l71 -51h-414l70 51l-84 -194h-185zM382 515l-117 -279l-28 47h293l-25 -47l-118 279h-5zM280 760l-95 12q5 79 59 125.5t140 46.5q87 0 140.5 -46.5t58.5 -125.5l-95 -12q-4 40 -32 62.5t-73 22.5t-71.5 -22.5t-31.5 -62.5z" />
    <glyph glyph-name="uni0203" unicode="&#x203;" horiz-adv-x="644" 
d="M255 -11q-66 0 -116 31.5t-78.5 91.5t-28.5 142q0 83 28.5 142.5t78.5 91t116 31.5q59 0 106.5 -28t62.5 -73h-10l11 90h171q-3 -34 -5.5 -69t-2.5 -69v-370h-176l-2 86h12q-15 -44 -62.5 -70.5t-104.5 -26.5zM312 121q45 0 73 31.5t28 101.5t-28 101.5t-73 31.5
t-73 -31.5t-28 -101.5t27.5 -101.5t73.5 -31.5zM232 552l-95 8q1 60 23.5 104.5t63 69t93.5 24.5t93.5 -24.5t63.5 -69t23 -104.5l-95 -8q-4 50 -25.5 77t-59.5 27q-37 0 -59 -27t-26 -77z" />
    <glyph glyph-name="uni0204" unicode="&#x204;" horiz-adv-x="603" 
d="M65 0v705h506v-141h-329v-135h305v-142h-305v-145h329v-142h-506zM375 765l-136 176h150l85 -176h-99zM204 765l-152 176h150l101 -176h-99z" />
    <glyph glyph-name="uni0205" unicode="&#x205;" horiz-adv-x="552" 
d="M323 -11q-138 0 -214.5 71t-76.5 195q0 77 32 137t90 93.5t136 33.5q77 0 128.5 -33.5t77.5 -92t26 -135.5v-38h-341v84h210l-17 -14q0 57 -21.5 84.5t-60.5 27.5q-45 0 -68.5 -33.5t-23.5 -100.5v-18q0 -67 33 -98t95 -31q40 0 75.5 9t67.5 29l46 -116q-38 -26 -88 -40
t-106 -14zM334 557l-94 205h141l44 -205h-91zM160 557l-94 205h141l44 -205h-91z" />
    <glyph glyph-name="uni0206" unicode="&#x206;" horiz-adv-x="603" 
d="M65 0v705h506v-141h-329v-135h305v-142h-305v-145h329v-142h-506zM235 760l-95 12q5 79 59 125.5t140 46.5q87 0 140.5 -46.5t58.5 -125.5l-95 -12q-4 40 -32 62.5t-73 22.5t-71.5 -22.5t-31.5 -62.5z" />
    <glyph glyph-name="uni0207" unicode="&#x207;" horiz-adv-x="552" 
d="M323 -11q-138 0 -214.5 71t-76.5 195q0 77 32 137t90 93.5t136 33.5q77 0 128.5 -33.5t77.5 -92t26 -135.5v-38h-341v84h210l-17 -14q0 57 -21.5 84.5t-60.5 27.5q-45 0 -68.5 -33.5t-23.5 -100.5v-18q0 -67 33 -98t95 -31q40 0 75.5 9t67.5 29l46 -116q-38 -26 -88 -40
t-106 -14zM205 552l-95 8q1 60 23.5 104.5t63 69t93.5 24.5t93.5 -24.5t63.5 -69t23 -104.5l-95 -8q-4 50 -25.5 77t-59.5 27q-37 0 -59 -27t-26 -77z" />
    <glyph glyph-name="uni0208" unicode="&#x208;" horiz-adv-x="315" 
d="M65 0v705h185v-705h-185zM193 765l-136 176h150l85 -176h-99zM22 765l-152 176h150l101 -176h-99z" />
    <glyph glyph-name="uni0209" unicode="&#x209;" horiz-adv-x="288" 
d="M55 0v508h178v-508h-178zM188 557l-94 205h141l44 -205h-91zM14 557l-94 205h141l44 -205h-91z" />
    <glyph glyph-name="uni020A" unicode="&#x20a;" horiz-adv-x="315" 
d="M65 0v705h185v-705h-185zM53 760l-95 12q5 79 59 125.5t140 46.5q87 0 140.5 -46.5t58.5 -125.5l-95 -12q-4 40 -32 62.5t-73 22.5t-71.5 -22.5t-31.5 -62.5z" />
    <glyph glyph-name="uni020B" unicode="&#x20b;" horiz-adv-x="288" 
d="M55 0v508h178v-508h-178zM59 552l-95 8q1 60 23.5 104.5t63 69t93.5 24.5t93.5 -24.5t63.5 -69t23 -104.5l-95 -8q-4 50 -25.5 77t-59.5 27q-37 0 -59 -27t-26 -77z" />
    <glyph glyph-name="uni020C" unicode="&#x20c;" horiz-adv-x="804" 
d="M46 353q0 110 43 191.5t123 126.5t189 45q110 0 190 -45t123.5 -126.5t43.5 -191.5q0 -109 -43.5 -191t-123.5 -127.5t-190 -45.5q-109 0 -188.5 45.5t-123 127.5t-43.5 191zM239 353q0 -99 40 -154.5t122 -55.5t123 55.5t41 154.5t-41 154t-123 55t-122 -54.5
t-40 -154.5zM438 765l-136 176h150l85 -176h-99zM267 765l-152 176h150l101 -176h-99z" />
    <glyph glyph-name="uni020D" unicode="&#x20d;" horiz-adv-x="617" 
d="M309 -11q-85 0 -147 32t-96 91.5t-34 141.5q0 83 34 142t96 91t147 32q84 0 146 -32t96 -91.5t34 -141.5q0 -81 -34 -141t-96 -92t-146 -32zM309 121q44 0 70 31.5t26 101.5t-26 101.5t-70 31.5q-45 0 -71 -31.5t-26 -101.5t26 -101.5t71 -31.5zM353 557l-94 205h141
l44 -205h-91zM179 557l-94 205h141l44 -205h-91z" />
    <glyph glyph-name="uni020E" unicode="&#x20e;" horiz-adv-x="804" 
d="M46 353q0 110 43 191.5t123 126.5t189 45q110 0 190 -45t123.5 -126.5t43.5 -191.5q0 -109 -43.5 -191t-123.5 -127.5t-190 -45.5q-109 0 -188.5 45.5t-123 127.5t-43.5 191zM239 353q0 -99 40 -154.5t122 -55.5t123 55.5t41 154.5t-41 154t-123 55t-122 -54.5
t-40 -154.5zM298 760l-95 12q5 79 59 125.5t140 46.5q87 0 140.5 -46.5t58.5 -125.5l-95 -12q-4 40 -32 62.5t-73 22.5t-71.5 -22.5t-31.5 -62.5z" />
    <glyph glyph-name="uni020F" unicode="&#x20f;" horiz-adv-x="617" 
d="M309 -11q-85 0 -147 32t-96 91.5t-34 141.5q0 83 34 142t96 91t147 32q84 0 146 -32t96 -91.5t34 -141.5q0 -81 -34 -141t-96 -92t-146 -32zM309 121q44 0 70 31.5t26 101.5t-26 101.5t-70 31.5q-45 0 -71 -31.5t-26 -101.5t26 -101.5t71 -31.5zM224 552l-95 8
q1 60 23.5 104.5t63 69t93.5 24.5t93.5 -24.5t63.5 -69t23 -104.5l-95 -8q-4 50 -25.5 77t-59.5 27q-37 0 -59 -27t-26 -77z" />
    <glyph glyph-name="uni0210" unicode="&#x210;" horiz-adv-x="713" 
d="M65 0v705h333q122 0 188.5 -58t66.5 -161q0 -69 -30 -117.5t-87 -75t-136 -26.5l9 25h50q44 0 78 -24t56 -67l107 -201h-202l-115 225q-11 22 -32.5 30t-48.5 8h-52v-263h-185zM250 394h116q54 0 82 21.5t28 64.5q0 42 -28 63t-82 21h-116v-170zM400 765l-136 176h150
l85 -176h-99zM229 765l-152 176h150l101 -176h-99z" />
    <glyph glyph-name="uni0211" unicode="&#x211;" horiz-adv-x="429" 
d="M55 0v369q0 35 -2 70t-6 69h172l19 -156h-27q10 57 32 94t55 55t78 18q21 0 31.5 -1.5t22.5 -6.5v-156q-25 11 -40 14t-39 3q-41 0 -67 -14.5t-37.5 -44.5t-11.5 -77v-236h-180zM302 557l-94 205h141l44 -205h-91zM128 557l-94 205h141l44 -205h-91z" />
    <glyph glyph-name="uni0212" unicode="&#x212;" horiz-adv-x="713" 
d="M65 0v705h333q122 0 188.5 -58t66.5 -161q0 -69 -30 -117.5t-87 -75t-136 -26.5l9 25h50q44 0 78 -24t56 -67l107 -201h-202l-115 225q-11 22 -32.5 30t-48.5 8h-52v-263h-185zM250 394h116q54 0 82 21.5t28 64.5q0 42 -28 63t-82 21h-116v-170zM260 760l-95 12
q5 79 59 125.5t140 46.5q87 0 140.5 -46.5t58.5 -125.5l-95 -12q-4 40 -32 62.5t-73 22.5t-71.5 -22.5t-31.5 -62.5z" />
    <glyph glyph-name="uni0213" unicode="&#x213;" horiz-adv-x="429" 
d="M55 0v369q0 35 -2 70t-6 69h172l19 -156h-27q10 57 32 94t55 55t78 18q21 0 31.5 -1.5t22.5 -6.5v-156q-25 11 -40 14t-39 3q-41 0 -67 -14.5t-37.5 -44.5t-11.5 -77v-236h-180zM173 552l-95 8q1 60 23.5 104.5t63 69t93.5 24.5t93.5 -24.5t63.5 -69t23 -104.5l-95 -8
q-4 50 -25.5 77t-59.5 27q-37 0 -59 -27t-26 -77z" />
    <glyph glyph-name="uni0214" unicode="&#x214;" horiz-adv-x="751" 
d="M378 -11q-158 0 -237 78t-79 233v405h184v-406q0 -77 32 -116.5t100 -39.5t100 39.5t32 116.5v406h182v-405q0 -155 -78 -233t-236 -78zM414 765l-136 176h150l85 -176h-99zM243 765l-152 176h150l101 -176h-99z" />
    <glyph glyph-name="uni0215" unicode="&#x215;" horiz-adv-x="618" 
d="M242 -11q-97 0 -143.5 53.5t-46.5 162.5v303h178v-304q0 -40 16.5 -59.5t50.5 -19.5q38 0 62.5 27.5t24.5 72.5v283h178v-508h-173v91h15q-24 -49 -65 -75.5t-97 -26.5zM352 557l-94 205h141l44 -205h-91zM178 557l-94 205h141l44 -205h-91z" />
    <glyph glyph-name="uni0216" unicode="&#x216;" horiz-adv-x="751" 
d="M378 -11q-158 0 -237 78t-79 233v405h184v-406q0 -77 32 -116.5t100 -39.5t100 39.5t32 116.5v406h182v-405q0 -155 -78 -233t-236 -78zM274 760l-95 12q5 79 59 125.5t140 46.5q87 0 140.5 -46.5t58.5 -125.5l-95 -12q-4 40 -32 62.5t-73 22.5t-71.5 -22.5t-31.5 -62.5z
" />
    <glyph glyph-name="uni0217" unicode="&#x217;" horiz-adv-x="618" 
d="M242 -11q-97 0 -143.5 53.5t-46.5 162.5v303h178v-304q0 -40 16.5 -59.5t50.5 -19.5q38 0 62.5 27.5t24.5 72.5v283h178v-508h-173v91h15q-24 -49 -65 -75.5t-97 -26.5zM223 552l-95 8q1 60 23.5 104.5t63 69t93.5 24.5t93.5 -24.5t63.5 -69t23 -104.5l-95 -8
q-4 50 -25.5 77t-59.5 27q-37 0 -59 -27t-26 -77z" />
    <glyph glyph-name="uni0218" unicode="&#x218;" horiz-adv-x="671" 
d="M330 -11q-85 0 -161.5 20.5t-128.5 55.5l52 143q33 -21 72 -36t81.5 -23.5t86.5 -8.5q66 0 91.5 17t25.5 44q0 24 -17 37.5t-64 23.5l-122 25q-97 20 -145 69.5t-48 129.5q0 70 37.5 121.5t105.5 80t159 28.5q75 0 141 -20.5t108 -56.5l-52 -134q-40 29 -90 44.5
t-111 15.5q-58 0 -87.5 -17.5t-29.5 -49.5q0 -22 17.5 -37.5t64.5 -25.5l120 -24q97 -19 145.5 -68t48.5 -128q0 -68 -37.5 -119t-104.5 -79t-158 -28zM356 -290l-61 40q22 19 30 38.5t8 41.5l36 -20h-118v125h169v-75q0 -46 -14 -83t-50 -67z" />
    <glyph glyph-name="uni0219" unicode="&#x219;" horiz-adv-x="506" 
d="M250 -11q-71 0 -128.5 14.5t-97.5 39.5l43 116q39 -22 87.5 -36t96.5 -14q38 0 55.5 11.5t17.5 30.5q0 15 -11 24t-33 13l-108 19q-64 12 -99.5 47.5t-35.5 92.5q0 52 28 90.5t80 60t123 21.5q58 0 110.5 -13t91.5 -41l-46 -113q-31 21 -72.5 34.5t-77.5 13.5
q-43 0 -61 -12.5t-18 -30.5q0 -14 10 -23.5t32 -13.5l108 -19q66 -11 101.5 -45.5t35.5 -93.5q0 -55 -29.5 -93.5t-81.5 -59t-121 -20.5zM271 -290l-61 40q22 19 30 38.5t8 41.5l36 -20h-118v125h169v-75q0 -46 -14 -83t-50 -67z" />
    <glyph glyph-name="uni021A" unicode="&#x21a;" horiz-adv-x="638" 
d="M226 0v556h-214v149h613v-149h-214v-556h-185zM339 -290l-61 40q22 19 30 38.5t8 41.5l36 -20h-118v125h169v-75q0 -46 -14 -83t-50 -67z" />
    <glyph glyph-name="uni021B" unicode="&#x21b;" horiz-adv-x="414" 
d="M315 -11q-108 0 -162.5 51.5t-54.5 156.5v180h-95v131h95v120l178 42v-162h124v-131h-124v-173q0 -44 20 -58.5t48 -14.5q17 0 29.5 2.5t26.5 7.5v-137q-22 -9 -43.5 -12t-41.5 -3zM279 -290l-61 40q22 19 30 38.5t8 41.5l36 -20h-118v125h169v-75q0 -46 -14 -83t-50 -67
z" />
    <glyph glyph-name="uni021F" unicode="&#x21f;" horiz-adv-x="623" 
d="M55 0v736h178v-317h-15q25 49 71 74.5t105 25.5q89 0 133 -53t44 -161v-305h-178v297q0 46 -16.5 66t-49.5 20q-43 0 -68.5 -27t-25.5 -71v-285h-178zM242 791l-126 176h119l80 -86l80 86h119l-126 -176h-146z" />
    <glyph glyph-name="uni0226" unicode="&#x226;" horiz-adv-x="769" 
d="M-22 0l330 705h150l332 -705h-185l-85 194l71 -51h-414l70 51l-84 -194h-185zM382 515l-117 -279l-28 47h293l-25 -47l-118 279h-5zM304 778v150h160v-150h-160z" />
    <glyph glyph-name="uni0227" unicode="&#x227;" horiz-adv-x="644" 
d="M255 -11q-66 0 -116 31.5t-78.5 91.5t-28.5 142q0 83 28.5 142.5t78.5 91t116 31.5q59 0 106.5 -28t62.5 -73h-10l11 90h171q-3 -34 -5.5 -69t-2.5 -69v-370h-176l-2 86h12q-15 -44 -62.5 -70.5t-104.5 -26.5zM312 121q45 0 73 31.5t28 101.5t-28 101.5t-73 31.5
t-73 -31.5t-28 -101.5t27.5 -101.5t73.5 -31.5zM237 583v150h160v-150h-160z" />
    <glyph glyph-name="uni0228" unicode="&#x228;" horiz-adv-x="603" 
d="M65 0v705h506v-141h-329v-135h305v-142h-305v-145h329v-142h-506zM337 -198q-33 0 -64 5.5t-54 17.5l24 70q17 -8 36.5 -12.5t38.5 -4.5q26 0 37.5 5t11.5 16q0 18 -36 18q-8 0 -16 -1t-19 -3l-21 21l12 86h85l-12 -77l-41 17q11 5 23.5 7t22.5 2q47 0 73 -20t26 -56
q0 -42 -35.5 -66.5t-91.5 -24.5z" />
    <glyph glyph-name="uni022A" unicode="&#x22a;" horiz-adv-x="804" 
d="M46 353q0 110 43 191.5t123 126.5t189 45q110 0 190 -45t123.5 -126.5t43.5 -191.5q0 -109 -43.5 -191t-123.5 -127.5t-190 -45.5q-109 0 -188.5 45.5t-123 127.5t-43.5 191zM239 353q0 -99 40 -154.5t122 -55.5t123 55.5t41 154.5t-41 154t-123 55t-122 -54.5
t-40 -154.5zM233 922v97h338v-97h-338zM224 776v105h149v-105h-149zM431 776v105h149v-105h-149z" />
    <glyph glyph-name="uni022B" unicode="&#x22b;" horiz-adv-x="617" 
d="M309 -11q-85 0 -147 32t-96 91.5t-34 141.5q0 83 34 142t96 91t147 32q84 0 146 -32t96 -91.5t34 -141.5q0 -81 -34 -141t-96 -92t-146 -32zM309 121q44 0 70 31.5t26 101.5t-26 101.5t-70 31.5q-45 0 -71 -31.5t-26 -101.5t26 -101.5t71 -31.5zM140 709v97h338v-97h-338
zM131 563v105h149v-105h-149zM338 563v105h149v-105h-149z" />
    <glyph glyph-name="uni022C" unicode="&#x22c;" horiz-adv-x="804" 
d="M46 353q0 110 43 191.5t123 126.5t189 45q110 0 190 -45t123.5 -126.5t43.5 -191.5q0 -109 -43.5 -191t-123.5 -127.5t-190 -45.5q-109 0 -188.5 45.5t-123 127.5t-43.5 191zM239 353q0 -99 40 -154.5t122 -55.5t123 55.5t41 154.5t-41 154t-123 55t-122 -54.5
t-40 -154.5zM233 922v97h338v-97h-338zM470 766q-19 0 -39 5.5t-41 14.5q-19 8 -30 11t-20 3q-23 0 -35.5 -8.5t-17.5 -25.5l-74 4q4 57 37.5 86t83.5 29q17 0 35 -4t42 -14q18 -8 30.5 -11.5t22.5 -3.5q23 0 36 8t17 26l74 -5q-4 -57 -37.5 -86t-83.5 -29z" />
    <glyph glyph-name="uni022D" unicode="&#x22d;" horiz-adv-x="617" 
d="M309 -11q-85 0 -147 32t-96 91.5t-34 141.5q0 83 34 142t96 91t147 32q84 0 146 -32t96 -91.5t34 -141.5q0 -81 -34 -141t-96 -92t-146 -32zM309 121q44 0 70 31.5t26 101.5t-26 101.5t-70 31.5q-45 0 -71 -31.5t-26 -101.5t26 -101.5t71 -31.5zM140 709v97h338v-97h-338
zM194 553l-74 4q4 57 37.5 86t83.5 29q20 0 38.5 -5t36.5 -13q18 -7 31 -11t24 -4q23 0 36 8.5t17 25.5l74 -4q-4 -58 -37.5 -87t-83.5 -29q-20 0 -40.5 6t-39.5 14q-14 6 -27 10t-23 4q-23 0 -35.5 -8.5t-17.5 -25.5z" />
    <glyph glyph-name="uni0230" unicode="&#x230;" horiz-adv-x="804" 
d="M46 353q0 110 43 191.5t123 126.5t189 45q110 0 190 -45t123.5 -126.5t43.5 -191.5q0 -109 -43.5 -191t-123.5 -127.5t-190 -45.5q-109 0 -188.5 45.5t-123 127.5t-43.5 191zM239 353q0 -99 40 -154.5t122 -55.5t123 55.5t41 154.5t-41 154t-123 55t-122 -54.5
t-40 -154.5zM233 922v97h338v-97h-338zM328 776v105h149v-105h-149z" />
    <glyph glyph-name="uni0231" unicode="&#x231;" horiz-adv-x="617" 
d="M309 -11q-85 0 -147 32t-96 91.5t-34 141.5q0 83 34 142t96 91t147 32q84 0 146 -32t96 -91.5t34 -141.5q0 -81 -34 -141t-96 -92t-146 -32zM309 121q44 0 70 31.5t26 101.5t-26 101.5t-70 31.5q-45 0 -71 -31.5t-26 -101.5t26 -101.5t71 -31.5zM140 709v97h338v-97h-338
zM235 563v105h149v-105h-149z" />
    <glyph glyph-name="uni0232" unicode="&#x232;" horiz-adv-x="656" 
d="M236 0v337l37 -102l-316 470h213l179 -283h-36l179 283h206l-314 -470l37 102v-337h-185zM144 796v97h368v-97h-368z" />
    <glyph glyph-name="uni0233" unicode="&#x233;" horiz-adv-x="558" 
d="M57 -227l-42 138q48 9 80.5 19.5t53.5 28.5t33 47l25 58l-4 -67l-222 511h188l130 -337h-33l134 337h176l-228 -519q-27 -61 -57.5 -100t-66 -62t-77 -34.5t-90.5 -19.5zM109 605v97h338v-97h-338z" />
    <glyph glyph-name="uni0237" unicode="&#x237;" horiz-adv-x="288" 
d="M25 -225q-24 0 -48.5 3t-45.5 12v137q14 -5 28 -7t29 -2q28 0 48 16.5t20 59.5v514h178v-520q0 -105 -49.5 -159t-159.5 -54z" />
    <glyph glyph-name="uni0253" unicode="&#x253;" horiz-adv-x="644" 
d="M389 -11q-59 0 -106.5 28t-62.5 74h11v-91h-176v527q0 101 59 160.5t176 59.5q19 0 41 -3t37 -9l-20 -130q-11 3 -20 4t-20 1q-37 0 -56 -22t-19 -64v-102h-12q17 44 63.5 70.5t104.5 26.5q65 0 115.5 -31.5t79 -91t28.5 -142.5q0 -82 -28.5 -142t-79 -91.5t-115.5 -31.5
zM332 121q44 0 72.5 31.5t28.5 101.5t-28.5 101.5t-72.5 31.5q-45 0 -73 -31.5t-28 -101.5t28 -101.5t73 -31.5z" />
    <glyph glyph-name="uni0257" unicode="&#x257;" horiz-adv-x="642" 
d="M256 -11q-65 0 -116 31.5t-79.5 91.5t-28.5 142q0 83 28.5 142.5t79.5 91t116 31.5q58 0 104.5 -26.5t62.5 -70.5h-13v110q0 64 26.5 112.5t78.5 75.5t130 27q19 0 42 -3t37 -9l-20 -130q-11 3 -20 4t-20 1q-32 0 -54 -18.5t-22 -67.5v-524h-175v91h12q-15 -46 -62 -74
t-107 -28zM313 121q44 0 72 31.5t28 101.5t-28 101.5t-72 31.5q-45 0 -73 -31.5t-28 -101.5t28 -101.5t73 -31.5z" />
    <glyph glyph-name="uni0259" unicode="&#x259;" horiz-adv-x="552" 
d="M263 -11q-110 0 -171 65.5t-61 179.5v50h341v-84h-211l17 18q0 -56 22 -84t61 -28q45 0 68 31.5t23 86.5v26q0 74 -33 105.5t-103 31.5q-34 0 -67.5 -8.5t-66.5 -29.5l-38 121q38 25 89 37t113 12q84 0 146 -32t95.5 -91.5t33.5 -141.5q0 -78 -32 -137.5t-90 -93.5
t-136 -34z" />
    <glyph glyph-name="uni02B9" unicode="&#x2b9;" horiz-adv-x="269" 
d="M75 398l-43 307h204l-42 -307h-119z" />
    <glyph glyph-name="uni02BA" unicode="&#x2ba;" horiz-adv-x="515" 
d="M75 398l-43 307h204l-42 -307h-119zM322 398l-43 307h204l-42 -307h-119z" />
    <glyph glyph-name="uni02BB" unicode="&#x2bb;" horiz-adv-x="500" 
d="M165 560v76q0 46 13.5 82t50.5 67l60 -41q-21 -17 -29 -37t-8 -40l-36 20h118v-127h-169z" />
    <glyph glyph-name="uni02BC" unicode="&#x2bc;" horiz-adv-x="382" 
d="M211 561l-60 41q21 18 29 37t8 40l36 -20h-118v127h169v-76q0 -45 -13.5 -81.5t-50.5 -67.5z" />
    <glyph glyph-name="uni02BE" unicode="&#x2be;" horiz-adv-x="500" 
d="M250 549v66q19 0 30.5 13.5t11.5 31.5q0 19 -11.5 31.5t-30.5 12.5v67q48 0 80.5 -32.5t32.5 -78.5q0 -47 -32.5 -79t-80.5 -32z" />
    <glyph glyph-name="uni02BF" unicode="&#x2bf;" horiz-adv-x="500" 
d="M250 549q-48 0 -80 32t-32 79q0 46 32 78.5t80 32.5v-67q-19 0 -30.5 -12.5t-11.5 -31.5q0 -18 11.5 -31.5t30.5 -13.5v-66z" />
    <glyph glyph-name="circumflex" unicode="&#x2c6;" horiz-adv-x="500" 
d="M65 557l111 205h148l111 -205h-107l-78 113l-78 -113h-107z" />
    <glyph glyph-name="caron" unicode="&#x2c7;" horiz-adv-x="500" 
d="M176 557l-111 205h107l78 -113l78 113h107l-111 -205h-148z" />
    <glyph glyph-name="uni02C8" unicode="&#x2c8;" horiz-adv-x="500" 
d="M197 593v206h106v-206h-106z" />
    <glyph glyph-name="uni02C9" unicode="&#x2c9;" horiz-adv-x="500" 
d="M82 605v97h337v-97h-337z" />
    <glyph glyph-name="uni02CA" unicode="&#x2ca;" horiz-adv-x="500" 
d="M193 557l101 205h167l-154 -205h-114z" />
    <glyph glyph-name="uni02CB" unicode="&#x2cb;" horiz-adv-x="500" 
d="M193 557l-154 205h167l101 -205h-114z" />
    <glyph glyph-name="uni02CC" unicode="&#x2cc;" horiz-adv-x="500" 
d="M197 -270v206h106v-206h-106z" />
    <glyph glyph-name="breve" unicode="&#x2d8;" horiz-adv-x="500" 
d="M250 553q-53 0 -93.5 24.5t-63 69t-23.5 103.5l95 9q4 -51 26 -78t59 -27q38 0 59.5 27t25.5 78l95 -9q0 -59 -23 -103.5t-63.5 -69t-93.5 -24.5z" />
    <glyph glyph-name="dotaccent" unicode="&#x2d9;" horiz-adv-x="500" 
d="M170 583v150h160v-150h-160z" />
    <glyph glyph-name="ring" unicode="&#x2da;" horiz-adv-x="500" 
d="M250 545q-38 0 -68.5 17t-48.5 47t-18 66q0 37 18 66.5t48.5 47t68.5 17.5q39 0 69 -17.5t48 -47t18 -66.5t-18 -66.5t-48 -46.5t-69 -17zM250 618q25 0 41 16t16 41t-16 41t-41 16q-24 0 -40.5 -16t-16.5 -41t16.5 -41t40.5 -16z" />
    <glyph glyph-name="ogonek" unicode="&#x2db;" horiz-adv-x="500" 
d="M225 -198q-63 0 -98 30t-35 81q0 46 30.5 82t79.5 53l48 -48q-18 -7 -30 -17.5t-17.5 -23t-5.5 -25.5q0 -21 15.5 -33t37.5 -12q16 0 28.5 3t27.5 7l16 -80q-25 -9 -47 -13t-50 -4z" />
    <glyph glyph-name="tilde" unicode="&#x2dc;" horiz-adv-x="500" 
d="M121 577l-82 5q5 80 42.5 122.5t93.5 42.5q22 0 42 -7t42 -22q21 -13 34 -18.5t27 -5.5q49 0 59 59l82 -6q-4 -79 -42 -122t-93 -43q-23 0 -43 8t-44 23q-18 13 -31.5 18t-27.5 5q-27 0 -40.5 -16t-18.5 -43z" />
    <glyph glyph-name="hungarumlaut" unicode="&#x2dd;" horiz-adv-x="500" 
d="M289 557l44 205h141l-94 -205h-91zM115 557l44 205h141l-94 -205h-91z" />
    <glyph glyph-name="gravecomb" unicode="&#x300;" 
d="M-57 557l-154 205h167l101 -205h-114z" />
    <glyph glyph-name="acutecomb" unicode="&#x301;" 
d="M-57 557l101 205h167l-154 -205h-114z" />
    <glyph glyph-name="uni0302" unicode="&#x302;" 
d="M-185 557l111 205h148l111 -205h-107l-78 113l-78 -113h-107z" />
    <glyph glyph-name="tildecomb" unicode="&#x303;" 
d="M-129 577l-82 5q5 80 42.5 122.5t93.5 42.5q22 0 42 -7t42 -22q21 -13 34 -18.5t27 -5.5q49 0 59 59l82 -6q-4 -79 -42 -122t-93 -43q-23 0 -43 8t-44 23q-18 13 -31.5 18t-27.5 5q-27 0 -40.5 -16t-18.5 -43z" />
    <glyph glyph-name="uni0304" unicode="&#x304;" 
d="M-169 605v97h338v-97h-338z" />
    <glyph glyph-name="uni0306" unicode="&#x306;" 
d="M0 553q-53 0 -93.5 24.5t-63 69t-23.5 103.5l95 9q4 -51 26 -78t59 -27q38 0 59.5 27t25.5 78l95 -9q0 -59 -23 -103.5t-63.5 -69t-93.5 -24.5z" />
    <glyph glyph-name="uni0307" unicode="&#x307;" 
d="M-80 583v150h160v-150h-160z" />
    <glyph glyph-name="uni0308" unicode="&#x308;" 
d="M29 582v150h149v-150h-149zM-178 582v150h149v-150h-149z" />
    <glyph glyph-name="hookabovecomb" unicode="&#x309;" 
d="M-51 557v22q0 18 7.5 30.5t17 22t17 18.5t7.5 20q0 12 -9 17t-24 5q-16 0 -29 -3.5t-29 -11.5l-25 68q24 14 56 20t70 6q56 0 87 -19.5t31 -55.5q0 -27 -11.5 -42.5t-26 -26.5t-26 -23t-11.5 -31v-16h-102z" />
    <glyph glyph-name="uni030A" unicode="&#x30a;" 
d="M0 545q-38 0 -68.5 17t-48.5 47t-18 66q0 37 18 66.5t48.5 47t68.5 17.5q39 0 69 -17.5t48 -47t18 -66.5t-18 -66.5t-48 -46.5t-69 -17zM0 618q25 0 41 16t16 41t-16 41t-41 16q-24 0 -40.5 -16t-16.5 -41t16.5 -41t40.5 -16z" />
    <glyph glyph-name="uni030B" unicode="&#x30b;" 
d="M39 557l44 205h141l-94 -205h-91zM-135 557l44 205h141l-94 -205h-91z" />
    <glyph glyph-name="uni030C" unicode="&#x30c;" 
d="M-74 557l-111 205h107l78 -113l78 113h107l-111 -205h-148z" />
    <glyph glyph-name="uni030F" unicode="&#x30f;" 
d="M44 557l-94 205h141l44 -205h-91zM-130 557l-94 205h141l44 -205h-91z" />
    <glyph glyph-name="uni0311" unicode="&#x311;" 
d="M-85 553l-95 8q1 60 23.5 104.5t63 69t93.5 24.5t93.5 -24.5t63.5 -69t23 -104.5l-95 -8q-4 50 -25.5 77t-59.5 27q-37 0 -59 -27t-26 -77z" />
    <glyph glyph-name="uni0312" unicode="&#x312;" 
d="M-85 560v75q0 47 14 83.5t50 67.5l61 -41q-22 -18 -30 -38t-8 -41l-36 20h118v-126h-169z" />
    <glyph glyph-name="uni031B" unicode="&#x31b;" 
d="M107 412l-107 65v15q27 1 45.5 7.5t28.5 27.5t10 62v27h152v-48q0 -40 -16.5 -73.5t-45 -55.5t-67.5 -27z" />
    <glyph glyph-name="dotbelowcomb" unicode="&#x323;" 
d="M-80 -224v149h160v-149h-160z" />
    <glyph glyph-name="uni0324" unicode="&#x324;" 
d="M29 -205v149h149v-149h-149zM-178 -205v149h149v-149h-149z" />
    <glyph glyph-name="uni0326" unicode="&#x326;" 
d="M20 -290l-61 40q22 19 30 38.5t8 41.5l36 -20h-118v125h169v-75q0 -46 -14 -83t-50 -67z" />
    <glyph glyph-name="uni0327" unicode="&#x327;" 
d="M-2 -198q-33 0 -64 5.5t-54 17.5l24 70q17 -8 36.5 -12.5t38.5 -4.5q26 0 37.5 5t11.5 16q0 18 -36 18q-8 0 -16 -1t-19 -3l-21 21l12 86h85l-12 -77l-41 17q11 5 23.5 7t22.5 2q47 0 73 -20t26 -56q0 -42 -35.5 -66.5t-91.5 -24.5z" />
    <glyph glyph-name="uni0328" unicode="&#x328;" 
d="M-25 -198q-63 0 -98 30t-35 81q0 46 30.5 82t79.5 53l48 -48q-18 -7 -30 -17.5t-17.5 -23t-5.5 -25.5q0 -21 15.5 -33t37.5 -12q16 0 28.5 3t27.5 7l16 -80q-25 -9 -47 -13t-50 -4z" />
    <glyph glyph-name="uni032E" unicode="&#x32e;" 
d="M0 -215q-80 0 -129.5 43t-50.5 114l95 9q4 -31 26 -49t59 -18q38 0 59.5 18t25.5 49l95 -9q-1 -71 -50.5 -114t-129.5 -43z" />
    <glyph glyph-name="uni0331" unicode="&#x331;" 
d="M-169 -175v97h338v-97h-338z" />
    <glyph glyph-name="uni0335" unicode="&#x335;" 
d="M-222 537v121h444v-121h-444z" />
    <glyph glyph-name="uni0337" unicode="&#x337;" 
d="M-143 198l-66 117l352 204l66 -118z" />
    <glyph glyph-name="uni0338" unicode="&#x338;" 
d="M-56 -69l-78 47l342 584l79 -47z" />
    <glyph glyph-name="uni0394" unicode="&#x394;" horiz-adv-x="768" 
d="M32 0v101l279 604h145l280 -604v-101h-704zM382 518l-180 -419v43h364v-43l-182 419h-2z" />
    <glyph glyph-name="Sigma" unicode="&#x3a3;" horiz-adv-x="625" 
d="M48 -180v129l241 340v-52l-241 339v129h535v-149h-338v37l198 -285v-91l-198 -285v37h338v-149h-535z" />
    <glyph glyph-name="uni03A9" unicode="&#x3a9;" horiz-adv-x="832" 
d="M39 0v146h233v-35q-118 50 -169.5 122.5t-51.5 175.5q0 95 45.5 163.5t128 106t191.5 37.5q77 0 143.5 -21.5t116 -61.5t77.5 -97t28 -127q0 -103 -51.5 -175.5t-169.5 -122.5v35h233v-146h-331v143q69 48 98.5 108t29.5 129q0 88 -48 135t-126 47q-87 0 -130.5 -47
t-43.5 -135q0 -69 30 -129t98 -108v-143h-331z" />
    <glyph glyph-name="uni03BC" unicode="&#x3bc;" horiz-adv-x="618" 
d="M52 -216v724h178v-304q0 -40 16.5 -59.5t49.5 -19.5q39 0 63.5 27.5t24.5 72.5v283h178v-508h-173v91h-1q-8 -49 -35.5 -75.5t-61.5 -26.5q-27 0 -44 10t-29 32h-1l13 -247h-178z" />
    <glyph glyph-name="pi" unicode="&#x3c0;" horiz-adv-x="650" 
d="M35 0q22 78 36 140.5t21.5 119.5t8.5 117h-97v131h615v-131h-86v-177q0 -36 14 -53.5t55 -22.5l40 -5l-12 -128l-52 3q-68 3 -111.5 17.5t-67.5 41t-34 69t-10 102.5v153h-77q-1 -78 -8 -142t-20 -121t-34 -114h-181z" />
    <glyph glyph-name="uni0400" unicode="&#x400;" horiz-adv-x="603" 
d="M65 0v705h506v-141h-329v-135h305v-142h-305v-145h329v-142h-506zM281 765l-174 176h178l118 -176h-122z" />
    <glyph glyph-name="uni0401" unicode="&#x401;" horiz-adv-x="603" 
d="M65 0v705h506v-141h-329v-135h305v-142h-305v-145h329v-142h-506zM371 771v149h149v-149h-149zM164 771v149h149v-149h-149z" />
    <glyph glyph-name="uni0402" unicode="&#x402;" horiz-adv-x="913" 
d="M607 -191q-38 0 -72 5.5t-61 15.5l28 131q19 -5 40 -8.5t42 -3.5q47 0 73.5 30t26.5 83v79q0 84 -43.5 120.5t-119.5 36.5q-28 0 -56.5 -5.5t-53.5 -15.5v-277h-185v556h-214v149h613v-149h-214v-127q22 9 58.5 15t74.5 6q154 0 238.5 -75t84.5 -228v-77
q0 -83 -33 -141.5t-91 -89t-136 -30.5z" />
    <glyph glyph-name="uni0403" unicode="&#x403;" horiz-adv-x="592" 
d="M65 0v705h509v-148h-326v-557h-183zM228 765l118 176h178l-174 -176h-122z" />
    <glyph glyph-name="uni0404" unicode="&#x404;" horiz-adv-x="705" 
d="M427 -11q-118 0 -204 45t-131.5 127t-45.5 192t45.5 191.5t131.5 126.5t204 45q73 0 139 -21.5t107 -57.5l-55 -144q-45 34 -90.5 49t-94.5 15q-86 0 -137.5 -44.5t-58.5 -129.5l-44 46h339v-140h-342l46 45q7 -95 59 -140.5t138 -45.5q49 0 94.5 15.5t90.5 48.5l55 -144
q-41 -36 -107 -57.5t-139 -21.5z" />
    <glyph glyph-name="uni0405" unicode="&#x405;" horiz-adv-x="671" 
d="M330 -11q-85 0 -161.5 20.5t-128.5 55.5l52 143q33 -21 72 -36t81.5 -23.5t86.5 -8.5q66 0 91.5 17t25.5 44q0 24 -17 37.5t-64 23.5l-122 25q-97 20 -145 69.5t-48 129.5q0 70 37.5 121.5t105.5 80t159 28.5q75 0 141 -20.5t108 -56.5l-52 -134q-40 29 -90 44.5
t-111 15.5q-58 0 -87.5 -17.5t-29.5 -49.5q0 -22 17.5 -37.5t64.5 -25.5l120 -24q97 -19 145.5 -68t48.5 -128q0 -68 -37.5 -119t-104.5 -79t-158 -28z" />
    <glyph glyph-name="uni0406" unicode="&#x406;" horiz-adv-x="315" 
d="M65 0v705h185v-705h-185z" />
    <glyph glyph-name="uni0407" unicode="&#x407;" horiz-adv-x="315" 
d="M65 0v705h185v-705h-185zM186 771v149h149v-149h-149zM-21 771v149h149v-149h-149z" />
    <glyph glyph-name="uni0408" unicode="&#x408;" horiz-adv-x="401" 
d="M102 -187q-18 0 -45 2t-54 8v141q19 -4 38 -5.5t30 -1.5q45 0 62.5 25t17.5 81v642h185v-642q0 -84 -23.5 -140t-74.5 -83t-136 -27z" />
    <glyph glyph-name="uni0409" unicode="&#x409;" horiz-adv-x="1170" 
d="M102 -19l-92 130q43 24 73.5 56t49.5 75.5t28.5 103.5t9.5 140v219h544v-275h175q118 0 185.5 -55.5t67.5 -158.5q0 -104 -67.5 -160t-185.5 -56h-358v557h-192v-116q0 -91 -16.5 -164t-47 -130t-74.5 -98t-100 -68zM715 137h151q55 0 79.5 19.5t24.5 59.5q0 39 -24.5 58
t-79.5 19h-151v-156z" />
    <glyph glyph-name="uni040A" unicode="&#x40a;" horiz-adv-x="1171" 
d="M65 0v705h183v-273h284v273h183v-275h175q118 0 186 -55.5t68 -159.5q0 -103 -68 -159t-186 -56h-358v283h-284v-283h-183zM715 137h151q55 0 79 19.5t24 58.5q0 40 -24 59t-79 19h-151v-156z" />
    <glyph glyph-name="uni040B" unicode="&#x40b;" horiz-adv-x="898" 
d="M226 0v556h-214v149h613v-149h-214v-127q24 9 61 15t74 6q147 0 226 -75t79 -228v-147h-183v141q0 84 -38 120.5t-107 36.5q-27 0 -56 -4.5t-56 -16.5v-277h-185z" />
    <glyph glyph-name="uni040C" unicode="&#x40c;" horiz-adv-x="730" 
d="M65 0v705h183v-283h92l-28 -18l187 301h200l-223 -338l-73 48q74 -13 121.5 -50.5t81.5 -106.5l129 -258h-199l-92 198q-20 41 -48.5 58.5t-75.5 17.5h-72v-274h-183zM299 765l118 176h178l-174 -176h-122z" />
    <glyph glyph-name="uni040D" unicode="&#x40d;" horiz-adv-x="765" 
d="M65 0v705h171v-447h-26l355 447h135v-705h-171v447h26l-355 -447h-135zM322 765l-174 176h178l118 -176h-122z" />
    <glyph glyph-name="uni040E" unicode="&#x40e;" horiz-adv-x="699" 
d="M164 0l127 243l2 -51l-322 513h195l217 -355h-34l184 355h190l-369 -705h-190zM351 760q-65 0 -110.5 20t-70.5 54t-33 76l83 27q18 -47 49 -67t83 -20q53 0 84 22t45 64l81 -26q-15 -69 -70 -109.5t-141 -40.5z" />
    <glyph glyph-name="uni040F" unicode="&#x40f;" horiz-adv-x="780" 
d="M311 -175v175h-246v705h183v-557h285v557h182v-705h-245v-175h-159z" />
    <glyph glyph-name="uni0410" unicode="&#x410;" horiz-adv-x="769" 
d="M-22 0l330 705h150l332 -705h-185l-85 194l71 -51h-414l70 51l-84 -194h-185zM382 515l-117 -279l-28 47h293l-25 -47l-118 279h-5z" />
    <glyph glyph-name="uni0411" unicode="&#x411;" horiz-adv-x="704" 
d="M65 0v705h538v-140h-362v-135h183q118 0 185.5 -55.5t67.5 -158.5q0 -104 -67.5 -160t-185.5 -56h-359zM241 137h158q55 0 79.5 19.5t24.5 59.5q0 39 -24.5 57.5t-79.5 18.5h-158v-155z" />
    <glyph glyph-name="uni0412" unicode="&#x412;" horiz-adv-x="701" 
d="M65 0v705h342q118 0 181.5 -49t63.5 -133q0 -62 -36.5 -106t-99.5 -60v16q75 -13 115.5 -57.5t40.5 -115.5q0 -93 -68 -146.5t-186 -53.5h-353zM242 135h152q52 0 77.5 19t25.5 59q0 41 -25.5 59t-77.5 18h-152v-155zM242 425h131q53 0 77.5 18t24.5 55t-24.5 54.5
t-77.5 17.5h-131v-145z" />
    <glyph glyph-name="uni0413" unicode="&#x413;" horiz-adv-x="592" 
d="M65 0v705h509v-148h-326v-557h-183z" />
    <glyph glyph-name="uni0414" unicode="&#x414;" horiz-adv-x="845" 
d="M11 -175v315h73q45 54 66.5 148t21.5 230v187h548v-565h103v-315h-158v175h-496v-175h-158zM266 140h271v425h-197v-67q0 -124 -18.5 -212.5t-55.5 -145.5z" />
    <glyph glyph-name="uni0415" unicode="&#x415;" horiz-adv-x="603" 
d="M65 0v705h506v-141h-329v-135h305v-142h-305v-145h329v-142h-506z" />
    <glyph glyph-name="uni0416" unicode="&#x416;" horiz-adv-x="1092" 
d="M-4 0l129 258q34 69 81.5 106.5t120.5 50.5l-72 -48l-223 338h200l187 -301l-27 18h67v283h175v-283h68l-27 -18l186 301h200l-222 -338l-73 48q73 -13 120.5 -50.5t81.5 -106.5l129 -258h-198l-93 198q-20 41 -48 58.5t-76 17.5h-48v-274h-175v274h-48
q-47 0 -75.5 -17.5t-48.5 -58.5l-94 -198h-197z" />
    <glyph glyph-name="uni0417" unicode="&#x417;" horiz-adv-x="632" 
d="M302 -11q-90 0 -160 20.5t-123 56.5l53 133q40 -29 95 -45t120 -16q71 0 105 20t34 61q0 35 -25.5 52t-79.5 17h-176v140h157q53 0 78.5 16t25.5 51q0 32 -28 52t-89 20q-56 0 -109.5 -15.5t-93.5 -44.5l-53 133q48 35 120 55.5t156 20.5q137 0 205.5 -54t68.5 -139
q0 -63 -36.5 -106.5t-99.5 -59.5v16q74 -13 114.5 -58t40.5 -116q0 -62 -33 -109.5t-99.5 -74t-167.5 -26.5z" />
    <glyph glyph-name="uni0418" unicode="&#x418;" horiz-adv-x="765" 
d="M65 0v705h171v-447h-26l355 447h135v-705h-171v447h26l-355 -447h-135z" />
    <glyph glyph-name="uni0419" unicode="&#x419;" horiz-adv-x="765" 
d="M65 0v705h171v-447h-26l355 447h135v-705h-171v447h26l-355 -447h-135zM382 760q-65 0 -110.5 20t-70.5 54t-33 76l83 27q18 -47 49 -67t83 -20q53 0 84 22t45 64l81 -26q-15 -69 -70 -109.5t-141 -40.5z" />
    <glyph glyph-name="uni041A" unicode="&#x41a;" horiz-adv-x="730" 
d="M65 0v705h183v-283h92l-28 -18l187 301h200l-223 -338l-73 48q74 -13 121.5 -50.5t81.5 -106.5l129 -258h-199l-92 198q-20 41 -48.5 58.5t-75.5 17.5h-72v-274h-183z" />
    <glyph glyph-name="uni041B" unicode="&#x41b;" horiz-adv-x="784" 
d="M102 -19l-92 130q43 24 73.5 56t49.5 75.5t28.5 103.5t9.5 140v219h548v-705h-183v557h-196v-116q0 -91 -16.5 -164t-47 -130t-74.5 -98t-100 -68z" />
    <glyph glyph-name="uni041C" unicode="&#x41c;" horiz-adv-x="884" 
d="M68 0v705h160l231 -517h-33l230 517h161v-705h-167v432h43l-200 -432h-104l-201 432h46v-432h-166z" />
    <glyph glyph-name="uni041D" unicode="&#x41d;" horiz-adv-x="784" 
d="M65 0v705h185v-272h284v272h185v-705h-185v282h-284v-282h-185z" />
    <glyph glyph-name="uni041E" unicode="&#x41e;" horiz-adv-x="804" 
d="M46 353q0 110 43 191.5t123 126.5t189 45q110 0 190 -45t123.5 -126.5t43.5 -191.5q0 -109 -43.5 -191t-123.5 -127.5t-190 -45.5q-109 0 -188.5 45.5t-123 127.5t-43.5 191zM239 353q0 -99 40 -154.5t122 -55.5t123 55.5t41 154.5t-41 154t-123 55t-122 -54.5
t-40 -154.5z" />
    <glyph glyph-name="uni041F" unicode="&#x41f;" horiz-adv-x="780" 
d="M65 0v705h650v-705h-182v557h-285v-557h-183z" />
    <glyph glyph-name="uni0420" unicode="&#x420;" horiz-adv-x="684" 
d="M65 0v705h346q122 0 184 -59.5t62 -161.5q0 -101 -62 -161t-184 -60h-161v-263h-185zM250 405h137q47 0 70 20.5t23 58.5t-23 59t-70 21h-137v-159z" />
    <glyph glyph-name="uni0421" unicode="&#x421;" horiz-adv-x="685" 
d="M419 -11q-115 0 -198.5 45t-129 127t-45.5 192t45.5 191.5t129 126.5t198.5 45q73 0 133 -19.5t101 -55.5l-55 -145q-46 33 -84.5 46.5t-87.5 13.5q-90 0 -138.5 -52.5t-48.5 -150.5q0 -99 48.5 -151.5t138.5 -52.5q49 0 87.5 13.5t84.5 46.5l55 -145q-41 -36 -101 -55.5
t-133 -19.5z" />
    <glyph glyph-name="uni0422" unicode="&#x422;" horiz-adv-x="638" 
d="M226 0v556h-214v149h613v-149h-214v-556h-185z" />
    <glyph glyph-name="uni0423" unicode="&#x423;" horiz-adv-x="699" 
d="M164 0l127 243l2 -51l-322 513h195l217 -355h-34l184 355h190l-369 -705h-190z" />
    <glyph glyph-name="uni0424" unicode="&#x424;" horiz-adv-x="952" 
d="M385 -28v111l43 -29h-29q-110 0 -189 34.5t-121.5 102.5t-42.5 167q0 150 92.5 227t260.5 77h29l-43 -29v105h182v-105l-43 29h29q168 0 260.5 -77t92.5 -227q0 -99 -42.5 -167t-121.5 -102.5t-189 -34.5h-29l43 29v-111h-182zM386 161v394l35 -27h-37q-66 0 -109.5 -40
t-43.5 -130q0 -59 20.5 -96.5t55.5 -55.5t77 -18h37zM567 161l-36 27h38q42 0 76.5 18t55 55.5t20.5 96.5q0 90 -43 130t-109 40h-38l36 27v-394z" />
    <glyph glyph-name="uni0425" unicode="&#x425;" horiz-adv-x="693" 
d="M-28 0l300 397v-83l-294 391h215l182 -257h-59l182 257h216l-295 -391v83l302 -397h-216l-189 263h59l-189 -263h-214z" />
    <glyph glyph-name="uni0426" unicode="&#x426;" horiz-adv-x="841" 
d="M659 -175v175h-594v705h183v-557h285v557h182v-557h103v-323h-159z" />
    <glyph glyph-name="uni0427" unicode="&#x427;" horiz-adv-x="736" 
d="M488 0v249q-24 -9 -61.5 -15t-75.5 -6q-146 0 -225 74.5t-79 228.5v174h183v-168q0 -84 35.5 -120.5t108.5 -36.5q27 0 57.5 5t56.5 15v305h183v-705h-183z" />
    <glyph glyph-name="uni0428" unicode="&#x428;" horiz-adv-x="1116" 
d="M65 0v705h181v-557h223v557h179v-557h224v557h179v-705h-986z" />
    <glyph glyph-name="uni0429" unicode="&#x429;" horiz-adv-x="1177" 
d="M996 -175v175h-931v705h181v-557h223v557h179v-557h224v557h179v-557h103v-323h-158z" />
    <glyph glyph-name="uni042A" unicode="&#x42a;" horiz-adv-x="853" 
d="M215 0v557h-203v148h386v-275h175q118 0 185.5 -55.5t67.5 -159.5q0 -103 -67.5 -159t-185.5 -56h-358zM398 137h151q55 0 79 19.5t24 58.5q0 40 -24 59t-79 19h-151v-156z" />
    <glyph glyph-name="uni042B" unicode="&#x42b;" horiz-adv-x="975" 
d="M65 0v705h183v-275h145q118 0 185.5 -55.5t67.5 -159.5q0 -103 -67.5 -159t-185.5 -56h-328zM248 137h120q55 0 79.5 19.5t24.5 58.5q0 40 -24.5 59t-79.5 19h-120v-156zM727 0v705h183v-705h-183z" />
    <glyph glyph-name="uni042C" unicode="&#x42c;" horiz-adv-x="704" 
d="M65 0v705h183v-275h176q118 0 185.5 -55.5t67.5 -158.5q0 -104 -67.5 -160t-185.5 -56h-359zM248 137h151q55 0 79.5 19.5t24.5 59.5q0 39 -24.5 57.5t-79.5 18.5h-151v-155z" />
    <glyph glyph-name="uni042D" unicode="&#x42d;" horiz-adv-x="705" 
d="M278 -11q-73 0 -139 21.5t-107 57.5l54 144q46 -33 91 -48.5t95 -15.5q87 0 139 45.5t58 140.5l46 -45h-342v140h339l-44 -46q-7 85 -57 129.5t-132 44.5q-50 0 -95.5 -14.5t-97.5 -49.5l-54 144q46 36 113.5 57.5t139.5 21.5q115 0 199 -45t129.5 -126.5t45.5 -191.5
t-45.5 -192t-131 -127t-204.5 -45z" />
    <glyph glyph-name="uni042E" unicode="&#x42e;" horiz-adv-x="1112" 
d="M708 -11q-94 0 -168 36t-120.5 102.5t-61.5 155.5h-110v-283h-183v705h183v-274h111q16 88 63 152t120 98.5t166 34.5q108 0 188.5 -45t125 -126.5t44.5 -191.5t-44.5 -192t-125.5 -127t-188 -45zM708 141q79 0 123.5 56t44.5 156t-44.5 155.5t-123.5 55.5
q-78 0 -122 -55.5t-44 -155.5t44 -156t122 -56z" />
    <glyph glyph-name="uni042F" unicode="&#x42f;" horiz-adv-x="726" 
d="M20 0l114 200q24 42 57.5 62.5t76.5 20.5h44l4 -18q-124 0 -191 59t-67 161q0 104 66.5 162t189.5 58h347v-705h-183v263h-54q-27 0 -46 -9t-31 -31l-126 -223h-201zM345 392h133v173h-133q-113 0 -113 -86q0 -87 113 -87z" />
    <glyph glyph-name="uni0430" unicode="&#x430;" horiz-adv-x="661" 
d="M264 -11q-66 0 -116 31.5t-78.5 91.5t-28.5 142q0 83 28.5 142.5t78.5 91t116 31.5q59 0 106.5 -28t62.5 -73h-10l11 90h171q-3 -34 -5.5 -69t-2.5 -69v-370h-176l-2 86h12q-15 -44 -62.5 -70.5t-104.5 -26.5zM321 121q45 0 73 31.5t28 101.5t-28 101.5t-73 31.5
t-73 -31.5t-28 -101.5t27.5 -101.5t73.5 -31.5z" />
    <glyph glyph-name="uni0431" unicode="&#x431;" horiz-adv-x="636" 
d="M325 -11q-130 0 -207 73t-77 215v85q0 146 74 235t216 115l186 35l46 -136l-215 -40q-47 -9 -78.5 -34t-47 -60t-15.5 -78v-68h-22q9 44 34 79.5t65.5 56t95.5 20.5q61 0 109.5 -29t77 -83t28.5 -129q0 -79 -34 -136.5t-94.5 -89t-141.5 -31.5zM319 119q47 0 73 29.5
t26 89.5q0 59 -26.5 89t-73.5 30t-73.5 -30t-26.5 -88q0 -60 26.5 -90t74.5 -30z" />
    <glyph glyph-name="uni0432" unicode="&#x432;" horiz-adv-x="604" 
d="M60 0v508h302q104 0 149 -35.5t45 -96.5q0 -47 -31.5 -79t-82.5 -41v15q69 -7 101 -40.5t32 -86.5q0 -67 -52.5 -105.5t-151.5 -38.5h-311zM223 103h124q34 0 51.5 13t17.5 40q0 26 -17.5 39t-51.5 13h-124v-105zM223 311h112q29 0 45 12t16 36q0 25 -16 36t-45 11h-112
v-95z" />
    <glyph glyph-name="uni0433" unicode="&#x433;" horiz-adv-x="493" 
d="M60 0v508h414v-137h-236v-371h-178z" />
    <glyph glyph-name="uni0434" unicode="&#x434;" horiz-adv-x="663" 
d="M25 -130v262h63q24 42 34 97t10 140v139h432v-376h86v-262h-150v130h-326v-130h-149zM242 131h158v246h-120v-54q0 -52 -10 -104t-28 -88z" />
    <glyph glyph-name="uni0435" unicode="&#x435;" horiz-adv-x="570" 
d="M332 -11q-138 0 -214.5 71t-76.5 195q0 77 32 137t90 93.5t136 33.5q77 0 128.5 -33.5t77.5 -92t26 -135.5v-38h-341v84h210l-17 -14q0 57 -21.5 84.5t-60.5 27.5q-45 0 -68.5 -33.5t-23.5 -100.5v-18q0 -67 33 -98t95 -31q40 0 75.5 9t67.5 29l46 -116q-38 -26 -88 -40
t-106 -14z" />
    <glyph glyph-name="uni0436" unicode="&#x436;" horiz-adv-x="898" 
d="M-13 0l109 204q15 27 33 47.5t41 34t50 16.5l-33 -57l-182 263h188l127 -182h41v182h176v-182h41l126 182h189l-183 -263l-32 57q27 -3 49.5 -16.5t41 -34t33.5 -47.5l109 -204h-189l-78 147q-9 17 -19 26.5t-22 13.5t-28 4h-38v-191h-176v191h-39q-16 0 -28 -4
t-21.5 -13.5t-18.5 -26.5l-79 -147h-188z" />
    <glyph glyph-name="uni0437" unicode="&#x437;" horiz-adv-x="556" 
d="M269 -11q-72 0 -135 14t-108 43l43 111q37 -22 90.5 -34.5t107.5 -12.5q52 0 77 11t25 35q0 21 -16 31.5t-51 10.5h-146v117h132q32 0 47 10t15 28q0 21 -21.5 33.5t-77.5 12.5q-52 0 -95 -11.5t-80 -29.5l-42 106q42 26 105.5 40.5t140.5 14.5q108 0 168 -37.5
t60 -106.5q0 -45 -30.5 -77.5t-83.5 -41.5v15q65 -5 99 -37.5t34 -89.5q0 -72 -68 -113.5t-190 -41.5z" />
    <glyph glyph-name="uni0438" unicode="&#x438;" horiz-adv-x="638" 
d="M60 0v508h160v-328h-35l248 328h145v-508h-160v328h36l-249 -328h-145z" />
    <glyph glyph-name="uni0439" unicode="&#x439;" horiz-adv-x="638" 
d="M60 0v508h160v-328h-35l248 328h145v-508h-160v328h36l-249 -328h-145zM318 551q-60 0 -102.5 19.5t-66.5 52.5t-31 74l83 27q16 -44 44 -63.5t74 -19.5q47 0 75 21t41 61l80 -26q-14 -66 -65 -106t-132 -40z" />
    <glyph glyph-name="uni043A" unicode="&#x43a;" horiz-adv-x="609" 
d="M60 0v508h177v-182h52l126 182h188l-182 -263l-32 57q27 -3 49.5 -16.5t41.5 -34t32 -47.5l110 -204h-189l-78 147q-9 17 -18.5 26.5t-21.5 13.5t-28 4h-50v-191h-177z" />
    <glyph glyph-name="uni043B" unicode="&#x43b;" horiz-adv-x="635" 
d="M64 -17l-50 139q30 8 51 22.5t34.5 38t19.5 58t6 80.5v187h450v-508h-176v374h-114v-59q0 -98 -24 -168.5t-72.5 -111.5t-124.5 -52z" />
    <glyph glyph-name="uni043C" unicode="&#x43c;" horiz-adv-x="728" 
d="M60 0v508h147l157 -260l156 260h148v-508h-156v308h25l-133 -225h-80l-133 225h25v-308h-156z" />
    <glyph glyph-name="uni043D" unicode="&#x43d;" horiz-adv-x="642" 
d="M60 0v508h177v-182h169v182h176v-508h-176v191h-169v-191h-177z" />
    <glyph glyph-name="uni043E" unicode="&#x43e;" horiz-adv-x="635" 
d="M318 -11q-85 0 -147 32t-96 91.5t-34 141.5q0 83 34 142t96 91t147 32q84 0 146 -32t96 -91.5t34 -141.5q0 -81 -34 -141t-96 -92t-146 -32zM318 121q44 0 70 31.5t26 101.5t-26 101.5t-70 31.5q-45 0 -71 -31.5t-26 -101.5t26 -101.5t71 -31.5z" />
    <glyph glyph-name="uni043F" unicode="&#x43f;" horiz-adv-x="639" 
d="M60 0v508h519v-508h-176v374h-166v-374h-177z" />
    <glyph glyph-name="uni0440" unicode="&#x440;" horiz-adv-x="661" 
d="M64 -216v586q0 34 -2 69t-6 69h172l11 -90h-10q14 45 62 73t107 28q66 0 116 -31.5t78.5 -91t28.5 -142.5q0 -82 -28.5 -142t-78.5 -91.5t-116 -31.5q-58 0 -105 26.5t-62 70.5h11v-302h-178zM341 121q46 0 73.5 31.5t27.5 101.5t-27.5 101.5t-73.5 31.5q-45 0 -73 -31.5
t-28 -101.5t28 -101.5t73 -31.5z" />
    <glyph glyph-name="uni0441" unicode="&#x441;" horiz-adv-x="532" 
d="M321 -11q-84 0 -147 32t-98 91.5t-35 142.5t35 142t98 90.5t147 31.5q52 0 102 -14t81 -40l-50 -121q-24 20 -54.5 30.5t-59.5 10.5q-55 0 -85.5 -33t-30.5 -97t30.5 -97.5t85.5 -33.5q28 0 59 10.5t55 29.5l50 -121q-32 -25 -81.5 -39.5t-101.5 -14.5z" />
    <glyph glyph-name="uni0442" unicode="&#x442;" horiz-adv-x="518" 
d="M171 0v371h-162v137h501v-137h-163v-371h-176z" />
    <glyph glyph-name="uni0443" unicode="&#x443;" horiz-adv-x="576" 
d="M66 -227l-42 138q48 9 80.5 19.5t53.5 28.5t33 47l25 58l-4 -67l-222 511h188l130 -337h-33l134 337h176l-228 -519q-27 -61 -57.5 -100t-66 -62t-77 -34.5t-90.5 -19.5z" />
    <glyph glyph-name="uni0444" unicode="&#x444;" horiz-adv-x="912" 
d="M368 -216v297h12q-18 -45 -55.5 -68.5t-87.5 -23.5q-57 0 -101.5 32.5t-69.5 92.5t-25 140q0 82 25 141.5t69.5 91.5t101.5 32q51 0 89 -24t54 -67h-12v308h176v-308h-11q16 43 53.5 67t88.5 24q58 0 102.5 -32t69.5 -91.5t25 -141.5q0 -80 -25 -140t-69.5 -92.5
t-102.5 -32.5q-50 0 -87.5 23.5t-54.5 68.5h11v-297h-176zM295 118q34 0 55 32.5t21 104.5t-21.5 104t-55.5 32q-35 0 -56 -32.5t-21 -103.5q0 -72 21.5 -104.5t56.5 -32.5zM618 118q35 0 56 32.5t21 104.5q0 71 -21.5 103.5t-55.5 32.5q-35 0 -55.5 -32t-20.5 -104
t20.5 -104.5t55.5 -32.5z" />
    <glyph glyph-name="uni0445" unicode="&#x445;" horiz-adv-x="583" 
d="M-26 0l246 300v-77l-232 285h208l126 -165h-64l127 165h207l-232 -286v80l247 -302h-210l-139 179h64l-140 -179h-208z" />
    <glyph glyph-name="uni0446" unicode="&#x446;" horiz-adv-x="665" 
d="M503 -130v130h-443v508h177v-374h153v374h176v-374h86v-264h-149z" />
    <glyph glyph-name="uni0447" unicode="&#x447;" horiz-adv-x="610" 
d="M377 0v160q-26 -9 -51.5 -13t-51.5 -4q-117 0 -175.5 56.5t-58.5 167.5v141h177v-125q0 -53 21 -76.5t72 -23.5q18 0 34 3.5t29 9.5v212h176v-508h-172z" />
    <glyph glyph-name="uni0448" unicode="&#x448;" horiz-adv-x="886" 
d="M60 0v508h165v-374h136v374h164v-374h136v374h165v-508h-766z" />
    <glyph glyph-name="uni0449" unicode="&#x449;" horiz-adv-x="924" 
d="M762 -130v130h-702v508h165v-374h136v374h164v-374h136v374h165v-374h85v-264h-149z" />
    <glyph glyph-name="uni044A" unicode="&#x44a;" horiz-adv-x="672" 
d="M149 0v371h-140v137h317v-155h109q106 0 159.5 -43.5t53.5 -128.5q0 -54 -26 -95t-73.5 -63.5t-113.5 -22.5h-286zM326 111h81q38 0 59.5 17t21.5 50q0 34 -20.5 49t-60.5 15h-81v-131z" />
    <glyph glyph-name="uni044B" unicode="&#x44b;" horiz-adv-x="843" 
d="M60 0v508h177v-155h110q106 0 159 -43.5t53 -128.5q0 -54 -26 -95t-73.5 -63.5t-112.5 -22.5h-287zM237 111h80q39 0 60.5 17t21.5 50q0 34 -20.5 49t-61.5 15h-80v-131zM606 0v508h176v-508h-176z" />
    <glyph glyph-name="uni044C" unicode="&#x44c;" horiz-adv-x="583" 
d="M60 0v508h177v-155h110q106 0 159 -43.5t53 -128.5q0 -54 -26 -95t-73.5 -63.5t-112.5 -22.5h-287zM237 111h80q39 0 60.5 17t21.5 50q0 34 -20.5 49t-61.5 15h-80v-131z" />
    <glyph glyph-name="uni044D" unicode="&#x44d;" horiz-adv-x="561" 
d="M231 -11q-60 0 -114.5 15t-88.5 44l47 108q29 -20 66 -32.5t74 -12.5q62 0 99.5 29.5t43.5 91.5l16 -32h-238v114h238l-16 -31q-5 39 -23.5 64.5t-48 38t-71.5 12.5q-37 0 -73.5 -12t-66.5 -32l-47 108q37 27 92 42t112 15q88 0 153 -31.5t100.5 -90.5t35.5 -142
t-36 -143t-101 -91.5t-153 -31.5z" />
    <glyph glyph-name="uni044E" unicode="&#x44e;" horiz-adv-x="890" 
d="M572 -11q-108 0 -179 53.5t-90 148.5h-70v-191h-173v508h173v-182h71q21 92 92 142.5t176 50.5q84 0 146.5 -31.5t96.5 -91t34 -142.5q0 -82 -34 -141.5t-96.5 -91.5t-146.5 -32zM572 119q45 0 72.5 32t27.5 103t-27.5 103t-72.5 32t-72.5 -32t-27.5 -103t27 -103t73 -32
z" />
    <glyph glyph-name="uni044F" unicode="&#x44f;" horiz-adv-x="595" 
d="M16 0l73 127q20 34 50.5 55t62.5 21h32v-14q-95 0 -144 40t-49 117q0 78 53.5 120t154.5 42h286v-508h-161v158h-34q-19 0 -35.5 -12.5t-28.5 -32.5l-63 -113h-197zM287 269h87v128h-87q-40 0 -60.5 -17t-20.5 -47t20.5 -47t60.5 -17z" />
    <glyph glyph-name="uni0450" unicode="&#x450;" horiz-adv-x="570" 
d="M332 -11q-138 0 -214.5 71t-76.5 195q0 77 32 137t90 93.5t136 33.5q77 0 128.5 -33.5t77.5 -92t26 -135.5v-38h-341v84h210l-17 -14q0 57 -21.5 84.5t-60.5 27.5q-45 0 -68.5 -33.5t-23.5 -100.5v-18q0 -67 33 -98t95 -31q40 0 75.5 9t67.5 29l46 -116q-38 -26 -88 -40
t-106 -14zM242 557l-154 205h167l101 -205h-114z" />
    <glyph glyph-name="uni0451" unicode="&#x451;" horiz-adv-x="570" 
d="M332 -11q-138 0 -214.5 71t-76.5 195q0 77 32 137t90 93.5t136 33.5q77 0 128.5 -33.5t77.5 -92t26 -135.5v-38h-341v84h210l-17 -14q0 57 -21.5 84.5t-60.5 27.5q-45 0 -68.5 -33.5t-23.5 -100.5v-18q0 -67 33 -98t95 -31q40 0 75.5 9t67.5 29l46 -116q-38 -26 -88 -40
t-106 -14zM328 582v150h149v-150h-149zM121 582v150h149v-150h-149z" />
    <glyph glyph-name="uni0452" unicode="&#x452;" horiz-adv-x="638" 
d="M361 -188l-56 127q40 11 61 26t28.5 38.5t7.5 61.5v206q0 46 -16.5 65.5t-49.5 19.5q-43 0 -68 -26t-25 -69v-261h-178v552h-87v122h87v62h178v-62h189v-122h-189v-157h-15q24 46 70 72t104 26q90 0 134 -52.5t44 -162.5v-212q0 -61 -19.5 -109.5t-67 -84.5t-132.5 -60z
" />
    <glyph glyph-name="uni0453" unicode="&#x453;" horiz-adv-x="493" 
d="M60 0v508h414v-137h-236v-371h-178zM191 557l101 205h167l-154 -205h-114z" />
    <glyph glyph-name="uni0454" unicode="&#x454;" horiz-adv-x="564" 
d="M330 -11q-88 0 -153 32t-100.5 91.5t-35.5 142.5t36 142t102 90.5t157 31.5q58 0 111.5 -15t86.5 -42l-47 -108q-30 20 -66.5 32t-73.5 12q-42 0 -72 -12.5t-47.5 -38t-23.5 -64.5l-15 31h238v-114h-238l15 32q7 -62 44 -91.5t99 -29.5q36 0 73.5 12t66.5 33l47 -108
q-34 -29 -89 -44t-115 -15z" />
    <glyph glyph-name="uni0455" unicode="&#x455;" horiz-adv-x="524" 
d="M259 -11q-71 0 -128.5 14.5t-97.5 39.5l43 116q39 -22 87.5 -36t96.5 -14q38 0 55.5 11.5t17.5 30.5q0 15 -11 24t-33 13l-108 19q-64 12 -99.5 47.5t-35.5 92.5q0 52 28 90.5t80 60t123 21.5q58 0 110.5 -13t91.5 -41l-46 -113q-31 21 -72.5 34.5t-77.5 13.5
q-43 0 -61 -12.5t-18 -30.5q0 -14 10 -23.5t32 -13.5l108 -19q66 -11 101.5 -45.5t35.5 -93.5q0 -55 -29.5 -93.5t-81.5 -59t-121 -20.5z" />
    <glyph glyph-name="uni0456" unicode="&#x456;" horiz-adv-x="306" 
d="M64 0v508h178v-508h-178zM60 580v160h187v-160h-187z" />
    <glyph glyph-name="uni0457" unicode="&#x457;" horiz-adv-x="306" 
d="M64 0v508h178v-508h-178zM182 582v150h149v-150h-149zM-25 582v150h149v-150h-149z" />
    <glyph glyph-name="uni0458" unicode="&#x458;" horiz-adv-x="306" 
d="M32 -225q-24 0 -48 3t-46 12v137q15 -5 28.5 -7t28.5 -2q29 0 48.5 16.5t19.5 59.5v514h178v-520q0 -105 -49.5 -159t-159.5 -54zM58 580v160h187v-160h-187z" />
    <glyph glyph-name="uni0459" unicode="&#x459;" horiz-adv-x="917" 
d="M64 -17l-50 139q30 8 51 22.5t34.5 38t19.5 58t6 80.5v187h446v-155h110q105 0 159 -43.5t54 -128.5q0 -54 -26 -95t-74 -63.5t-113 -22.5h-282v374h-114v-59q0 -98 -24 -168.5t-72.5 -111.5t-124.5 -52zM571 111h81q39 0 59.5 17t20.5 50q0 34 -20 49t-60 15h-81v-131z
" />
    <glyph glyph-name="uni045A" unicode="&#x45a;" horiz-adv-x="928" 
d="M60 0v508h177v-182h169v182h176v-155h110q106 0 159.5 -43.5t53.5 -128.5q0 -54 -26 -95t-74 -63.5t-113 -22.5h-286v191h-169v-191h-177zM582 111h81q39 0 60 17t21 50q0 34 -20 49t-61 15h-81v-131z" />
    <glyph glyph-name="uni045B" unicode="&#x45b;" horiz-adv-x="641" 
d="M64 0v552h-86v122h86v62h178v-62h189v-122h-189v-150h-15q25 48 71 73.5t105 25.5q90 0 133.5 -52.5t43.5 -161.5v-287h-178v279q0 46 -16.5 65.5t-49.5 19.5q-43 0 -68.5 -26t-25.5 -69v-269h-178z" />
    <glyph glyph-name="uni045C" unicode="&#x45c;" horiz-adv-x="609" 
d="M60 0v508h177v-182h52l126 182h188l-182 -263l-32 57q27 -3 49.5 -16.5t41.5 -34t32 -47.5l110 -204h-189l-78 147q-9 17 -18.5 26.5t-21.5 13.5t-28 4h-50v-191h-177zM275 557l101 205h167l-154 -205h-114z" />
    <glyph glyph-name="uni045D" unicode="&#x45d;" horiz-adv-x="638" 
d="M60 0v508h160v-328h-35l248 328h145v-508h-160v328h36l-249 -328h-145zM262 557l-154 205h167l101 -205h-114z" />
    <glyph glyph-name="uni045E" unicode="&#x45e;" horiz-adv-x="576" 
d="M66 -227l-42 138q48 9 80.5 19.5t53.5 28.5t33 47l25 58l-4 -67l-222 511h188l130 -337h-33l134 337h176l-228 -519q-27 -61 -57.5 -100t-66 -62t-77 -34.5t-90.5 -19.5zM285 551q-60 0 -102.5 19.5t-66.5 52.5t-31 74l83 27q16 -44 44 -63.5t74 -19.5q47 0 75 21t41 61
l80 -26q-14 -66 -65 -106t-132 -40z" />
    <glyph glyph-name="uni045F" unicode="&#x45f;" horiz-adv-x="639" 
d="M244 -130v130h-184v508h177v-374h166v374h176v-508h-185v-130h-150z" />
    <glyph glyph-name="uni0462" unicode="&#x462;" horiz-adv-x="787" 
d="M157 0v507h-177v127h177v71h174v-71h242v-127h-242v-77h176q117 0 185 -55.5t68 -159.5q0 -103 -68 -159t-185 -56h-350zM331 137h152q55 0 79 19.5t24 58.5q0 40 -24 59t-79 19h-152v-156z" />
    <glyph glyph-name="uni0463" unicode="&#x463;" horiz-adv-x="672" 
d="M149 0v396h-140v112h140v228h177v-228h173v-112h-173v-73h121q94 0 147.5 -40.5t53.5 -120.5t-54 -121t-147 -41h-298zM326 100h86q37 0 56.5 15.5t19.5 47.5q0 31 -19.5 45t-56.5 14h-86v-122z" />
    <glyph glyph-name="uni046A" unicode="&#x46a;" horiz-adv-x="1093" 
d="M-4 0l131 264q26 50 63.5 85t87.5 53t112 18h31l-8 -39l-285 324h838l-285 -324l-8 39h30q62 0 112 -18t88 -53t63 -85l131 -264h-197l-94 198q-18 38 -44 57t-78 19h-46v-274h-182v274h-46q-52 0 -78 -19t-44 -57l-95 -198h-197zM546 416h2l182 207v-38h-367v38z" />
    <glyph glyph-name="uni046B" unicode="&#x46b;" horiz-adv-x="898" 
d="M-13 0l108 185q26 44 51 70.5t59.5 38.5t85.5 12h52l-32 -51l-218 253h711l-217 -253l-33 51h53q52 0 86 -12.5t59.5 -39t49.5 -69.5l108 -185h-188l-77 126q-11 18 -20.5 27.5t-20.5 14t-27 4.5h-40v-172h-176v172h-41q-15 0 -26.5 -4.5t-21 -14t-19.5 -27.5l-78 -126
h-188zM448 269h2l147 179v-48h-297v48z" />
    <glyph glyph-name="uni0472" unicode="&#x472;" horiz-adv-x="804" 
d="M149 292v132h522v-132h-522zM46 353q0 110 43 191.5t123 126.5t189 45q110 0 190 -45t123.5 -126.5t43.5 -191.5q0 -109 -43.5 -191t-123.5 -127.5t-190 -45.5q-109 0 -188.5 45.5t-123 127.5t-43.5 191zM239 353q0 -99 40 -154.5t122 -55.5t123 55.5t41 154.5t-41 154
t-123 55t-122 -54.5t-40 -154.5z" />
    <glyph glyph-name="uni0473" unicode="&#x473;" horiz-adv-x="635" 
d="M318 -11q-85 0 -147 32t-96 91.5t-34 141.5q0 83 34 142t96 91t147 32q84 0 146 -32t96 -91.5t34 -141.5q0 -81 -34 -141t-96 -92t-146 -32zM317 121q57 0 85.5 34.5t28.5 98.5t-28.5 98.5t-85.5 34.5t-85 -34t-28 -99q0 -64 28 -98.5t85 -34.5zM156 200v109h324v-109
h-324z" />
    <glyph glyph-name="uni0474" unicode="&#x474;" horiz-adv-x="823" 
d="M292 0l-312 705h198l220 -536h-55l150 333q27 61 56 102t64.5 65.5t83.5 35.5t113 11l16 -147q-53 0 -84 -13.5t-53 -45t-49 -87.5l-199 -423h-149z" />
    <glyph glyph-name="uni0475" unicode="&#x475;" horiz-adv-x="616" 
d="M211 0l-221 508h186l132 -340h-36l82 204q23 57 52 89t75.5 45t119.5 13l15 -140q-49 1 -77.5 -16t-47.5 -60l-132 -303h-148z" />
    <glyph glyph-name="uni048A" unicode="&#x48a;" horiz-adv-x="802" 
d="M550 -174l59 174h-80v142h283l-109 -316h-153zM65 0v705h171v-447h-26l355 447h135v-705h-171v447h26l-355 -447h-135zM382 760q-65 0 -110 20t-70.5 54t-33.5 76l83 27q18 -47 49 -67t83 -20q53 0 84 22t45 64l81 -26q-15 -69 -70 -109.5t-141 -40.5z" />
    <glyph glyph-name="uni048B" unicode="&#x48b;" horiz-adv-x="675" 
d="M445 -130l45 130h-71v130h261l-89 -260h-146zM60 0v508h160v-328h-35l248 328h145v-508h-160v328h36l-249 -328h-145zM318 551q-60 0 -102.5 19.5t-66.5 52.5t-31 74l83 27q17 -44 44.5 -63.5t73.5 -19.5q47 0 75 21t41 61l80 -26q-14 -66 -65 -106t-132 -40z" />
    <glyph glyph-name="uni048C" unicode="&#x48c;" horiz-adv-x="774" 
d="M145 0v507h-145v127h145v71h174v-71h146v-127h-146v-77h175q117 0 185.5 -55.5t68.5 -159.5q0 -103 -68.5 -159t-185.5 -56h-349zM319 137h150q55 0 80.5 19.5t25.5 58.5q0 40 -25.5 59t-80.5 19h-150v-156z" />
    <glyph glyph-name="uni048D" unicode="&#x48d;" horiz-adv-x="672" 
d="M149 0v396h-140v112h140v228h177v-228h173v-112h-173v-73h121q94 0 147.5 -40.5t53.5 -120.5t-54 -121t-147 -41h-298zM326 100h86q37 0 56.5 15.5t19.5 47.5q0 31 -19.5 45t-56.5 14h-86v-122z" />
    <glyph glyph-name="uni048E" unicode="&#x48e;" horiz-adv-x="684" 
d="M65 0v705h347q122 0 183.5 -61t61.5 -170q0 -77 -34.5 -131t-99.5 -79l14 18l50 -71l-77 -52l-68 100l25 -11q-11 -2 -25.5 -3t-29.5 -1h-164v-244h-183zM248 384h134q7 0 16 0.5t15 1.5l-45 -18l-47 69l74 48l66 -93l-28 4q50 20 50 79q0 90 -112 90h-123v-181z" />
    <glyph glyph-name="uni048F" unicode="&#x48f;" horiz-adv-x="661" 
d="M64 -216v586q0 34 -2 69t-6 69h171l12 -90h-10q14 45 62 73t107 28q66 0 116 -31.5t78 -91t28 -142.5q0 -81 -27.5 -140t-75.5 -91l4 18l52 -64l-61 -46l-60 76l23 -4q-33 -14 -77 -14q-58 0 -105 26.5t-63 70.5h12v-302h-178zM340 387q-44 0 -72 -31.5t-28 -101.5
t28 -101.5t72 -31.5q23 1 39 8l-5 -22l-69 89l60 45l67 -85l-17 -1q26 34 26 99q0 70 -27.5 101.5t-73.5 31.5z" />
    <glyph glyph-name="uni0490" unicode="&#x490;" horiz-adv-x="592" 
d="M65 0v705h351v166h158v-314h-326v-557h-183z" />
    <glyph glyph-name="uni0491" unicode="&#x491;" horiz-adv-x="493" 
d="M60 0v508h264v110h150v-247h-237v-371h-177z" />
    <glyph glyph-name="uni0492" unicode="&#x492;" horiz-adv-x="643" 
d="M116 0v278h-95v127h95v300h509v-148h-326v-152h179v-127h-179v-278h-183z" />
    <glyph glyph-name="uni0493" unicode="&#x493;" horiz-adv-x="524" 
d="M91 0v161h-87v120h87v227h413v-136h-236v-91h139v-120h-139v-161h-177z" />
    <glyph glyph-name="uni0494" unicode="&#x494;" horiz-adv-x="752" 
d="M453 -191q-32 0 -61 3t-51 9v140q19 -5 40 -8.5t42 -3.5q46 0 73 30t27 84v78q0 84 -43.5 120.5t-119.5 36.5q-28 0 -57.5 -5.5t-54.5 -15.5v-277h-183v705h519v-148h-336v-128q22 9 59.5 15t75.5 6q154 0 238.5 -75t84.5 -228v-76q0 -83 -32.5 -142t-89.5 -89.5
t-131 -30.5z" />
    <glyph glyph-name="uni0495" unicode="&#x495;" horiz-adv-x="616" 
d="M366 -188l-57 127q40 11 61.5 26t29.5 38.5t8 61.5v42q0 47 -15 67.5t-57 20.5q-45 0 -72 -27t-27 -71v-97h-177v508h414v-120h-237v-164h-20q27 50 74.5 78t111.5 28q91 0 136 -53t45 -163v-49q0 -60 -19.5 -108.5t-66.5 -84.5t-132 -60z" />
    <glyph glyph-name="uni0496" unicode="&#x496;" horiz-adv-x="1119" 
d="M984 -174v174h-61v142h220v-316h-159zM-4 0l129 258q34 69 81.5 106.5t120.5 50.5l-72 -48l-223 338h200l187 -301l-27 18h67v283h175v-283h68l-27 -18l186 301h200l-222 -338l-73 48q73 -13 120.5 -50.5t81.5 -106.5l129 -258h-198l-93 198q-20 41 -48 58.5t-76 17.5
h-48v-274h-175v274h-48q-47 0 -75.5 -17.5t-48.5 -58.5l-94 -198h-197z" />
    <glyph glyph-name="uni0497" unicode="&#x497;" horiz-adv-x="953" 
d="M780 -130v130h-41v130h191v-260h-150zM-13 0l109 204q15 27 33 47.5t41 34t50 16.5l-33 -57l-182 263h188l127 -182h41v182h176v-182h41l126 182h189l-183 -263l-32 57q27 -3 49.5 -16.5t41 -34t33.5 -47.5l109 -204h-189l-78 147q-9 17 -19 26.5t-22 13.5t-28 4h-38
v-191h-176v191h-39q-16 0 -28 -4t-21.5 -13.5t-18.5 -26.5l-79 -147h-188z" />
    <glyph glyph-name="uni0498" unicode="&#x498;" horiz-adv-x="632" 
d="M241 -174v264h149v-264h-149zM302 -11q-90 0 -160 20.5t-123 56.5l53 133q40 -29 95 -45t120 -16q71 0 105 20t34 61q0 35 -25.5 52t-79.5 17h-176v140h157q53 0 78.5 16t25.5 51q0 32 -28 52t-89 20q-56 0 -109.5 -15.5t-93.5 -44.5l-53 133q48 35 120 55.5t156 20.5
q137 0 205.5 -54t68.5 -139q0 -63 -36.5 -106.5t-99.5 -59.5v16q74 -13 114.5 -58t40.5 -116q0 -62 -33 -109.5t-99.5 -74t-167.5 -26.5z" />
    <glyph glyph-name="uni0499" unicode="&#x499;" horiz-adv-x="556" 
d="M213 -130v203h137v-203h-137zM269 -11q-72 0 -135 14t-108 43l43 111q37 -22 90.5 -34.5t107.5 -12.5q52 0 77 11t25 35q0 21 -16 31.5t-51 10.5h-146v117h132q32 0 47 10t15 28q0 21 -21.5 33.5t-77.5 12.5q-52 0 -95 -11.5t-80 -29.5l-42 106q42 26 105.5 40.5
t140.5 14.5q108 0 168 -37.5t60 -106.5q0 -45 -30.5 -77.5t-83.5 -41.5v15q65 -5 99 -37.5t34 -89.5q0 -72 -68 -113.5t-190 -41.5z" />
    <glyph glyph-name="uni049A" unicode="&#x49a;" horiz-adv-x="778" 
d="M618 -174v174h-61v142h219v-316h-158zM65 0v705h183v-283h92l-28 -18l187 301h200l-223 -338l-73 48q74 -13 121.5 -50.5t81.5 -106.5l129 -258h-199l-92 198q-20 41 -48.5 58.5t-75.5 17.5h-72v-274h-183z" />
    <glyph glyph-name="uni049B" unicode="&#x49b;" horiz-adv-x="664" 
d="M491 -130v130h-42v130h192v-260h-150zM60 0v508h177v-182h52l126 182h188l-182 -263l-32 57q27 -3 49.5 -16.5t41.5 -34t32 -47.5l110 -204h-189l-78 147q-9 17 -18.5 26.5t-21.5 13.5t-28 4h-50v-191h-177z" />
    <glyph glyph-name="uni049C" unicode="&#x49c;" horiz-adv-x="809" 
d="M65 0v705h183v-283h49v160h99v-160h5l177 283h199l-222 -338l-73 48q73 -13 121 -50.5t82 -106.5l128 -258h-197l-94 198q-19 41 -47.5 60t-76.5 19h-21l19 12v-167h-99v155h-49v-277h-183z" />
    <glyph glyph-name="uni049D" unicode="&#x49d;" horiz-adv-x="714" 
d="M60 0v508h177v-182h46v109h100v-109h11l126 182h189l-182 -263l-33 57q26 -3 49 -16.5t41.5 -34t32.5 -47.5l109 -204h-187l-79 147q-9 17 -19 26.5t-21.5 13.5t-27.5 4h-19l10 16v-137h-100v121h-46v-191h-177z" />
    <glyph glyph-name="uni049E" unicode="&#x49e;" horiz-adv-x="809" 
d="M135 0v514h-146v119h146v72h182v-72h114v-119h-114v-92h123l-40 -37l207 320h200l-243 -356l-47 53q42 -11 82.5 -43t75.5 -101l128 -258h-198l-93 198q-19 41 -47.5 58.5t-76.5 17.5h-71v-274h-182z" />
    <glyph glyph-name="uni049F" unicode="&#x49f;" horiz-adv-x="612" 
d="M65 0v552h-87v122h87v62h178v-62h189v-122h-189v-232h55l117 164h189l-180 -252l-23 56q26 -3 45.5 -14.5t36 -31.5t33.5 -49l109 -193h-188l-78 142q-9 17 -19 26.5t-21.5 13.5t-27.5 4h-48v-186h-178z" />
    <glyph glyph-name="uni04A0" unicode="&#x4a0;" horiz-adv-x="879" 
d="M12 557v148h384v-148h-384zM214 0v705h182v-283h92l-28 -18l187 301h200l-223 -338l-72 48q73 -13 120.5 -50.5t82.5 -106.5l128 -258h-198l-93 198q-19 41 -48 58.5t-76 17.5h-72v-274h-182z" />
    <glyph glyph-name="uni04A1" unicode="&#x4a1;" horiz-adv-x="698" 
d="M149 0v371h-140v137h317v-182h52l126 182h189l-183 -263l-32 57q27 -3 49.5 -16.5t41 -34t33.5 -47.5l109 -204h-189l-78 147q-10 17 -19.5 26.5t-21.5 13.5t-28 4h-49v-191h-177z" />
    <glyph glyph-name="uni04A2" unicode="&#x4a2;" horiz-adv-x="837" 
d="M676 -174v174h-116v142h274v-316h-158zM65 0v705h185v-272h284v272h185v-705h-185v282h-284v-282h-185z" />
    <glyph glyph-name="uni04A3" unicode="&#x4a3;" horiz-adv-x="643" 
d="M519 -130v130h-101v130h250v-260h-149zM60 0v508h177v-182h169v182h176v-508h-176v191h-169v-191h-177z" />
    <glyph glyph-name="uni04A4" unicode="&#x4a4;" horiz-adv-x="960" 
d="M65 0v705h183v-273h285v273h414v-148h-232v-557h-182v283h-285v-283h-183z" />
    <glyph glyph-name="uni04A5" unicode="&#x4a5;" horiz-adv-x="799" 
d="M60 0v508h177v-182h168v182h374v-137h-198v-371h-176v191h-168v-191h-177z" />
    <glyph glyph-name="uni04A8" unicode="&#x4a8;" horiz-adv-x="903" 
d="M411 -11q-113 0 -195 43.5t-126 124t-44 189.5q0 117 44.5 199.5t127.5 126.5t197 44q18 0 34 -1.5t30 -4.5l-13 -138q-13 1 -24 1.5t-23 0.5q-90 0 -137.5 -57t-47.5 -165q0 -115 48.5 -173.5t148.5 -58.5q78 0 125.5 20t69.5 62t22 110q0 47 -17 73t-48 26
q-30 0 -47.5 -26t-17.5 -74q0 -68 21.5 -110.5t69 -61.5t125.5 -19q36 0 72.5 8.5t74.5 24.5l41 -122q-35 -21 -83 -31.5t-106 -10.5q-78 0 -146 25.5t-120 71t-81.5 105t-29.5 127.5q0 69 28 119.5t79.5 78.5t119.5 28q69 0 119.5 -28t79 -78.5t28.5 -119.5
q0 -68 -30.5 -128t-84.5 -105t-127 -70.5t-157 -25.5z" />
    <glyph glyph-name="uni04A9" unicode="&#x4a9;" horiz-adv-x="781" 
d="M357 -11q-152 0 -234 71t-82 197q0 82 35.5 140.5t98.5 90t148 31.5q22 0 42.5 -2t37.5 -8l-24 -118q-8 3 -19.5 4t-24.5 1q-56 0 -90 -36.5t-34 -102.5q0 -74 42.5 -113.5t123.5 -39.5q92 0 133 27t41 88q0 31 -14.5 48.5t-38.5 17.5q-23 0 -37.5 -17.5t-14.5 -48.5
q0 -42 17 -67.5t55 -36.5t101 -11q39 0 77.5 8.5t68.5 24.5l23 -119q-67 -29 -157 -29q-64 0 -121.5 18.5t-101.5 51.5t-70 76t-26 91q0 77 51.5 123t134.5 46q84 0 135 -46t51 -123q0 -49 -25.5 -92t-71 -75.5t-105 -51t-125.5 -18.5z" />
    <glyph glyph-name="uni04AA" unicode="&#x4aa;" horiz-adv-x="685" 
d="M342 -174v264h149v-264h-149zM419 -11q-115 0 -198.5 45t-129 127t-45.5 192t45.5 191.5t129 126.5t198.5 45q73 0 133 -19.5t101 -55.5l-55 -145q-46 33 -84.5 46.5t-87.5 13.5q-90 0 -138.5 -52.5t-48.5 -150.5q0 -99 48.5 -151.5t138.5 -52.5q49 0 87.5 13.5
t84.5 46.5l55 -145q-41 -36 -101 -55.5t-133 -19.5z" />
    <glyph glyph-name="uni04AB" unicode="&#x4ab;" horiz-adv-x="532" 
d="M241 -130v203h137v-203h-137zM321 -11q-84 0 -147 32t-98 91.5t-35 142.5t35 142t98 90.5t147 31.5q52 0 102 -14t81 -40l-50 -121q-24 20 -54.5 30.5t-59.5 10.5q-55 0 -85.5 -33t-30.5 -97t30.5 -97.5t85.5 -33.5q28 0 59 10.5t55 29.5l50 -121q-32 -25 -81.5 -39.5
t-101.5 -14.5z" />
    <glyph glyph-name="uni04AC" unicode="&#x4ac;" horiz-adv-x="638" 
d="M354 -175v175h-128v556h-214v149h613v-149h-214v-413h101v-318h-158z" />
    <glyph glyph-name="uni04AD" unicode="&#x4ad;" horiz-adv-x="519" 
d="M283 -130v130h-102v130h250v-260h-148zM171 0v371h-162v137h501v-137h-163v-371h-176z" />
    <glyph glyph-name="uni04AE" unicode="&#x4ae;" horiz-adv-x="656" 
d="M236 0v337l37 -102l-316 470h213l179 -283h-36l179 283h206l-314 -470l37 102v-337h-185z" />
    <glyph glyph-name="uni04AF" unicode="&#x4af;" horiz-adv-x="573" 
d="M196 -216v243l-208 481h185l133 -340h-35l137 340h174l-209 -474v-250h-177z" />
    <glyph glyph-name="uni04B0" unicode="&#x4b0;" horiz-adv-x="656" 
d="M236 0v337l37 -102l-316 470h213l179 -283h-36l179 283h206l-314 -470l37 102v-337h-185zM76 251v98h508v-98h-508z" />
    <glyph glyph-name="uni04B1" unicode="&#x4b1;" horiz-adv-x="573" 
d="M196 -209v147h-135v121h136v-33l-209 482h185l133 -340h-35l137 340h174l-210 -475v26h135v-121h-134v-147h-177z" />
    <glyph glyph-name="uni04B2" unicode="&#x4b2;" horiz-adv-x="741" 
d="M603 -174v174h-61v142h220v-316h-159zM-28 0l300 397v-83l-294 391h215l182 -257h-59l182 257h216l-295 -391v83l302 -397h-216l-189 263h59l-189 -263h-214z" />
    <glyph glyph-name="uni04B3" unicode="&#x4b3;" horiz-adv-x="646" 
d="M512 -130v130h-42v130h192v-260h-150zM-26 0l246 300v-77l-232 285h208l126 -165h-64l126 165h208l-232 -286v80l247 -302h-210l-139 179h64l-140 -179h-208z" />
    <glyph glyph-name="uni04B4" unicode="&#x4b4;" horiz-adv-x="990" 
d="M810 -175v175h-595v557h-203v148h556v-148h-171v-409h285v557h183v-557h103v-323h-158z" />
    <glyph glyph-name="uni04B5" unicode="&#x4b5;" horiz-adv-x="794" 
d="M632 -130v130h-483v371h-140v137h431v-137h-114v-237h193v374h176v-374h86v-264h-149z" />
    <glyph glyph-name="uni04B6" unicode="&#x4b6;" horiz-adv-x="790" 
d="M614 -174v174h-117v142h274v-316h-157zM488 0v249q-24 -9 -61.5 -15t-75.5 -6q-146 0 -225 74.5t-79 228.5v174h183v-168q0 -84 35.5 -120.5t108.5 -36.5q27 0 57.5 5t56.5 15v305h183v-705h-183z" />
    <glyph glyph-name="uni04B7" unicode="&#x4b7;" horiz-adv-x="610" 
d="M487 -130v130h-101v130h250v-260h-149zM377 0v160q-26 -9 -51.5 -13t-51.5 -4q-117 0 -175.5 56.5t-58.5 167.5v141h177v-125q0 -53 21 -76.5t72 -23.5q18 0 34 3.5t29 9.5v212h176v-508h-172z" />
    <glyph glyph-name="uni04B8" unicode="&#x4b8;" horiz-adv-x="736" 
d="M488 0v249q-22 -8 -49.5 -13.5t-51.5 -6.5l26 22v-151h-100v151l17 -23q-132 5 -207.5 78t-75.5 225v174h183v-168q0 -69 27 -109t86 -46l-30 -12v166h100v-166l-34 10q26 0 57 5.5t52 14.5v305h183v-705h-183z" />
    <glyph glyph-name="uni04B9" unicode="&#x4b9;" horiz-adv-x="664" 
d="M427 0v164q-20 -6 -41 -10.5t-39 -5.5l30 26v-116h-100v116l29 -28q-133 0 -199.5 56.5t-66.5 164.5v141h177v-128q0 -52 24 -73.5t70 -25.5l-34 -18v137h100v-137l-25 17q17 0 37 3t38 10v215h176v-508h-176z" />
    <glyph glyph-name="uni04BA" unicode="&#x4ba;" horiz-adv-x="736" 
d="M65 0v705h183v-248q25 9 62.5 15t74.5 6q147 0 226 -75t79 -229v-174h-183v168q0 84 -36 120.5t-109 36.5q-27 0 -57 -4.5t-57 -15.5v-305h-183z" />
    <glyph glyph-name="uni04BB" unicode="&#x4bb;" horiz-adv-x="641" 
d="M64 0v736h178v-317h-15q25 49 71 74.5t105 25.5q89 0 133 -53t44 -161v-305h-178v297q0 46 -16.5 66t-49.5 20q-43 0 -68.5 -27t-25.5 -71v-285h-178z" />
    <glyph glyph-name="uni04BC" unicode="&#x4bc;" horiz-adv-x="991" 
d="M624 -11q-171 0 -267 90t-104 248l34 -43h-62q-110 0 -164 54.5t-54 153.5v52h178v-50q0 -40 14.5 -56.5t46.5 -16.5h32l-25 -44q6 105 51 180.5t120 117t171 41.5q121 0 198.5 -47.5t114.5 -132.5t37 -197v-56h-548l41 67q0 -102 48.5 -154.5t160.5 -52.5q41 0 75 7
t65.5 20.5t65.5 33.5l60 -139q-37 -23 -80.5 -40.5t-94.5 -26.5t-114 -9zM602 570q-72 0 -116 -49t-48 -149l-41 50h409l-45 -70q0 74 -15 122t-49.5 72t-94.5 24z" />
    <glyph glyph-name="uni04BD" unicode="&#x4bd;" horiz-adv-x="711" 
d="M475 -11q-138 0 -215 71.5t-76 195.5l10 -36h-26q-88 0 -124 36.5t-36 109.5v33h135v-33q0 -33 11.5 -47.5t38.5 -14.5h19l-28 -30q4 72 37 127.5t89.5 86.5t131.5 31q77 0 128.5 -33.5t77.5 -92t26 -135.5v-38h-340l18 40q0 -75 29 -107t99 -32q40 0 75 9t68 29l46 -116
q-38 -26 -88 -40t-106 -14zM443 402q-29 0 -49.5 -14.5t-30.5 -43.5t-11 -73l-18 33h209l-17 -14q0 57 -21.5 84.5t-61.5 27.5z" />
    <glyph glyph-name="uni04BE" unicode="&#x4be;" horiz-adv-x="991" 
d="M624 -11q-171 0 -267 90t-104 248l34 -43h-62q-110 0 -164 54.5t-54 153.5v52h178v-50q0 -40 14.5 -56.5t46.5 -16.5h32l-25 -44q6 105 51 180.5t120 117t171 41.5q121 0 198.5 -47.5t114.5 -132.5t37 -197v-56h-548l41 67q0 -102 48.5 -154.5t160.5 -52.5q41 0 75 7
t65.5 20.5t65.5 33.5l60 -139q-37 -23 -80.5 -40.5t-94.5 -26.5t-114 -9zM602 570q-72 0 -116 -49t-48 -149l-41 50h409l-45 -70q0 74 -15 122t-49.5 72t-94.5 24zM707 -198q-63 0 -98 30t-35 81q0 46 30.5 82t79.5 53l48 -48q-18 -7 -30 -17.5t-17.5 -23t-5.5 -25.5
q0 -21 15.5 -33t37.5 -12q16 0 28.5 3t27.5 7l16 -80q-25 -9 -47 -13t-50 -4z" />
    <glyph glyph-name="uni04BF" unicode="&#x4bf;" horiz-adv-x="711" 
d="M475 -11q-138 0 -215 71.5t-76 195.5l10 -36h-26q-88 0 -124 36.5t-36 109.5v33h135v-33q0 -33 11.5 -47.5t38.5 -14.5h19l-28 -30q4 72 37 127.5t89.5 86.5t131.5 31q77 0 128.5 -33.5t77.5 -92t26 -135.5v-38h-340l18 40q0 -75 29 -107t99 -32q40 0 75 9t68 29l46 -116
q-38 -26 -88 -40t-106 -14zM443 402q-29 0 -49.5 -14.5t-30.5 -43.5t-11 -73l-18 33h209l-17 -14q0 57 -21.5 84.5t-61.5 27.5zM533 -198q-63 0 -98 30t-35 81q0 46 30.5 82t79.5 53l48 -48q-18 -7 -30 -17.5t-17.5 -23t-5.5 -25.5q0 -21 15.5 -33t37.5 -12q16 0 28.5 3
t27.5 7l16 -80q-25 -9 -47 -13t-50 -4z" />
    <glyph glyph-name="uni04C0" unicode="&#x4c0;" horiz-adv-x="315" 
d="M65 0v705h185v-705h-185z" />
    <glyph glyph-name="uni04C1" unicode="&#x4c1;" horiz-adv-x="1092" 
d="M-4 0l129 258q34 69 81.5 106.5t120.5 50.5l-72 -48l-223 338h200l187 -301l-27 18h67v283h175v-283h68l-27 -18l186 301h200l-222 -338l-73 48q73 -13 120.5 -50.5t81.5 -106.5l129 -258h-198l-93 198q-20 41 -48 58.5t-76 17.5h-48v-274h-175v274h-48
q-47 0 -75.5 -17.5t-48.5 -58.5l-94 -198h-197zM545 760q-65 0 -110.5 20t-70.5 54t-33 76l83 27q18 -47 49 -67t83 -20q53 0 84 22t45 64l81 -26q-15 -69 -70 -109.5t-141 -40.5z" />
    <glyph glyph-name="uni04C2" unicode="&#x4c2;" horiz-adv-x="898" 
d="M-13 0l109 204q15 27 33 47.5t41 34t50 16.5l-33 -57l-182 263h188l127 -182h41v182h176v-182h41l126 182h189l-183 -263l-32 57q27 -3 49.5 -16.5t41 -34t33.5 -47.5l109 -204h-189l-78 147q-9 17 -19 26.5t-22 13.5t-28 4h-38v-191h-176v191h-39q-16 0 -28 -4
t-21.5 -13.5t-18.5 -26.5l-79 -147h-188zM448 551q-60 0 -102.5 19.5t-66.5 52.5t-31 74l83 27q16 -44 44 -63.5t74 -19.5q47 0 75 21t41 61l80 -26q-14 -66 -65 -106t-132 -40z" />
    <glyph glyph-name="uni04C3" unicode="&#x4c3;" horiz-adv-x="752" 
d="M453 -191q-32 0 -61 3t-51 9v140q19 -5 40 -8.5t42 -3.5q46 0 73 30t27 83v60q0 84 -44 123t-122 39h-109v-284h-183v705h183v-273h114l-38 -28l187 301h200l-223 -338l-31 58q117 -16 183 -88.5t66 -208.5v-58q0 -83 -32.5 -141.5t-89.5 -89t-131 -30.5z" />
    <glyph glyph-name="uni04C4" unicode="&#x4c4;" horiz-adv-x="616" 
d="M362 -188l-56 127q40 11 61 26t29 38.5t8 61.5v22q0 55 -27 79.5t-77 24.5h-63v-191h-177v508h177v-182h52l126 182h188l-182 -263l-81 74q115 0 178 -59t63 -165v-30q0 -61 -19.5 -109t-66.5 -84t-133 -60z" />
    <glyph glyph-name="uni04C5" unicode="&#x4c5;" horiz-adv-x="821" 
d="M567 -174l59 174h-80v142h283l-109 -316h-153zM102 -19l-92 130q43 24 73.5 56t49.5 75.5t28.5 103.5t9.5 140v219h548v-705h-183v557h-196v-116q0 -91 -16.5 -164t-47 -130t-74.5 -98t-100 -68z" />
    <glyph glyph-name="uni04C6" unicode="&#x4c6;" horiz-adv-x="672" 
d="M437 -130l44 130h-70v130h260l-89 -260h-145zM64 -17l-50 139q30 8 51 22.5t34.5 38t19.5 58t6 80.5v187h450v-508h-176v374h-114v-59q0 -98 -24 -168.5t-72.5 -111.5t-124.5 -52z" />
    <glyph glyph-name="uni04C7" unicode="&#x4c7;" horiz-adv-x="784" 
d="M485 -187q-19 0 -46 2t-54 8v141q20 -4 38.5 -5.5t30.5 -1.5q45 0 62.5 25t17.5 80v220h-284v-282h-185v705h185v-273h284v273h185v-642q0 -84 -23.5 -140t-74.5 -83t-136 -27z" />
    <glyph glyph-name="uni04C8" unicode="&#x4c8;" horiz-adv-x="642" 
d="M305 -193l-12 125l51 5q33 3 47.5 19t14.5 47v188h-169v-191h-177v508h177v-182h169v182h176v-480q0 -73 -21.5 -119t-72 -69.5t-137.5 -29.5z" />
    <glyph glyph-name="uni04C9" unicode="&#x4c9;" horiz-adv-x="821" 
d="M580 -174l60 174h-80v142h282l-108 -316h-154zM65 0v705h185v-272h284v272h185v-705h-185v282h-284v-282h-185z" />
    <glyph glyph-name="uni04CA" unicode="&#x4ca;" horiz-adv-x="676" 
d="M444 -130l44 130h-70v130h261l-90 -260h-145zM60 0v508h177v-182h169v182h176v-508h-176v191h-169v-191h-177z" />
    <glyph glyph-name="uni04CB" unicode="&#x4cb;" horiz-adv-x="736" 
d="M551 -174h-160v316h217v-142h-57v-174zM488 0v249q-24 -9 -61.5 -15t-75.5 -6q-146 0 -225 74.5t-79 228.5v174h183v-168q0 -84 35.5 -120.5t108.5 -36.5q27 0 57.5 5t56.5 15v305h183v-705h-183z" />
    <glyph glyph-name="uni04CC" unicode="&#x4cc;" horiz-adv-x="648" 
d="M443 -130h-150v222h241v-92h-91v-130zM377 0v160q-26 -9 -51.5 -13t-51.5 -4q-117 0 -175.5 56.5t-58.5 167.5v141h177v-125q0 -53 21 -76.5t72 -23.5q18 0 34 3.5t29 9.5v212h176v-508h-172z" />
    <glyph glyph-name="uni04CD" unicode="&#x4cd;" horiz-adv-x="921" 
d="M696 -174l60 174h-80v142h282l-108 -316h-154zM68 0v705h160l231 -517h-33l230 517h161v-705h-167v432h43l-200 -432h-104l-201 432h46v-432h-166z" />
    <glyph glyph-name="uni04CE" unicode="&#x4ce;" horiz-adv-x="765" 
d="M539 -130l44 130h-70v130h260l-89 -260h-145zM60 0v508h147l157 -260l156 260h148v-508h-156v308h25l-133 -225h-80l-133 225h25v-308h-156z" />
    <glyph glyph-name="uni04CF" unicode="&#x4cf;" horiz-adv-x="306" 
d="M64 0v736h178v-736h-178z" />
    <glyph glyph-name="uni04D0" unicode="&#x4d0;" horiz-adv-x="769" 
d="M-22 0l330 705h150l332 -705h-185l-85 194l71 -51h-414l70 51l-84 -194h-185zM382 515l-117 -279l-28 47h293l-25 -47l-118 279h-5zM388 760q-65 0 -110.5 20t-70.5 54t-33 76l83 27q18 -47 49 -67t83 -20q53 0 84 22t45 64l81 -26q-15 -69 -70 -109.5t-141 -40.5z" />
    <glyph glyph-name="uni04D1" unicode="&#x4d1;" horiz-adv-x="661" 
d="M264 -11q-66 0 -116 31.5t-78.5 91.5t-28.5 142q0 83 28.5 142.5t78.5 91t116 31.5q59 0 106.5 -28t62.5 -73h-10l11 90h171q-3 -34 -5.5 -69t-2.5 -69v-370h-176l-2 86h12q-15 -44 -62.5 -70.5t-104.5 -26.5zM321 121q45 0 73 31.5t28 101.5t-28 101.5t-73 31.5
t-73 -31.5t-28 -101.5t27.5 -101.5t73.5 -31.5zM324 551q-60 0 -102.5 19.5t-66.5 52.5t-31 74l83 27q16 -44 44 -63.5t74 -19.5q47 0 75 21t41 61l80 -26q-14 -66 -65 -106t-132 -40z" />
    <glyph glyph-name="uni04D2" unicode="&#x4d2;" horiz-adv-x="769" 
d="M-22 0l330 705h150l332 -705h-185l-85 194l71 -51h-414l70 51l-84 -194h-185zM382 515l-117 -279l-28 47h293l-25 -47l-118 279h-5zM418 771v149h149v-149h-149zM211 771v149h149v-149h-149z" />
    <glyph glyph-name="uni04D3" unicode="&#x4d3;" horiz-adv-x="661" 
d="M264 -11q-66 0 -116 31.5t-78.5 91.5t-28.5 142q0 83 28.5 142.5t78.5 91t116 31.5q59 0 106.5 -28t62.5 -73h-10l11 90h171q-3 -34 -5.5 -69t-2.5 -69v-370h-176l-2 86h12q-15 -44 -62.5 -70.5t-104.5 -26.5zM321 121q45 0 73 31.5t28 101.5t-28 101.5t-73 31.5
t-73 -31.5t-28 -101.5t27.5 -101.5t73.5 -31.5zM354 582v150h149v-150h-149zM147 582v150h149v-150h-149z" />
    <glyph glyph-name="uni04D4" unicode="&#x4d4;" horiz-adv-x="1030" 
d="M-42 0l451 705h588v-141h-350l25 19l15 -205l-18 51h306v-142h-308l26 10l14 -189l-22 34h312v-142h-446l-14 191l31 -48h-350l51 47l-116 -190h-195zM495 563l-196 -323l-11 44h259l-12 -51l-25 330h-15z" />
    <glyph glyph-name="uni04D5" unicode="&#x4d5;" horiz-adv-x="878" 
d="M232 -11q-61 0 -105 23.5t-67 62t-23 81.5q0 55 26 88.5t87 49t165 15.5h49v-84h-52q-42 0 -69 -7.5t-39.5 -21.5t-12.5 -34q0 -24 17.5 -40t50.5 -16q26 0 47 11.5t33 32.5t12 49v122q0 36 -20.5 51.5t-64.5 15.5q-42 0 -80.5 -9.5t-82.5 -31.5l-46 118q40 24 99 39
t120 15q69 0 118.5 -20t74.5 -64h-39q38 43 81 63.5t99 20.5q106 0 167.5 -67.5t61.5 -189.5v-37h-334v84h203l-17 -18q0 56 -22 83.5t-59 27.5q-44 0 -68 -32t-24 -100v-9q0 -74 30.5 -107.5t94.5 -33.5q39 0 76 9t69 31l46 -116q-38 -28 -90 -41.5t-108 -13.5
q-87 0 -145.5 31.5t-88.5 91.5h29q-21 -58 -72 -90.5t-127 -32.5z" />
    <glyph glyph-name="uni04D6" unicode="&#x4d6;" horiz-adv-x="603" 
d="M65 0v705h506v-141h-329v-135h305v-142h-305v-145h329v-142h-506zM341 760q-65 0 -110.5 20t-70.5 54t-33 76l83 27q18 -47 49 -67t83 -20q53 0 84 22t45 64l81 -26q-15 -69 -70 -109.5t-141 -40.5z" />
    <glyph glyph-name="uni04D7" unicode="&#x4d7;" horiz-adv-x="570" 
d="M332 -11q-138 0 -214.5 71t-76.5 195q0 77 32 137t90 93.5t136 33.5q77 0 128.5 -33.5t77.5 -92t26 -135.5v-38h-341v84h210l-17 -14q0 57 -21.5 84.5t-60.5 27.5q-45 0 -68.5 -33.5t-23.5 -100.5v-18q0 -67 33 -98t95 -31q40 0 75.5 9t67.5 29l46 -116q-38 -26 -88 -40
t-106 -14zM297 551q-60 0 -102.5 19.5t-66.5 52.5t-31 74l83 27q16 -44 44 -63.5t74 -19.5q47 0 75 21t41 61l80 -26q-14 -66 -65 -106t-132 -40z" />
    <glyph glyph-name="uni04D8" unicode="&#x4d8;" horiz-adv-x="785" 
d="M396 -11q-121 0 -198.5 47.5t-114.5 133t-37 196.5v56h548v-139h-409l45 70q0 -74 15 -122t50 -71.5t93 -23.5q77 0 121.5 54t44.5 163q0 103 -49 156t-160 53q-40 0 -74.5 -6.5t-66.5 -20t-66 -34.5l-60 139q56 35 126 55.5t165 20.5q118 0 200.5 -43.5t125.5 -125.5
t43 -195q0 -110 -43.5 -192t-121 -126.5t-177.5 -44.5z" />
    <glyph glyph-name="uni04D9" unicode="&#x4d9;" horiz-adv-x="570" 
d="M272 -11q-110 0 -171 65.5t-61 179.5v50h341v-84h-211l17 18q0 -56 22 -84t61 -28q45 0 68 31.5t23 86.5v26q0 74 -33 105.5t-103 31.5q-34 0 -67.5 -8.5t-66.5 -29.5l-38 121q38 25 89 37t113 12q84 0 146 -32t95.5 -91.5t33.5 -141.5q0 -78 -32 -137.5t-90 -93.5
t-136 -34z" />
    <glyph glyph-name="uni04DA" unicode="&#x4da;" horiz-adv-x="785" 
d="M396 -11q-121 0 -198.5 47.5t-114.5 133t-37 196.5v56h548v-139h-409l45 70q0 -74 15 -122t50 -71.5t93 -23.5q77 0 121.5 54t44.5 163q0 103 -49 156t-160 53q-40 0 -74.5 -6.5t-66.5 -20t-66 -34.5l-60 139q56 35 126 55.5t165 20.5q118 0 200.5 -43.5t125.5 -125.5
t43 -195q0 -110 -43.5 -192t-121 -126.5t-177.5 -44.5zM425 771v149h149v-149h-149zM218 771v149h149v-149h-149z" />
    <glyph glyph-name="uni04DB" unicode="&#x4db;" horiz-adv-x="570" 
d="M272 -11q-110 0 -171 65.5t-61 179.5v50h341v-84h-211l17 18q0 -56 22 -84t61 -28q45 0 68 31.5t23 86.5v26q0 74 -33 105.5t-103 31.5q-34 0 -67.5 -8.5t-66.5 -29.5l-38 121q38 25 89 37t113 12q84 0 146 -32t95.5 -91.5t33.5 -141.5q0 -78 -32 -137.5t-90 -93.5
t-136 -34zM313 582v150h149v-150h-149zM106 582v150h149v-150h-149z" />
    <glyph glyph-name="uni04DC" unicode="&#x4dc;" horiz-adv-x="1092" 
d="M-4 0l129 258q34 69 81.5 106.5t120.5 50.5l-72 -48l-223 338h200l187 -301l-27 18h67v283h175v-283h68l-27 -18l186 301h200l-222 -338l-73 48q73 -13 120.5 -50.5t81.5 -106.5l129 -258h-198l-93 198q-20 41 -48 58.5t-76 17.5h-48v-274h-175v274h-48
q-47 0 -75.5 -17.5t-48.5 -58.5l-94 -198h-197zM575 771v149h149v-149h-149zM368 771v149h149v-149h-149z" />
    <glyph glyph-name="uni04DD" unicode="&#x4dd;" horiz-adv-x="898" 
d="M-13 0l109 204q15 27 33 47.5t41 34t50 16.5l-33 -57l-182 263h188l127 -182h41v182h176v-182h41l126 182h189l-183 -263l-32 57q27 -3 49.5 -16.5t41 -34t33.5 -47.5l109 -204h-189l-78 147q-9 17 -19 26.5t-22 13.5t-28 4h-38v-191h-176v191h-39q-16 0 -28 -4
t-21.5 -13.5t-18.5 -26.5l-79 -147h-188zM478 582v150h149v-150h-149zM271 582v150h149v-150h-149z" />
    <glyph glyph-name="uni04DE" unicode="&#x4de;" horiz-adv-x="632" 
d="M302 -11q-90 0 -160 20.5t-123 56.5l53 133q40 -29 95 -45t120 -16q71 0 105 20t34 61q0 35 -25.5 52t-79.5 17h-176v140h157q53 0 78.5 16t25.5 51q0 32 -28 52t-89 20q-56 0 -109.5 -15.5t-93.5 -44.5l-53 133q48 35 120 55.5t156 20.5q137 0 205.5 -54t68.5 -139
q0 -63 -36.5 -106.5t-99.5 -59.5v16q74 -13 114.5 -58t40.5 -116q0 -62 -33 -109.5t-99.5 -74t-167.5 -26.5zM337 771v149h149v-149h-149zM130 771v149h149v-149h-149z" />
    <glyph glyph-name="uni04DF" unicode="&#x4df;" horiz-adv-x="556" 
d="M269 -11q-72 0 -135 14t-108 43l43 111q37 -22 90.5 -34.5t107.5 -12.5q52 0 77 11t25 35q0 21 -16 31.5t-51 10.5h-146v117h132q32 0 47 10t15 28q0 21 -21.5 33.5t-77.5 12.5q-52 0 -95 -11.5t-80 -29.5l-42 106q42 26 105.5 40.5t140.5 14.5q108 0 168 -37.5
t60 -106.5q0 -45 -30.5 -77.5t-83.5 -41.5v15q65 -5 99 -37.5t34 -89.5q0 -72 -68 -113.5t-190 -41.5zM301 590v150h149v-150h-149zM94 590v150h149v-150h-149z" />
    <glyph glyph-name="uni04E0" unicode="&#x4e0;" horiz-adv-x="632" 
d="M302 -11q-90 0 -160 20.5t-123 56.5l53 133q40 -29 95.5 -45t119.5 -16q71 0 105 19.5t34 57.5t-27.5 55.5t-95.5 17.5h-133v107l227 201v-39h-362v148h533v-126l-229 -202l-36 44h57q117 0 179.5 -55.5t62.5 -146.5q0 -108 -74 -169t-226 -61z" />
    <glyph glyph-name="uni04E1" unicode="&#x4e1;" horiz-adv-x="553" 
d="M242 -191q-74 0 -135.5 15t-106.5 45l48 121q35 -23 80 -35.5t93 -12.5q66 0 99 22.5t33 67.5q0 44 -33.5 66t-101.5 22h-94v82l218 212v-36h-314v130h466v-116l-198 -190l-59 32h57q110 0 171.5 -50.5t61.5 -140.5q0 -71 -35 -123.5t-99 -81.5t-151 -29z" />
    <glyph glyph-name="uni04E2" unicode="&#x4e2;" horiz-adv-x="765" 
d="M65 0v705h171v-447h-26l355 447h135v-705h-171v447h26l-355 -447h-135zM199 796v97h368v-97h-368z" />
    <glyph glyph-name="uni04E3" unicode="&#x4e3;" horiz-adv-x="638" 
d="M60 0v508h160v-328h-35l248 328h145v-508h-160v328h36l-249 -328h-145zM150 605v97h338v-97h-338z" />
    <glyph glyph-name="uni04E4" unicode="&#x4e4;" horiz-adv-x="765" 
d="M65 0v705h171v-447h-26l355 447h135v-705h-171v447h26l-355 -447h-135zM412 771v149h149v-149h-149zM205 771v149h149v-149h-149z" />
    <glyph glyph-name="uni04E5" unicode="&#x4e5;" horiz-adv-x="638" 
d="M60 0v508h160v-328h-35l248 328h145v-508h-160v328h36l-249 -328h-145zM348 582v150h149v-150h-149zM141 582v150h149v-150h-149z" />
    <glyph glyph-name="uni04E6" unicode="&#x4e6;" horiz-adv-x="804" 
d="M46 353q0 110 43 191.5t123 126.5t189 45q110 0 190 -45t123.5 -126.5t43.5 -191.5q0 -109 -43.5 -191t-123.5 -127.5t-190 -45.5q-109 0 -188.5 45.5t-123 127.5t-43.5 191zM239 353q0 -99 40 -154.5t122 -55.5t123 55.5t41 154.5t-41 154t-123 55t-122 -54.5
t-40 -154.5zM440 771v149h149v-149h-149zM233 771v149h149v-149h-149z" />
    <glyph glyph-name="uni04E7" unicode="&#x4e7;" horiz-adv-x="635" 
d="M318 -11q-85 0 -147 32t-96 91.5t-34 141.5q0 83 34 142t96 91t147 32q84 0 146 -32t96 -91.5t34 -141.5q0 -81 -34 -141t-96 -92t-146 -32zM318 121q44 0 70 31.5t26 101.5t-26 101.5t-70 31.5q-45 0 -71 -31.5t-26 -101.5t26 -101.5t71 -31.5zM347 582v150h149v-150
h-149zM140 582v150h149v-150h-149z" />
    <glyph glyph-name="uni04E8" unicode="&#x4e8;" horiz-adv-x="804" 
d="M149 292v132h522v-132h-522zM46 353q0 110 43 191.5t123 126.5t189 45q110 0 190 -45t123.5 -126.5t43.5 -191.5q0 -109 -43.5 -191t-123.5 -127.5t-190 -45.5q-109 0 -188.5 45.5t-123 127.5t-43.5 191zM239 353q0 -99 40 -154.5t122 -55.5t123 55.5t41 154.5t-41 154
t-123 55t-122 -54.5t-40 -154.5z" />
    <glyph glyph-name="uni04E9" unicode="&#x4e9;" horiz-adv-x="635" 
d="M318 -11q-85 0 -147 32t-96 91.5t-34 141.5q0 83 34 142t96 91t147 32q84 0 146 -32t96 -91.5t34 -141.5q0 -81 -34 -141t-96 -92t-146 -32zM317 121q57 0 85.5 34.5t28.5 98.5t-28.5 98.5t-85.5 34.5t-85 -34t-28 -99q0 -64 28 -98.5t85 -34.5zM156 200v109h324v-109
h-324z" />
    <glyph glyph-name="uni04EA" unicode="&#x4ea;" horiz-adv-x="804" 
d="M149 292v132h522v-132h-522zM46 353q0 110 43 191.5t123 126.5t189 45q110 0 190 -45t123.5 -126.5t43.5 -191.5q0 -109 -43.5 -191t-123.5 -127.5t-190 -45.5q-109 0 -188.5 45.5t-123 127.5t-43.5 191zM239 353q0 -99 40 -154.5t122 -55.5t123 55.5t41 154.5t-41 154
t-123 55t-122 -54.5t-40 -154.5zM438 771v149h149v-149h-149zM231 771v149h149v-149h-149z" />
    <glyph glyph-name="uni04EB" unicode="&#x4eb;" horiz-adv-x="635" 
d="M318 -11q-85 0 -147 32t-96 91.5t-34 141.5q0 83 34 142t96 91t147 32q84 0 146 -32t96 -91.5t34 -141.5q0 -81 -34 -141t-96 -92t-146 -32zM317 121q57 0 85.5 34.5t28.5 98.5t-28.5 98.5t-85.5 34.5t-85 -34t-28 -99q0 -64 28 -98.5t85 -34.5zM156 200v109h324v-109
h-324zM347 582v150h149v-150h-149zM140 582v150h149v-150h-149z" />
    <glyph glyph-name="uni04EC" unicode="&#x4ec;" horiz-adv-x="705" 
d="M278 -11q-73 0 -139 21.5t-107 57.5l54 144q46 -33 91 -48.5t95 -15.5q87 0 139 45.5t58 140.5l46 -45h-342v140h339l-44 -46q-7 85 -57 129.5t-132 44.5q-50 0 -95.5 -14.5t-97.5 -49.5l-54 144q46 36 113.5 57.5t139.5 21.5q115 0 199 -45t129.5 -126.5t45.5 -191.5
t-45.5 -192t-131 -127t-204.5 -45zM351 771v149h149v-149h-149zM144 771v149h149v-149h-149z" />
    <glyph glyph-name="uni04ED" unicode="&#x4ed;" horiz-adv-x="561" 
d="M231 -11q-60 0 -114.5 15t-88.5 44l47 108q29 -20 66 -32.5t74 -12.5q62 0 99.5 29.5t43.5 91.5l16 -32h-238v114h238l-16 -31q-5 39 -23.5 64.5t-48 38t-71.5 12.5q-37 0 -73.5 -12t-66.5 -32l-47 108q37 27 92 42t112 15q88 0 153 -31.5t100.5 -90.5t35.5 -142
t-36 -143t-101 -91.5t-153 -31.5zM283 582v150h149v-150h-149zM76 582v150h149v-150h-149z" />
    <glyph glyph-name="uni04EE" unicode="&#x4ee;" horiz-adv-x="699" 
d="M164 0l127 243l2 -51l-322 513h195l217 -355h-34l184 355h190l-369 -705h-190zM169 796v97h368v-97h-368z" />
    <glyph glyph-name="uni04EF" unicode="&#x4ef;" horiz-adv-x="572" 
d="M65 -227l-42 138q48 9 80.5 19.5t53.5 28.5t33 47l25 58l-4 -67l-222 511h188l130 -337h-33l134 337h176l-228 -519q-27 -61 -57.5 -100t-66 -62t-77 -34.5t-90.5 -19.5zM93 605v97h338v-97h-338z" />
    <glyph glyph-name="uni04F0" unicode="&#x4f0;" horiz-adv-x="699" 
d="M164 0l127 243l2 -51l-322 513h195l217 -355h-34l184 355h190l-369 -705h-190zM382 771v149h149v-149h-149zM175 771v149h149v-149h-149z" />
    <glyph glyph-name="uni04F1" unicode="&#x4f1;" horiz-adv-x="572" 
d="M65 -227l-42 138q48 9 80.5 19.5t53.5 28.5t33 47l25 58l-4 -67l-222 511h188l130 -337h-33l134 337h176l-228 -519q-27 -61 -57.5 -100t-66 -62t-77 -34.5t-90.5 -19.5zM291 582v150h149v-150h-149zM84 582v150h149v-150h-149z" />
    <glyph glyph-name="uni04F2" unicode="&#x4f2;" horiz-adv-x="699" 
d="M164 0l127 243l2 -51l-322 513h195l217 -355h-34l184 355h190l-369 -705h-190zM218 765l85 176h150l-136 -176h-99zM389 765l101 176h150l-152 -176h-99z" />
    <glyph glyph-name="uni04F3" unicode="&#x4f3;" horiz-adv-x="572" 
d="M65 -227l-42 138q48 9 80.5 19.5t53.5 28.5t33 47l25 58l-4 -67l-222 511h188l130 -337h-33l134 337h176l-228 -519q-27 -61 -57.5 -100t-66 -62t-77 -34.5t-90.5 -19.5zM301 557l44 205h141l-94 -205h-91zM127 557l44 205h141l-94 -205h-91z" />
    <glyph glyph-name="uni04F4" unicode="&#x4f4;" horiz-adv-x="736" 
d="M488 0v249q-24 -9 -61.5 -15t-75.5 -6q-146 0 -225 74.5t-79 228.5v174h183v-168q0 -84 35.5 -120.5t108.5 -36.5q27 0 57.5 5t56.5 15v305h183v-705h-183zM382 771v149h149v-149h-149zM175 771v149h149v-149h-149z" />
    <glyph glyph-name="uni04F5" unicode="&#x4f5;" horiz-adv-x="610" 
d="M377 0v160q-26 -9 -51.5 -13t-51.5 -4q-117 0 -175.5 56.5t-58.5 167.5v141h177v-125q0 -53 21 -76.5t72 -23.5q18 0 34 3.5t29 9.5v212h176v-508h-172zM325 582v150h149v-150h-149zM118 582v150h149v-150h-149z" />
    <glyph glyph-name="uni04F6" unicode="&#x4f6;" horiz-adv-x="592" 
d="M195 -174v174h-116v142h274v-316h-158zM65 0v705h509v-148h-326v-557h-183z" />
    <glyph glyph-name="uni04F7" unicode="&#x4f7;" horiz-adv-x="494" 
d="M174 -130v130h-101v130h250v-260h-149zM60 0v508h414v-137h-236v-371h-178z" />
    <glyph glyph-name="uni04F8" unicode="&#x4f8;" horiz-adv-x="975" 
d="M65 0v705h183v-275h145q118 0 185.5 -55.5t67.5 -159.5q0 -103 -67.5 -159t-185.5 -56h-328zM248 137h120q55 0 79.5 19.5t24.5 58.5q0 40 -24.5 59t-79.5 19h-120v-156zM727 0v705h183v-705h-183zM516 771v149h149v-149h-149zM309 771v149h149v-149h-149z" />
    <glyph glyph-name="uni04F9" unicode="&#x4f9;" horiz-adv-x="843" 
d="M60 0v508h177v-155h110q106 0 159 -43.5t53 -128.5q0 -54 -26 -95t-73.5 -63.5t-112.5 -22.5h-287zM237 111h80q39 0 60.5 17t21.5 50q0 34 -20.5 49t-61.5 15h-80v-131zM606 0v508h176v-508h-176zM451 582v150h149v-150h-149zM244 582v150h149v-150h-149z" />
    <glyph glyph-name="uni04FA" unicode="&#x4fa;" horiz-adv-x="643" 
d="M89 -188l-12 116l63 6q48 4 71.5 21t23.5 45h-119v278h-95v127h95v300h509v-148h-326v-152h179v-127h-179v-136h102v-106q0 -104 -55 -157.5t-174 -60.5z" />
    <glyph glyph-name="uni04FB" unicode="&#x4fb;" horiz-adv-x="524" 
d="M80 -188l-12 117l71 6q32 2 44 20t12 45h-104v178h-87v113h87v217h413v-136h-236v-81h139v-113h-139v-84h84v-58q0 -104 -50.5 -158t-139.5 -60z" />
    <glyph glyph-name="uni04FC" unicode="&#x4fc;" horiz-adv-x="693" 
d="M402 -189l-2 142q41 5 60 18t19 39q0 17 -11 37.5t-31 47.5l-121 168h59l-189 -263h-214l300 397v-83l-294 391h215l182 -257h-59l182 257h216l-295 -391v83l174 -228q41 -54 57.5 -95.5t16.5 -78.5q0 -77 -64 -124.5t-201 -59.5z" />
    <glyph glyph-name="uni04FD" unicode="&#x4fd;" horiz-adv-x="583" 
d="M335 -189l-25 121q47 3 66 14.5t19 34.5q0 15 -9.5 32t-30.5 43l-96 124h59l-141 -180h-203l245 300v-77l-231 285h205l126 -166h-60l126 166h205l-233 -285v78l144 -175q27 -33 43 -57.5t22.5 -46t6.5 -46.5q0 -45 -23.5 -79.5t-75.5 -56.5t-139 -29z" />
    <glyph glyph-name="uni04FE" unicode="&#x4fe;" horiz-adv-x="693" 
d="M-28 0l300 397v-83l-294 391h215l182 -257h-59l182 257h216l-295 -391v83l302 -397h-216l-189 263h59l-189 -263h-214zM93 315v98h508v-98h-508z" />
    <glyph glyph-name="uni04FF" unicode="&#x4ff;" horiz-adv-x="583" 
d="M-26 0l246 300v-77l-232 285h208l126 -165h-64l127 165h207l-232 -286v80l247 -302h-210l-139 179h64l-140 -179h-208zM36 209v98h508v-98h-508z" />
    <glyph glyph-name="uni0510" unicode="&#x510;" horiz-adv-x="632" 
d="M330 -11q-101 0 -168 26.5t-100 74t-33 109.5q0 71 40.5 116t115.5 58v-16q-64 16 -100.5 59.5t-36.5 106.5q0 57 32.5 100.5t95.5 68t153 24.5q85 0 153.5 -20.5t115.5 -55.5l-53 -133q-39 29 -92.5 44.5t-109.5 15.5q-61 0 -89 -20t-28 -52q0 -35 25 -51t78 -16h158
v-140h-176q-54 0 -79.5 -17t-25.5 -52q0 -41 33.5 -61t104.5 -20q66 0 121 16t95 45l53 -133q-53 -36 -123.5 -56.5t-159.5 -20.5z" />
    <glyph glyph-name="uni0511" unicode="&#x511;" horiz-adv-x="556" 
d="M288 -11q-123 0 -191 41.5t-68 113.5q0 57 34.5 89t98.5 38l-1 -15q-52 9 -82.5 41t-30.5 78q0 69 65 106.5t177 37.5q67 0 128.5 -14.5t104.5 -40.5l-43 -108q-35 19 -78.5 30t-94.5 11q-55 0 -77.5 -11.5t-22.5 -32.5q0 -18 15 -28t46 -10h132v-117h-146
q-34 0 -50 -10.5t-16 -30.5q0 -25 24.5 -36t76.5 -11q54 0 108 12.5t90 34.5l43 -111q-43 -29 -106.5 -43t-135.5 -14z" />
    <glyph glyph-name="uni0512" unicode="&#x512;" horiz-adv-x="784" 
d="M485 -187q-18 0 -45 2t-54 8v141q20 -4 38.5 -5.5t29.5 -1.5q45 0 63.5 24.5t18.5 80.5v495h-196v-116q0 -91 -16.5 -164t-47 -130t-74.5 -98t-100 -68l-92 130q43 24 73.5 56t49.5 75.5t28.5 103.5t9.5 140v219h548v-642q0 -84 -23 -140t-74.5 -83t-136.5 -27z" />
    <glyph glyph-name="uni0513" unicode="&#x513;" horiz-adv-x="635" 
d="M298 -193l-12 125l51 5q33 3 47.5 19t14.5 47v371h-114v-59q0 -98 -24 -168.5t-72.5 -111.5t-124.5 -52l-50 139q30 8 51 22.5t34.5 38t19.5 58t6 80.5v187h450v-480q0 -73 -21.5 -119t-72 -69.5t-137.5 -29.5z" />
    <glyph glyph-name="uni051A" unicode="&#x51a;" horiz-adv-x="804" 
d="M589 -193q-35 18 -69.5 46.5t-63.5 65.5t-49 76l140 65q24 -51 69.5 -93.5t95.5 -68.5zM46 353q0 110 43 191.5t123 126.5t189 45q110 0 190 -45t123.5 -126.5t43.5 -191.5q0 -109 -43.5 -191t-123.5 -127.5t-190 -45.5q-109 0 -188.5 45.5t-123 127.5t-43.5 191z
M239 353q0 -99 40 -154.5t122 -55.5t123 55.5t41 154.5t-41 154t-123 55t-122 -54.5t-40 -154.5z" />
    <glyph glyph-name="uni051B" unicode="&#x51b;" horiz-adv-x="661" 
d="M419 -216v302h12q-15 -44 -62.5 -70.5t-104.5 -26.5q-66 0 -116 31.5t-78.5 91.5t-28.5 142q0 83 28.5 142.5t78.5 91t116 31.5q59 0 106.5 -28t62.5 -73h-10l11 90h171q-3 -34 -5.5 -69t-2.5 -69v-586h-178zM321 121q45 0 73 31.5t28 101.5t-28 101.5t-73 31.5
t-73 -31.5t-28 -101.5t27.5 -101.5t73.5 -31.5z" />
    <glyph glyph-name="uni051C" unicode="&#x51c;" horiz-adv-x="1131" 
d="M266 0l-252 705h190l165 -510h-46l184 510h132l166 -510h-44l178 510h178l-253 -705h-148l-160 459h23l-164 -459h-149z" />
    <glyph glyph-name="uni051D" unicode="&#x51d;" horiz-adv-x="917" 
d="M211 0l-211 508h181l126 -334h-25l124 334h113l125 -334h-21l124 334h170l-209 -508h-149l-137 345h68l-130 -345h-149z" />
    <glyph glyph-name="uni0524" unicode="&#x524;" horiz-adv-x="834" 
d="M659 -174v174h-117v142h274v-316h-157zM65 0v705h650v-705h-182v557h-285v-557h-183z" />
    <glyph glyph-name="uni0525" unicode="&#x525;" horiz-adv-x="640" 
d="M514 -130v130h-101v130h250v-260h-149zM60 0v508h519v-508h-176v374h-166v-374h-177z" />
    <glyph glyph-name="uni0526" unicode="&#x526;" horiz-adv-x="790" 
d="M633 -174v174h-116v142h274v-316h-158zM65 0v705h183v-248q25 9 62.5 15t74.5 6q147 0 226 -75t79 -229v-174h-183v168q0 84 -36 120.5t-109 36.5q-27 0 -57 -4.5t-57 -15.5v-305h-183z" />
    <glyph glyph-name="uni0527" unicode="&#x527;" horiz-adv-x="671" 
d="M515 -130v130h-101v130h250v-260h-149zM64 0v736h178v-317h-15q25 49 71 74.5t105 25.5q89 0 133 -53t44 -161v-305h-178v297q0 46 -16.5 66t-49.5 20q-43 0 -68.5 -27t-25.5 -71v-285h-178z" />
    <glyph glyph-name="uni0528" unicode="&#x528;" horiz-adv-x="784" 
d="M15 -187q-18 0 -45 2t-54 8v141q19 -4 38 -5.5t30 -1.5q45 0 63 25t18 80v643h184v-273h287v273h183v-705h-183v283h-287v-220q0 -84 -23 -140t-74.5 -83t-136.5 -27z" />
    <glyph glyph-name="uni0529" unicode="&#x529;" horiz-adv-x="642" 
d="M-40 -193l-13 125l51 5q33 3 47.5 19t14.5 47v505h177v-182h169v182h176v-508h-176v191h-169v-163q0 -73 -21.5 -119t-72 -69.5t-138.5 -29.5z" />
    <glyph glyph-name="uni052E" unicode="&#x52e;" horiz-adv-x="838" 
d="M663 -174v174h-117v142h274v-316h-157zM102 -19l-92 130q43 24 73.5 56t49.5 75.5t28.5 103.5t9.5 140v219h548v-705h-183v557h-196v-116q0 -91 -16.5 -164t-47 -130t-74.5 -98t-100 -68z" />
    <glyph glyph-name="uni052F" unicode="&#x52f;" horiz-adv-x="636" 
d="M512 -130v130h-101v130h250v-260h-149zM64 -17l-50 139q30 8 51 22.5t34.5 38t19.5 58t6 80.5v187h450v-508h-176v374h-114v-59q0 -98 -24 -168.5t-72.5 -111.5t-124.5 -52z" />
    <glyph glyph-name="uni1E08" unicode="&#x1e08;" horiz-adv-x="685" 
d="M419 -11q-115 0 -198.5 45t-129 127t-45.5 192t45.5 191.5t129 126.5t198.5 45q73 0 133 -19.5t101 -55.5l-55 -145q-46 33 -84.5 46.5t-87.5 13.5q-90 0 -138.5 -52.5t-48.5 -150.5q0 -99 48.5 -151.5t138.5 -52.5q49 0 87.5 13.5t84.5 46.5l55 -145q-41 -36 -101 -55.5
t-133 -19.5zM404 -198q-33 0 -64 5.5t-54 17.5l24 70q17 -8 36.5 -12.5t38.5 -4.5q26 0 37.5 5t11.5 16q0 18 -36 18q-8 0 -16 -1t-19 -3l-21 21l12 86h85l-12 -77l-41 17q11 5 23.5 7t22.5 2q47 0 73 -20t26 -56q0 -42 -35.5 -66.5t-91.5 -24.5zM345 765l118 176h178
l-174 -176h-122z" />
    <glyph glyph-name="uni1E09" unicode="&#x1e09;" horiz-adv-x="514" 
d="M312 -11q-84 0 -147 32t-98 91.5t-35 142.5t35 142t98 90.5t147 31.5q52 0 102 -14t81 -40l-50 -121q-24 20 -54.5 30.5t-59.5 10.5q-55 0 -85.5 -33t-30.5 -97t30.5 -97.5t85.5 -33.5q28 0 59 10.5t55 29.5l50 -121q-32 -25 -81.5 -39.5t-101.5 -14.5zM298 -198
q-33 0 -64 5.5t-54 17.5l24 70q17 -8 36.5 -12.5t38.5 -4.5q26 0 37.5 5t11.5 16q0 18 -36 18q-8 0 -16 -1t-19 -3l-21 21l12 86h85l-12 -77l-41 17q11 5 23.5 7t22.5 2q47 0 73 -20t26 -56q0 -42 -35.5 -66.5t-91.5 -24.5zM243 557l101 205h167l-154 -205h-114z" />
    <glyph glyph-name="uni1E0C" unicode="&#x1e0c;" horiz-adv-x="781" 
d="M65 0v705h284q125 0 211 -42.5t130.5 -121t44.5 -188.5q0 -109 -44.5 -188t-130.5 -122t-211 -43h-284zM250 150h87q109 0 161.5 50t52.5 153q0 104 -52.5 153.5t-161.5 49.5h-87v-406zM318 -224v149h160v-149h-160z" />
    <glyph glyph-name="uni1E0D" unicode="&#x1e0d;" horiz-adv-x="644" 
d="M257 -11q-65 0 -116 31.5t-80 91.5t-29 142q0 83 28.5 142.5t80 91t116.5 31.5q58 0 105 -26.5t63 -70.5h-15v314h178v-736h-175v91h13q-14 -46 -61.5 -74t-107.5 -28zM314 121q44 0 72.5 31.5t28.5 101.5t-28.5 101.5t-72.5 31.5q-45 0 -73.5 -31.5t-28.5 -101.5
t28.5 -101.5t73.5 -31.5zM243 -224v149h160v-149h-160z" />
    <glyph glyph-name="uni1E0E" unicode="&#x1e0e;" horiz-adv-x="781" 
d="M65 0v705h284q125 0 211 -42.5t130.5 -121t44.5 -188.5q0 -109 -44.5 -188t-130.5 -122t-211 -43h-284zM250 150h87q109 0 161.5 50t52.5 153q0 104 -52.5 153.5t-161.5 49.5h-87v-406zM229 -175v97h338v-97h-338z" />
    <glyph glyph-name="uni1E0F" unicode="&#x1e0f;" horiz-adv-x="644" 
d="M257 -11q-65 0 -116 31.5t-80 91.5t-29 142q0 83 28.5 142.5t80 91t116.5 31.5q58 0 105 -26.5t63 -70.5h-15v314h178v-736h-175v91h13q-14 -46 -61.5 -74t-107.5 -28zM314 121q44 0 72.5 31.5t28.5 101.5t-28.5 101.5t-72.5 31.5q-45 0 -73.5 -31.5t-28.5 -101.5
t28.5 -101.5t73.5 -31.5zM154 -175v97h338v-97h-338z" />
    <glyph glyph-name="uni1E14" unicode="&#x1e14;" horiz-adv-x="603" 
d="M65 0v705h506v-141h-329v-135h305v-142h-305v-145h329v-142h-506zM287 908l-114 121h161l57 -121h-104zM170 774v97h338v-97h-338z" />
    <glyph glyph-name="uni1E15" unicode="&#x1e15;" horiz-adv-x="552" 
d="M323 -11q-138 0 -214.5 71t-76.5 195q0 77 32 137t90 93.5t136 33.5q77 0 128.5 -33.5t77.5 -92t26 -135.5v-38h-341v84h210l-17 -14q0 57 -21.5 84.5t-60.5 27.5q-45 0 -68.5 -33.5t-23.5 -100.5v-18q0 -67 33 -98t95 -31q40 0 75.5 9t67.5 29l46 -116q-38 -26 -88 -40
t-106 -14zM121 561v97h338v-97h-338zM238 695l-114 121h161l57 -121h-104z" />
    <glyph glyph-name="uni1E16" unicode="&#x1e16;" horiz-adv-x="603" 
d="M65 0v705h506v-141h-329v-135h305v-142h-305v-145h329v-142h-506zM170 774v97h338v-97h-338zM287 908l57 121h161l-114 -121h-104z" />
    <glyph glyph-name="uni1E17" unicode="&#x1e17;" horiz-adv-x="552" 
d="M323 -11q-138 0 -214.5 71t-76.5 195q0 77 32 137t90 93.5t136 33.5q77 0 128.5 -33.5t77.5 -92t26 -135.5v-38h-341v84h210l-17 -14q0 57 -21.5 84.5t-60.5 27.5q-45 0 -68.5 -33.5t-23.5 -100.5v-18q0 -67 33 -98t95 -31q40 0 75.5 9t67.5 29l46 -116q-38 -26 -88 -40
t-106 -14zM121 561v97h338v-97h-338zM238 695l57 121h161l-114 -121h-104z" />
    <glyph glyph-name="uni1E1C" unicode="&#x1e1c;" horiz-adv-x="603" 
d="M65 0v705h506v-141h-329v-135h305v-142h-305v-145h329v-142h-506zM337 -198q-33 0 -64 5.5t-54 17.5l24 70q17 -8 36.5 -12.5t38.5 -4.5q26 0 37.5 5t11.5 16q0 18 -36 18q-8 0 -16 -1t-19 -3l-21 21l12 86h85l-12 -77l-41 17q11 5 23.5 7t22.5 2q47 0 73 -20t26 -56
q0 -42 -35.5 -66.5t-91.5 -24.5zM339 760q-86 0 -140 46.5t-59 125.5l95 12q5 -39 31.5 -62t71.5 -23t73 23t32 62l95 -12q-5 -79 -58.5 -125.5t-140.5 -46.5z" />
    <glyph glyph-name="uni1E1D" unicode="&#x1e1d;" horiz-adv-x="552" 
d="M323 -11q-138 0 -214.5 71t-76.5 195q0 77 32 137t90 93.5t136 33.5q77 0 128.5 -33.5t77.5 -92t26 -135.5v-38h-341v84h210l-17 -14q0 57 -21.5 84.5t-60.5 27.5q-45 0 -68.5 -33.5t-23.5 -100.5v-18q0 -67 33 -98t95 -31q40 0 75.5 9t67.5 29l46 -116q-38 -26 -88 -40
t-106 -14zM297 -198q-33 0 -64 5.5t-54 17.5l24 70q17 -8 36.5 -12.5t38.5 -4.5q26 0 37.5 5t11.5 16q0 18 -36 18q-8 0 -16 -1t-19 -3l-21 21l12 86h85l-12 -77l-41 17q11 5 23.5 7t22.5 2q47 0 73 -20t26 -56q0 -42 -35.5 -66.5t-91.5 -24.5zM290 553q-53 0 -93.5 24.5
t-63 69t-23.5 103.5l95 9q4 -51 26 -78t59 -27q38 0 59.5 27t25.5 78l95 -9q0 -59 -23 -103.5t-63.5 -69t-93.5 -24.5z" />
    <glyph glyph-name="uni1E20" unicode="&#x1e20;" horiz-adv-x="750" 
d="M425 -11q-123 0 -207.5 45t-128 126t-43.5 189q0 112 47.5 194.5t136.5 127.5t214 45q77 0 136.5 -18t102.5 -52l-57 -141q-31 21 -58.5 32.5t-56 16.5t-65.5 5q-104 0 -155.5 -53.5t-51.5 -156.5q0 -102 47 -154t149 -52q31 0 67.5 6t74.5 18l-33 -66v168h-146v128h297
v-353q-57 -27 -127.5 -41t-142.5 -14zM237 796v97h368v-97h-368z" />
    <glyph glyph-name="uni1E21" unicode="&#x1e21;" horiz-adv-x="644" 
d="M304 -224q-76 0 -133.5 13.5t-103.5 41.5l31 126q27 -16 59 -27t66.5 -16.5t65.5 -5.5q64 0 95 29.5t31 83.5v89h10q-16 -44 -63 -70.5t-104 -26.5q-68 0 -118.5 30.5t-79 87.5t-28.5 135t28.5 135t79 87.5t118.5 30.5q59 0 104 -26t61 -69l-8 2l11 82h171q-4 -34 -6 -69
t-2 -69v-329q0 -128 -73 -196.5t-212 -68.5zM313 145q46 0 73 31t27 90q0 60 -27 90.5t-73 30.5q-47 0 -74 -30.5t-27 -90.5q0 -59 27 -90t74 -31zM157 605v97h338v-97h-338z" />
    </font>
</defs>
</svg>
