<?xml version="1.0" standalone="no"?>
<!DOCTYPE svg PUBLIC "-//W3C//DTD SVG 1.1//EN" "http://www.w3.org/Graphics/SVG/1.1/DTD/svg11.dtd" >
<svg xmlns="http://www.w3.org/2000/svg" xmlns:xlink="http://www.w3.org/1999/xlink" version="1.1">
<metadata>
Created by FontForge 20201107 at Thu Sep 30 21:20:51 2021
 By 
Copyright 2016 The Mulish Project Authors (https://github.com/googlefonts/mulish)
</metadata>
<defs>
<font id="Mulish-ExtraBold" horiz-adv-x="0" >
  <font-face 
    font-family="Mulish ExtraBold"
    font-weight="800"
    font-stretch="normal"
    units-per-em="1000"
    panose-1="0 0 0 0 0 0 0 0 0 0"
    ascent="800"
    descent="-200"
    x-height="507"
    cap-height="705"
    bbox="-277 -284 1341 1055"
    underline-thickness="44"
    underline-position="-107"
    unicode-range="U+000D-FB02"
  />
<missing-glyph horiz-adv-x="500" 
 />
    <glyph glyph-name="fi" unicode="fi" horiz-adv-x="658" 
d="M100 0v394h-96v113h139l-43 -39v73q0 99 50.5 149t148.5 50q24 0 50 -3t46 -12v-116q-13 5 -31 7.5t-35 2.5q-35 0 -57 -19t-22 -65v-53l-21 25h368v-507h-151v394h-195v-394h-151zM440 590v141h162v-141h-162z" />
    <glyph glyph-name="fl" unicode="fl" horiz-adv-x="659" 
d="M100 0v394h-96v113h139l-43 -39v73q0 99 51.5 149t154.5 50q23 0 49.5 -3t46.5 -12v-116q-14 5 -32 7.5t-35 2.5q-23 0 -42.5 -8t-31 -26.5t-11.5 -49.5v-53l-21 25h149v-113h-127v-394h-151zM448 0v736h151v-736h-151z" />
    <glyph glyph-name=".notdef" horiz-adv-x="500" 
 />
    <glyph glyph-name="uni0000" 
 />
    <glyph glyph-name="uni0000" 
 />
    <glyph glyph-name="nonmarkingreturn" horiz-adv-x="333" 
 />
    <glyph glyph-name="CR" unicode="&#xd;" horiz-adv-x="282" 
 />
    <glyph glyph-name="space" unicode=" " horiz-adv-x="282" 
 />
    <glyph glyph-name="exclam" unicode="!" horiz-adv-x="260" 
d="M84 223l-47 482h186l-48 -482h-91zM49 0v160h162v-160h-162z" />
    <glyph glyph-name="quotedbl" unicode="&#x22;" horiz-adv-x="481" 
d="M77 407l-36 298h174l-36 -298h-102zM302 407l-36 298h174l-36 -298h-102z" />
    <glyph glyph-name="numbersign" unicode="#" horiz-adv-x="600" 
d="M73 0l33 166h-65v93h82l40 195h-99v94h118l32 157h101l-32 -157h111l33 157h100l-32 -157h64v-94h-83l-40 -195h101v-93h-119l-33 -166h-101l33 166h-110l-32 -166h-102zM225 259h110l40 195h-111z" />
    <glyph glyph-name="dollar" unicode="$" horiz-adv-x="600" 
d="M250 -115v133l27 -24q-74 2 -139 22t-111 55l44 122q46 -33 104 -52t122 -19q69 0 99 22.5t30 54.5q0 27 -21 44t-73 29l-110 24q-92 20 -137 68.5t-45 126.5q0 60 29.5 107t82 76t123.5 35l-25 -16v127h119v-127l-25 18q59 -4 115 -23.5t92 -55.5l-44 -114
q-37 32 -86 48.5t-106 16.5q-60 0 -93.5 -24t-33.5 -62q0 -28 20.5 -45.5t70.5 -28.5l109 -24q95 -20 141.5 -67t46.5 -122q0 -59 -29 -104.5t-80 -73.5t-119 -36l21 23v-134h-119z" />
    <glyph glyph-name="percent" unicode="%" horiz-adv-x="958" 
d="M336 0h-128l414 705h128zM220 285q-87 0 -136 58.5t-49 157.5q0 100 49.5 157.5t135.5 57.5q87 0 136 -58.5t49 -156.5q0 -99 -49 -157.5t-136 -58.5zM220 378q30 0 46.5 29t16.5 94q0 66 -16.5 93t-46.5 27q-31 0 -47 -26.5t-16 -93.5t16 -95t47 -28zM738 -11
q-87 0 -136 59t-49 158q0 100 49.5 157t135.5 57q88 0 136.5 -58t48.5 -156q0 -99 -48.5 -158t-136.5 -59zM738 84q31 0 47.5 28.5t16.5 93.5q0 66 -16.5 93.5t-47.5 27.5q-30 0 -46.5 -27t-16.5 -94t16.5 -94.5t46.5 -27.5z" />
    <glyph glyph-name="ampersand" unicode="&#x26;" horiz-adv-x="698" 
d="M662 -11q-46 13 -89.5 39t-81.5 58l32 -1q-48 -44 -109 -70t-128 -26q-80 0 -138.5 25t-90 69t-31.5 103q0 68 40 116t107 86l35 18l-23 -28q-41 39 -62 79.5t-21 83.5q0 52 26.5 91.5t73.5 61.5t111 22q83 0 134.5 -43.5t51.5 -117.5q0 -39 -15.5 -73t-48.5 -63.5
t-85 -56.5l4 29l164 -164h-31q26 41 40 93t17 109h125q-4 -82 -28 -155.5t-65 -130.5l-1 34q28 -28 62 -48t73 -32zM295 105q44 0 79 16t64 47l-3 -33l-206 201l63 -1l-28 -14q-29 -17 -49 -35.5t-30 -40.5t-10 -49q0 -42 31.5 -66.5t88.5 -24.5zM313 616q-34 0 -54 -19.5
t-20 -52.5q0 -17 6.5 -33t21.5 -33.5t38 -42.5l-34 -1q58 28 84.5 54t26.5 61q0 33 -19 50t-50 17z" />
    <glyph glyph-name="quotesingle" unicode="'" horiz-adv-x="256" 
d="M77 407l-36 298h174l-36 -298h-102z" />
    <glyph glyph-name="parenleft" unicode="(" horiz-adv-x="378" 
d="M239 -180q-51 73 -81.5 144t-44 144.5t-13.5 154.5q0 82 13.5 155t44 144t81.5 143h119q-52 -117 -77.5 -225t-25.5 -217q0 -108 25.5 -216.5t77.5 -226.5h-119z" />
    <glyph glyph-name="parenright" unicode=")" horiz-adv-x="378" 
d="M140 -180h-120q52 117 77.5 226t25.5 217t-25.5 216.5t-77.5 225.5h120q51 -72 81.5 -143t43.5 -144.5t13 -154.5t-13 -155t-43.5 -145t-81.5 -143z" />
    <glyph glyph-name="asterisk" unicode="*" horiz-adv-x="459" 
d="M153 340l-84 61l90 110l-138 37l33 98l131 -52l-8 142h105l-8 -141l131 51l32 -98l-137 -36l90 -111l-84 -61l-76 120z" />
    <glyph glyph-name="plus" unicode="+" horiz-adv-x="600" 
d="M247 39v196h-192v104h192v190h107v-190h191v-104h-191v-196h-107z" />
    <glyph glyph-name="comma" unicode="," horiz-adv-x="260" 
d="M121 -144l-59 47q35 35 50 66t15 67l32 -36h-110v160h162v-103q0 -57 -20 -104t-70 -97z" />
    <glyph glyph-name="hyphen" unicode="-" horiz-adv-x="444" 
d="M64 217v118h315v-118h-315z" />
    <glyph glyph-name="period" unicode="." horiz-adv-x="260" 
d="M49 0v160h162v-160h-162z" />
    <glyph glyph-name="slash" unicode="/" horiz-adv-x="334" 
d="M96 -61h-122l264 816h122z" />
    <glyph glyph-name="zero" unicode="0" horiz-adv-x="600" 
d="M300 -11q-127 0 -195.5 95.5t-68.5 269.5q0 177 68.5 269.5t195.5 92.5q128 0 196 -92.5t68 -268.5q0 -175 -68 -270.5t-196 -95.5zM300 115q58 0 86.5 57.5t28.5 182.5t-28.5 180t-86.5 55t-86.5 -55t-28.5 -179q0 -126 29 -183.5t86 -57.5z" />
    <glyph glyph-name="one" unicode="1" horiz-adv-x="600" 
d="M101 0v128h160v447h73l-216 -126v146l188 110h111v-577h150v-128h-466z" />
    <glyph glyph-name="two" unicode="2" horiz-adv-x="600" 
d="M73 0v115l224 233q42 44 61 78t19 70q0 45 -29 68t-83 23q-45 0 -88.5 -16.5t-85.5 -50.5l-49 114q44 38 109 60t135 22q118 0 181 -52.5t63 -149.5q0 -65 -30 -124t-97 -125l-180 -177v40h334v-128h-484z" />
    <glyph glyph-name="three" unicode="3" horiz-adv-x="600" 
d="M285 -11q-74 0 -142.5 21t-110.5 58l49 116q45 -33 95 -49.5t103 -16.5q62 0 93 23t31 68q0 42 -29.5 63.5t-87.5 21.5h-118v123h104q50 0 80 23.5t30 64.5q0 40 -28 61t-81 21q-101 0 -180 -67l-50 114q45 39 109.5 60.5t135.5 21.5q114 0 178.5 -50.5t64.5 -140.5
q0 -62 -35 -106.5t-96 -59.5v13q72 -12 112 -59t40 -118q0 -96 -71.5 -151t-195.5 -55z" />
    <glyph glyph-name="four" unicode="4" horiz-adv-x="600" 
d="M338 0v129h-302v108l326 468h126v-459h96v-117h-96v-129h-150zM338 246v275h25l-215 -311v36h190z" />
    <glyph glyph-name="five" unicode="5" horiz-adv-x="600" 
d="M300 -11q-47 0 -93 10t-86 27.5t-67 41.5l49 116q45 -32 94 -49t100 -17q58 0 90.5 27.5t32.5 75.5t-31 77t-85 29q-38 0 -70.5 -14t-58.5 -43h-100v435h450v-127h-303v-191h-36q25 31 66 48t92 17q68 0 118.5 -28.5t78.5 -79t28 -118.5q0 -70 -32.5 -123.5t-93 -83.5
t-143.5 -30z" />
    <glyph glyph-name="six" unicode="6" horiz-adv-x="600" 
d="M326 -11q-136 0 -210 93t-74 261q0 118 38 201.5t108.5 127.5t169.5 44q57 0 113.5 -19.5t98.5 -56.5l-50 -115q-37 31 -79 46.5t-85 15.5q-82 0 -125 -54t-43 -161v-65h-13q8 48 33 81.5t64 51.5t86 18q60 0 107.5 -29.5t74.5 -81t27 -117.5q0 -70 -31 -124.5
t-84.5 -85.5t-125.5 -31zM318 110q32 0 56 14t37 40t13 60t-13 59.5t-37 40t-56 14.5t-56 -14.5t-37.5 -40t-13.5 -59.5t13.5 -60t37.5 -40t56 -14z" />
    <glyph glyph-name="seven" unicode="7" horiz-adv-x="600" 
d="M70 0l339 625v-50h-362v130h507v-116l-313 -589h-171z" />
    <glyph glyph-name="eight" unicode="8" horiz-adv-x="600" 
d="M300 -11q-126 0 -197.5 54t-71.5 149q0 75 45 124t116 58v-26q-64 14 -103.5 61.5t-39.5 114.5q0 90 67.5 141t183.5 51q117 0 184 -51t67 -141q0 -68 -37.5 -116t-99.5 -58v24q69 -10 112.5 -59t43.5 -123q0 -95 -71.5 -149t-198.5 -54zM300 108q64 0 95.5 24t31.5 71
t-31.5 70.5t-95.5 23.5q-63 0 -95 -23.5t-32 -70.5t32 -71t95 -24zM300 416q53 0 81 24.5t28 66.5t-28 66t-81 24q-52 0 -80 -24t-28 -66t28 -66.5t80 -24.5z" />
    <glyph glyph-name="nine" unicode="9" horiz-adv-x="600" 
d="M243 -11q-58 0 -114 20.5t-98 56.5l50 115q37 -31 78.5 -47t84.5 -16q83 0 126 54.5t43 160.5v65h13q-7 -47 -33 -81t-64.5 -52t-85.5 -18q-60 0 -107.5 29.5t-75 81.5t-27.5 117q0 70 31 124.5t85 85.5t125 31q137 0 211 -92.5t74 -261.5q0 -118 -37.5 -201.5
t-108.5 -127.5t-170 -44zM283 368q31 0 55 14t37.5 40t13.5 59q0 35 -13.5 60.5t-37.5 40t-55 14.5q-32 0 -56 -14.5t-37 -40t-13 -60.5q0 -33 13 -59t37 -40t56 -14z" />
    <glyph glyph-name="colon" unicode=":" horiz-adv-x="260" 
d="M49 347v160h162v-160h-162zM49 0v160h162v-160h-162z" />
    <glyph glyph-name="semicolon" unicode=";" horiz-adv-x="260" 
d="M121 -144l-59 47q35 35 50 66t15 67l35 -36h-113v160h162v-103q0 -57 -20 -104t-70 -97zM49 347v160h162v-160h-162z" />
    <glyph glyph-name="less" unicode="&#x3c;" horiz-adv-x="600" 
d="M545 31l-490 200v113l490 199v-113l-450 -180v74l450 -180v-113z" />
    <glyph glyph-name="equal" unicode="=" horiz-adv-x="600" 
d="M55 335v104h490v-104h-490zM55 136v103h490v-103h-490z" />
    <glyph glyph-name="greater" unicode="&#x3e;" horiz-adv-x="600" 
d="M55 31v113l450 180v-74l-450 180v113l490 -199v-113z" />
    <glyph glyph-name="question" unicode="?" horiz-adv-x="473" 
d="M170 223v47q0 44 17 81.5t58 79.5q29 30 41 53.5t12 45.5q0 29 -22 45t-61 16t-78.5 -13t-73.5 -34v127q36 21 83.5 33t92.5 12q60 0 108.5 -17.5t76 -53.5t27.5 -94q0 -33 -12 -64t-33.5 -58t-50.5 -51q-49 -40 -67.5 -68.5t-22.5 -56.5l-4 -30h-91zM134 0v160h163v-160
h-163z" />
    <glyph glyph-name="at" unicode="@" horiz-adv-x="962" 
d="M491 -166q-98 0 -179 30.5t-139.5 88t-90 136.5t-31.5 175q0 102 32.5 185.5t93.5 143t145.5 91.5t187.5 32q122 0 212.5 -46.5t140.5 -130.5t50 -199q0 -86 -25 -149.5t-70 -97.5t-105 -34q-62 0 -97.5 33t-40.5 93l37 19q-24 -73 -70.5 -109t-104.5 -36q-82 0 -127 51
t-45 139q0 74 27.5 130.5t76 89t111.5 32.5q54 0 87.5 -26t46.5 -78h-20l18 94h109l-41 -231q-3 -18 -5 -32.5t-2 -25.5q0 -30 12 -43.5t36 -13.5q29 0 52 24t36 68.5t13 102.5q0 92 -37.5 156t-107 97.5t-167.5 33.5q-108 0 -189 -44.5t-125 -126t-44 -192.5
q0 -105 41.5 -182t118 -118t179.5 -41q73 0 133.5 19.5t107.5 56.5l43 -78q-48 -41 -121.5 -64t-162.5 -23zM461 151q35 0 61.5 20.5t41.5 59t15 88.5q0 44 -19 66.5t-59 22.5q-35 0 -62.5 -19.5t-43 -55t-15.5 -83.5t21 -73.5t60 -25.5z" />
    <glyph glyph-name="A" unicode="A" horiz-adv-x="759" 
d="M-11 0l324 705h129l328 -705h-158l-85 196l61 -43h-419l62 43l-85 -196h-157zM377 541l-129 -306l-27 38h315l-23 -38l-132 306h-4z" />
    <glyph glyph-name="B" unicode="B" horiz-adv-x="696" 
d="M72 0v705h325q116 0 179 -49t63 -134q0 -63 -37.5 -107t-102.5 -59v16q76 -13 117.5 -57.5t41.5 -115.5q0 -94 -66.5 -146.5t-183.5 -52.5h-336zM221 116h168q58 0 89 22t31 70q0 49 -31 70.5t-89 21.5h-168v-184zM221 415h148q61 0 90 22t29 66q0 43 -29 65t-90 22h-148
v-175z" />
    <glyph glyph-name="C" unicode="C" horiz-adv-x="685" 
d="M413 -11q-113 0 -194 45t-124.5 126.5t-43.5 192.5t43.5 192t124.5 126t194 45q73 0 133 -20.5t102 -59.5l-49 -123q-46 36 -87.5 51t-93.5 15q-99 0 -151.5 -58.5t-52.5 -167.5t52.5 -168t151.5 -59q52 0 93.5 15t87.5 51l49 -123q-42 -38 -102 -59t-133 -21z" />
    <glyph glyph-name="D" unicode="D" horiz-adv-x="771" 
d="M72 0v705h269q123 0 208 -42t128.5 -120.5t43.5 -189.5q0 -110 -43.5 -189t-128.5 -121.5t-208 -42.5h-269zM228 128h104q118 0 175.5 55.5t57.5 169.5q0 115 -57.5 170t-175.5 55h-104v-450z" />
    <glyph glyph-name="E" unicode="E" horiz-adv-x="599" 
d="M72 0v705h490v-121h-341v-165h317v-122h-317v-176h341v-121h-490z" />
    <glyph glyph-name="F" unicode="F" horiz-adv-x="578" 
d="M72 0v705h479v-121h-323v-172h300v-120h-300v-292h-156z" />
    <glyph glyph-name="G" unicode="G" horiz-adv-x="745" 
d="M421 -11q-121 0 -203.5 44.5t-124.5 126t-42 190.5q0 112 45.5 194t131.5 127t206 45q77 0 135.5 -19.5t102.5 -55.5l-50 -121q-32 23 -60 36.5t-58 19t-69 5.5q-110 0 -165.5 -59.5t-55.5 -172.5q0 -112 52 -170t163 -58q37 0 76 7t77 21l-28 -60v190h-155v111h284v-346
q-53 -26 -122.5 -40.5t-139.5 -14.5z" />
    <glyph glyph-name="H" unicode="H" horiz-adv-x="779" 
d="M72 0v705h156v-283h323v283h157v-705h-157v293h-323v-293h-156z" />
    <glyph glyph-name="I" unicode="I" horiz-adv-x="299" 
d="M72 0v705h156v-705h-156z" />
    <glyph glyph-name="J" unicode="J" horiz-adv-x="381" 
d="M96 -187q-18 0 -43 2t-51 7v122q20 -4 38 -6t29 -2q46 0 65 26t19 84v659h156v-659q0 -78 -21.5 -130t-68 -77.5t-123.5 -25.5z" />
    <glyph glyph-name="K" unicode="K" horiz-adv-x="685" 
d="M72 0v705h156v-307h2l289 307h185l-355 -369l1 64l376 -400h-191l-305 322h-2v-322h-156z" />
    <glyph glyph-name="L" unicode="L" horiz-adv-x="569" 
d="M72 0v705h156v-574h318v-131h-474z" />
    <glyph glyph-name="M" unicode="M" horiz-adv-x="877" 
d="M73 0v705h137l245 -550h-32l245 550h136v-705h-142v479h40l-219 -479h-90l-220 479h42v-479h-142z" />
    <glyph glyph-name="N" unicode="N" horiz-adv-x="760" 
d="M72 0v705h116l383 -487h-27v487h145v-705h-116l-382 487h26v-487h-145z" />
    <glyph glyph-name="O" unicode="O" horiz-adv-x="795" 
d="M51 353q0 110 41.5 191.5t119.5 126.5t185 45t185 -45t120.5 -126.5t42.5 -190.5q0 -111 -42.5 -192.5t-120.5 -127t-185 -45.5t-184.5 45.5t-119.5 127.5t-42 191zM214 353q0 -109 45.5 -170.5t137.5 -61.5q90 0 137 61.5t47 170.5q0 110 -46.5 170.5t-137.5 60.5
q-92 0 -137.5 -60.5t-45.5 -170.5z" />
    <glyph glyph-name="P" unicode="P" horiz-adv-x="675" 
d="M72 0v705h329q119 0 180.5 -57.5t61.5 -157.5q0 -99 -61.5 -157.5t-180.5 -58.5h-173v-274h-156zM228 395h153q56 0 83.5 25t27.5 70t-27.5 69.5t-83.5 24.5h-153v-189z" />
    <glyph glyph-name="Q" unicode="Q" horiz-adv-x="795" 
d="M585 -192q-33 17 -66.5 46.5t-62 66t-48.5 75.5l121 54q25 -51 69 -93.5t92 -69.5zM51 353q0 110 41.5 191.5t119.5 126.5t185 45t185 -45t120.5 -126.5t42.5 -190.5q0 -111 -42.5 -192.5t-120.5 -127t-185 -45.5t-184.5 45.5t-119.5 127.5t-42 191zM214 353
q0 -109 45.5 -170.5t137.5 -61.5q90 0 137 61.5t47 170.5q0 110 -46.5 170.5t-137.5 60.5q-92 0 -137.5 -60.5t-45.5 -170.5z" />
    <glyph glyph-name="R" unicode="R" horiz-adv-x="708" 
d="M72 0v705h320q119 0 184 -56.5t65 -157.5q0 -66 -29.5 -113.5t-84 -73t-130.5 -25.5l12 22h41q43 0 76.5 -23t55.5 -67l105 -211h-172l-109 227q-12 29 -37.5 38.5t-58.5 9.5h-82v-275h-156zM228 387h137q61 0 93 25t32 74t-32 73.5t-93 24.5h-137v-197z" />
    <glyph glyph-name="S" unicode="S" horiz-adv-x="658" 
d="M327 -11q-85 0 -159 21t-126 58l46 122q34 -23 72 -39t80 -24.5t88 -8.5q72 0 102.5 22t30.5 56q0 31 -20.5 47.5t-74.5 28.5l-118 24q-97 20 -145 68t-48 128q0 68 36 118t101.5 78t153.5 28q75 0 140 -21t107 -60l-46 -114q-41 33 -91.5 49.5t-112.5 16.5
q-65 0 -99.5 -23t-34.5 -63q0 -30 21 -48.5t74 -29.5l116 -23q99 -20 147 -67t48 -125q0 -66 -35.5 -115t-100 -76.5t-152.5 -27.5z" />
    <glyph glyph-name="T" unicode="T" horiz-adv-x="628" 
d="M235 0v578h-224v127h604v-127h-224v-578h-156z" />
    <glyph glyph-name="U" unicode="U" horiz-adv-x="746" 
d="M375 -11q-155 0 -231 77t-76 229v410h156v-411q0 -85 36.5 -129t114.5 -44q76 0 113.5 44t37.5 129v411h154v-410q0 -152 -76.5 -229t-228.5 -77z" />
    <glyph glyph-name="V" unicode="V" horiz-adv-x="735" 
d="M303 0l-317 705h168l241 -564h-49l241 564h162l-317 -705h-129z" />
    <glyph glyph-name="W" unicode="W" horiz-adv-x="1126" 
d="M270 0l-250 705h161l179 -544h-43l195 544h114l179 -544h-40l190 544h151l-252 -705h-127l-173 501h23l-179 -501h-128z" />
    <glyph glyph-name="X" unicode="X" horiz-adv-x="682" 
d="M-18 0l295 392v-69l-287 382h183l192 -269h-50l193 269h183l-288 -382v69l297 -392h-184l-201 279h51l-202 -279h-182z" />
    <glyph glyph-name="Y" unicode="Y" horiz-adv-x="642" 
d="M243 0v335l32 -89l-309 459h180l194 -302h-32l194 302h174l-308 -459l31 89v-335h-156z" />
    <glyph glyph-name="Z" unicode="Z" horiz-adv-x="615" 
d="M46 0v115l376 508v-46h-376v128h525v-114l-377 -508v45h391v-128h-539z" />
    <glyph glyph-name="bracketleft" unicode="[" horiz-adv-x="376" 
d="M99 -180v885h261v-112h-112v-661h112v-112h-261z" />
    <glyph glyph-name="backslash" unicode="\" horiz-adv-x="334" 
d="M238 -61l-264 816h122l264 -816h-122z" />
    <glyph glyph-name="bracketright" unicode="]" horiz-adv-x="376" 
d="M17 -180v112h111v661h-111v112h259v-885h-259z" />
    <glyph glyph-name="asciicircum" unicode="^" horiz-adv-x="600" 
d="M43 141l201 487h112l201 -487h-113l-181 446h73l-180 -446h-113z" />
    <glyph glyph-name="underscore" unicode="_" horiz-adv-x="505" 
d="M15 -88v88h475v-88h-475z" />
    <glyph glyph-name="grave" unicode="`" horiz-adv-x="500" 
d="M200 555l-147 205h144l103 -205h-100z" />
    <glyph glyph-name="a" unicode="a" horiz-adv-x="632" 
d="M259 -11q-66 0 -116 32t-78 91t-28 142q0 82 28 141t78 90.5t116 31.5q61 0 109.5 -29.5t63.5 -79.5h-11l12 99h145q-3 -33 -5.5 -66.5t-2.5 -65.5v-375h-150l-1 95h12q-16 -48 -64 -77t-108 -29zM305 103q52 0 84 37t32 114t-32 113t-84 36t-84 -36t-32 -113t31.5 -114
t84.5 -37z" />
    <glyph glyph-name="b" unicode="b" horiz-adv-x="632" 
d="M372 -11q-61 0 -108.5 30t-63.5 80h11v-99h-149v736h151v-324h-13q17 48 64.5 76.5t107.5 28.5q67 0 117 -32t78.5 -91t28.5 -142q0 -82 -28.5 -141t-79 -90.5t-116.5 -31.5zM327 103q51 0 84 36t33 113t-33 114t-84 37q-52 0 -84.5 -36t-32.5 -113t32.5 -114t84.5 -37z
" />
    <glyph glyph-name="c" unicode="c" horiz-adv-x="509" 
d="M306 -11q-81 0 -142 32t-94 92t-33 142q0 83 33.5 141.5t94 89.5t141.5 31q51 0 99.5 -15t79.5 -42l-44 -104q-25 23 -57.5 34.5t-62.5 11.5q-61 0 -95 -38t-34 -110t34 -110t95 -38q29 0 61.5 11t58.5 33l44 -103q-32 -27 -80.5 -42.5t-98.5 -15.5z" />
    <glyph glyph-name="d" unicode="d" horiz-adv-x="632" 
d="M261 -11q-66 0 -116.5 32t-79 91t-28.5 142q0 82 28 141t79 90.5t117 31.5q60 0 107.5 -28.5t63.5 -76.5h-13v324h151v-736h-149v99h13q-16 -50 -64 -80t-109 -30zM306 103q52 0 84 37t32 114t-32 113t-84 36t-84.5 -36t-32.5 -113t32.5 -114t84.5 -37z" />
    <glyph glyph-name="e" unicode="e" horiz-adv-x="550" 
d="M317 -11q-132 0 -206 71t-74 193q0 79 31.5 138t88 92.5t132.5 33.5q75 0 125.5 -32t76 -89.5t25.5 -133.5v-35h-355v75h245l-17 -14q0 63 -25.5 95.5t-73.5 32.5q-53 0 -81.5 -39t-28.5 -112v-16q0 -74 36.5 -110t105.5 -36q41 0 77.5 10.5t69.5 33.5l42 -100
q-38 -28 -87.5 -43t-106.5 -15z" />
    <glyph glyph-name="f" unicode="f" horiz-adv-x="386" 
d="M100 0v394h-96v113h139l-43 -39v73q0 99 51.5 149t154.5 50q23 0 49.5 -3t46.5 -12v-116q-14 5 -32 7.5t-35 2.5q-23 0 -42.5 -8t-31 -26.5t-11.5 -49.5v-53l-21 25h149v-113h-127v-394h-151z" />
    <glyph glyph-name="g" unicode="g" horiz-adv-x="633" 
d="M303 -224q-73 0 -130 14.5t-102 43.5l29 108q28 -18 59.5 -29.5t65 -17t66.5 -5.5q67 0 100 32t33 91v105h10q-16 -48 -64 -77t-108 -29q-68 0 -118.5 31t-78.5 88t-28 134t28 134t78.5 87.5t118.5 30.5q61 0 107.5 -28.5t62.5 -75.5l-8 4l10 90h146q-4 -33 -6 -66.5
t-2 -65.5v-345q0 -123 -69 -188.5t-200 -65.5zM307 126q53 0 84 36t31 103t-31 102.5t-84 35.5q-55 0 -86.5 -35.5t-31.5 -102.5t31.5 -103t86.5 -36z" />
    <glyph glyph-name="h" unicode="h" horiz-adv-x="613" 
d="M62 0v736h151v-324h-15q24 51 71 78t108 27q89 0 133 -51.5t44 -157.5v-308h-151v301q0 53 -19.5 76t-60.5 23q-50 0 -80 -31t-30 -83v-286h-151z" />
    <glyph glyph-name="i" unicode="i" horiz-adv-x="274" 
d="M62 0v507h151v-507h-151zM56 590v141h162v-141h-162z" />
    <glyph glyph-name="j" unicode="j" horiz-adv-x="274" 
d="M21 -223q-22 0 -45.5 3t-42.5 11v117q14 -4 28.5 -7t28.5 -3q32 0 52.5 19.5t20.5 67.5v522h151v-529q0 -99 -46.5 -150t-146.5 -51zM56 590v141h163v-141h-163z" />
    <glyph glyph-name="k" unicode="k" horiz-adv-x="574" 
d="M62 0v736h151v-440h2l188 211h180l-243 -270v55l256 -292h-185l-196 220h-2v-220h-151z" />
    <glyph glyph-name="l" unicode="l" horiz-adv-x="274" 
d="M62 0v736h151v-736h-151z" />
    <glyph glyph-name="m" unicode="m" horiz-adv-x="911" 
d="M62 0v375q0 32 -2 65.5t-6 66.5h145l11 -94h-12q22 48 65 76t102 28q58 0 97.5 -27.5t56.5 -85.5h-16q22 52 70 82.5t109 30.5q86 0 128 -51t42 -160v-306h-151v301q0 53 -17 76t-55 23q-45 0 -71 -32t-26 -88v-280h-151v301q0 53 -17 76t-55 23q-45 0 -70.5 -32
t-25.5 -88v-280h-151z" />
    <glyph glyph-name="n" unicode="n" horiz-adv-x="613" 
d="M62 0v375q0 32 -2 65.5t-6 66.5h145l11 -94h-12q25 50 71 77t107 27q89 0 133.5 -51.5t44.5 -159.5v-306h-151v299q0 55 -20 78t-60 23q-50 0 -80 -31.5t-30 -84.5v-284h-151z" />
    <glyph glyph-name="o" unicode="o" horiz-adv-x="604" 
d="M302 -11q-81 0 -140.5 32.5t-92 91.5t-32.5 141q0 81 32.5 140t92 91t140.5 32t141 -32t92.5 -91t32.5 -140q0 -82 -32.5 -141t-92.5 -91.5t-141 -32.5zM302 103q52 0 82.5 37t30.5 114t-30.5 113t-82.5 36t-82.5 -36t-30.5 -113t30.5 -114t82.5 -37z" />
    <glyph glyph-name="p" unicode="p" horiz-adv-x="632" 
d="M62 -216v591q0 32 -2 65.5t-6 66.5h145l12 -99h-11q15 50 63 79.5t110 29.5q66 0 116 -31.5t78.5 -90.5t28.5 -141q0 -83 -28.5 -142t-78.5 -91t-116 -32q-61 0 -108.5 29t-63.5 77h12v-311h-151zM327 103q53 0 85 37t32 114t-32 113t-85 36q-52 0 -84.5 -36t-32.5 -113
t32.5 -114t84.5 -37z" />
    <glyph glyph-name="q" unicode="q" horiz-adv-x="632" 
d="M419 -216v311h12q-16 -48 -64 -77t-108 -29q-66 0 -116 32t-78 91t-28 142q0 82 28 141t78 90.5t116 31.5q61 0 109.5 -29.5t63.5 -79.5h-11l12 99h145q-3 -33 -5.5 -66.5t-2.5 -65.5v-591h-151zM305 103q52 0 84 37t32 114t-32 113t-84 36t-84 -36t-32 -113t31.5 -114
t84.5 -37z" />
    <glyph glyph-name="r" unicode="r" horiz-adv-x="411" 
d="M61 0v373q0 33 -1.5 67t-5.5 67h145l17 -148h-23q10 54 32.5 89t56 52t76.5 17q19 0 30 -1.5t22 -5.5l-1 -133q-21 9 -35.5 11.5t-36.5 2.5q-42 0 -69.5 -16t-41 -47t-13.5 -75v-253h-152z" />
    <glyph glyph-name="s" unicode="s" horiz-adv-x="504" 
d="M249 -11q-68 0 -124 15t-95 42l39 100q39 -24 86.5 -38t94.5 -14q44 0 65 14t21 38q0 20 -13.5 31t-41.5 16l-103 19q-65 13 -99 48t-34 91q0 49 26.5 86.5t76.5 58.5t117 21q57 0 108 -14t87 -43l-41 -97q-31 23 -71.5 37t-77.5 14q-48 0 -69 -15.5t-21 -39.5
q0 -18 12.5 -30t38.5 -18l104 -19q67 -12 102 -45t35 -91q0 -53 -28 -90t-78.5 -57t-116.5 -20z" />
    <glyph glyph-name="t" unicode="t" horiz-adv-x="396" 
d="M299 -11q-99 0 -149 49.5t-50 148.5v207h-96v113h96v124l151 37v-161h130v-113h-130v-199q0 -48 20 -66t51 -18q19 0 31.5 2.5t26.5 7.5v-117q-19 -8 -40 -11.5t-41 -3.5z" />
    <glyph glyph-name="u" unicode="u" horiz-adv-x="607" 
d="M246 -11q-95 0 -141 52.5t-46 159.5v306h151v-306q0 -48 19.5 -71t60.5 -23q45 0 74.5 31.5t29.5 84.5v284h151v-507h-147v97h14q-23 -51 -65.5 -79.5t-100.5 -28.5z" />
    <glyph glyph-name="v" unicode="v" horiz-adv-x="551" 
d="M209 0l-219 507h159l145 -368h-33l150 368h149l-221 -507h-130z" />
    <glyph glyph-name="w" unicode="w" horiz-adv-x="891" 
d="M205 0l-204 507h155l134 -365h-26l135 365h100l134 -365h-21l132 365h146l-203 -507h-130l-144 374h61l-139 -374h-130z" />
    <glyph glyph-name="x" unicode="x" horiz-adv-x="557" 
d="M-22 0l240 295v-67l-227 279h178l135 -177h-54l136 177h177l-226 -280v69l240 -296h-179l-148 190h54l-149 -190h-177z" />
    <glyph glyph-name="y" unicode="y" horiz-adv-x="550" 
d="M57 -227l-35 118q47 9 79.5 21t53.5 31.5t34 50.5l25 59l-4 -58l-220 512h159l145 -367h-31l147 367h150l-229 -527q-25 -57 -53.5 -94.5t-61.5 -59.5t-72.5 -34t-86.5 -19z" />
    <glyph glyph-name="z" unicode="z" horiz-adv-x="530" 
d="M47 0v98l302 332v-36h-302v113h438v-99l-306 -335l-1 39h317v-112h-448z" />
    <glyph glyph-name="braceleft" unicode="{" horiz-adv-x="414" 
d="M277 -180q-63 0 -97 35.5t-34 97.5v174q0 40 -14 57t-49 20l-45 4v108l45 4q35 3 49 20t14 58v174q0 63 34 98t97 35h122v-112h-62q-22 0 -32.5 -11t-10.5 -34v-169q0 -31 -14 -58.5t-37 -44t-51 -16.5v4q28 0 51 -16.5t37 -43t14 -59.5v-168q0 -22 10.5 -33.5
t32.5 -11.5h62v-112h-122z" />
    <glyph glyph-name="bar" unicode="|" horiz-adv-x="293" 
d="M71 -183v891h151v-891h-151z" />
    <glyph glyph-name="braceright" unicode="}" horiz-adv-x="414" 
d="M15 -180v112h62q23 0 32.5 11.5t9.5 33.5v169q0 32 14 59t37.5 43.5t50.5 16.5v-4q-27 0 -50.5 16.5t-37.5 44t-14 59.5v167q0 23 -9.5 34t-32.5 11h-62v112h121q64 0 98 -35t34 -98v-174q0 -39 13.5 -56.5t48.5 -20.5l45 -3v-109l-45 -4q-35 -2 -48.5 -19.5t-13.5 -57.5
v-175q0 -62 -34 -97.5t-98 -35.5h-121z" />
    <glyph glyph-name="asciitilde" unicode="~" horiz-adv-x="600" 
d="M407 204q-23 0 -48.5 7.5t-65.5 27.5q-35 19 -56 26.5t-35 7.5q-48 0 -71 -60l-76 49q16 50 53.5 79.5t83.5 29.5q25 0 52 -8t64 -27q34 -18 55 -26t35 -8q48 0 70 60l77 -50q-16 -49 -53.5 -78.5t-84.5 -29.5z" />
    <glyph glyph-name="uni00A0" unicode="&#xa0;" horiz-adv-x="282" 
 />
    <glyph glyph-name="exclamdown" unicode="&#xa1;" horiz-adv-x="260" 
d="M37 -180l47 464h91l48 -464h-186zM49 347v160h162v-160h-162z" />
    <glyph glyph-name="cent" unicode="&#xa2;" horiz-adv-x="600" 
d="M257 -115v145l28 -34q-64 11 -111 45t-72 86.5t-25 117.5q0 63 25.5 114.5t72.5 86.5t110 45l-28 -35v154h118v-145l-31 32q54 -1 103.5 -16.5t79.5 -43.5l-40 -103q-27 21 -61 34t-69 13q-60 0 -93 -37t-33 -96t32.5 -97.5t92.5 -38.5q35 0 69.5 13t61.5 34l40 -103
q-32 -27 -80 -44.5t-105 -19.5l33 30v-137h-118z" />
    <glyph glyph-name="sterling" unicode="&#xa3;" horiz-adv-x="600" 
d="M41 0v103q37 12 57 31.5t20 53.5v120h-78v90h78v91q0 68 27.5 119t83 79.5t140.5 28.5q63 0 118 -18.5t95 -51.5l-51 -111q-38 31 -75 44.5t-77 13.5q-55 0 -80 -25t-25 -74v-96h159v-90h-158v-87q0 -39 -16 -64t-47 -36v4h359v-125h-530z" />
    <glyph glyph-name="currency" unicode="&#xa4;" horiz-adv-x="600" 
d="M84 -32l-56 56l73 75q-21 31 -33.5 68.5t-12.5 77.5q0 41 12.5 78.5t33.5 68.5l-73 74l57 57l73 -75q30 21 65.5 33t74.5 12t74.5 -11.5t64.5 -32.5l74 76l60 -61l-75 -75q22 -31 33 -67.5t11 -76.5t-11.5 -77t-33.5 -68l74 -76l-56 -55l-73 75q-30 -22 -66 -34.5
t-76 -12.5q-39 0 -75 12t-66 33zM298 116q34 0 61.5 17.5t43.5 47t16 64.5q0 36 -16 65.5t-43.5 47t-61.5 17.5q-33 0 -61 -17.5t-44.5 -47t-16.5 -65.5q0 -35 16.5 -64.5t44 -47t61.5 -17.5z" />
    <glyph glyph-name="yen" unicode="&#xa5;" horiz-adv-x="600" 
d="M222 0v159h-157v86h157v72h-157v86h129v-18l-217 320h168l171 -266h-33l172 266h168l-217 -320v18h129v-86h-158v-72h158v-86h-158v-159h-155z" />
    <glyph glyph-name="brokenbar" unicode="&#xa6;" horiz-adv-x="293" 
d="M71 372v336h151v-336h-151zM71 -183v337h151v-337h-151z" />
    <glyph glyph-name="section" unicode="&#xa7;" horiz-adv-x="586" 
d="M274 -191q-71 0 -130.5 16.5t-99.5 44.5l42 100q23 -16 54 -29t67 -20.5t68 -7.5q48 0 75 19t27 54q0 24 -15.5 42t-53.5 36l-140 60q-50 23 -80.5 48.5t-45 56.5t-14.5 68q0 50 26 91t75 71l-12 -40q-22 20 -34.5 47t-12.5 61q0 59 30.5 101t85.5 65t130 23
q67 0 122 -14.5t90 -42.5l-39 -97q-36 23 -83.5 36t-91.5 13q-46 0 -73 -18.5t-27 -53.5q0 -24 16 -42t54 -36l139 -60q50 -22 80.5 -48t45 -57t14.5 -68q0 -50 -25 -91t-75 -71l12 40q22 -20 34 -48t12 -61q0 -58 -30.5 -100.5t-85.5 -65t-131 -22.5zM162 325q0 -28 19 -51
t64 -44l120 -53q22 -10 39.5 -21t29.5 -22l-34 -4q30 33 30 70q0 29 -19.5 52t-63.5 43l-121 53q-21 10 -38.5 21.5t-29.5 21.5l33 4q-14 -16 -21.5 -34t-7.5 -36z" />
    <glyph glyph-name="dieresis" unicode="&#xa8;" horiz-adv-x="500" 
d="M283 590v132h132v-132h-132zM85 590v132h132v-132h-132z" />
    <glyph glyph-name="copyright" unicode="&#xa9;" horiz-adv-x="815" 
d="M408 -11q-77 0 -143.5 28t-115.5 77t-77 115.5t-28 143.5t28 143t77 115t115 77t144 28q77 0 143 -28t115 -77t77 -115t28 -143t-28 -143.5t-77 -115.5t-115 -77t-143 -28zM429 137q-102 0 -162.5 58.5t-60.5 158.5t60.5 157t162.5 57q40 0 80 -12t65 -33l-35 -89
q-20 18 -46 27.5t-53 9.5q-50 0 -78.5 -31t-28.5 -87q0 -55 28.5 -86.5t78.5 -31.5q27 0 53 9.5t46 27.5l35 -89q-25 -21 -65.5 -33.5t-79.5 -12.5zM408 48q65 0 120 23t95.5 64.5t63 97t22.5 120.5t-22.5 120.5t-63 96.5t-95.5 64t-120 23t-120 -23t-96 -64t-63.5 -96.5
t-22.5 -120.5t22.5 -120.5t63.5 -97t96 -64.5t120 -23z" />
    <glyph glyph-name="ordfeminine" unicode="&#xaa;" horiz-adv-x="349" 
d="M134 406q-51 0 -83 27.5t-32 68.5q0 48 41.5 68t126.5 20h47v-49h-44q-41 0 -58.5 -9t-17.5 -27q0 -15 11 -25.5t35 -10.5q28 0 46 19t18 52v58q0 24 -14.5 35.5t-47.5 11.5q-23 0 -52 -6t-54 -20l-22 66q25 14 63.5 22.5t72.5 8.5q149 0 149 -123v-180h-91v55h-2
q-15 -31 -36.5 -46.5t-55.5 -15.5z" />
    <glyph glyph-name="guillemotleft" unicode="&#xab;" horiz-adv-x="529" 
d="M155 85l-133 183l133 183h124l-126 -183l126 -183h-124zM378 85l-133 183l133 183h124l-126 -183l126 -183h-124z" />
    <glyph glyph-name="logicalnot" unicode="&#xac;" horiz-adv-x="600" 
d="M438 135v201h-383v103h490v-304h-107z" />
    <glyph glyph-name="uni00AD" unicode="&#xad;" horiz-adv-x="444" 
d="M64 217v118h315v-118h-315z" />
    <glyph glyph-name="registered" unicode="&#xae;" horiz-adv-x="815" 
d="M408 -11q-77 0 -143.5 28t-115.5 77t-77 115.5t-28 143.5t28 143t77 115t115 77t144 28q77 0 143 -28t115 -77t77 -115t28 -143t-28 -143.5t-77 -115.5t-115 -77t-143 -28zM408 48q65 0 120 23t95.5 64.5t63 97t22.5 120.5t-22.5 120.5t-63 96.5t-95.5 64t-120 23
t-120 -23t-96 -64t-63.5 -96.5t-22.5 -120.5t22.5 -120.5t63.5 -97t96 -64.5t120 -23zM246 142v423h190q73 0 111.5 -35.5t38.5 -90.5q0 -58 -37.5 -88.5t-105.5 -30.5l28 11q33 0 54 -16.5t33 -65.5l32 -107h-115l-34 122q-6 20 -18.5 27t-29.5 7h-51l18 12v-168h-114z
M359 381h61q30 0 44.5 12t14.5 39t-15 39t-44 12h-61v-102z" />
    <glyph glyph-name="macron" unicode="&#xaf;" horiz-adv-x="500" 
d="M87 611v85h326v-85h-326z" />
    <glyph glyph-name="degree" unicode="&#xb0;" horiz-adv-x="384" 
d="M192 399q-46 0 -82.5 21t-58 56.5t-21.5 81.5q0 45 21.5 80.5t58 56t82.5 20.5t82.5 -20.5t58 -56t21.5 -81.5q0 -45 -21.5 -81t-58 -56.5t-82.5 -20.5zM192 480q33 0 53.5 22t20.5 55t-20.5 55.5t-53.5 22.5q-32 0 -53 -22.5t-21 -55.5t21 -55t53 -22z" />
    <glyph glyph-name="plusminus" unicode="&#xb1;" horiz-adv-x="600" 
d="M247 146v141h-192v104h192v141h107v-141h191v-104h-191v-141h-107zM55 0v103h490v-103h-490z" />
    <glyph glyph-name="uni00B2" unicode="&#xb2;" horiz-adv-x="380" 
d="M43 282v87l123 120q23 23 33.5 41.5t10.5 36.5q0 45 -55 45q-23 0 -50.5 -9t-48.5 -24l-22 90q27 18 65.5 29t85.5 11q71 0 112.5 -33.5t41.5 -90.5q0 -33 -16.5 -64.5t-54.5 -65.5l-89 -84v9h174v-98h-310z" />
    <glyph glyph-name="uni00B3" unicode="&#xb3;" horiz-adv-x="380" 
d="M187 277q-50 0 -91 8.5t-71 26.5l20 87q26 -16 59 -23.5t70 -7.5q33 0 50.5 11.5t17.5 33.5q0 20 -15.5 29t-41.5 9h-88v86h75q28 0 42.5 10.5t14.5 30.5q0 19 -15.5 29.5t-46.5 10.5q-30 0 -61.5 -9.5t-52.5 -23.5l-21 87q27 18 67 27.5t90 9.5q72 0 113.5 -30t41.5 -82
q0 -41 -27 -69t-69 -35v13q50 -4 78.5 -31.5t28.5 -75.5q0 -56 -46.5 -89t-121.5 -33z" />
    <glyph glyph-name="acute" unicode="&#xb4;" horiz-adv-x="500" 
d="M200 555l103 205h144l-147 -205h-100z" />
    <glyph glyph-name="uni00B5" unicode="&#xb5;" horiz-adv-x="587" 
d="M53 -192v699h151v-311q0 -45 19 -66.5t58 -21.5q45 0 73 30t28 81v288h151v-507h-147v96h1q-10 -51 -41 -79t-69 -28q-30 0 -51.5 12t-35.5 40h3l11 -233h-151z" />
    <glyph glyph-name="paragraph" unicode="&#xb6;" horiz-adv-x="651" 
d="M254 -180v445q-67 0 -117 28t-78 77.5t-28 115.5t28 115t79 76.5t119 27.5h322v-885h-106v780h-113v-780h-106z" />
    <glyph glyph-name="periodcentered" unicode="&#xb7;" horiz-adv-x="263" 
d="M50 196v160h163v-160h-163z" />
    <glyph glyph-name="cedilla" unicode="&#xb8;" horiz-adv-x="500" 
d="M249 -197q-31 0 -59.5 6t-50.5 16l21 64q18 -8 36.5 -13t37.5 -5q27 0 40 6.5t13 19.5q0 20 -37 20q-9 0 -18 -0.5t-20 -4.5l-21 20l14 88h76l-13 -76l-37 14q11 4 23.5 6t22.5 2q44 0 70 -19.5t26 -54.5q0 -40 -34.5 -64.5t-89.5 -24.5z" />
    <glyph glyph-name="uni00B9" unicode="&#xb9;" horiz-adv-x="380" 
d="M49 282v98h100v221h48l-137 -70v111l122 63h87v-325h85v-98h-305z" />
    <glyph glyph-name="ordmasculine" unicode="&#xba;" horiz-adv-x="365" 
d="M182 408q-46 0 -83 19t-58.5 53.5t-21.5 82.5q0 47 21.5 81.5t58.5 53t84 18.5t84 -18.5t58.5 -53t21.5 -81.5q0 -48 -21.5 -82.5t-58.5 -53.5t-85 -19zM182 481q31 0 49 20.5t18 61.5q0 40 -18 60.5t-49 20.5q-30 0 -47.5 -20t-17.5 -61t17.5 -61.5t47.5 -20.5z" />
    <glyph glyph-name="guillemotright" unicode="&#xbb;" horiz-adv-x="529" 
d="M151 85h-124l126 183l-126 183h125l132 -183zM374 85h-124l126 183l-126 183h125l132 -183z" />
    <glyph glyph-name="onequarter" unicode="&#xbc;" horiz-adv-x="925" 
d="M49 282v98h100v221h48l-137 -70v111l122 63h87v-325h85v-98h-305zM345 -11h-127l425 727h126zM752 0v69h-192v80l201 274h100v-266h55v-88h-55v-69h-109zM756 157v153h10l-122 -168v15h112z" />
    <glyph glyph-name="onehalf" unicode="&#xbd;" horiz-adv-x="975" 
d="M49 282v98h100v221h48l-137 -70v111l122 63h87v-325h85v-98h-305zM345 -11h-127l425 727h126zM638 0v87l123 120q23 23 33.5 41.5t10.5 36.5q0 45 -55 45q-23 0 -50.5 -9t-48.5 -24l-22 90q27 18 65.5 29t85.5 11q71 0 112.5 -33.5t41.5 -90.5q0 -33 -16.5 -64.5
t-54.5 -65.5l-89 -84v9h174v-98h-310z" />
    <glyph glyph-name="threequarters" unicode="&#xbe;" horiz-adv-x="925" 
d="M187 277q-50 0 -91 8.5t-71 26.5l20 87q26 -16 59 -23.5t70 -7.5q33 0 50.5 11.5t17.5 33.5q0 20 -15.5 29t-41.5 9h-88v86h75q28 0 42.5 10.5t14.5 30.5q0 19 -15.5 29.5t-46.5 10.5q-30 0 -61.5 -9.5t-52.5 -23.5l-21 87q27 18 67 27.5t90 9.5q72 0 113.5 -30t41.5 -82
q0 -41 -27 -69t-69 -35v13q50 -4 78.5 -31.5t28.5 -75.5q0 -56 -46.5 -89t-121.5 -33zM345 -11h-127l425 727h126zM752 0v69h-192v80l201 274h100v-266h55v-88h-55v-69h-109zM756 157v153h10l-122 -168v15h112z" />
    <glyph glyph-name="questiondown" unicode="&#xbf;" horiz-adv-x="473" 
d="M235 -200q-61 0 -109 18.5t-76 56.5t-28 94q0 33 9.5 60.5t30.5 54t57 55.5q49 39 66.5 68t22.5 56l5 20h90v-37q0 -44 -17 -81t-58 -79q-29 -30 -41 -53t-12 -47q0 -28 22 -44.5t62 -16.5q39 0 78 13.5t74 33.5v-127q-35 -21 -82.5 -33t-93.5 -12zM339 507v-161h-162
v161h162z" />
    <glyph glyph-name="Agrave" unicode="&#xc0;" horiz-adv-x="759" 
d="M-11 0l324 705h129l328 -705h-158l-85 196l61 -43h-419l62 43l-85 -196h-157zM377 541l-129 -306l-27 38h315l-23 -38l-132 306h-4zM326 765l-166 175h153l119 -175h-106z" />
    <glyph glyph-name="Aacute" unicode="&#xc1;" horiz-adv-x="759" 
d="M-11 0l324 705h129l328 -705h-158l-85 196l61 -43h-419l62 43l-85 -196h-157zM377 541l-129 -306l-27 38h315l-23 -38l-132 306h-4zM326 765l119 175h153l-166 -175h-106z" />
    <glyph glyph-name="Acircumflex" unicode="&#xc2;" horiz-adv-x="759" 
d="M-11 0l324 705h129l328 -705h-158l-85 196l61 -43h-419l62 43l-85 -196h-157zM377 541l-129 -306l-27 38h315l-23 -38l-132 306h-4zM191 765l125 175h126l125 -175h-103l-85 95l-85 -95h-103z" />
    <glyph glyph-name="Atilde" unicode="&#xc3;" horiz-adv-x="759" 
d="M-11 0l324 705h129l328 -705h-158l-85 196l61 -43h-419l62 43l-85 -196h-157zM377 541l-129 -306l-27 38h315l-23 -38l-132 306h-4zM219 766l-71 4q5 76 44 116.5t98 40.5q23 0 47.5 -8t56.5 -25q28 -14 45.5 -20.5t31.5 -6.5q29 0 45.5 16.5t22.5 47.5l71 -4
q-4 -76 -43.5 -116.5t-97.5 -40.5q-25 0 -49.5 8.5t-58.5 26.5q-27 14 -43 19.5t-31 5.5q-29 0 -45.5 -16t-22.5 -48z" />
    <glyph glyph-name="Adieresis" unicode="&#xc4;" horiz-adv-x="759" 
d="M-11 0l324 705h129l328 -705h-158l-85 196l61 -43h-419l62 43l-85 -196h-157zM377 541l-129 -306l-27 38h315l-23 -38l-132 306h-4zM412 781v132h132v-132h-132zM214 781v132h132v-132h-132z" />
    <glyph glyph-name="Aring" unicode="&#xc5;" horiz-adv-x="759" 
d="M-11 0l324 705h129l328 -705h-158l-85 196l61 -43h-419l62 43l-85 -196h-157zM377 541l-129 -306l-27 38h315l-23 -38l-132 306h-4zM379 753q-36 0 -66 17t-47 46t-17 64q0 36 17 64.5t47 45t66 16.5q37 0 66.5 -16.5t46.5 -45t17 -64.5q0 -35 -17 -64t-46 -46t-67 -17z
M379 818q27 0 44 18t17 44q0 27 -17 44t-44 17q-26 0 -43.5 -17.5t-17.5 -43.5t17.5 -44t43.5 -18z" />
    <glyph glyph-name="AE" unicode="&#xc6;" horiz-adv-x="1023" 
d="M-31 0l446 705h571v-121h-364l24 20l18 -228l-18 43h318v-122h-317l22 10l18 -216l-19 30h318v-121h-433l-15 192l30 -39h-360l45 41l-117 -194h-167zM488 584l-209 -347l-11 37h280l-12 -42l-28 352h-20z" />
    <glyph glyph-name="Ccedilla" unicode="&#xc7;" horiz-adv-x="685" 
d="M413 -11q-113 0 -194 45t-124.5 126.5t-43.5 192.5t43.5 192t124.5 126t194 45q73 0 133 -20.5t102 -59.5l-49 -123q-46 36 -87.5 51t-93.5 15q-99 0 -151.5 -58.5t-52.5 -167.5t52.5 -168t151.5 -59q52 0 93.5 15t87.5 51l49 -123q-42 -38 -102 -59t-133 -21zM401 -197
q-31 0 -59.5 6t-50.5 16l21 64q18 -8 36.5 -13t37.5 -5q27 0 40 6.5t13 19.5q0 20 -37 20q-9 0 -18 -0.5t-20 -4.5l-21 20l14 88h76l-13 -76l-37 14q11 4 23.5 6t22.5 2q44 0 70 -19.5t26 -54.5q0 -40 -34.5 -64.5t-89.5 -24.5z" />
    <glyph glyph-name="Egrave" unicode="&#xc8;" horiz-adv-x="599" 
d="M72 0v705h490v-121h-341v-165h317v-122h-317v-176h341v-121h-490zM283 765l-166 175h153l119 -175h-106z" />
    <glyph glyph-name="Eacute" unicode="&#xc9;" horiz-adv-x="599" 
d="M72 0v705h490v-121h-341v-165h317v-122h-317v-176h341v-121h-490zM283 765l119 175h153l-166 -175h-106z" />
    <glyph glyph-name="Ecircumflex" unicode="&#xca;" horiz-adv-x="599" 
d="M72 0v705h490v-121h-341v-165h317v-122h-317v-176h341v-121h-490zM148 765l125 175h126l125 -175h-103l-85 95l-85 -95h-103z" />
    <glyph glyph-name="Edieresis" unicode="&#xcb;" horiz-adv-x="599" 
d="M72 0v705h490v-121h-341v-165h317v-122h-317v-176h341v-121h-490zM369 781v132h132v-132h-132zM171 781v132h132v-132h-132z" />
    <glyph glyph-name="Igrave" unicode="&#xcc;" horiz-adv-x="299" 
d="M72 0v705h156v-705h-156zM97 765l-166 175h153l119 -175h-106z" />
    <glyph glyph-name="Iacute" unicode="&#xcd;" horiz-adv-x="299" 
d="M72 0v705h156v-705h-156zM97 765l119 175h153l-166 -175h-106z" />
    <glyph glyph-name="Icircumflex" unicode="&#xce;" horiz-adv-x="299" 
d="M72 0v705h156v-705h-156zM-38 765l125 175h126l125 -175h-103l-85 95l-85 -95h-103z" />
    <glyph glyph-name="Idieresis" unicode="&#xcf;" horiz-adv-x="299" 
d="M72 0v705h156v-705h-156zM183 781v132h132v-132h-132zM-15 781v132h132v-132h-132z" />
    <glyph glyph-name="Eth" unicode="&#xd0;" horiz-adv-x="771" 
d="M72 0v705h269q123 0 208 -42t128.5 -120.5t43.5 -189.5q0 -110 -43.5 -189t-128.5 -121.5t-208 -42.5h-269zM228 128h104q118 0 175.5 55.5t57.5 169.5q0 115 -57.5 170t-175.5 55h-104v-450zM-11 301v111h427v-111h-427z" />
    <glyph glyph-name="Ntilde" unicode="&#xd1;" horiz-adv-x="760" 
d="M72 0v705h116l383 -487h-27v487h145v-705h-116l-382 487h26v-487h-145zM223 766l-71 4q5 76 44 116.5t98 40.5q23 0 47.5 -8t56.5 -25q28 -14 45.5 -20.5t31.5 -6.5q29 0 45.5 16.5t22.5 47.5l71 -4q-4 -76 -43.5 -116.5t-97.5 -40.5q-25 0 -49.5 8.5t-58.5 26.5
q-27 14 -43 19.5t-31 5.5q-29 0 -45.5 -16t-22.5 -48z" />
    <glyph glyph-name="Ograve" unicode="&#xd2;" horiz-adv-x="795" 
d="M51 353q0 110 41.5 191.5t119.5 126.5t185 45t185 -45t120.5 -126.5t42.5 -190.5q0 -111 -42.5 -192.5t-120.5 -127t-185 -45.5t-184.5 45.5t-119.5 127.5t-42 191zM214 353q0 -109 45.5 -170.5t137.5 -61.5q90 0 137 61.5t47 170.5q0 110 -46.5 170.5t-137.5 60.5
q-92 0 -137.5 -60.5t-45.5 -170.5zM344 765l-166 175h153l119 -175h-106z" />
    <glyph glyph-name="Oacute" unicode="&#xd3;" horiz-adv-x="795" 
d="M51 353q0 110 41.5 191.5t119.5 126.5t185 45t185 -45t120.5 -126.5t42.5 -190.5q0 -111 -42.5 -192.5t-120.5 -127t-185 -45.5t-184.5 45.5t-119.5 127.5t-42 191zM214 353q0 -109 45.5 -170.5t137.5 -61.5q90 0 137 61.5t47 170.5q0 110 -46.5 170.5t-137.5 60.5
q-92 0 -137.5 -60.5t-45.5 -170.5zM344 765l119 175h153l-166 -175h-106z" />
    <glyph glyph-name="Ocircumflex" unicode="&#xd4;" horiz-adv-x="795" 
d="M51 353q0 110 41.5 191.5t119.5 126.5t185 45t185 -45t120.5 -126.5t42.5 -190.5q0 -111 -42.5 -192.5t-120.5 -127t-185 -45.5t-184.5 45.5t-119.5 127.5t-42 191zM214 353q0 -109 45.5 -170.5t137.5 -61.5q90 0 137 61.5t47 170.5q0 110 -46.5 170.5t-137.5 60.5
q-92 0 -137.5 -60.5t-45.5 -170.5zM209 765l125 175h126l125 -175h-103l-85 95l-85 -95h-103z" />
    <glyph glyph-name="Otilde" unicode="&#xd5;" horiz-adv-x="795" 
d="M51 353q0 110 41.5 191.5t119.5 126.5t185 45t185 -45t120.5 -126.5t42.5 -190.5q0 -111 -42.5 -192.5t-120.5 -127t-185 -45.5t-184.5 45.5t-119.5 127.5t-42 191zM214 353q0 -109 45.5 -170.5t137.5 -61.5q90 0 137 61.5t47 170.5q0 110 -46.5 170.5t-137.5 60.5
q-92 0 -137.5 -60.5t-45.5 -170.5zM237 766l-71 4q5 76 44 116.5t98 40.5q23 0 47.5 -8t56.5 -25q28 -14 45.5 -20.5t31.5 -6.5q29 0 45.5 16.5t22.5 47.5l71 -4q-4 -76 -43.5 -116.5t-97.5 -40.5q-25 0 -49.5 8.5t-58.5 26.5q-27 14 -43 19.5t-31 5.5q-29 0 -45.5 -16
t-22.5 -48z" />
    <glyph glyph-name="Odieresis" unicode="&#xd6;" horiz-adv-x="795" 
d="M51 353q0 110 41.5 191.5t119.5 126.5t185 45t185 -45t120.5 -126.5t42.5 -190.5q0 -111 -42.5 -192.5t-120.5 -127t-185 -45.5t-184.5 45.5t-119.5 127.5t-42 191zM214 353q0 -109 45.5 -170.5t137.5 -61.5q90 0 137 61.5t47 170.5q0 110 -46.5 170.5t-137.5 60.5
q-92 0 -137.5 -60.5t-45.5 -170.5zM430 781v132h132v-132h-132zM232 781v132h132v-132h-132z" />
    <glyph glyph-name="multiply" unicode="&#xd7;" horiz-adv-x="600" 
d="M139 52l-73 72l161 162l-161 161l73 73l161 -161l162 161l73 -73l-162 -161l162 -162l-73 -72l-162 161z" />
    <glyph glyph-name="Oslash" unicode="&#xd8;" horiz-adv-x="795" 
d="M51 353q0 110 41.5 191.5t119.5 126.5t185 45t185 -45t120.5 -126.5t42.5 -190.5q0 -111 -42.5 -192.5t-120.5 -127t-185 -45.5t-184.5 45.5t-119.5 127.5t-42 191zM214 353q0 -109 45.5 -170.5t137.5 -61.5q90 0 137 61.5t47 170.5q0 110 -46.5 170.5t-137.5 60.5
q-92 0 -137.5 -60.5t-45.5 -170.5zM295 51l-68 -119l-99 59l68 118l50 64l245 418l23 64l69 118l98 -59l-68 -118l-50 -63l-245 -419z" />
    <glyph glyph-name="Ugrave" unicode="&#xd9;" horiz-adv-x="746" 
d="M375 -11q-155 0 -231 77t-76 229v410h156v-411q0 -85 36.5 -129t114.5 -44q76 0 113.5 44t37.5 129v411h154v-410q0 -152 -76.5 -229t-228.5 -77zM322 765l-166 175h153l119 -175h-106z" />
    <glyph glyph-name="Uacute" unicode="&#xda;" horiz-adv-x="746" 
d="M375 -11q-155 0 -231 77t-76 229v410h156v-411q0 -85 36.5 -129t114.5 -44q76 0 113.5 44t37.5 129v411h154v-410q0 -152 -76.5 -229t-228.5 -77zM322 765l119 175h153l-166 -175h-106z" />
    <glyph glyph-name="Ucircumflex" unicode="&#xdb;" horiz-adv-x="746" 
d="M375 -11q-155 0 -231 77t-76 229v410h156v-411q0 -85 36.5 -129t114.5 -44q76 0 113.5 44t37.5 129v411h154v-410q0 -152 -76.5 -229t-228.5 -77zM187 765l125 175h126l125 -175h-103l-85 95l-85 -95h-103z" />
    <glyph glyph-name="Udieresis" unicode="&#xdc;" horiz-adv-x="746" 
d="M375 -11q-155 0 -231 77t-76 229v410h156v-411q0 -85 36.5 -129t114.5 -44q76 0 113.5 44t37.5 129v411h154v-410q0 -152 -76.5 -229t-228.5 -77zM408 781v132h132v-132h-132zM210 781v132h132v-132h-132z" />
    <glyph glyph-name="Yacute" unicode="&#xdd;" horiz-adv-x="642" 
d="M243 0v335l32 -89l-309 459h180l194 -302h-32l194 302h174l-308 -459l31 89v-335h-156zM268 765l119 175h153l-166 -175h-106z" />
    <glyph glyph-name="Thorn" unicode="&#xde;" horiz-adv-x="676" 
d="M72 0v705h156v-116h167q118 0 183 -57.5t65 -157.5q0 -99 -65 -157.5t-183 -58.5h-167v-158h-156zM228 279h154q54 0 82.5 25t28.5 70t-28.5 69.5t-82.5 24.5h-154v-189z" />
    <glyph glyph-name="germandbls" unicode="&#xdf;" horiz-adv-x="697" 
d="M62 0v462q0 140 72.5 211.5t213.5 71.5q73 0 126.5 -22.5t83 -64.5t29.5 -103q0 -58 -35.5 -108t-128.5 -87v27q82 -22 138 -50t85 -68t29 -99q0 -55 -27 -95.5t-76.5 -63t-116.5 -22.5q-44 0 -78 7t-61.5 19t-53.5 30l37 100q38 -23 73.5 -36t77.5 -13q40 0 61 18t21 51
q0 28 -19.5 53t-68 48t-133.5 43v113q50 16 80 35t42.5 42t12.5 50q0 39 -26 62.5t-72 23.5q-67 0 -101 -37t-34 -115v-483h-151z" />
    <glyph glyph-name="agrave" unicode="&#xe0;" horiz-adv-x="632" 
d="M259 -11q-66 0 -116 32t-78 91t-28 142q0 82 28 141t78 90.5t116 31.5q61 0 109.5 -29.5t63.5 -79.5h-11l12 99h145q-3 -33 -5.5 -66.5t-2.5 -65.5v-375h-150l-1 95h12q-16 -48 -64 -77t-108 -29zM305 103q52 0 84 37t32 114t-32 113t-84 36t-84 -36t-32 -113t31.5 -114
t84.5 -37zM261 555l-147 205h144l103 -205h-100z" />
    <glyph glyph-name="aacute" unicode="&#xe1;" horiz-adv-x="632" 
d="M259 -11q-66 0 -116 32t-78 91t-28 142q0 82 28 141t78 90.5t116 31.5q61 0 109.5 -29.5t63.5 -79.5h-11l12 99h145q-3 -33 -5.5 -66.5t-2.5 -65.5v-375h-150l-1 95h12q-16 -48 -64 -77t-108 -29zM305 103q52 0 84 37t32 114t-32 113t-84 36t-84 -36t-32 -113t31.5 -114
t84.5 -37zM261 555l103 205h144l-147 -205h-100z" />
    <glyph glyph-name="acircumflex" unicode="&#xe2;" horiz-adv-x="632" 
d="M259 -11q-66 0 -116 32t-78 91t-28 142q0 82 28 141t78 90.5t116 31.5q61 0 109.5 -29.5t63.5 -79.5h-11l12 99h145q-3 -33 -5.5 -66.5t-2.5 -65.5v-375h-150l-1 95h12q-16 -48 -64 -77t-108 -29zM305 103q52 0 84 37t32 114t-32 113t-84 36t-84 -36t-32 -113t31.5 -114
t84.5 -37zM136 555l111 205h128l111 -205h-93l-82 123l-82 -123h-93z" />
    <glyph glyph-name="atilde" unicode="&#xe3;" horiz-adv-x="632" 
d="M259 -11q-66 0 -116 32t-78 91t-28 142q0 82 28 141t78 90.5t116 31.5q61 0 109.5 -29.5t63.5 -79.5h-11l12 99h145q-3 -33 -5.5 -66.5t-2.5 -65.5v-375h-150l-1 95h12q-16 -48 -64 -77t-108 -29zM305 103q52 0 84 37t32 114t-32 113t-84 36t-84 -36t-32 -113t31.5 -114
t84.5 -37zM180 581l-71 4q5 76 40 116.5t87 40.5q23 0 42 -8.5t43 -24.5q20 -15 33.5 -21t26.5 -6q50 0 61 64l71 -4q-4 -76 -39.5 -116.5t-87.5 -40.5q-22 0 -42 8.5t-44 25.5q-19 14 -32 20t-27 6q-28 0 -42 -17t-19 -47z" />
    <glyph glyph-name="adieresis" unicode="&#xe4;" horiz-adv-x="632" 
d="M259 -11q-66 0 -116 32t-78 91t-28 142q0 82 28 141t78 90.5t116 31.5q61 0 109.5 -29.5t63.5 -79.5h-11l12 99h145q-3 -33 -5.5 -66.5t-2.5 -65.5v-375h-150l-1 95h12q-16 -48 -64 -77t-108 -29zM305 103q52 0 84 37t32 114t-32 113t-84 36t-84 -36t-32 -113t31.5 -114
t84.5 -37zM344 590v132h132v-132h-132zM146 590v132h132v-132h-132z" />
    <glyph glyph-name="aring" unicode="&#xe5;" horiz-adv-x="632" 
d="M259 -11q-66 0 -116 32t-78 91t-28 142q0 82 28 141t78 90.5t116 31.5q61 0 109.5 -29.5t63.5 -79.5h-11l12 99h145q-3 -33 -5.5 -66.5t-2.5 -65.5v-375h-150l-1 95h12q-16 -48 -64 -77t-108 -29zM305 103q52 0 84 37t32 114t-32 113t-84 36t-84 -36t-32 -113t31.5 -114
t84.5 -37zM311 545q-36 0 -66 16.5t-47 46t-17 64.5q0 36 17 64.5t47 45t66 16.5q37 0 66.5 -16.5t46.5 -45.5t17 -65q0 -35 -17 -64t-46 -45.5t-67 -16.5zM311 610q27 0 44 17.5t17 43.5q0 28 -17 44.5t-44 16.5q-26 0 -43.5 -16.5t-17.5 -43.5t17.5 -44.5t43.5 -17.5z" />
    <glyph glyph-name="ae" unicode="&#xe6;" horiz-adv-x="866" 
d="M228 -11q-59 0 -102 23t-66 60.5t-23 80.5q0 56 26 89.5t88 48.5t168 15h49v-75h-51q-54 0 -86.5 -7.5t-47 -23.5t-14.5 -42q0 -29 21.5 -48t59.5 -19q31 0 55 13.5t37.5 38.5t13.5 58v121q0 44 -22.5 63t-71.5 19q-42 0 -81 -10t-83 -34l-41 102q40 25 97 40t116 15
q71 0 119 -23.5t70 -72.5h-35q36 48 80.5 72t104.5 24q103 0 163 -66.5t60 -184.5v-35h-346v75h236l-17 -17q0 62 -25.5 94.5t-71.5 32.5q-51 0 -80 -36t-29 -110v-9q0 -81 34 -119.5t103 -38.5q41 0 78.5 10t70.5 35l42 -100q-38 -30 -89.5 -44.5t-106.5 -14.5
q-87 0 -145.5 34.5t-86.5 98.5h27q-19 -63 -70.5 -98t-127.5 -35z" />
    <glyph glyph-name="ccedilla" unicode="&#xe7;" horiz-adv-x="509" 
d="M306 -11q-81 0 -142 32t-94 92t-33 142q0 83 33.5 141.5t94 89.5t141.5 31q51 0 99.5 -15t79.5 -42l-44 -104q-25 23 -57.5 34.5t-62.5 11.5q-61 0 -95 -38t-34 -110t34 -110t95 -38q29 0 61.5 11t58.5 33l44 -103q-32 -27 -80.5 -42.5t-98.5 -15.5zM295 -197
q-31 0 -59.5 6t-50.5 16l21 64q18 -8 36.5 -13t37.5 -5q27 0 40 6.5t13 19.5q0 20 -37 20q-9 0 -18 -0.5t-20 -4.5l-21 20l14 88h76l-13 -76l-37 14q11 4 23.5 6t22.5 2q44 0 70 -19.5t26 -54.5q0 -40 -34.5 -64.5t-89.5 -24.5z" />
    <glyph glyph-name="egrave" unicode="&#xe8;" horiz-adv-x="550" 
d="M317 -11q-132 0 -206 71t-74 193q0 79 31.5 138t88 92.5t132.5 33.5q75 0 125.5 -32t76 -89.5t25.5 -133.5v-35h-355v75h245l-17 -14q0 63 -25.5 95.5t-73.5 32.5q-53 0 -81.5 -39t-28.5 -112v-16q0 -74 36.5 -110t105.5 -36q41 0 77.5 10.5t69.5 33.5l42 -100
q-38 -28 -87.5 -43t-106.5 -15zM239 555l-147 205h144l103 -205h-100z" />
    <glyph glyph-name="eacute" unicode="&#xe9;" horiz-adv-x="550" 
d="M317 -11q-132 0 -206 71t-74 193q0 79 31.5 138t88 92.5t132.5 33.5q75 0 125.5 -32t76 -89.5t25.5 -133.5v-35h-355v75h245l-17 -14q0 63 -25.5 95.5t-73.5 32.5q-53 0 -81.5 -39t-28.5 -112v-16q0 -74 36.5 -110t105.5 -36q41 0 77.5 10.5t69.5 33.5l42 -100
q-38 -28 -87.5 -43t-106.5 -15zM239 555l103 205h144l-147 -205h-100z" />
    <glyph glyph-name="ecircumflex" unicode="&#xea;" horiz-adv-x="550" 
d="M317 -11q-132 0 -206 71t-74 193q0 79 31.5 138t88 92.5t132.5 33.5q75 0 125.5 -32t76 -89.5t25.5 -133.5v-35h-355v75h245l-17 -14q0 63 -25.5 95.5t-73.5 32.5q-53 0 -81.5 -39t-28.5 -112v-16q0 -74 36.5 -110t105.5 -36q41 0 77.5 10.5t69.5 33.5l42 -100
q-38 -28 -87.5 -43t-106.5 -15zM114 555l111 205h128l111 -205h-93l-82 123l-82 -123h-93z" />
    <glyph glyph-name="edieresis" unicode="&#xeb;" horiz-adv-x="550" 
d="M317 -11q-132 0 -206 71t-74 193q0 79 31.5 138t88 92.5t132.5 33.5q75 0 125.5 -32t76 -89.5t25.5 -133.5v-35h-355v75h245l-17 -14q0 63 -25.5 95.5t-73.5 32.5q-53 0 -81.5 -39t-28.5 -112v-16q0 -74 36.5 -110t105.5 -36q41 0 77.5 10.5t69.5 33.5l42 -100
q-38 -28 -87.5 -43t-106.5 -15zM322 590v132h132v-132h-132zM124 590v132h132v-132h-132z" />
    <glyph glyph-name="igrave" unicode="&#xec;" horiz-adv-x="274" 
d="M62 0v507h151v-507h-151zM88 555l-147 205h144l103 -205h-100z" />
    <glyph glyph-name="iacute" unicode="&#xed;" horiz-adv-x="274" 
d="M62 0v507h151v-507h-151zM88 555l103 205h144l-147 -205h-100z" />
    <glyph glyph-name="icircumflex" unicode="&#xee;" horiz-adv-x="274" 
d="M62 0v507h151v-507h-151zM-37 555l111 205h128l111 -205h-93l-82 123l-82 -123h-93z" />
    <glyph glyph-name="idieresis" unicode="&#xef;" horiz-adv-x="274" 
d="M62 0v507h151v-507h-151zM171 590v132h132v-132h-132zM-27 590v132h132v-132h-132z" />
    <glyph glyph-name="eth" unicode="&#xf0;" horiz-adv-x="612" 
d="M299 -11q-78 0 -137.5 29.5t-92 82t-32.5 122.5q0 67 31 118.5t87 80.5t129 29q68 0 113.5 -29.5t68.5 -95.5h-31q-1 70 -32.5 133t-89.5 110l25 -3l-201 -91l-30 66l163 72l-2 -14q-31 18 -66 31.5t-74 21.5l26 94q75 -8 135.5 -32t106.5 -58l-27 3l123 55l31 -65
l-100 -45l6 24q52 -45 84 -102t47.5 -118t15.5 -121q0 -92 -33 -159t-94 -103t-150 -36zM304 104q53 0 83.5 32t30.5 86t-30 85.5t-85 31.5q-53 0 -83.5 -31t-30.5 -86t30.5 -86.5t84.5 -31.5z" />
    <glyph glyph-name="ntilde" unicode="&#xf1;" horiz-adv-x="613" 
d="M62 0v375q0 32 -2 65.5t-6 66.5h145l11 -94h-12q25 50 71 77t107 27q89 0 133.5 -51.5t44.5 -159.5v-306h-151v299q0 55 -20 78t-60 23q-50 0 -80 -31.5t-30 -84.5v-284h-151zM177 581l-71 4q5 76 40 116.5t87 40.5q23 0 42 -8.5t43 -24.5q20 -15 33.5 -21t26.5 -6
q50 0 61 64l71 -4q-4 -76 -39.5 -116.5t-87.5 -40.5q-22 0 -42 8.5t-44 25.5q-19 14 -32 20t-27 6q-28 0 -42 -17t-19 -47z" />
    <glyph glyph-name="ograve" unicode="&#xf2;" horiz-adv-x="604" 
d="M302 -11q-81 0 -140.5 32.5t-92 91.5t-32.5 141q0 81 32.5 140t92 91t140.5 32t141 -32t92.5 -91t32.5 -140q0 -82 -32.5 -141t-92.5 -91.5t-141 -32.5zM302 103q52 0 82.5 37t30.5 114t-30.5 113t-82.5 36t-82.5 -36t-30.5 -113t30.5 -114t82.5 -37zM253 555l-147 205
h144l103 -205h-100z" />
    <glyph glyph-name="oacute" unicode="&#xf3;" horiz-adv-x="604" 
d="M302 -11q-81 0 -140.5 32.5t-92 91.5t-32.5 141q0 81 32.5 140t92 91t140.5 32t141 -32t92.5 -91t32.5 -140q0 -82 -32.5 -141t-92.5 -91.5t-141 -32.5zM302 103q52 0 82.5 37t30.5 114t-30.5 113t-82.5 36t-82.5 -36t-30.5 -113t30.5 -114t82.5 -37zM253 555l103 205
h144l-147 -205h-100z" />
    <glyph glyph-name="ocircumflex" unicode="&#xf4;" horiz-adv-x="604" 
d="M302 -11q-81 0 -140.5 32.5t-92 91.5t-32.5 141q0 81 32.5 140t92 91t140.5 32t141 -32t92.5 -91t32.5 -140q0 -82 -32.5 -141t-92.5 -91.5t-141 -32.5zM302 103q52 0 82.5 37t30.5 114t-30.5 113t-82.5 36t-82.5 -36t-30.5 -113t30.5 -114t82.5 -37zM128 555l111 205
h128l111 -205h-93l-82 123l-82 -123h-93z" />
    <glyph glyph-name="otilde" unicode="&#xf5;" horiz-adv-x="604" 
d="M302 -11q-81 0 -140.5 32.5t-92 91.5t-32.5 141q0 81 32.5 140t92 91t140.5 32t141 -32t92.5 -91t32.5 -140q0 -82 -32.5 -141t-92.5 -91.5t-141 -32.5zM302 103q52 0 82.5 37t30.5 114t-30.5 113t-82.5 36t-82.5 -36t-30.5 -113t30.5 -114t82.5 -37zM172 581l-71 4
q5 76 40 116.5t87 40.5q23 0 42 -8.5t43 -24.5q20 -15 33.5 -21t26.5 -6q50 0 61 64l71 -4q-4 -76 -39.5 -116.5t-87.5 -40.5q-22 0 -42 8.5t-44 25.5q-19 14 -32 20t-27 6q-28 0 -42 -17t-19 -47z" />
    <glyph glyph-name="odieresis" unicode="&#xf6;" horiz-adv-x="604" 
d="M302 -11q-81 0 -140.5 32.5t-92 91.5t-32.5 141q0 81 32.5 140t92 91t140.5 32t141 -32t92.5 -91t32.5 -140q0 -82 -32.5 -141t-92.5 -91.5t-141 -32.5zM302 103q52 0 82.5 37t30.5 114t-30.5 113t-82.5 36t-82.5 -36t-30.5 -113t30.5 -114t82.5 -37zM336 590v132h132
v-132h-132zM138 590v132h132v-132h-132z" />
    <glyph glyph-name="divide" unicode="&#xf7;" horiz-adv-x="600" 
d="M55 235v104h490v-104h-490zM237 34v115h115v-115h-115zM237 425v115h115v-115h-115z" />
    <glyph glyph-name="oslash" unicode="&#xf8;" horiz-adv-x="604" 
d="M302 -11q-81 0 -140.5 32.5t-92 91.5t-32.5 141q0 81 32.5 140t92 91t140.5 32t141 -32t92.5 -91t32.5 -140q0 -82 -32.5 -141t-92.5 -91.5t-141 -32.5zM302 103q62 0 94 39t32 112q0 72 -32 110.5t-94 38.5t-94 -38.5t-32 -110.5q0 -73 32 -112t94 -39zM169 -55l-69 41
l337 576l69 -41z" />
    <glyph glyph-name="ugrave" unicode="&#xf9;" horiz-adv-x="607" 
d="M246 -11q-95 0 -141 52.5t-46 159.5v306h151v-306q0 -48 19.5 -71t60.5 -23q45 0 74.5 31.5t29.5 84.5v284h151v-507h-147v97h14q-23 -51 -65.5 -79.5t-100.5 -28.5zM253 556l-147 205h144l103 -205h-100z" />
    <glyph glyph-name="uacute" unicode="&#xfa;" horiz-adv-x="607" 
d="M246 -11q-95 0 -141 52.5t-46 159.5v306h151v-306q0 -48 19.5 -71t60.5 -23q45 0 74.5 31.5t29.5 84.5v284h151v-507h-147v97h14q-23 -51 -65.5 -79.5t-100.5 -28.5zM253 556l103 205h144l-147 -205h-100z" />
    <glyph glyph-name="ucircumflex" unicode="&#xfb;" horiz-adv-x="607" 
d="M246 -11q-95 0 -141 52.5t-46 159.5v306h151v-306q0 -48 19.5 -71t60.5 -23q45 0 74.5 31.5t29.5 84.5v284h151v-507h-147v97h14q-23 -51 -65.5 -79.5t-100.5 -28.5zM128 556l111 205h128l111 -205h-93l-82 123l-82 -123h-93z" />
    <glyph glyph-name="udieresis" unicode="&#xfc;" horiz-adv-x="607" 
d="M246 -11q-95 0 -141 52.5t-46 159.5v306h151v-306q0 -48 19.5 -71t60.5 -23q45 0 74.5 31.5t29.5 84.5v284h151v-507h-147v97h14q-23 -51 -65.5 -79.5t-100.5 -28.5zM336 591v132h132v-132h-132zM138 591v132h132v-132h-132z" />
    <glyph glyph-name="yacute" unicode="&#xfd;" horiz-adv-x="550" 
d="M57 -227l-35 118q47 9 79.5 21t53.5 31.5t34 50.5l25 59l-4 -58l-220 512h159l145 -367h-31l147 367h150l-229 -527q-25 -57 -53.5 -94.5t-61.5 -59.5t-72.5 -34t-86.5 -19zM224 555l103 205h144l-147 -205h-100z" />
    <glyph glyph-name="thorn" unicode="&#xfe;" horiz-adv-x="632" 
d="M62 -216v952h151v-328h-13q15 50 63 79.5t109 29.5q67 0 117 -31.5t78.5 -90.5t28.5 -141q0 -83 -28.5 -142t-78 -91t-116.5 -32q-61 0 -108.5 29t-63.5 77h12v-311h-151zM327 103q53 0 85 37t32 114t-32 113t-85 36q-52 0 -84.5 -36t-32.5 -113t32.5 -114t84.5 -37z" />
    <glyph glyph-name="ydieresis" unicode="&#xff;" horiz-adv-x="550" 
d="M57 -227l-35 118q47 9 79.5 21t53.5 31.5t34 50.5l25 59l-4 -58l-220 512h159l145 -367h-31l147 367h150l-229 -527q-25 -57 -53.5 -94.5t-61.5 -59.5t-72.5 -34t-86.5 -19zM307 590v132h132v-132h-132zM109 590v132h132v-132h-132z" />
    <glyph glyph-name="Amacron" unicode="&#x100;" horiz-adv-x="759" 
d="M-11 0l324 705h129l328 -705h-158l-85 196l61 -43h-419l62 43l-85 -196h-157zM377 541l-129 -306l-27 38h315l-23 -38l-132 306h-4zM201 801v85h356v-85h-356z" />
    <glyph glyph-name="amacron" unicode="&#x101;" horiz-adv-x="632" 
d="M259 -11q-66 0 -116 32t-78 91t-28 142q0 82 28 141t78 90.5t116 31.5q61 0 109.5 -29.5t63.5 -79.5h-11l12 99h145q-3 -33 -5.5 -66.5t-2.5 -65.5v-375h-150l-1 95h12q-16 -48 -64 -77t-108 -29zM305 103q52 0 84 37t32 114t-32 113t-84 36t-84 -36t-32 -113t31.5 -114
t84.5 -37zM148 611v85h326v-85h-326z" />
    <glyph glyph-name="Abreve" unicode="&#x102;" horiz-adv-x="759" 
d="M-11 0l324 705h129l328 -705h-158l-85 196l61 -43h-419l62 43l-85 -196h-157zM377 541l-129 -306l-27 38h315l-23 -38l-132 306h-4zM379 760q-82 0 -133.5 46.5t-57.5 124.5l83 11q5 -45 33 -70t74 -25q47 0 76 25t33 70l83 -11q-6 -78 -57.5 -124.5t-133.5 -46.5z" />
    <glyph glyph-name="abreve" unicode="&#x103;" horiz-adv-x="632" 
d="M259 -11q-66 0 -116 32t-78 91t-28 142q0 82 28 141t78 90.5t116 31.5q61 0 109.5 -29.5t63.5 -79.5h-11l12 99h145q-3 -33 -5.5 -66.5t-2.5 -65.5v-375h-150l-1 95h12q-16 -48 -64 -77t-108 -29zM305 103q52 0 84 37t32 114t-32 113t-84 36t-84 -36t-32 -113t31.5 -114
t84.5 -37zM311 552q-51 0 -90 24t-60.5 68t-22.5 103l83 8q4 -56 27.5 -85.5t62.5 -29.5q40 0 63 29.5t27 85.5l83 -8q-1 -59 -22.5 -103t-60.5 -68t-90 -24z" />
    <glyph glyph-name="Aogonek" unicode="&#x104;" horiz-adv-x="759" 
d="M-11 0l324 705h129l328 -705h-158l-85 196l61 -43h-419l62 43l-85 -196h-157zM377 541l-129 -306l-27 38h315l-23 -38l-132 306h-4zM693 -197q-60 0 -93 29.5t-33 78.5q0 44 29.5 80t76.5 54l43 -45q-17 -7 -30 -18t-20 -25t-7 -29q0 -23 16 -35.5t39 -12.5q15 0 28 3
t27 8l15 -70q-22 -10 -43 -14t-48 -4z" />
    <glyph glyph-name="aogonek" unicode="&#x105;" horiz-adv-x="632" 
d="M259 -11q-66 0 -116 32t-78 91t-28 142q0 82 28 141t78 90.5t116 31.5q61 0 109.5 -29.5t63.5 -79.5h-11l12 99h145q-3 -33 -5.5 -66.5t-2.5 -65.5v-375h-150l-1 95h12q-16 -48 -64 -77t-108 -29zM305 103q52 0 84 37t32 114t-32 113t-84 36t-84 -36t-32 -113t31.5 -114
t84.5 -37zM519 -197q-60 0 -93 29.5t-33 78.5q0 44 29.5 80t76.5 54l43 -45q-17 -7 -30 -18t-20 -25t-7 -29q0 -23 16 -35.5t39 -12.5q15 0 28 3t27 8l15 -70q-22 -10 -43 -14t-48 -4z" />
    <glyph glyph-name="Cacute" unicode="&#x106;" horiz-adv-x="685" 
d="M413 -11q-113 0 -194 45t-124.5 126.5t-43.5 192.5t43.5 192t124.5 126t194 45q73 0 133 -20.5t102 -59.5l-49 -123q-46 36 -87.5 51t-93.5 15q-99 0 -151.5 -58.5t-52.5 -167.5t52.5 -168t151.5 -59q52 0 93.5 15t87.5 51l49 -123q-42 -38 -102 -59t-133 -21zM349 765
l119 175h153l-166 -175h-106z" />
    <glyph glyph-name="cacute" unicode="&#x107;" horiz-adv-x="509" 
d="M306 -11q-81 0 -142 32t-94 92t-33 142q0 83 33.5 141.5t94 89.5t141.5 31q51 0 99.5 -15t79.5 -42l-44 -104q-25 23 -57.5 34.5t-62.5 11.5q-61 0 -95 -38t-34 -110t34 -110t95 -38q29 0 61.5 11t58.5 33l44 -103q-32 -27 -80.5 -42.5t-98.5 -15.5zM246 555l103 205h144
l-147 -205h-100z" />
    <glyph glyph-name="Ccircumflex" unicode="&#x108;" horiz-adv-x="685" 
d="M413 -11q-113 0 -194 45t-124.5 126.5t-43.5 192.5t43.5 192t124.5 126t194 45q73 0 133 -20.5t102 -59.5l-49 -123q-46 36 -87.5 51t-93.5 15q-99 0 -151.5 -58.5t-52.5 -167.5t52.5 -168t151.5 -59q52 0 93.5 15t87.5 51l49 -123q-42 -38 -102 -59t-133 -21zM214 765
l125 175h126l125 -175h-103l-85 95l-85 -95h-103z" />
    <glyph glyph-name="ccircumflex" unicode="&#x109;" horiz-adv-x="509" 
d="M306 -11q-81 0 -142 32t-94 92t-33 142q0 83 33.5 141.5t94 89.5t141.5 31q51 0 99.5 -15t79.5 -42l-44 -104q-25 23 -57.5 34.5t-62.5 11.5q-61 0 -95 -38t-34 -110t34 -110t95 -38q29 0 61.5 11t58.5 33l44 -103q-32 -27 -80.5 -42.5t-98.5 -15.5zM121 555l111 205h128
l111 -205h-93l-82 123l-82 -123h-93z" />
    <glyph glyph-name="Cdotaccent" unicode="&#x10a;" horiz-adv-x="685" 
d="M413 -11q-113 0 -194 45t-124.5 126.5t-43.5 192.5t43.5 192t124.5 126t194 45q73 0 133 -20.5t102 -59.5l-49 -123q-46 36 -87.5 51t-93.5 15q-99 0 -151.5 -58.5t-52.5 -167.5t52.5 -168t151.5 -59q52 0 93.5 15t87.5 51l49 -123q-42 -38 -102 -59t-133 -21zM332 786
v133h140v-133h-140z" />
    <glyph glyph-name="cdotaccent" unicode="&#x10b;" horiz-adv-x="509" 
d="M306 -11q-81 0 -142 32t-94 92t-33 142q0 83 33.5 141.5t94 89.5t141.5 31q51 0 99.5 -15t79.5 -42l-44 -104q-25 23 -57.5 34.5t-62.5 11.5q-61 0 -95 -38t-34 -110t34 -110t95 -38q29 0 61.5 11t58.5 33l44 -103q-32 -27 -80.5 -42.5t-98.5 -15.5zM226 590v133h140
v-133h-140z" />
    <glyph glyph-name="Ccaron" unicode="&#x10c;" horiz-adv-x="685" 
d="M413 -11q-113 0 -194 45t-124.5 126.5t-43.5 192.5t43.5 192t124.5 126t194 45q73 0 133 -20.5t102 -59.5l-49 -123q-46 36 -87.5 51t-93.5 15q-99 0 -151.5 -58.5t-52.5 -167.5t52.5 -168t151.5 -59q52 0 93.5 15t87.5 51l49 -123q-42 -38 -102 -59t-133 -21zM339 765
l-125 175h103l85 -95l85 95h103l-125 -175h-126z" />
    <glyph glyph-name="ccaron" unicode="&#x10d;" horiz-adv-x="509" 
d="M306 -11q-81 0 -142 32t-94 92t-33 142q0 83 33.5 141.5t94 89.5t141.5 31q51 0 99.5 -15t79.5 -42l-44 -104q-25 23 -57.5 34.5t-62.5 11.5q-61 0 -95 -38t-34 -110t34 -110t95 -38q29 0 61.5 11t58.5 33l44 -103q-32 -27 -80.5 -42.5t-98.5 -15.5zM232 555l-111 205h93
l82 -123l82 123h93l-111 -205h-128z" />
    <glyph glyph-name="Dcaron" unicode="&#x10e;" horiz-adv-x="771" 
d="M72 0v705h269q123 0 208 -42t128.5 -120.5t43.5 -189.5q0 -110 -43.5 -189t-128.5 -121.5t-208 -42.5h-269zM228 128h104q118 0 175.5 55.5t57.5 169.5q0 115 -57.5 170t-175.5 55h-104v-450zM330 765l-125 175h103l85 -95l85 95h103l-125 -175h-126z" />
    <glyph glyph-name="dcaron" unicode="&#x10f;" horiz-adv-x="632" 
d="M261 -11q-66 0 -116.5 32t-79 91t-28.5 142q0 82 28 141t79 90.5t117 31.5q60 0 107.5 -28.5t63.5 -76.5h-13v324h151v-736h-149v99h13q-16 -50 -64 -80t-109 -30zM306 103q52 0 84 37t32 114t-32 113t-84 36t-84.5 -36t-32.5 -113t32.5 -114t84.5 -37zM607 542v194h95
l-28 -194h-67z" />
    <glyph glyph-name="Dcroat" unicode="&#x110;" horiz-adv-x="771" 
d="M72 0v705h269q123 0 208 -42t128.5 -120.5t43.5 -189.5q0 -110 -43.5 -189t-128.5 -121.5t-208 -42.5h-269zM228 128h104q118 0 175.5 55.5t57.5 169.5q0 115 -57.5 170t-175.5 55h-104v-450zM-11 301v111h427v-111h-427z" />
    <glyph glyph-name="dcroat" unicode="&#x111;" horiz-adv-x="632" 
d="M259 -11q-65 0 -115.5 30.5t-78.5 87.5t-28 136t28 135.5t78 87t116 30.5q60 0 107 -28.5t63 -73.5h-11v167h-190v104h190v71h151v-71h88v-104h-88v-561h-149v97h10q-16 -49 -62.5 -78.5t-108.5 -29.5zM305 103q50 0 82.5 35t32.5 105q0 71 -32.5 105t-82.5 34
q-52 0 -84 -34t-32 -105q0 -70 32 -105t84 -35z" />
    <glyph glyph-name="Emacron" unicode="&#x112;" horiz-adv-x="599" 
d="M72 0v705h490v-121h-341v-165h317v-122h-317v-176h341v-121h-490zM158 801v85h356v-85h-356z" />
    <glyph glyph-name="emacron" unicode="&#x113;" horiz-adv-x="550" 
d="M317 -11q-132 0 -206 71t-74 193q0 79 31.5 138t88 92.5t132.5 33.5q75 0 125.5 -32t76 -89.5t25.5 -133.5v-35h-355v75h245l-17 -14q0 63 -25.5 95.5t-73.5 32.5q-53 0 -81.5 -39t-28.5 -112v-16q0 -74 36.5 -110t105.5 -36q41 0 77.5 10.5t69.5 33.5l42 -100
q-38 -28 -87.5 -43t-106.5 -15zM126 611v85h326v-85h-326z" />
    <glyph glyph-name="Ebreve" unicode="&#x114;" horiz-adv-x="599" 
d="M72 0v705h490v-121h-341v-165h317v-122h-317v-176h341v-121h-490zM336 760q-82 0 -133.5 46.5t-57.5 124.5l83 11q5 -45 33 -70t74 -25q47 0 76 25t33 70l83 -11q-6 -78 -57.5 -124.5t-133.5 -46.5z" />
    <glyph glyph-name="ebreve" unicode="&#x115;" horiz-adv-x="550" 
d="M317 -11q-132 0 -206 71t-74 193q0 79 31.5 138t88 92.5t132.5 33.5q75 0 125.5 -32t76 -89.5t25.5 -133.5v-35h-355v75h245l-17 -14q0 63 -25.5 95.5t-73.5 32.5q-53 0 -81.5 -39t-28.5 -112v-16q0 -74 36.5 -110t105.5 -36q41 0 77.5 10.5t69.5 33.5l42 -100
q-38 -28 -87.5 -43t-106.5 -15zM289 552q-51 0 -90 24t-60.5 68t-22.5 103l83 8q4 -56 27.5 -85.5t62.5 -29.5q40 0 63 29.5t27 85.5l83 -8q-1 -59 -22.5 -103t-60.5 -68t-90 -24z" />
    <glyph glyph-name="Edotaccent" unicode="&#x116;" horiz-adv-x="599" 
d="M72 0v705h490v-121h-341v-165h317v-122h-317v-176h341v-121h-490zM266 786v133h140v-133h-140z" />
    <glyph glyph-name="edotaccent" unicode="&#x117;" horiz-adv-x="550" 
d="M317 -11q-132 0 -206 71t-74 193q0 79 31.5 138t88 92.5t132.5 33.5q75 0 125.5 -32t76 -89.5t25.5 -133.5v-35h-355v75h245l-17 -14q0 63 -25.5 95.5t-73.5 32.5q-53 0 -81.5 -39t-28.5 -112v-16q0 -74 36.5 -110t105.5 -36q41 0 77.5 10.5t69.5 33.5l42 -100
q-38 -28 -87.5 -43t-106.5 -15zM219 590v133h140v-133h-140z" />
    <glyph glyph-name="Eogonek" unicode="&#x118;" horiz-adv-x="599" 
d="M72 0v705h490v-121h-341v-165h317v-122h-317v-176h341v-121h-490zM492 -197q-60 0 -93 29.5t-33 78.5q0 44 29.5 80t76.5 54l43 -45q-17 -7 -30 -18t-20 -25t-7 -29q0 -23 16 -35.5t39 -12.5q15 0 28 3t27 8l15 -70q-22 -10 -43 -14t-48 -4z" />
    <glyph glyph-name="eogonek" unicode="&#x119;" horiz-adv-x="550" 
d="M317 -11q-132 0 -206 71t-74 193q0 79 31.5 138t88 92.5t132.5 33.5q75 0 125.5 -32t76 -89.5t25.5 -133.5v-35h-355v75h245l-17 -14q0 63 -25.5 95.5t-73.5 32.5q-53 0 -81.5 -39t-28.5 -112v-16q0 -74 36.5 -110t105.5 -36q41 0 77.5 10.5t69.5 33.5l42 -100
q-38 -28 -87.5 -43t-106.5 -15zM373 -197q-60 0 -93 29.5t-33 78.5q0 44 29.5 80t76.5 54l43 -45q-17 -7 -30 -18t-20 -25t-7 -29q0 -23 16 -35.5t39 -12.5q15 0 28 3t27 8l15 -70q-22 -10 -43 -14t-48 -4z" />
    <glyph glyph-name="Ecaron" unicode="&#x11a;" horiz-adv-x="599" 
d="M72 0v705h490v-121h-341v-165h317v-122h-317v-176h341v-121h-490zM273 765l-125 175h103l85 -95l85 95h103l-125 -175h-126z" />
    <glyph glyph-name="ecaron" unicode="&#x11b;" horiz-adv-x="550" 
d="M317 -11q-132 0 -206 71t-74 193q0 79 31.5 138t88 92.5t132.5 33.5q75 0 125.5 -32t76 -89.5t25.5 -133.5v-35h-355v75h245l-17 -14q0 63 -25.5 95.5t-73.5 32.5q-53 0 -81.5 -39t-28.5 -112v-16q0 -74 36.5 -110t105.5 -36q41 0 77.5 10.5t69.5 33.5l42 -100
q-38 -28 -87.5 -43t-106.5 -15zM225 555l-111 205h93l82 -123l82 123h93l-111 -205h-128z" />
    <glyph glyph-name="Gcircumflex" unicode="&#x11c;" horiz-adv-x="745" 
d="M421 -11q-121 0 -203.5 44.5t-124.5 126t-42 190.5q0 112 45.5 194t131.5 127t206 45q77 0 135.5 -19.5t102.5 -55.5l-50 -121q-32 23 -60 36.5t-58 19t-69 5.5q-110 0 -165.5 -59.5t-55.5 -172.5q0 -112 52 -170t163 -58q37 0 76 7t77 21l-28 -60v190h-155v111h284v-346
q-53 -26 -122.5 -40.5t-139.5 -14.5zM228 765l125 175h126l125 -175h-103l-85 95l-85 -95h-103z" />
    <glyph glyph-name="gcircumflex" unicode="&#x11d;" horiz-adv-x="633" 
d="M303 -224q-73 0 -130 14.5t-102 43.5l29 108q28 -18 59.5 -29.5t65 -17t66.5 -5.5q67 0 100 32t33 91v105h10q-16 -48 -64 -77t-108 -29q-68 0 -118.5 31t-78.5 88t-28 134t28 134t78.5 87.5t118.5 30.5q61 0 107.5 -28.5t62.5 -75.5l-8 4l10 90h146q-4 -33 -6 -66.5
t-2 -65.5v-345q0 -123 -69 -188.5t-200 -65.5zM307 126q53 0 84 36t31 103t-31 102.5t-84 35.5q-55 0 -86.5 -35.5t-31.5 -102.5t31.5 -103t86.5 -36zM146 555l111 205h128l111 -205h-93l-82 123l-82 -123h-93z" />
    <glyph glyph-name="Gbreve" unicode="&#x11e;" horiz-adv-x="745" 
d="M421 -11q-121 0 -203.5 44.5t-124.5 126t-42 190.5q0 112 45.5 194t131.5 127t206 45q77 0 135.5 -19.5t102.5 -55.5l-50 -121q-32 23 -60 36.5t-58 19t-69 5.5q-110 0 -165.5 -59.5t-55.5 -172.5q0 -112 52 -170t163 -58q37 0 76 7t77 21l-28 -60v190h-155v111h284v-346
q-53 -26 -122.5 -40.5t-139.5 -14.5zM416 760q-82 0 -133.5 46.5t-57.5 124.5l83 11q5 -45 33 -70t74 -25q47 0 76 25t33 70l83 -11q-6 -78 -57.5 -124.5t-133.5 -46.5z" />
    <glyph glyph-name="gbreve" unicode="&#x11f;" horiz-adv-x="633" 
d="M303 -224q-73 0 -130 14.5t-102 43.5l29 108q28 -18 59.5 -29.5t65 -17t66.5 -5.5q67 0 100 32t33 91v105h10q-16 -48 -64 -77t-108 -29q-68 0 -118.5 31t-78.5 88t-28 134t28 134t78.5 87.5t118.5 30.5q61 0 107.5 -28.5t62.5 -75.5l-8 4l10 90h146q-4 -33 -6 -66.5
t-2 -65.5v-345q0 -123 -69 -188.5t-200 -65.5zM307 126q53 0 84 36t31 103t-31 102.5t-84 35.5q-55 0 -86.5 -35.5t-31.5 -102.5t31.5 -103t86.5 -36zM321 552q-51 0 -90 24t-60.5 68t-22.5 103l83 8q4 -56 27.5 -85.5t62.5 -29.5q40 0 63 29.5t27 85.5l83 -8
q-1 -59 -22.5 -103t-60.5 -68t-90 -24z" />
    <glyph glyph-name="Gdotaccent" unicode="&#x120;" horiz-adv-x="745" 
d="M421 -11q-121 0 -203.5 44.5t-124.5 126t-42 190.5q0 112 45.5 194t131.5 127t206 45q77 0 135.5 -19.5t102.5 -55.5l-50 -121q-32 23 -60 36.5t-58 19t-69 5.5q-110 0 -165.5 -59.5t-55.5 -172.5q0 -112 52 -170t163 -58q37 0 76 7t77 21l-28 -60v190h-155v111h284v-346
q-53 -26 -122.5 -40.5t-139.5 -14.5zM346 786v133h140v-133h-140z" />
    <glyph glyph-name="gdotaccent" unicode="&#x121;" horiz-adv-x="633" 
d="M303 -224q-73 0 -130 14.5t-102 43.5l29 108q28 -18 59.5 -29.5t65 -17t66.5 -5.5q67 0 100 32t33 91v105h10q-16 -48 -64 -77t-108 -29q-68 0 -118.5 31t-78.5 88t-28 134t28 134t78.5 87.5t118.5 30.5q61 0 107.5 -28.5t62.5 -75.5l-8 4l10 90h146q-4 -33 -6 -66.5
t-2 -65.5v-345q0 -123 -69 -188.5t-200 -65.5zM307 126q53 0 84 36t31 103t-31 102.5t-84 35.5q-55 0 -86.5 -35.5t-31.5 -102.5t31.5 -103t86.5 -36zM251 590v133h140v-133h-140z" />
    <glyph glyph-name="uni0122" unicode="&#x122;" horiz-adv-x="745" 
d="M421 -11q-121 0 -203.5 44.5t-124.5 126t-42 190.5q0 112 45.5 194t131.5 127t206 45q77 0 135.5 -19.5t102.5 -55.5l-50 -121q-32 23 -60 36.5t-58 19t-69 5.5q-110 0 -165.5 -59.5t-55.5 -172.5q0 -112 52 -170t163 -58q37 0 76 7t77 21l-28 -60v190h-155v111h284v-346
q-53 -26 -122.5 -40.5t-139.5 -14.5zM439 -284l-54 36q22 21 30 41t8 42l31 -18h-104v114h149v-71q0 -44 -13.5 -79.5t-46.5 -64.5z" />
    <glyph glyph-name="uni0123" unicode="&#x123;" horiz-adv-x="633" 
d="M303 -224q-73 0 -130 14.5t-102 43.5l29 108q28 -18 59.5 -29.5t65 -17t66.5 -5.5q67 0 100 32t33 91v105h10q-16 -48 -64 -77t-108 -29q-68 0 -118.5 31t-78.5 88t-28 134t28 134t78.5 87.5t118.5 30.5q61 0 107.5 -28.5t62.5 -75.5l-8 4l10 90h146q-4 -33 -6 -66.5
t-2 -65.5v-345q0 -123 -69 -188.5t-200 -65.5zM307 126q53 0 84 36t31 103t-31 102.5t-84 35.5q-55 0 -86.5 -35.5t-31.5 -102.5t31.5 -103t86.5 -36zM246 562v71q0 44 13.5 79.5t47.5 64.5l53 -36q-21 -20 -29.5 -40t-8.5 -43l-31 18h104v-114h-149z" />
    <glyph glyph-name="Hcircumflex" unicode="&#x124;" horiz-adv-x="779" 
d="M72 0v705h156v-283h323v283h157v-705h-157v293h-323v-293h-156zM202 765l125 175h126l125 -175h-103l-85 95l-85 -95h-103z" />
    <glyph glyph-name="hcircumflex" unicode="&#x125;" horiz-adv-x="613" 
d="M62 0v736h151v-324h-15q24 51 71 78t108 27q89 0 133 -51.5t44 -157.5v-308h-151v301q0 53 -19.5 76t-60.5 23q-50 0 -80 -31t-30 -83v-286h-151zM122 786l125 175h126l125 -175h-103l-85 95l-85 -95h-103z" />
    <glyph glyph-name="Hbar" unicode="&#x126;" horiz-adv-x="838" 
d="M102 0v506h-84v111h84v88h156v-88h323v88h156v-88h83v-111h-83v-506h-156v278h-323v-278h-156zM258 407h323v99h-323v-99z" />
    <glyph glyph-name="hbar" unicode="&#x127;" horiz-adv-x="613" 
d="M62 0v561h-89v104h89v71h151v-71h192v-104h-192v-163h-15q24 50 71 77.5t108 27.5q90 0 133.5 -51.5t43.5 -158.5v-293h-151v287q0 52 -19.5 75t-60.5 23q-50 0 -80 -30.5t-30 -81.5v-273h-151z" />
    <glyph glyph-name="Itilde" unicode="&#x128;" horiz-adv-x="299" 
d="M72 0v705h156v-705h-156zM-10 766l-71 4q5 76 44 116.5t98 40.5q23 0 47.5 -8t56.5 -25q28 -14 45.5 -20.5t31.5 -6.5q29 0 45.5 16.5t22.5 47.5l71 -4q-4 -76 -43.5 -116.5t-97.5 -40.5q-25 0 -49.5 8.5t-58.5 26.5q-27 14 -43 19.5t-31 5.5q-29 0 -45.5 -16t-22.5 -48z
" />
    <glyph glyph-name="itilde" unicode="&#x129;" horiz-adv-x="274" 
d="M62 0v507h151v-507h-151zM7 581l-71 4q5 76 40 116.5t87 40.5q23 0 42 -8.5t43 -24.5q20 -15 33.5 -21t26.5 -6q50 0 61 64l71 -4q-4 -76 -39.5 -116.5t-87.5 -40.5q-22 0 -42 8.5t-44 25.5q-19 14 -32 20t-27 6q-28 0 -42 -17t-19 -47z" />
    <glyph glyph-name="Imacron" unicode="&#x12a;" horiz-adv-x="299" 
d="M72 0v705h156v-705h-156zM-28 801v85h356v-85h-356z" />
    <glyph glyph-name="imacron" unicode="&#x12b;" horiz-adv-x="274" 
d="M62 0v507h151v-507h-151zM-25 611v85h326v-85h-326z" />
    <glyph glyph-name="Ibreve" unicode="&#x12c;" horiz-adv-x="299" 
d="M72 0v705h156v-705h-156zM150 760q-82 0 -133.5 46.5t-57.5 124.5l83 11q5 -45 33 -70t74 -25q47 0 76 25t33 70l83 -11q-6 -78 -57.5 -124.5t-133.5 -46.5z" />
    <glyph glyph-name="ibreve" unicode="&#x12d;" horiz-adv-x="274" 
d="M62 0v507h151v-507h-151zM138 552q-51 0 -90 24t-60.5 68t-22.5 103l83 8q4 -56 27.5 -85.5t62.5 -29.5q40 0 63 29.5t27 85.5l83 -8q-1 -59 -22.5 -103t-60.5 -68t-90 -24z" />
    <glyph glyph-name="Iogonek" unicode="&#x12e;" horiz-adv-x="299" 
d="M72 0v705h156v-705h-156zM169 -197q-60 0 -93 29.5t-33 78.5q0 44 29.5 80t76.5 54l43 -45q-17 -7 -30 -18t-20 -25t-7 -29q0 -23 16 -35.5t39 -12.5q15 0 28 3t27 8l15 -70q-22 -10 -43 -14t-48 -4z" />
    <glyph glyph-name="iogonek" unicode="&#x12f;" horiz-adv-x="274" 
d="M62 0v507h151v-507h-151zM56 586v141h164v-141h-164zM156 -197q-60 0 -93 29.5t-33 78.5q0 44 29.5 80t76.5 54l43 -45q-17 -7 -30 -18t-20 -25t-7 -29q0 -23 16 -35.5t39 -12.5q15 0 28 3t27 8l15 -70q-22 -10 -43 -14t-48 -4z" />
    <glyph glyph-name="Idotaccent" unicode="&#x130;" horiz-adv-x="299" 
d="M72 0v705h156v-705h-156zM80 786v133h140v-133h-140z" />
    <glyph glyph-name="dotlessi" unicode="&#x131;" horiz-adv-x="274" 
d="M62 0v507h151v-507h-151z" />
    <glyph glyph-name="IJ" unicode="&#x132;" horiz-adv-x="680" 
d="M72 0v705h156v-705h-156zM395 -187q-18 0 -43 2t-51 7v122q20 -4 38 -6t29 -2q46 0 65 26t19 84v659h156v-659q0 -78 -21.5 -130t-68 -77.5t-123.5 -25.5z" />
    <glyph glyph-name="Jcircumflex" unicode="&#x134;" horiz-adv-x="381" 
d="M96 -187q-18 0 -43 2t-51 7v122q20 -4 38 -6t29 -2q46 0 65 26t19 84v659h156v-659q0 -78 -21.5 -130t-68 -77.5t-123.5 -25.5zM45 765l125 175h126l125 -175h-103l-85 95l-85 -95h-103z" />
    <glyph glyph-name="jcircumflex" unicode="&#x135;" horiz-adv-x="274" 
d="M22 -223q-22 0 -45 3t-42 11v117q13 -4 27.5 -7t29.5 -3q32 0 52 19.5t20 67.5v522h151v-529q0 -99 -46 -150t-147 -51zM-36 555l111 205h128l111 -205h-93l-82 123l-82 -123h-93z" />
    <glyph glyph-name="uni0136" unicode="&#x136;" horiz-adv-x="685" 
d="M72 0v705h156v-307h2l289 307h185l-355 -369l1 64l376 -400h-191l-305 322h-2v-322h-156zM362 -284l-54 36q22 21 30 41t8 42l31 -18h-104v114h149v-71q0 -44 -13.5 -79.5t-46.5 -64.5z" />
    <glyph glyph-name="uni0137" unicode="&#x137;" horiz-adv-x="574" 
d="M62 0v736h151v-440h2l188 211h180l-243 -270v55l256 -292h-185l-196 220h-2v-220h-151zM300 -284l-54 36q22 21 30 41t8 42l31 -18h-104v114h149v-71q0 -44 -13.5 -79.5t-46.5 -64.5z" />
    <glyph glyph-name="kgreenlandic" unicode="&#x138;" horiz-adv-x="574" 
d="M62 0v507h151v-211h2l188 211h180l-243 -270v55l256 -292h-185l-196 220h-2v-220h-151z" />
    <glyph glyph-name="Lacute" unicode="&#x139;" horiz-adv-x="569" 
d="M72 0v705h156v-574h318v-131h-474zM97 765l119 175h153l-166 -175h-106z" />
    <glyph glyph-name="lacute" unicode="&#x13a;" horiz-adv-x="274" 
d="M62 0v736h151v-736h-151zM85 786l119 175h153l-166 -175h-106z" />
    <glyph glyph-name="uni013B" unicode="&#x13b;" horiz-adv-x="569" 
d="M72 0v705h156v-574h318v-131h-474zM330 -284l-54 36q22 21 30 41t8 42l31 -18h-104v114h149v-71q0 -44 -13.5 -79.5t-46.5 -64.5z" />
    <glyph glyph-name="uni013C" unicode="&#x13c;" horiz-adv-x="274" 
d="M62 0v736h151v-736h-151zM152 -284l-54 36q22 21 30 41t8 42l31 -18h-104v114h149v-71q0 -44 -13.5 -79.5t-46.5 -64.5z" />
    <glyph glyph-name="Lcaron" unicode="&#x13d;" horiz-adv-x="569" 
d="M72 0v705h156v-574h318v-131h-474zM329 462v243h112l-24 -243h-88z" />
    <glyph glyph-name="lcaron" unicode="&#x13e;" horiz-adv-x="274" 
d="M62 0v736h151v-736h-151zM251 542v194h95l-28 -194h-67z" />
    <glyph glyph-name="Ldot" unicode="&#x13f;" horiz-adv-x="569" 
d="M72 0v705h156v-574h318v-131h-474zM362 326v140h162v-140h-162z" />
    <glyph glyph-name="ldot" unicode="&#x140;" horiz-adv-x="274" 
d="M62 0v736h151v-736h-151zM262 282v140h162v-140h-162z" />
    <glyph glyph-name="Lslash" unicode="&#x141;" horiz-adv-x="569" 
d="M72 0v705h156v-574h318v-131h-474zM13 214l-56 101l424 244l56 -101z" />
    <glyph glyph-name="lslash" unicode="&#x142;" horiz-adv-x="274" 
d="M62 0v736h151v-736h-151zM3 226l-57 101l327 189l57 -100z" />
    <glyph glyph-name="Nacute" unicode="&#x143;" horiz-adv-x="760" 
d="M72 0v705h116l383 -487h-27v487h145v-705h-116l-382 487h26v-487h-145zM330 765l119 175h153l-166 -175h-106z" />
    <glyph glyph-name="nacute" unicode="&#x144;" horiz-adv-x="613" 
d="M62 0v375q0 32 -2 65.5t-6 66.5h145l11 -94h-12q25 50 71 77t107 27q89 0 133.5 -51.5t44.5 -159.5v-306h-151v299q0 55 -20 78t-60 23q-50 0 -80 -31.5t-30 -84.5v-284h-151zM258 555l103 205h144l-147 -205h-100z" />
    <glyph glyph-name="uni0145" unicode="&#x145;" horiz-adv-x="760" 
d="M72 0v705h116l383 -487h-27v487h145v-705h-116l-382 487h26v-487h-145zM398 -284l-54 36q22 21 30 41t8 42l31 -18h-104v114h149v-71q0 -44 -13.5 -79.5t-46.5 -64.5z" />
    <glyph glyph-name="uni0146" unicode="&#x146;" horiz-adv-x="613" 
d="M62 0v375q0 32 -2 65.5t-6 66.5h145l11 -94h-12q25 50 71 77t107 27q89 0 133.5 -51.5t44.5 -159.5v-306h-151v299q0 55 -20 78t-60 23q-50 0 -80 -31.5t-30 -84.5v-284h-151zM322 -284l-54 36q22 21 30 41t8 42l31 -18h-104v114h149v-71q0 -44 -13.5 -79.5t-46.5 -64.5z
" />
    <glyph glyph-name="Ncaron" unicode="&#x147;" horiz-adv-x="760" 
d="M72 0v705h116l383 -487h-27v487h145v-705h-116l-382 487h26v-487h-145zM320 765l-125 175h103l85 -95l85 95h103l-125 -175h-126z" />
    <glyph glyph-name="ncaron" unicode="&#x148;" horiz-adv-x="613" 
d="M62 0v375q0 32 -2 65.5t-6 66.5h145l11 -94h-12q25 50 71 77t107 27q89 0 133.5 -51.5t44.5 -159.5v-306h-151v299q0 55 -20 78t-60 23q-50 0 -80 -31.5t-30 -84.5v-284h-151zM244 555l-111 205h93l82 -123l82 123h93l-111 -205h-128z" />
    <glyph glyph-name="napostrophe" unicode="&#x149;" horiz-adv-x="697" 
d="M134 564l-53 36q22 19 29.5 39t7.5 40l32 -17h-105v115h149v-71q0 -43 -12.5 -77.5t-47.5 -64.5zM146 0v375q0 32 -2 65.5t-6 66.5h145l11 -94h-12q25 50 71 77t107 27q89 0 133.5 -51.5t44.5 -159.5v-306h-151v299q0 55 -20 78t-60 23q-50 0 -80 -31.5t-30 -84.5v-284
h-151z" />
    <glyph glyph-name="Eng" unicode="&#x14a;" horiz-adv-x="760" 
d="M428 -193l-10 108l52 5q37 3 55.5 22t18.5 56v61l29 -59l-382 487h26v-487h-145v705h116l383 -487h-27v487h145v-686q0 -69 -21 -113.5t-67.5 -67t-126.5 -28.5z" />
    <glyph glyph-name="eng" unicode="&#x14b;" horiz-adv-x="613" 
d="M62 0v375q0 32 -2 65.5t-6 66.5h145l11 -94h-12q25 50 71.5 77t106.5 27q89 0 133.5 -51.5t44.5 -159.5v-326q0 -99 -47.5 -151t-150.5 -52q-23 0 -45 3t-42 11v117q14 -4 27 -7t30 -3q34 0 55.5 20.5t21.5 68.5v312q0 55 -20 78t-59 23q-51 0 -81 -31.5t-30 -84.5v-284
h-151z" />
    <glyph glyph-name="Omacron" unicode="&#x14c;" horiz-adv-x="795" 
d="M51 353q0 110 41.5 191.5t119.5 126.5t185 45t185 -45t120.5 -126.5t42.5 -190.5q0 -111 -42.5 -192.5t-120.5 -127t-185 -45.5t-184.5 45.5t-119.5 127.5t-42 191zM214 353q0 -109 45.5 -170.5t137.5 -61.5q90 0 137 61.5t47 170.5q0 110 -46.5 170.5t-137.5 60.5
q-92 0 -137.5 -60.5t-45.5 -170.5zM219 801v85h356v-85h-356z" />
    <glyph glyph-name="omacron" unicode="&#x14d;" horiz-adv-x="604" 
d="M302 -11q-81 0 -140.5 32.5t-92 91.5t-32.5 141q0 81 32.5 140t92 91t140.5 32t141 -32t92.5 -91t32.5 -140q0 -82 -32.5 -141t-92.5 -91.5t-141 -32.5zM302 103q52 0 82.5 37t30.5 114t-30.5 113t-82.5 36t-82.5 -36t-30.5 -113t30.5 -114t82.5 -37zM140 611v85h326v-85
h-326z" />
    <glyph glyph-name="Obreve" unicode="&#x14e;" horiz-adv-x="795" 
d="M51 353q0 110 41.5 191.5t119.5 126.5t185 45t185 -45t120.5 -126.5t42.5 -190.5q0 -111 -42.5 -192.5t-120.5 -127t-185 -45.5t-184.5 45.5t-119.5 127.5t-42 191zM214 353q0 -109 45.5 -170.5t137.5 -61.5q90 0 137 61.5t47 170.5q0 110 -46.5 170.5t-137.5 60.5
q-92 0 -137.5 -60.5t-45.5 -170.5zM397 760q-82 0 -133.5 46.5t-57.5 124.5l83 11q5 -45 33 -70t74 -25q47 0 76 25t33 70l83 -11q-6 -78 -57.5 -124.5t-133.5 -46.5z" />
    <glyph glyph-name="obreve" unicode="&#x14f;" horiz-adv-x="604" 
d="M302 -11q-81 0 -140.5 32.5t-92 91.5t-32.5 141q0 81 32.5 140t92 91t140.5 32t141 -32t92.5 -91t32.5 -140q0 -82 -32.5 -141t-92.5 -91.5t-141 -32.5zM302 103q52 0 82.5 37t30.5 114t-30.5 113t-82.5 36t-82.5 -36t-30.5 -113t30.5 -114t82.5 -37zM303 552
q-51 0 -90 24t-60.5 68t-22.5 103l83 8q4 -56 27.5 -85.5t62.5 -29.5q40 0 63 29.5t27 85.5l83 -8q-1 -59 -22.5 -103t-60.5 -68t-90 -24z" />
    <glyph glyph-name="Ohungarumlaut" unicode="&#x150;" horiz-adv-x="795" 
d="M51 353q0 110 41.5 191.5t119.5 126.5t185 45t185 -45t120.5 -126.5t42.5 -190.5q0 -111 -42.5 -192.5t-120.5 -127t-185 -45.5t-184.5 45.5t-119.5 127.5t-42 191zM214 353q0 -109 45.5 -170.5t137.5 -61.5q90 0 137 61.5t47 170.5q0 110 -46.5 170.5t-137.5 60.5
q-92 0 -137.5 -60.5t-45.5 -170.5zM275 765l85 175h132l-132 -175h-85zM434 765l98 175h131l-144 -175h-85z" />
    <glyph glyph-name="ohungarumlaut" unicode="&#x151;" horiz-adv-x="604" 
d="M302 -11q-81 0 -140.5 32.5t-92 91.5t-32.5 141q0 81 32.5 140t92 91t140.5 32t141 -32t92.5 -91t32.5 -140q0 -82 -32.5 -141t-92.5 -91.5t-141 -32.5zM302 103q52 0 82.5 37t30.5 114t-30.5 113t-82.5 36t-82.5 -36t-30.5 -113t30.5 -114t82.5 -37zM342 555l47 205h123
l-91 -205h-79zM181 555l47 205h123l-92 -205h-78z" />
    <glyph glyph-name="OE" unicode="&#x152;" horiz-adv-x="1054" 
d="M536 0v705h481v-121h-331v-165h308v-122h-308v-176h331v-121h-481zM384 -11q-104 0 -178.5 45.5t-114.5 127.5t-40 191q0 110 39.5 191.5t114.5 126.5t179 45q44 0 88.5 -10.5t75.5 -38.5v-155q-22 36 -60 54t-91 18q-92 0 -137.5 -60.5t-45.5 -170.5q0 -109 45.5 -170.5
t137.5 -61.5q54 0 92.5 17t60.5 53v-145q-19 -19 -46.5 -31.5t-59 -19t-60.5 -6.5z" />
    <glyph glyph-name="oe" unicode="&#x153;" horiz-adv-x="929" 
d="M300 -11q-79 0 -139 32.5t-92 92.5t-32 141t32 140t92 90.5t139 31.5q74 0 124.5 -29t81.5 -85h-31q31 55 80 84.5t117 29.5q102 0 162.5 -66.5t60.5 -184.5v-36h-349v74h241l-18 -15q0 62 -26 94.5t-72 32.5q-53 0 -81 -38.5t-28 -111.5v-8q0 -82 36.5 -118.5
t107.5 -36.5q40 0 74.5 11t67.5 33l42 -100q-25 -19 -56.5 -32.5t-63.5 -19.5t-59 -6q-87 0 -145.5 31.5t-90.5 88.5h32q-31 -58 -82 -89t-125 -31zM303 103q52 0 82.5 37t30.5 114q0 76 -30.5 112.5t-82.5 36.5q-53 0 -83.5 -36.5t-30.5 -112.5q0 -77 31 -114t83 -37z" />
    <glyph glyph-name="Racute" unicode="&#x154;" horiz-adv-x="708" 
d="M72 0v705h320q119 0 184 -56.5t65 -157.5q0 -66 -29.5 -113.5t-84 -73t-130.5 -25.5l12 22h41q43 0 76.5 -23t55.5 -67l105 -211h-172l-109 227q-12 29 -37.5 38.5t-58.5 9.5h-82v-275h-156zM228 387h137q61 0 93 25t32 74t-32 73.5t-93 24.5h-137v-197zM306 765l119 175
h153l-166 -175h-106z" />
    <glyph glyph-name="racute" unicode="&#x155;" horiz-adv-x="411" 
d="M61 0v373q0 33 -1.5 67t-5.5 67h145l17 -148h-23q10 54 32.5 89t56 52t76.5 17q19 0 30 -1.5t22 -5.5l-1 -133q-21 9 -35.5 11.5t-36.5 2.5q-42 0 -69.5 -16t-41 -47t-13.5 -75v-253h-152zM198 555l103 205h144l-147 -205h-100z" />
    <glyph glyph-name="uni0156" unicode="&#x156;" horiz-adv-x="708" 
d="M72 0v705h320q119 0 184 -56.5t65 -157.5q0 -66 -29.5 -113.5t-84 -73t-130.5 -25.5l12 22h41q43 0 76.5 -23t55.5 -67l105 -211h-172l-109 227q-12 29 -37.5 38.5t-58.5 9.5h-82v-275h-156zM228 387h137q61 0 93 25t32 74t-32 73.5t-93 24.5h-137v-197zM374 -284l-54 36
q22 21 30 41t8 42l31 -18h-104v114h149v-71q0 -44 -13.5 -79.5t-46.5 -64.5z" />
    <glyph glyph-name="uni0157" unicode="&#x157;" horiz-adv-x="411" 
d="M61 0v373q0 33 -1.5 67t-5.5 67h145l17 -148h-23q10 54 32.5 89t56 52t76.5 17q19 0 30 -1.5t22 -5.5l-1 -133q-21 9 -35.5 11.5t-36.5 2.5q-42 0 -69.5 -16t-41 -47t-13.5 -75v-253h-152zM151 -284l-54 36q22 21 30 41t8 42l31 -18h-104v114h149v-71q0 -44 -13.5 -79.5
t-46.5 -64.5z" />
    <glyph glyph-name="Rcaron" unicode="&#x158;" horiz-adv-x="708" 
d="M72 0v705h320q119 0 184 -56.5t65 -157.5q0 -66 -29.5 -113.5t-84 -73t-130.5 -25.5l12 22h41q43 0 76.5 -23t55.5 -67l105 -211h-172l-109 227q-12 29 -37.5 38.5t-58.5 9.5h-82v-275h-156zM228 387h137q61 0 93 25t32 74t-32 73.5t-93 24.5h-137v-197zM296 765
l-125 175h103l85 -95l85 95h103l-125 -175h-126z" />
    <glyph glyph-name="rcaron" unicode="&#x159;" horiz-adv-x="411" 
d="M61 0v373q0 33 -1.5 67t-5.5 67h145l17 -148h-23q10 54 32.5 89t56 52t76.5 17q19 0 30 -1.5t22 -5.5l-1 -133q-21 9 -35.5 11.5t-36.5 2.5q-42 0 -69.5 -16t-41 -47t-13.5 -75v-253h-152zM184 555l-111 205h93l82 -123l82 123h93l-111 -205h-128z" />
    <glyph glyph-name="Sacute" unicode="&#x15a;" horiz-adv-x="658" 
d="M327 -11q-85 0 -159 21t-126 58l46 122q34 -23 72 -39t80 -24.5t88 -8.5q72 0 102.5 22t30.5 56q0 31 -20.5 47.5t-74.5 28.5l-118 24q-97 20 -145 68t-48 128q0 68 36 118t101.5 78t153.5 28q75 0 140 -21t107 -60l-46 -114q-41 33 -91.5 49.5t-112.5 16.5
q-65 0 -99.5 -23t-34.5 -63q0 -30 21 -48.5t74 -29.5l116 -23q99 -20 147 -67t48 -125q0 -66 -35.5 -115t-100 -76.5t-152.5 -27.5zM284 765l119 175h153l-166 -175h-106z" />
    <glyph glyph-name="sacute" unicode="&#x15b;" horiz-adv-x="504" 
d="M249 -11q-68 0 -124 15t-95 42l39 100q39 -24 86.5 -38t94.5 -14q44 0 65 14t21 38q0 20 -13.5 31t-41.5 16l-103 19q-65 13 -99 48t-34 91q0 49 26.5 86.5t76.5 58.5t117 21q57 0 108 -14t87 -43l-41 -97q-31 23 -71.5 37t-77.5 14q-48 0 -69 -15.5t-21 -39.5
q0 -18 12.5 -30t38.5 -18l104 -19q67 -12 102 -45t35 -91q0 -53 -28 -90t-78.5 -57t-116.5 -20zM207 555l103 205h144l-147 -205h-100z" />
    <glyph glyph-name="Scircumflex" unicode="&#x15c;" horiz-adv-x="658" 
d="M327 -11q-85 0 -159 21t-126 58l46 122q34 -23 72 -39t80 -24.5t88 -8.5q72 0 102.5 22t30.5 56q0 31 -20.5 47.5t-74.5 28.5l-118 24q-97 20 -145 68t-48 128q0 68 36 118t101.5 78t153.5 28q75 0 140 -21t107 -60l-46 -114q-41 33 -91.5 49.5t-112.5 16.5
q-65 0 -99.5 -23t-34.5 -63q0 -30 21 -48.5t74 -29.5l116 -23q99 -20 147 -67t48 -125q0 -66 -35.5 -115t-100 -76.5t-152.5 -27.5zM149 765l125 175h126l125 -175h-103l-85 95l-85 -95h-103z" />
    <glyph glyph-name="scircumflex" unicode="&#x15d;" horiz-adv-x="504" 
d="M249 -11q-68 0 -124 15t-95 42l39 100q39 -24 86.5 -38t94.5 -14q44 0 65 14t21 38q0 20 -13.5 31t-41.5 16l-103 19q-65 13 -99 48t-34 91q0 49 26.5 86.5t76.5 58.5t117 21q57 0 108 -14t87 -43l-41 -97q-31 23 -71.5 37t-77.5 14q-48 0 -69 -15.5t-21 -39.5
q0 -18 12.5 -30t38.5 -18l104 -19q67 -12 102 -45t35 -91q0 -53 -28 -90t-78.5 -57t-116.5 -20zM82 555l111 205h128l111 -205h-93l-82 123l-82 -123h-93z" />
    <glyph glyph-name="Scedilla" unicode="&#x15e;" horiz-adv-x="658" 
d="M327 -11q-85 0 -159 21t-126 58l46 122q34 -23 72 -39t80 -24.5t88 -8.5q72 0 102.5 22t30.5 56q0 31 -20.5 47.5t-74.5 28.5l-118 24q-97 20 -145 68t-48 128q0 68 36 118t101.5 78t153.5 28q75 0 140 -21t107 -60l-46 -114q-41 33 -91.5 49.5t-112.5 16.5
q-65 0 -99.5 -23t-34.5 -63q0 -30 21 -48.5t74 -29.5l116 -23q99 -20 147 -67t48 -125q0 -66 -35.5 -115t-100 -76.5t-152.5 -27.5zM332 -197q-31 0 -59.5 6t-50.5 16l21 64q18 -8 36.5 -13t37.5 -5q27 0 40 6.5t13 19.5q0 20 -37 20q-9 0 -18 -0.5t-20 -4.5l-21 20l14 88
h76l-13 -76l-37 14q11 4 23.5 6t22.5 2q44 0 70 -19.5t26 -54.5q0 -40 -34.5 -64.5t-89.5 -24.5z" />
    <glyph glyph-name="scedilla" unicode="&#x15f;" horiz-adv-x="504" 
d="M249 -11q-68 0 -124 15t-95 42l39 100q39 -24 86.5 -38t94.5 -14q44 0 65 14t21 38q0 20 -13.5 31t-41.5 16l-103 19q-65 13 -99 48t-34 91q0 49 26.5 86.5t76.5 58.5t117 21q57 0 108 -14t87 -43l-41 -97q-31 23 -71.5 37t-77.5 14q-48 0 -69 -15.5t-21 -39.5
q0 -18 12.5 -30t38.5 -18l104 -19q67 -12 102 -45t35 -91q0 -53 -28 -90t-78.5 -57t-116.5 -20zM248 -197q-31 0 -59.5 6t-50.5 16l21 64q18 -8 36.5 -13t37.5 -5q27 0 40 6.5t13 19.5q0 20 -37 20q-9 0 -18 -0.5t-20 -4.5l-21 20l14 88h76l-13 -76l-37 14q11 4 23.5 6
t22.5 2q44 0 70 -19.5t26 -54.5q0 -40 -34.5 -64.5t-89.5 -24.5z" />
    <glyph glyph-name="Scaron" unicode="&#x160;" horiz-adv-x="658" 
d="M327 -11q-85 0 -159 21t-126 58l46 122q34 -23 72 -39t80 -24.5t88 -8.5q72 0 102.5 22t30.5 56q0 31 -20.5 47.5t-74.5 28.5l-118 24q-97 20 -145 68t-48 128q0 68 36 118t101.5 78t153.5 28q75 0 140 -21t107 -60l-46 -114q-41 33 -91.5 49.5t-112.5 16.5
q-65 0 -99.5 -23t-34.5 -63q0 -30 21 -48.5t74 -29.5l116 -23q99 -20 147 -67t48 -125q0 -66 -35.5 -115t-100 -76.5t-152.5 -27.5zM274 765l-125 175h103l85 -95l85 95h103l-125 -175h-126z" />
    <glyph glyph-name="scaron" unicode="&#x161;" horiz-adv-x="504" 
d="M249 -11q-68 0 -124 15t-95 42l39 100q39 -24 86.5 -38t94.5 -14q44 0 65 14t21 38q0 20 -13.5 31t-41.5 16l-103 19q-65 13 -99 48t-34 91q0 49 26.5 86.5t76.5 58.5t117 21q57 0 108 -14t87 -43l-41 -97q-31 23 -71.5 37t-77.5 14q-48 0 -69 -15.5t-21 -39.5
q0 -18 12.5 -30t38.5 -18l104 -19q67 -12 102 -45t35 -91q0 -53 -28 -90t-78.5 -57t-116.5 -20zM193 555l-111 205h93l82 -123l82 123h93l-111 -205h-128z" />
    <glyph glyph-name="uni0162" unicode="&#x162;" horiz-adv-x="628" 
d="M235 0v578h-224v127h604v-127h-224v-578h-156zM313 -197q-31 0 -59.5 6t-50.5 16l21 64q18 -8 36.5 -13t37.5 -5q27 0 40 6.5t13 19.5q0 20 -37 20q-9 0 -18 -0.5t-20 -4.5l-21 20l14 88h76l-13 -76l-37 14q11 4 23.5 6t22.5 2q44 0 70 -19.5t26 -54.5q0 -40 -34.5 -64.5
t-89.5 -24.5z" />
    <glyph glyph-name="uni0163" unicode="&#x163;" horiz-adv-x="396" 
d="M299 -11q-99 0 -149 49.5t-50 148.5v207h-96v113h96v124l151 37v-161h130v-113h-130v-199q0 -48 20 -66t51 -18q19 0 31.5 2.5t26.5 7.5v-117q-19 -8 -40 -11.5t-41 -3.5zM248 -197q-31 0 -59.5 6t-50.5 16l21 64q18 -8 36.5 -13t37.5 -5q27 0 40 6.5t13 19.5
q0 20 -37 20q-9 0 -18 -0.5t-20 -4.5l-21 20l14 88h76l-13 -76l-37 14q11 4 23.5 6t22.5 2q44 0 70 -19.5t26 -54.5q0 -40 -34.5 -64.5t-89.5 -24.5z" />
    <glyph glyph-name="Tcaron" unicode="&#x164;" horiz-adv-x="628" 
d="M235 0v578h-224v127h604v-127h-224v-578h-156zM251 765l-125 175h103l85 -95l85 95h103l-125 -175h-126z" />
    <glyph glyph-name="tcaron" unicode="&#x165;" horiz-adv-x="396" 
d="M299 -11q-99 0 -149 49.5t-50 148.5v207h-96v113h96v124l151 37v-161h130v-113h-130v-199q0 -48 20 -66t51 -18q19 0 31.5 2.5t26.5 7.5v-117q-19 -8 -40 -11.5t-41 -3.5zM301 551v175h95l-28 -175h-67z" />
    <glyph glyph-name="Tbar" unicode="&#x166;" horiz-adv-x="628" 
d="M235 0v578h-224v127h604v-127h-224v-578h-156zM100 301v111h427v-111h-427z" />
    <glyph glyph-name="tbar" unicode="&#x167;" horiz-adv-x="396" 
d="M299 -11q-99 0 -149 49.5t-50 148.5v207h-96v113h96v124l151 37v-161h130v-113h-130v-199q0 -48 20 -66t51 -18q19 0 31.5 2.5t26.5 7.5v-117q-19 -8 -40 -11.5t-41 -3.5zM33 222v88h327v-88h-327z" />
    <glyph glyph-name="Utilde" unicode="&#x168;" horiz-adv-x="746" 
d="M375 -11q-155 0 -231 77t-76 229v410h156v-411q0 -85 36.5 -129t114.5 -44q76 0 113.5 44t37.5 129v411h154v-410q0 -152 -76.5 -229t-228.5 -77zM215 766l-71 4q5 76 44 116.5t98 40.5q23 0 47.5 -8t56.5 -25q28 -14 45.5 -20.5t31.5 -6.5q29 0 45.5 16.5t22.5 47.5
l71 -4q-4 -76 -43.5 -116.5t-97.5 -40.5q-25 0 -49.5 8.5t-58.5 26.5q-27 14 -43 19.5t-31 5.5q-29 0 -45.5 -16t-22.5 -48z" />
    <glyph glyph-name="utilde" unicode="&#x169;" horiz-adv-x="607" 
d="M246 -11q-95 0 -141 52.5t-46 159.5v306h151v-306q0 -48 19.5 -71t60.5 -23q45 0 74.5 31.5t29.5 84.5v284h151v-507h-147v97h14q-23 -51 -65.5 -79.5t-100.5 -28.5zM172 582l-71 4q5 76 40 116.5t87 40.5q23 0 42 -8.5t43 -24.5q20 -15 33.5 -21t26.5 -6q50 0 61 64
l71 -4q-4 -76 -39.5 -116.5t-87.5 -40.5q-22 0 -42 8.5t-44 25.5q-19 14 -32 20t-27 6q-28 0 -42 -17t-19 -47z" />
    <glyph glyph-name="Umacron" unicode="&#x16a;" horiz-adv-x="746" 
d="M375 -11q-155 0 -231 77t-76 229v410h156v-411q0 -85 36.5 -129t114.5 -44q76 0 113.5 44t37.5 129v411h154v-410q0 -152 -76.5 -229t-228.5 -77zM197 801v85h356v-85h-356z" />
    <glyph glyph-name="umacron" unicode="&#x16b;" horiz-adv-x="607" 
d="M246 -11q-95 0 -141 52.5t-46 159.5v306h151v-306q0 -48 19.5 -71t60.5 -23q45 0 74.5 31.5t29.5 84.5v284h151v-507h-147v97h14q-23 -51 -65.5 -79.5t-100.5 -28.5zM140 612v85h326v-85h-326z" />
    <glyph glyph-name="Ubreve" unicode="&#x16c;" horiz-adv-x="746" 
d="M375 -11q-155 0 -231 77t-76 229v410h156v-411q0 -85 36.5 -129t114.5 -44q76 0 113.5 44t37.5 129v411h154v-410q0 -152 -76.5 -229t-228.5 -77zM375 760q-82 0 -133.5 46.5t-57.5 124.5l83 11q5 -45 33 -70t74 -25q47 0 76 25t33 70l83 -11q-6 -78 -57.5 -124.5
t-133.5 -46.5z" />
    <glyph glyph-name="ubreve" unicode="&#x16d;" horiz-adv-x="607" 
d="M246 -11q-95 0 -141 52.5t-46 159.5v306h151v-306q0 -48 19.5 -71t60.5 -23q45 0 74.5 31.5t29.5 84.5v284h151v-507h-147v97h14q-23 -51 -65.5 -79.5t-100.5 -28.5zM303 553q-51 0 -90 24t-60.5 68t-22.5 103l83 8q4 -56 27.5 -85.5t62.5 -29.5q40 0 63 29.5t27 85.5
l83 -8q-1 -59 -22.5 -103t-60.5 -68t-90 -24z" />
    <glyph glyph-name="Uring" unicode="&#x16e;" horiz-adv-x="746" 
d="M375 -11q-155 0 -231 77t-76 229v410h156v-411q0 -85 36.5 -129t114.5 -44q76 0 113.5 44t37.5 129v411h154v-410q0 -152 -76.5 -229t-228.5 -77zM375 753q-36 0 -66 17t-47 46t-17 64q0 36 17 64.5t47 45t66 16.5q37 0 66.5 -16.5t46.5 -45t17 -64.5q0 -35 -17 -64
t-46 -46t-67 -17zM375 818q27 0 44 18t17 44q0 27 -17 44t-44 17q-26 0 -43.5 -17.5t-17.5 -43.5t17.5 -44t43.5 -18z" />
    <glyph glyph-name="uring" unicode="&#x16f;" horiz-adv-x="607" 
d="M246 -11q-95 0 -141 52.5t-46 159.5v306h151v-306q0 -48 19.5 -71t60.5 -23q45 0 74.5 31.5t29.5 84.5v284h151v-507h-147v97h14q-23 -51 -65.5 -79.5t-100.5 -28.5zM303 546q-36 0 -66 16.5t-47 46t-17 64.5q0 36 17 64.5t47 45t66 16.5q37 0 66.5 -16.5t46.5 -45.5
t17 -65q0 -35 -17 -64t-46 -45.5t-67 -16.5zM303 611q27 0 44 17.5t17 43.5q0 28 -17 44.5t-44 16.5q-26 0 -43.5 -16.5t-17.5 -43.5t17.5 -44.5t43.5 -17.5z" />
    <glyph glyph-name="Uhungarumlaut" unicode="&#x170;" horiz-adv-x="746" 
d="M375 -11q-155 0 -231 77t-76 229v410h156v-411q0 -85 36.5 -129t114.5 -44q76 0 113.5 44t37.5 129v411h154v-410q0 -152 -76.5 -229t-228.5 -77zM253 765l85 175h132l-132 -175h-85zM412 765l98 175h131l-144 -175h-85z" />
    <glyph glyph-name="uhungarumlaut" unicode="&#x171;" horiz-adv-x="607" 
d="M246 -11q-95 0 -141 52.5t-46 159.5v306h151v-306q0 -48 19.5 -71t60.5 -23q45 0 74.5 31.5t29.5 84.5v284h151v-507h-147v97h14q-23 -51 -65.5 -79.5t-100.5 -28.5zM342 556l47 205h123l-91 -205h-79zM181 556l47 205h123l-92 -205h-78z" />
    <glyph glyph-name="Uogonek" unicode="&#x172;" horiz-adv-x="746" 
d="M375 -11q-155 0 -231 77t-76 229v410h156v-411q0 -85 36.5 -129t114.5 -44q76 0 113.5 44t37.5 129v411h154v-410q0 -152 -76.5 -229t-228.5 -77zM448 -197q-60 0 -93 29.5t-33 78.5q0 44 29.5 80t76.5 54l43 -45q-17 -7 -30 -18t-20 -25t-7 -29q0 -23 16 -35.5t39 -12.5
q15 0 28 3t27 8l15 -70q-22 -10 -43 -14t-48 -4z" />
    <glyph glyph-name="uogonek" unicode="&#x173;" horiz-adv-x="607" 
d="M246 -11q-95 0 -141 52.5t-46 159.5v306h151v-306q0 -48 19.5 -71t60.5 -23q45 0 74.5 31.5t29.5 84.5v284h151v-507h-147v97h14q-23 -51 -65.5 -79.5t-100.5 -28.5zM483 -197q-60 0 -93 29.5t-33 78.5q0 44 29.5 80t76.5 54l43 -45q-17 -7 -30 -18t-20 -25t-7 -29
q0 -23 16 -35.5t39 -12.5q15 0 28 3t27 8l15 -70q-22 -10 -43 -14t-48 -4z" />
    <glyph glyph-name="Wcircumflex" unicode="&#x174;" horiz-adv-x="1126" 
d="M270 0l-250 705h161l179 -544h-43l195 544h114l179 -544h-40l190 544h151l-252 -705h-127l-173 501h23l-179 -501h-128zM376 765l125 175h126l125 -175h-103l-85 95l-85 -95h-103z" />
    <glyph glyph-name="wcircumflex" unicode="&#x175;" horiz-adv-x="891" 
d="M205 0l-204 507h155l134 -365h-26l135 365h100l134 -365h-21l132 365h146l-203 -507h-130l-144 374h61l-139 -374h-130zM271 555l111 205h128l111 -205h-93l-82 123l-82 -123h-93z" />
    <glyph glyph-name="Ycircumflex" unicode="&#x176;" horiz-adv-x="642" 
d="M243 0v335l32 -89l-309 459h180l194 -302h-32l194 302h174l-308 -459l31 89v-335h-156zM133 765l125 175h126l125 -175h-103l-85 95l-85 -95h-103z" />
    <glyph glyph-name="ycircumflex" unicode="&#x177;" horiz-adv-x="550" 
d="M57 -227l-35 118q47 9 79.5 21t53.5 31.5t34 50.5l25 59l-4 -58l-220 512h159l145 -367h-31l147 367h150l-229 -527q-25 -57 -53.5 -94.5t-61.5 -59.5t-72.5 -34t-86.5 -19zM99 555l111 205h128l111 -205h-93l-82 123l-82 -123h-93z" />
    <glyph glyph-name="Ydieresis" unicode="&#x178;" horiz-adv-x="642" 
d="M243 0v335l32 -89l-309 459h180l194 -302h-32l194 302h174l-308 -459l31 89v-335h-156zM354 781v132h132v-132h-132zM156 781v132h132v-132h-132z" />
    <glyph glyph-name="Zacute" unicode="&#x179;" horiz-adv-x="615" 
d="M46 0v115l376 508v-46h-376v128h525v-114l-377 -508v45h391v-128h-539zM263 765l119 175h153l-166 -175h-106z" />
    <glyph glyph-name="zacute" unicode="&#x17a;" horiz-adv-x="530" 
d="M47 0v98l302 332v-36h-302v113h438v-99l-306 -335l-1 39h317v-112h-448zM222 555l103 205h144l-147 -205h-100z" />
    <glyph glyph-name="Zdotaccent" unicode="&#x17b;" horiz-adv-x="615" 
d="M46 0v115l376 508v-46h-376v128h525v-114l-377 -508v45h391v-128h-539zM246 786v133h140v-133h-140z" />
    <glyph glyph-name="zdotaccent" unicode="&#x17c;" horiz-adv-x="530" 
d="M47 0v98l302 332v-36h-302v113h438v-99l-306 -335l-1 39h317v-112h-448zM202 590v133h140v-133h-140z" />
    <glyph glyph-name="Zcaron" unicode="&#x17d;" horiz-adv-x="615" 
d="M46 0v115l376 508v-46h-376v128h525v-114l-377 -508v45h391v-128h-539zM253 765l-125 175h103l85 -95l85 95h103l-125 -175h-126z" />
    <glyph glyph-name="zcaron" unicode="&#x17e;" horiz-adv-x="530" 
d="M47 0v98l302 332v-36h-302v113h438v-99l-306 -335l-1 39h317v-112h-448zM208 555l-111 205h93l82 -123l82 123h93l-111 -205h-128z" />
    <glyph glyph-name="uni0181" unicode="&#x181;" horiz-adv-x="866" 
d="M241 0v597h-23q-48 0 -70 -21.5t-22 -68.5v-50h-127v55q0 95 56.5 144t169.5 49h342q116 0 178.5 -49t62.5 -134q0 -63 -37 -107t-102 -59v16q76 -13 117.5 -57.5t41.5 -115.5q0 -94 -66.5 -146.5t-183.5 -52.5h-337zM391 116h167q62 0 91 23t29 69t-29 69t-91 23h-167
v-184zM391 415h148q61 0 90 22t29 66q0 43 -29 65t-90 22h-148v-175z" />
    <glyph glyph-name="uni018A" unicode="&#x18a;" horiz-adv-x="941" 
d="M241 0v597h-23q-48 0 -70 -21.5t-22 -68.5v-50h-127v55q0 95 56 144t166 49h290q182 0 281 -91.5t99 -260.5t-99 -261t-281 -92h-270zM397 128h104q119 0 176.5 55.5t57.5 169.5q0 115 -57.5 170t-176.5 55h-104v-450z" />
    <glyph glyph-name="uni018F" unicode="&#x18f;" horiz-adv-x="775" 
d="M389 -11q-118 0 -192.5 47.5t-110 131.5t-35.5 194v51h549v-119h-432l39 59q0 -79 16.5 -132t55.5 -79.5t104 -26.5q87 0 136 60t49 179q0 112 -53.5 171t-168.5 59q-42 0 -78 -7t-68 -22t-66 -38l-52 118q53 39 121.5 60t161.5 21q114 0 194.5 -44t122.5 -125t42 -194
q0 -111 -42 -192.5t-117.5 -126.5t-175.5 -45z" />
    <glyph glyph-name="florin" unicode="&#x192;" horiz-adv-x="600" 
d="M27 -191v119h62q33 0 53.5 19t30.5 64l82 386l27 -19h-133v113h151l-30 -19l10 45q18 96 77 147.5t149 51.5h67v-119h-50q-41 0 -63 -19.5t-32 -64.5l-8 -41l-20 19h133v-113h-152l23 20l-84 -391q-20 -95 -76.5 -146.5t-142.5 -51.5h-74z" />
    <glyph glyph-name="Ohorn" unicode="&#x1a0;" horiz-adv-x="795" 
d="M51 353q0 110 41.5 191.5t119.5 126.5t185 45t185 -45t120.5 -126.5t42.5 -190.5q0 -111 -42.5 -192.5t-120.5 -127t-185 -45.5t-184.5 45.5t-119.5 127.5t-42 191zM214 353q0 -109 45.5 -170.5t137.5 -61.5q90 0 137 61.5t47 170.5q0 110 -46.5 170.5t-137.5 60.5
q-92 0 -137.5 -60.5t-45.5 -170.5zM507 633l-40 76q20 -1 34.5 -2.5t28.5 -1.5q32 0 52 8t30 30.5t10 63.5v23h130v-42q0 -42 -18.5 -77t-50.5 -56.5t-73 -21.5h-103z" />
    <glyph glyph-name="ohorn" unicode="&#x1a1;" horiz-adv-x="604" 
d="M302 -11q-81 0 -140.5 32.5t-92 91.5t-32.5 141q0 81 32.5 140t92 91t140.5 32t141 -32t92.5 -91t32.5 -140q0 -82 -32.5 -141t-92.5 -91.5t-141 -32.5zM302 103q52 0 82.5 37t30.5 114t-30.5 113t-82.5 36t-82.5 -36t-30.5 -113t30.5 -114t82.5 -37zM449 434l-90 55v18
q32 0 52 8.5t30 30.5t10 62v24h130v-42q0 -42 -16.5 -75t-46 -54.5t-69.5 -26.5z" />
    <glyph glyph-name="Uhorn" unicode="&#x1af;" horiz-adv-x="746" 
d="M375 -11q-155 0 -231 77t-76 229v410h156v-411q0 -85 36.5 -129t114.5 -44q76 0 113.5 44t37.5 129v411h154v-410q0 -152 -76.5 -229t-228.5 -77zM672 633l-89 55v17q32 1 52 9t29.5 30t9.5 63v23h130v-42q0 -42 -16.5 -75t-46 -54.5t-69.5 -25.5z" />
    <glyph glyph-name="uhorn" unicode="&#x1b0;" horiz-adv-x="607" 
d="M246 -11q-95 0 -141 52.5t-46 159.5v306h151v-306q0 -48 19.5 -71t60.5 -23q45 0 74.5 31.5t29.5 84.5v284h151v-507h-147v97h14q-23 -51 -65.5 -79.5t-100.5 -28.5zM524 434l-90 55v18q32 0 52 8.5t30 30.5t10 62v24h130v-42q0 -42 -16.5 -75t-46 -54.5t-69.5 -26.5z
" />
    <glyph glyph-name="uni01B3" unicode="&#x1b3;" horiz-adv-x="642" 
d="M243 0v362l32 -89l-309 432h180l194 -275h-32l128 185q35 51 81.5 76t111.5 25q22 0 43 -3.5t35 -9.5v-106q-11 4 -23.5 5.5t-27.5 1.5q-25 0 -47.5 -11t-40.5 -36l-200 -284l31 89v-362h-156z" />
    <glyph glyph-name="uni01B4" unicode="&#x1b4;" horiz-adv-x="600" 
d="M57 -227l-35 118q47 9 79.5 21t53.5 31.5t34 50.5l25 59l-4 -58l-220 512h159l145 -367h-31l100 249q24 60 67.5 94t121.5 34q22 0 44 -3.5t36 -8.5l-19 -111q-11 4 -20.5 5t-19.5 1q-29 0 -51.5 -15.5t-40.5 -56.5l-150 -348q-25 -57 -53.5 -94.5t-61.5 -59.5t-72.5 -34
t-86.5 -19z" />
    <glyph glyph-name="uni01C4" unicode="&#x1c4;" horiz-adv-x="1371" 
d="M72 0v705h269q123 0 208 -42t128.5 -120.5t43.5 -189.5q0 -110 -43.5 -189t-128.5 -121.5t-208 -42.5h-269zM228 128h104q118 0 175.5 55.5t57.5 169.5q0 115 -57.5 170t-175.5 55h-104v-450zM802 0v115l376 508v-46h-376v128h525v-114l-377 -508v45h391v-128h-539z
M1009 765l-125 175h103l85 -95l85 95h103l-125 -175h-126z" />
    <glyph glyph-name="uni01C5" unicode="&#x1c5;" horiz-adv-x="1301" 
d="M72 0v705h269q123 0 208 -42t128.5 -120.5t43.5 -189.5q0 -110 -43.5 -189t-128.5 -121.5t-208 -42.5h-269zM228 128h104q118 0 175.5 55.5t57.5 169.5q0 115 -57.5 170t-175.5 55h-104v-450zM818 0v98l302 332v-36h-302v113h438v-99l-306 -335l-1 39h317v-112h-448z
M979 555l-111 205h93l82 -123l82 123h93l-111 -205h-128z" />
    <glyph glyph-name="uni01C6" unicode="&#x1c6;" horiz-adv-x="1162" 
d="M261 -11q-66 0 -116.5 32t-79 91t-28.5 142q0 82 28 141t79 90.5t117 31.5q60 0 107.5 -28.5t63.5 -76.5h-13v324h151v-736h-149v99h13q-16 -50 -64 -80t-109 -30zM306 103q52 0 84 37t32 114t-32 113t-84 36t-84.5 -36t-32.5 -113t32.5 -114t84.5 -37zM679 0v98l302 332
v-36h-302v113h438v-99l-306 -335l-1 39h317v-112h-448zM840 555l-111 205h93l82 -123l82 123h93l-111 -205h-128z" />
    <glyph glyph-name="uni01C7" unicode="&#x1c7;" horiz-adv-x="990" 
d="M72 0v705h156v-574h318v-131h-474zM705 -187q-18 0 -43 2t-51 7v122q20 -4 38 -6t29 -2q46 0 65 26t19 84v659h156v-659q0 -78 -21.5 -130t-68 -77.5t-123.5 -25.5z" />
    <glyph glyph-name="uni01C8" unicode="&#x1c8;" horiz-adv-x="843" 
d="M72 0v705h156v-574h318v-131h-474zM590 -223q-22 0 -45.5 3t-42.5 11v117q14 -4 28.5 -7t28.5 -3q32 0 52.5 19.5t20.5 67.5v522h151v-529q0 -99 -46.5 -150t-146.5 -51zM625 590v141h163v-141h-163z" />
    <glyph glyph-name="uni01C9" unicode="&#x1c9;" horiz-adv-x="548" 
d="M62 0v736h151v-736h-151zM295 -223q-22 0 -45.5 3t-42.5 11v117q14 -4 28.5 -7t28.5 -3q32 0 52.5 19.5t20.5 67.5v522h151v-529q0 -99 -46.5 -150t-146.5 -51zM330 590v141h163v-141h-163z" />
    <glyph glyph-name="uni01CA" unicode="&#x1ca;" horiz-adv-x="1141" 
d="M72 0v705h116l383 -487h-27v487h145v-705h-116l-382 487h26v-487h-145zM856 -187q-18 0 -43 2t-51 7v122q20 -4 38 -6t29 -2q46 0 65 26t19 84v659h156v-659q0 -78 -21.5 -130t-68 -77.5t-123.5 -25.5z" />
    <glyph glyph-name="uni01CB" unicode="&#x1cb;" horiz-adv-x="1034" 
d="M72 0v705h116l383 -487h-27v487h145v-705h-116l-382 487h26v-487h-145zM781 -223q-22 0 -45.5 3t-42.5 11v117q14 -4 28.5 -7t28.5 -3q32 0 52.5 19.5t20.5 67.5v522h151v-529q0 -99 -46.5 -150t-146.5 -51zM816 590v141h163v-141h-163z" />
    <glyph glyph-name="uni01CC" unicode="&#x1cc;" horiz-adv-x="886" 
d="M62 0v375q0 32 -2 65.5t-6 66.5h145l11 -94h-12q25 50 71 77t107 27q89 0 133.5 -51.5t44.5 -159.5v-306h-151v299q0 55 -20 78t-60 23q-50 0 -80 -31.5t-30 -84.5v-284h-151zM634 -223q-22 0 -45.5 3t-42.5 11v117q14 -4 28.5 -7t28.5 -3q32 0 52.5 19.5t20.5 67.5v522
h151v-529q0 -99 -46.5 -150t-146.5 -51zM669 590v141h163v-141h-163z" />
    <glyph glyph-name="uni01CD" unicode="&#x1cd;" horiz-adv-x="759" 
d="M-11 0l324 705h129l328 -705h-158l-85 196l61 -43h-419l62 43l-85 -196h-157zM377 541l-129 -306l-27 38h315l-23 -38l-132 306h-4zM316 765l-125 175h103l85 -95l85 95h103l-125 -175h-126z" />
    <glyph glyph-name="uni01CE" unicode="&#x1ce;" horiz-adv-x="632" 
d="M259 -11q-66 0 -116 32t-78 91t-28 142q0 82 28 141t78 90.5t116 31.5q61 0 109.5 -29.5t63.5 -79.5h-11l12 99h145q-3 -33 -5.5 -66.5t-2.5 -65.5v-375h-150l-1 95h12q-16 -48 -64 -77t-108 -29zM305 103q52 0 84 37t32 114t-32 113t-84 36t-84 -36t-32 -113t31.5 -114
t84.5 -37zM247 555l-111 205h93l82 -123l82 123h93l-111 -205h-128z" />
    <glyph glyph-name="uni01D4" unicode="&#x1d4;" horiz-adv-x="607" 
d="M246 -11q-95 0 -141 52.5t-46 159.5v306h151v-306q0 -48 19.5 -71t60.5 -23q45 0 74.5 31.5t29.5 84.5v284h151v-507h-147v97h14q-23 -51 -65.5 -79.5t-100.5 -28.5zM239 556l-111 205h93l82 -123l82 123h93l-111 -205h-128z" />
    <glyph glyph-name="uni01E5" unicode="&#x1e5;" horiz-adv-x="634" 
d="M302 -223q-73 0 -129.5 13.5t-102.5 43.5l29 110q27 -19 59 -32.5t66 -21t66 -7.5q102 0 126 71l8 -12h-129v63h145l-18 -27q1 7 1.5 13t0.5 12v141h9q-16 -46 -64 -73t-107 -27q-68 0 -118.5 28.5t-78.5 81.5t-28 126t28 126.5t78.5 82t118.5 28.5q59 0 106.5 -27
t63.5 -75l-10 -2l11 94h145q-3 -33 -5.5 -66.5t-2.5 -65.5l1 -344v-19t-1 -19l-15 12h73v-63h-82l19 15q-19 -88 -85.5 -134t-177.5 -46zM305 155q53 0 84.5 32t31.5 91q0 61 -31.5 93t-84.5 32q-54 0 -85 -32t-31 -93q0 -60 31 -91.5t85 -31.5z" />
    <glyph glyph-name="Gcaron" unicode="&#x1e6;" horiz-adv-x="745" 
d="M421 -11q-121 0 -203.5 44.5t-124.5 126t-42 190.5q0 112 45.5 194t131.5 127t206 45q77 0 135.5 -19.5t102.5 -55.5l-50 -121q-32 23 -60 36.5t-58 19t-69 5.5q-110 0 -165.5 -59.5t-55.5 -172.5q0 -112 52 -170t163 -58q37 0 76 7t77 21l-28 -60v190h-155v111h284v-346
q-53 -26 -122.5 -40.5t-139.5 -14.5zM353 765l-125 175h103l85 -95l85 95h103l-125 -175h-126z" />
    <glyph glyph-name="gcaron" unicode="&#x1e7;" horiz-adv-x="633" 
d="M303 -224q-73 0 -130 14.5t-102 43.5l29 108q28 -18 59.5 -29.5t65 -17t66.5 -5.5q67 0 100 32t33 91v105h10q-16 -48 -64 -77t-108 -29q-68 0 -118.5 31t-78.5 88t-28 134t28 134t78.5 87.5t118.5 30.5q61 0 107.5 -28.5t62.5 -75.5l-8 4l10 90h146q-4 -33 -6 -66.5
t-2 -65.5v-345q0 -123 -69 -188.5t-200 -65.5zM307 126q53 0 84 36t31 103t-31 102.5t-84 35.5q-55 0 -86.5 -35.5t-31.5 -102.5t31.5 -103t86.5 -36zM257 555l-111 205h93l82 -123l82 123h93l-111 -205h-128z" />
    <glyph glyph-name="uni01E9" unicode="&#x1e9;" horiz-adv-x="574" 
d="M62 0v736h151v-440h2l188 211h180l-243 -270v55l256 -292h-185l-196 220h-2v-220h-151zM227 786l-125 175h103l85 -95l85 95h103l-125 -175h-126z" />
    <glyph glyph-name="uni01EA" unicode="&#x1ea;" horiz-adv-x="795" 
d="M51 353q0 110 41.5 191.5t119.5 126.5t185 45t185 -45t120.5 -126.5t42.5 -190.5q0 -111 -42.5 -192.5t-120.5 -127t-185 -45.5t-184.5 45.5t-119.5 127.5t-42 191zM214 353q0 -109 45.5 -170.5t137.5 -61.5q90 0 137 61.5t47 170.5q0 110 -46.5 170.5t-137.5 60.5
q-92 0 -137.5 -60.5t-45.5 -170.5zM444 -197q-60 0 -93 29.5t-33 78.5q0 44 29.5 80t76.5 54l43 -45q-17 -7 -30 -18t-20 -25t-7 -29q0 -23 16 -35.5t39 -12.5q15 0 28 3t27 8l15 -70q-22 -10 -43 -14t-48 -4z" />
    <glyph glyph-name="uni01EB" unicode="&#x1eb;" horiz-adv-x="604" 
d="M302 -11q-81 0 -140.5 32.5t-92 91.5t-32.5 141q0 81 32.5 140t92 91t140.5 32t141 -32t92.5 -91t32.5 -140q0 -82 -32.5 -141t-92.5 -91.5t-141 -32.5zM302 103q52 0 82.5 37t30.5 114t-30.5 113t-82.5 36t-82.5 -36t-30.5 -113t30.5 -114t82.5 -37zM337 -197
q-60 0 -93 29.5t-33 78.5q0 44 29.5 80t76.5 54l43 -45q-17 -7 -30 -18t-20 -25t-7 -29q0 -23 16 -35.5t39 -12.5q15 0 28 3t27 8l15 -70q-22 -10 -43 -14t-48 -4z" />
    <glyph glyph-name="Aringacute" unicode="&#x1fa;" horiz-adv-x="759" 
d="M-11 0l324 705h129l328 -705h-158l-85 196l61 -43h-419l62 43l-85 -196h-157zM377 541l-129 -306l-27 38h315l-23 -38l-132 306h-4zM379 753q-34 0 -62.5 16t-45 43.5t-16.5 61.5t16.5 61t45 42.5t62.5 15.5q17 0 33 -4t29 -12l62 57h112l-125 -108q13 -24 13 -52
q0 -34 -16.5 -61.5t-44.5 -43.5t-63 -16zM379 812q27 0 44 17.5t17 44.5q0 26 -17 43.5t-44 17.5q-26 0 -43.5 -17.5t-17.5 -43.5q0 -27 17.5 -44.5t43.5 -17.5z" />
    <glyph glyph-name="aringacute" unicode="&#x1fb;" horiz-adv-x="632" 
d="M259 -11q-66 0 -116 32t-78 91t-28 142q0 82 28 141t78 90.5t116 31.5q61 0 109.5 -29.5t63.5 -79.5h-11l12 99h145q-3 -33 -5.5 -66.5t-2.5 -65.5v-375h-150l-1 95h12q-16 -48 -64 -77t-108 -29zM305 103q52 0 84 37t32 114t-32 113t-84 36t-84 -36t-32 -113t31.5 -114
t84.5 -37zM311 539q-35 0 -63 15.5t-44.5 43t-16.5 60.5q0 34 16.5 61.5t44.5 43.5t63 16q17 0 33 -5t29 -12l62 57h112l-125 -108q13 -24 13 -53q0 -33 -16.5 -60.5t-44.5 -43t-63 -15.5zM311 597q27 0 44 17.5t17 43.5q0 27 -17 44t-44 17q-26 0 -43.5 -17t-17.5 -44
q0 -26 17.5 -43.5t43.5 -17.5z" />
    <glyph glyph-name="AEacute" unicode="&#x1fc;" horiz-adv-x="1023" 
d="M-31 0l446 705h571v-121h-364l24 20l18 -228l-18 43h318v-122h-317l22 10l18 -216l-19 30h318v-121h-433l-15 192l30 -39h-360l45 41l-117 -194h-167zM488 584l-209 -347l-11 37h280l-12 -42l-28 352h-20zM468 765l119 175h153l-166 -175h-106z" />
    <glyph glyph-name="aeacute" unicode="&#x1fd;" horiz-adv-x="866" 
d="M228 -11q-59 0 -102 23t-66 60.5t-23 80.5q0 56 26 89.5t88 48.5t168 15h49v-75h-51q-54 0 -86.5 -7.5t-47 -23.5t-14.5 -42q0 -29 21.5 -48t59.5 -19q31 0 55 13.5t37.5 38.5t13.5 58v121q0 44 -22.5 63t-71.5 19q-42 0 -81 -10t-83 -34l-41 102q40 25 97 40t116 15
q71 0 119 -23.5t70 -72.5h-35q36 48 80.5 72t104.5 24q103 0 163 -66.5t60 -184.5v-35h-346v75h236l-17 -17q0 62 -25.5 94.5t-71.5 32.5q-51 0 -80 -36t-29 -110v-9q0 -81 34 -119.5t103 -38.5q41 0 78.5 10t70.5 35l42 -100q-38 -30 -89.5 -44.5t-106.5 -14.5
q-87 0 -145.5 34.5t-86.5 98.5h27q-19 -63 -70.5 -98t-127.5 -35zM383 555l103 205h144l-147 -205h-100z" />
    <glyph glyph-name="Oslashacute" unicode="&#x1fe;" horiz-adv-x="795" 
d="M51 353q0 110 41.5 191.5t119.5 126.5t185 45t185 -45t120.5 -126.5t42.5 -190.5q0 -111 -42.5 -192.5t-120.5 -127t-185 -45.5t-184.5 45.5t-119.5 127.5t-42 191zM214 353q0 -109 45.5 -170.5t137.5 -61.5q90 0 137 61.5t47 170.5q0 110 -46.5 170.5t-137.5 60.5
q-92 0 -137.5 -60.5t-45.5 -170.5zM295 51l-68 -119l-99 59l68 118l50 64l245 418l23 64l69 118l98 -59l-68 -118l-50 -63l-245 -419zM344 765l119 175h153l-166 -175h-106z" />
    <glyph glyph-name="oslashacute" unicode="&#x1ff;" horiz-adv-x="604" 
d="M302 -11q-81 0 -140.5 32.5t-92 91.5t-32.5 141q0 81 32.5 140t92 91t140.5 32t141 -32t92.5 -91t32.5 -140q0 -82 -32.5 -141t-92.5 -91.5t-141 -32.5zM302 103q62 0 94 39t32 112q0 72 -32 110.5t-94 38.5t-94 -38.5t-32 -110.5q0 -73 32 -112t94 -39zM169 -55l-69 41
l337 576l69 -41zM253 555l103 205h144l-147 -205h-100z" />
    <glyph glyph-name="uni0200" unicode="&#x200;" horiz-adv-x="759" 
d="M-11 0l324 705h129l328 -705h-158l-85 196l61 -43h-419l62 43l-85 -196h-157zM377 541l-129 -306l-27 38h315l-23 -38l-132 306h-4zM416 765l-132 175h132l85 -175h-85zM257 765l-144 175h131l98 -175h-85z" />
    <glyph glyph-name="uni0201" unicode="&#x201;" horiz-adv-x="632" 
d="M259 -11q-66 0 -116 32t-78 91t-28 142q0 82 28 141t78 90.5t116 31.5q61 0 109.5 -29.5t63.5 -79.5h-11l12 99h145q-3 -33 -5.5 -66.5t-2.5 -65.5v-375h-150l-1 95h12q-16 -48 -64 -77t-108 -29zM305 103q52 0 84 37t32 114t-32 113t-84 36t-84 -36t-32 -113t31.5 -114
t84.5 -37zM355 555l-92 205h123l47 -205h-78zM193 555l-91 205h123l47 -205h-79z" />
    <glyph glyph-name="uni0202" unicode="&#x202;" horiz-adv-x="759" 
d="M-11 0l324 705h129l328 -705h-158l-85 196l61 -43h-419l62 43l-85 -196h-157zM377 541l-129 -306l-27 38h315l-23 -38l-132 306h-4zM271 760l-83 11q6 79 57.5 125t133.5 46t133.5 -46t57.5 -125l-83 -11q-4 45 -33 70t-76 25q-46 0 -74 -25t-33 -70z" />
    <glyph glyph-name="uni0203" unicode="&#x203;" horiz-adv-x="632" 
d="M259 -11q-66 0 -116 32t-78 91t-28 142q0 82 28 141t78 90.5t116 31.5q61 0 109.5 -29.5t63.5 -79.5h-11l12 99h145q-3 -33 -5.5 -66.5t-2.5 -65.5v-375h-150l-1 95h12q-16 -48 -64 -77t-108 -29zM305 103q52 0 84 37t32 114t-32 113t-84 36t-84 -36t-32 -113t31.5 -114
t84.5 -37zM221 550l-83 7q1 60 22.5 104t60.5 68t90 24t90 -24t60.5 -68t22.5 -104l-83 -7q-4 55 -27 84.5t-63 29.5q-39 0 -62.5 -29.5t-27.5 -84.5z" />
    <glyph glyph-name="uni0204" unicode="&#x204;" horiz-adv-x="599" 
d="M72 0v705h490v-121h-341v-165h317v-122h-317v-176h341v-121h-490zM373 765l-132 175h132l85 -175h-85zM214 765l-144 175h131l98 -175h-85z" />
    <glyph glyph-name="uni0205" unicode="&#x205;" horiz-adv-x="550" 
d="M317 -11q-132 0 -206 71t-74 193q0 79 31.5 138t88 92.5t132.5 33.5q75 0 125.5 -32t76 -89.5t25.5 -133.5v-35h-355v75h245l-17 -14q0 63 -25.5 95.5t-73.5 32.5q-53 0 -81.5 -39t-28.5 -112v-16q0 -74 36.5 -110t105.5 -36q41 0 77.5 10.5t69.5 33.5l42 -100
q-38 -28 -87.5 -43t-106.5 -15zM333 555l-92 205h123l47 -205h-78zM171 555l-91 205h123l47 -205h-79z" />
    <glyph glyph-name="uni0206" unicode="&#x206;" horiz-adv-x="599" 
d="M72 0v705h490v-121h-341v-165h317v-122h-317v-176h341v-121h-490zM228 760l-83 11q6 79 57.5 125t133.5 46t133.5 -46t57.5 -125l-83 -11q-4 45 -33 70t-76 25q-46 0 -74 -25t-33 -70z" />
    <glyph glyph-name="uni0207" unicode="&#x207;" horiz-adv-x="550" 
d="M317 -11q-132 0 -206 71t-74 193q0 79 31.5 138t88 92.5t132.5 33.5q75 0 125.5 -32t76 -89.5t25.5 -133.5v-35h-355v75h245l-17 -14q0 63 -25.5 95.5t-73.5 32.5q-53 0 -81.5 -39t-28.5 -112v-16q0 -74 36.5 -110t105.5 -36q41 0 77.5 10.5t69.5 33.5l42 -100
q-38 -28 -87.5 -43t-106.5 -15zM199 550l-83 7q1 60 22.5 104t60.5 68t90 24t90 -24t60.5 -68t22.5 -104l-83 -7q-4 55 -27 84.5t-63 29.5q-39 0 -62.5 -29.5t-27.5 -84.5z" />
    <glyph glyph-name="uni0208" unicode="&#x208;" horiz-adv-x="299" 
d="M72 0v705h156v-705h-156zM187 765l-132 175h132l85 -175h-85zM28 765l-144 175h131l98 -175h-85z" />
    <glyph glyph-name="uni0209" unicode="&#x209;" horiz-adv-x="274" 
d="M62 0v507h151v-507h-151zM182 555l-92 205h123l47 -205h-78zM20 555l-91 205h123l47 -205h-79z" />
    <glyph glyph-name="uni020A" unicode="&#x20a;" horiz-adv-x="299" 
d="M72 0v705h156v-705h-156zM42 760l-83 11q6 79 57.5 125t133.5 46t133.5 -46t57.5 -125l-83 -11q-4 45 -33 70t-76 25q-46 0 -74 -25t-33 -70z" />
    <glyph glyph-name="uni020B" unicode="&#x20b;" horiz-adv-x="274" 
d="M62 0v507h151v-507h-151zM48 550l-83 7q1 60 22.5 104t60.5 68t90 24t90 -24t60.5 -68t22.5 -104l-83 -7q-4 55 -27 84.5t-63 29.5q-39 0 -62.5 -29.5t-27.5 -84.5z" />
    <glyph glyph-name="uni020C" unicode="&#x20c;" horiz-adv-x="795" 
d="M51 353q0 110 41.5 191.5t119.5 126.5t185 45t185 -45t120.5 -126.5t42.5 -190.5q0 -111 -42.5 -192.5t-120.5 -127t-185 -45.5t-184.5 45.5t-119.5 127.5t-42 191zM214 353q0 -109 45.5 -170.5t137.5 -61.5q90 0 137 61.5t47 170.5q0 110 -46.5 170.5t-137.5 60.5
q-92 0 -137.5 -60.5t-45.5 -170.5zM434 765l-132 175h132l85 -175h-85zM275 765l-144 175h131l98 -175h-85z" />
    <glyph glyph-name="uni020D" unicode="&#x20d;" horiz-adv-x="604" 
d="M302 -11q-81 0 -140.5 32.5t-92 91.5t-32.5 141q0 81 32.5 140t92 91t140.5 32t141 -32t92.5 -91t32.5 -140q0 -82 -32.5 -141t-92.5 -91.5t-141 -32.5zM302 103q52 0 82.5 37t30.5 114t-30.5 113t-82.5 36t-82.5 -36t-30.5 -113t30.5 -114t82.5 -37zM347 555l-92 205
h123l47 -205h-78zM185 555l-91 205h123l47 -205h-79z" />
    <glyph glyph-name="uni020E" unicode="&#x20e;" horiz-adv-x="795" 
d="M51 353q0 110 41.5 191.5t119.5 126.5t185 45t185 -45t120.5 -126.5t42.5 -190.5q0 -111 -42.5 -192.5t-120.5 -127t-185 -45.5t-184.5 45.5t-119.5 127.5t-42 191zM214 353q0 -109 45.5 -170.5t137.5 -61.5q90 0 137 61.5t47 170.5q0 110 -46.5 170.5t-137.5 60.5
q-92 0 -137.5 -60.5t-45.5 -170.5zM289 760l-83 11q6 79 57.5 125t133.5 46t133.5 -46t57.5 -125l-83 -11q-4 45 -33 70t-76 25q-46 0 -74 -25t-33 -70z" />
    <glyph glyph-name="uni020F" unicode="&#x20f;" horiz-adv-x="604" 
d="M302 -11q-81 0 -140.5 32.5t-92 91.5t-32.5 141q0 81 32.5 140t92 91t140.5 32t141 -32t92.5 -91t32.5 -140q0 -82 -32.5 -141t-92.5 -91.5t-141 -32.5zM302 103q52 0 82.5 37t30.5 114t-30.5 113t-82.5 36t-82.5 -36t-30.5 -113t30.5 -114t82.5 -37zM213 550l-83 7
q1 60 22.5 104t60.5 68t90 24t90 -24t60.5 -68t22.5 -104l-83 -7q-4 55 -27 84.5t-63 29.5q-39 0 -62.5 -29.5t-27.5 -84.5z" />
    <glyph glyph-name="uni0210" unicode="&#x210;" horiz-adv-x="708" 
d="M72 0v705h320q119 0 184 -56.5t65 -157.5q0 -66 -29.5 -113.5t-84 -73t-130.5 -25.5l12 22h41q43 0 76.5 -23t55.5 -67l105 -211h-172l-109 227q-12 29 -37.5 38.5t-58.5 9.5h-82v-275h-156zM228 387h137q61 0 93 25t32 74t-32 73.5t-93 24.5h-137v-197zM396 765
l-132 175h132l85 -175h-85zM237 765l-144 175h131l98 -175h-85z" />
    <glyph glyph-name="uni0211" unicode="&#x211;" horiz-adv-x="411" 
d="M61 0v373q0 33 -1.5 67t-5.5 67h145l17 -148h-23q10 54 32.5 89t56 52t76.5 17q19 0 30 -1.5t22 -5.5l-1 -133q-21 9 -35.5 11.5t-36.5 2.5q-42 0 -69.5 -16t-41 -47t-13.5 -75v-253h-152zM292 555l-92 205h123l47 -205h-78zM130 555l-91 205h123l47 -205h-79z" />
    <glyph glyph-name="uni0212" unicode="&#x212;" horiz-adv-x="708" 
d="M72 0v705h320q119 0 184 -56.5t65 -157.5q0 -66 -29.5 -113.5t-84 -73t-130.5 -25.5l12 22h41q43 0 76.5 -23t55.5 -67l105 -211h-172l-109 227q-12 29 -37.5 38.5t-58.5 9.5h-82v-275h-156zM228 387h137q61 0 93 25t32 74t-32 73.5t-93 24.5h-137v-197zM251 760l-83 11
q6 79 57.5 125t133.5 46t133.5 -46t57.5 -125l-83 -11q-4 45 -33 70t-76 25q-46 0 -74 -25t-33 -70z" />
    <glyph glyph-name="uni0213" unicode="&#x213;" horiz-adv-x="411" 
d="M61 0v373q0 33 -1.5 67t-5.5 67h145l17 -148h-23q10 54 32.5 89t56 52t76.5 17q19 0 30 -1.5t22 -5.5l-1 -133q-21 9 -35.5 11.5t-36.5 2.5q-42 0 -69.5 -16t-41 -47t-13.5 -75v-253h-152zM158 550l-83 7q1 60 22.5 104t60.5 68t90 24t90 -24t60.5 -68t22.5 -104l-83 -7
q-4 55 -27 84.5t-63 29.5q-39 0 -62.5 -29.5t-27.5 -84.5z" />
    <glyph glyph-name="uni0214" unicode="&#x214;" horiz-adv-x="746" 
d="M375 -11q-155 0 -231 77t-76 229v410h156v-411q0 -85 36.5 -129t114.5 -44q76 0 113.5 44t37.5 129v411h154v-410q0 -152 -76.5 -229t-228.5 -77zM412 765l-132 175h132l85 -175h-85zM253 765l-144 175h131l98 -175h-85z" />
    <glyph glyph-name="uni0215" unicode="&#x215;" horiz-adv-x="607" 
d="M246 -11q-95 0 -141 52.5t-46 159.5v306h151v-306q0 -48 19.5 -71t60.5 -23q45 0 74.5 31.5t29.5 84.5v284h151v-507h-147v97h14q-23 -51 -65.5 -79.5t-100.5 -28.5zM347 556l-92 205h123l47 -205h-78zM185 556l-91 205h123l47 -205h-79z" />
    <glyph glyph-name="uni0216" unicode="&#x216;" horiz-adv-x="746" 
d="M375 -11q-155 0 -231 77t-76 229v410h156v-411q0 -85 36.5 -129t114.5 -44q76 0 113.5 44t37.5 129v411h154v-410q0 -152 -76.5 -229t-228.5 -77zM267 760l-83 11q6 79 57.5 125t133.5 46t133.5 -46t57.5 -125l-83 -11q-4 45 -33 70t-76 25q-46 0 -74 -25t-33 -70z" />
    <glyph glyph-name="uni0217" unicode="&#x217;" horiz-adv-x="607" 
d="M246 -11q-95 0 -141 52.5t-46 159.5v306h151v-306q0 -48 19.5 -71t60.5 -23q45 0 74.5 31.5t29.5 84.5v284h151v-507h-147v97h14q-23 -51 -65.5 -79.5t-100.5 -28.5zM213 551l-83 7q1 60 22.5 104t60.5 68t90 24t90 -24t60.5 -68t22.5 -104l-83 -7q-4 55 -27 84.5
t-63 29.5q-39 0 -62.5 -29.5t-27.5 -84.5z" />
    <glyph glyph-name="uni0218" unicode="&#x218;" horiz-adv-x="658" 
d="M327 -11q-85 0 -159 21t-126 58l46 122q34 -23 72 -39t80 -24.5t88 -8.5q72 0 102.5 22t30.5 56q0 31 -20.5 47.5t-74.5 28.5l-118 24q-97 20 -145 68t-48 128q0 68 36 118t101.5 78t153.5 28q75 0 140 -21t107 -60l-46 -114q-41 33 -91.5 49.5t-112.5 16.5
q-65 0 -99.5 -23t-34.5 -63q0 -30 21 -48.5t74 -29.5l116 -23q99 -20 147 -67t48 -125q0 -66 -35.5 -115t-100 -76.5t-152.5 -27.5zM347 -284l-54 36q22 21 30 41t8 42l31 -18h-104v114h149v-71q0 -44 -13.5 -79.5t-46.5 -64.5z" />
    <glyph glyph-name="uni0219" unicode="&#x219;" horiz-adv-x="504" 
d="M249 -11q-68 0 -124 15t-95 42l39 100q39 -24 86.5 -38t94.5 -14q44 0 65 14t21 38q0 20 -13.5 31t-41.5 16l-103 19q-65 13 -99 48t-34 91q0 49 26.5 86.5t76.5 58.5t117 21q57 0 108 -14t87 -43l-41 -97q-31 23 -71.5 37t-77.5 14q-48 0 -69 -15.5t-21 -39.5
q0 -18 12.5 -30t38.5 -18l104 -19q67 -12 102 -45t35 -91q0 -53 -28 -90t-78.5 -57t-116.5 -20zM263 -284l-54 36q22 21 30 41t8 42l31 -18h-104v114h149v-71q0 -44 -13.5 -79.5t-46.5 -64.5z" />
    <glyph glyph-name="uni021A" unicode="&#x21a;" horiz-adv-x="628" 
d="M235 0v578h-224v127h604v-127h-224v-578h-156zM328 -284l-54 36q22 21 30 41t8 42l31 -18h-104v114h149v-71q0 -44 -13.5 -79.5t-46.5 -64.5z" />
    <glyph glyph-name="uni021B" unicode="&#x21b;" horiz-adv-x="396" 
d="M299 -11q-99 0 -149 49.5t-50 148.5v207h-96v113h96v124l151 37v-161h130v-113h-130v-199q0 -48 20 -66t51 -18q19 0 31.5 2.5t26.5 7.5v-117q-19 -8 -40 -11.5t-41 -3.5zM263 -284l-54 36q22 21 30 41t8 42l31 -18h-104v114h149v-71q0 -44 -13.5 -79.5t-46.5 -64.5z" />
    <glyph glyph-name="uni021F" unicode="&#x21f;" horiz-adv-x="613" 
d="M62 0v736h151v-324h-15q24 51 71 78t108 27q89 0 133 -51.5t44 -157.5v-308h-151v301q0 53 -19.5 76t-60.5 23q-50 0 -80 -31t-30 -83v-286h-151zM247 786l-125 175h103l85 -95l85 95h103l-125 -175h-126z" />
    <glyph glyph-name="uni0226" unicode="&#x226;" horiz-adv-x="759" 
d="M-11 0l324 705h129l328 -705h-158l-85 196l61 -43h-419l62 43l-85 -196h-157zM377 541l-129 -306l-27 38h315l-23 -38l-132 306h-4zM309 786v133h140v-133h-140z" />
    <glyph glyph-name="uni0227" unicode="&#x227;" horiz-adv-x="632" 
d="M259 -11q-66 0 -116 32t-78 91t-28 142q0 82 28 141t78 90.5t116 31.5q61 0 109.5 -29.5t63.5 -79.5h-11l12 99h145q-3 -33 -5.5 -66.5t-2.5 -65.5v-375h-150l-1 95h12q-16 -48 -64 -77t-108 -29zM305 103q52 0 84 37t32 114t-32 113t-84 36t-84 -36t-32 -113t31.5 -114
t84.5 -37zM241 590v133h140v-133h-140z" />
    <glyph glyph-name="uni0228" unicode="&#x228;" horiz-adv-x="599" 
d="M72 0v705h490v-121h-341v-165h317v-122h-317v-176h341v-121h-490zM335 -197q-31 0 -59.5 6t-50.5 16l21 64q18 -8 36.5 -13t37.5 -5q27 0 40 6.5t13 19.5q0 20 -37 20q-9 0 -18 -0.5t-20 -4.5l-21 20l14 88h76l-13 -76l-37 14q11 4 23.5 6t22.5 2q44 0 70 -19.5t26 -54.5
q0 -40 -34.5 -64.5t-89.5 -24.5z" />
    <glyph glyph-name="uni022A" unicode="&#x22a;" horiz-adv-x="795" 
d="M51 353q0 110 41.5 191.5t119.5 126.5t185 45t185 -45t120.5 -126.5t42.5 -190.5q0 -111 -42.5 -192.5t-120.5 -127t-185 -45.5t-184.5 45.5t-119.5 127.5t-42 191zM214 353q0 -109 45.5 -170.5t137.5 -61.5q90 0 137 61.5t47 170.5q0 110 -46.5 170.5t-137.5 60.5
q-92 0 -137.5 -60.5t-45.5 -170.5zM234 923v85h326v-85h-326zM232 782v96h132v-96h-132zM430 782v96h132v-96h-132z" />
    <glyph glyph-name="uni022B" unicode="&#x22b;" horiz-adv-x="604" 
d="M302 -11q-81 0 -140.5 32.5t-92 91.5t-32.5 141q0 81 32.5 140t92 91t140.5 32t141 -32t92.5 -91t32.5 -140q0 -82 -32.5 -141t-92.5 -91.5t-141 -32.5zM302 103q52 0 82.5 37t30.5 114t-30.5 113t-82.5 36t-82.5 -36t-30.5 -113t30.5 -114t82.5 -37zM140 709v85h326v-85
h-326zM138 568v95h132v-95h-132zM336 568v95h132v-95h-132z" />
    <glyph glyph-name="uni022C" unicode="&#x22c;" horiz-adv-x="795" 
d="M51 353q0 110 41.5 191.5t119.5 126.5t185 45t185 -45t120.5 -126.5t42.5 -190.5q0 -111 -42.5 -192.5t-120.5 -127t-185 -45.5t-184.5 45.5t-119.5 127.5t-42 191zM214 353q0 -109 45.5 -170.5t137.5 -61.5q90 0 137 61.5t47 170.5q0 110 -46.5 170.5t-137.5 60.5
q-92 0 -137.5 -60.5t-45.5 -170.5zM234 923v85h326v-85h-326zM465 766q-20 0 -39.5 6t-39.5 17q-19 10 -30.5 13.5t-21.5 3.5q-22 0 -34 -10t-17 -30l-66 3q4 56 35 84t78 28q17 0 34 -4.5t42 -16.5q19 -10 31.5 -14t22.5 -4q23 0 35 10t16 30l66 -4q-4 -55 -35 -83.5
t-77 -28.5z" />
    <glyph glyph-name="uni022D" unicode="&#x22d;" horiz-adv-x="604" 
d="M302 -11q-81 0 -140.5 32.5t-92 91.5t-32.5 141q0 81 32.5 140t92 91t140.5 32t141 -32t92.5 -91t32.5 -140q0 -82 -32.5 -141t-92.5 -91.5t-141 -32.5zM302 103q52 0 82.5 37t30.5 114t-30.5 113t-82.5 36t-82.5 -36t-30.5 -113t30.5 -114t82.5 -37zM140 709v85h326v-85
h-326zM189 552l-66 3q4 55 35 83.5t78 28.5q20 0 38 -5.5t37 -16.5q17 -8 30 -12.5t25 -4.5q23 0 35 9.5t16 29.5l66 -3q-4 -56 -35 -84t-77 -28q-20 0 -40 6t-39 16q-15 8 -28 12.5t-24 4.5q-22 0 -34 -9.5t-17 -29.5z" />
    <glyph glyph-name="uni0230" unicode="&#x230;" horiz-adv-x="795" 
d="M51 353q0 110 41.5 191.5t119.5 126.5t185 45t185 -45t120.5 -126.5t42.5 -190.5q0 -111 -42.5 -192.5t-120.5 -127t-185 -45.5t-184.5 45.5t-119.5 127.5t-42 191zM214 353q0 -109 45.5 -170.5t137.5 -61.5q90 0 137 61.5t47 170.5q0 110 -46.5 170.5t-137.5 60.5
q-92 0 -137.5 -60.5t-45.5 -170.5zM234 923v85h326v-85h-326zM332 782v96h131v-96h-131z" />
    <glyph glyph-name="uni0231" unicode="&#x231;" horiz-adv-x="604" 
d="M302 -11q-81 0 -140.5 32.5t-92 91.5t-32.5 141q0 81 32.5 140t92 91t140.5 32t141 -32t92.5 -91t32.5 -140q0 -82 -32.5 -141t-92.5 -91.5t-141 -32.5zM302 103q52 0 82.5 37t30.5 114t-30.5 113t-82.5 36t-82.5 -36t-30.5 -113t30.5 -114t82.5 -37zM140 709v85h326v-85
h-326zM238 568v95h131v-95h-131z" />
    <glyph glyph-name="uni0232" unicode="&#x232;" horiz-adv-x="642" 
d="M243 0v335l32 -89l-309 459h180l194 -302h-32l194 302h174l-308 -459l31 89v-335h-156zM143 801v85h356v-85h-356z" />
    <glyph glyph-name="uni0233" unicode="&#x233;" horiz-adv-x="550" 
d="M57 -227l-35 118q47 9 79.5 21t53.5 31.5t34 50.5l25 59l-4 -58l-220 512h159l145 -367h-31l147 367h150l-229 -527q-25 -57 -53.5 -94.5t-61.5 -59.5t-72.5 -34t-86.5 -19zM111 611v85h326v-85h-326z" />
    <glyph glyph-name="uni0237" unicode="&#x237;" horiz-adv-x="274" 
d="M22 -223q-22 0 -45 3t-42 11v117q13 -4 27.5 -7t29.5 -3q32 0 52 19.5t20 67.5v522h151v-529q0 -99 -46 -150t-147 -51z" />
    <glyph glyph-name="uni0253" unicode="&#x253;" horiz-adv-x="632" 
d="M373 -11q-61 0 -109 30t-64 80h11v-99h-149v540q0 96 55 151.5t162 55.5q18 0 38 -3t34 -8l-17 -112q-12 4 -20.5 5t-19.5 1q-40 0 -60.5 -23.5t-20.5 -68.5v-126h-13q17 48 65 76.5t108 28.5q66 0 116 -31.5t78.5 -90.5t28.5 -141q0 -83 -28.5 -142t-78.5 -91t-116 -32z
M327 103q52 0 84.5 37t32.5 114t-32.5 113t-84.5 36t-84.5 -36t-32.5 -113t32.5 -114t84.5 -37z" />
    <glyph glyph-name="uni0257" unicode="&#x257;" horiz-adv-x="630" 
d="M260 -11q-66 0 -116.5 32t-78.5 91t-28 142q0 82 28 141t78.5 90.5t116.5 31.5q61 0 108 -28.5t63 -76.5h-12v132q0 62 24.5 107.5t72.5 70.5t120 25q18 0 38.5 -3t34.5 -8l-17 -112q-12 4 -21 5t-19 1q-36 0 -59 -21t-23 -71v-538h-149v99h11q-15 -50 -62.5 -80
t-109.5 -30zM305 103q52 0 84 37t32 114t-32 113t-84 36t-84 -36t-32 -113t32 -114t84 -37z" />
    <glyph glyph-name="uni0259" unicode="&#x259;" horiz-adv-x="550" 
d="M261 -11q-106 0 -166 65t-60 178v45h354v-75h-245l17 17q0 -63 26 -95.5t74 -32.5q53 0 81 37t28 101v22q0 79 -36.5 115.5t-111.5 36.5q-36 0 -71.5 -9.5t-69.5 -33.5l-34 104q36 26 87 39.5t113 13.5q82 0 142 -31.5t92.5 -90.5t32.5 -142q0 -77 -31.5 -136.5
t-88 -93.5t-133.5 -34z" />
    <glyph glyph-name="uni02B9" unicode="&#x2b9;" horiz-adv-x="256" 
d="M77 407l-36 298h174l-36 -298h-102z" />
    <glyph glyph-name="uni02BA" unicode="&#x2ba;" horiz-adv-x="481" 
d="M77 407l-36 298h174l-36 -298h-102zM302 407l-36 298h174l-36 -298h-102z" />
    <glyph glyph-name="uni02BB" unicode="&#x2bb;" horiz-adv-x="500" 
d="M175 562v72q0 43 13 78t47 64l54 -37q-22 -19 -29.5 -38.5t-7.5 -40.5l-32 18h104v-116h-149z" />
    <glyph glyph-name="uni02BC" unicode="&#x2bc;" horiz-adv-x="366" 
d="M197 564l-53 36q22 19 29.5 39t7.5 40l32 -17h-105v115h149v-71q0 -43 -12.5 -77.5t-47.5 -64.5z" />
    <glyph glyph-name="uni02BE" unicode="&#x2be;" horiz-adv-x="500" 
d="M250 550v60q20 0 32.5 14.5t12.5 33.5q0 20 -12.5 33.5t-32.5 13.5v61q47 0 78.5 -31.5t31.5 -76.5q0 -46 -31.5 -77t-78.5 -31z" />
    <glyph glyph-name="uni02BF" unicode="&#x2bf;" horiz-adv-x="500" 
d="M250 550q-46 0 -77.5 31t-31.5 77q0 45 31.5 76.5t77.5 31.5v-61q-20 0 -32.5 -13.5t-12.5 -33.5q0 -19 12.5 -33.5t32.5 -14.5v-60z" />
    <glyph glyph-name="circumflex" unicode="&#x2c6;" horiz-adv-x="500" 
d="M75 555l111 205h128l111 -205h-93l-82 123l-82 -123h-93z" />
    <glyph glyph-name="caron" unicode="&#x2c7;" horiz-adv-x="500" 
d="M186 555l-111 205h93l82 -123l82 123h93l-111 -205h-128z" />
    <glyph glyph-name="uni02C8" unicode="&#x2c8;" horiz-adv-x="500" 
d="M204 593v205h93v-205h-93z" />
    <glyph glyph-name="uni02C9" unicode="&#x2c9;" horiz-adv-x="500" 
d="M87 611v85h326v-85h-326z" />
    <glyph glyph-name="uni02CA" unicode="&#x2ca;" horiz-adv-x="500" 
d="M200 555l103 205h144l-147 -205h-100z" />
    <glyph glyph-name="uni02CB" unicode="&#x2cb;" horiz-adv-x="500" 
d="M200 555l-147 205h145l102 -205h-100z" />
    <glyph glyph-name="uni02CC" unicode="&#x2cc;" horiz-adv-x="500" 
d="M204 -270v205h93v-205h-93z" />
    <glyph glyph-name="breve" unicode="&#x2d8;" horiz-adv-x="500" 
d="M250 552q-51 0 -90 24t-60.5 68t-22.5 103l83 8q4 -56 27.5 -85.5t62.5 -29.5q40 0 63 29.5t27 85.5l83 -8q-1 -59 -22.5 -103t-60.5 -68t-90 -24z" />
    <glyph glyph-name="dotaccent" unicode="&#x2d9;" horiz-adv-x="500" 
d="M180 590v133h140v-133h-140z" />
    <glyph glyph-name="ring" unicode="&#x2da;" horiz-adv-x="500" 
d="M250 545q-36 0 -66 16.5t-47 46t-17 64.5q0 36 17 64.5t47 45t66 16.5q37 0 66.5 -16.5t46.5 -45.5t17 -65q0 -35 -17 -64t-46 -45.5t-67 -16.5zM250 610q27 0 44 17.5t17 43.5q0 28 -17 44.5t-44 16.5q-26 0 -43.5 -16.5t-17.5 -43.5t17.5 -44.5t43.5 -17.5z" />
    <glyph glyph-name="ogonek" unicode="&#x2db;" horiz-adv-x="500" 
d="M227 -197q-60 0 -93 29.5t-33 78.5q0 44 29.5 80t76.5 54l43 -45q-17 -7 -30 -18t-20 -25t-7 -29q0 -23 16 -35.5t39 -12.5q15 0 28 3t27 8l15 -70q-22 -10 -43 -14t-48 -4z" />
    <glyph glyph-name="tilde" unicode="&#x2dc;" horiz-adv-x="500" 
d="M119 581l-71 4q5 76 40 116.5t87 40.5q23 0 42 -8.5t43 -24.5q20 -15 33.5 -21t26.5 -6q50 0 61 64l71 -4q-4 -76 -39.5 -116.5t-87.5 -40.5q-22 0 -42 8.5t-44 25.5q-19 14 -32 20t-27 6q-28 0 -42 -17t-19 -47z" />
    <glyph glyph-name="hungarumlaut" unicode="&#x2dd;" horiz-adv-x="500" 
d="M289 555l47 205h123l-91 -205h-79zM128 555l47 205h123l-92 -205h-78z" />
    <glyph glyph-name="gravecomb" unicode="&#x300;" 
d="M-50 555l-147 205h144l103 -205h-100z" />
    <glyph glyph-name="acutecomb" unicode="&#x301;" 
d="M-50 555l103 205h144l-147 -205h-100z" />
    <glyph glyph-name="uni0302" unicode="&#x302;" 
d="M-175 555l111 205h128l111 -205h-93l-82 123l-82 -123h-93z" />
    <glyph glyph-name="tildecomb" unicode="&#x303;" 
d="M-131 581l-71 4q5 76 40 116.5t87 40.5q23 0 42 -8.5t43 -24.5q20 -15 33.5 -21t26.5 -6q50 0 61 64l71 -4q-4 -76 -39.5 -116.5t-87.5 -40.5q-22 0 -42 8.5t-44 25.5q-19 14 -32 20t-27 6q-28 0 -42 -17t-19 -47z" />
    <glyph glyph-name="uni0304" unicode="&#x304;" 
d="M-163 611v85h326v-85h-326z" />
    <glyph glyph-name="uni0306" unicode="&#x306;" 
d="M0 552q-51 0 -90 24t-60.5 68t-22.5 103l83 8q4 -56 27.5 -85.5t62.5 -29.5q40 0 63 29.5t27 85.5l83 -8q-1 -59 -22.5 -103t-60.5 -68t-90 -24z" />
    <glyph glyph-name="uni0307" unicode="&#x307;" 
d="M-70 590v133h140v-133h-140z" />
    <glyph glyph-name="uni0308" unicode="&#x308;" 
d="M33 590v132h132v-132h-132zM-165 590v132h132v-132h-132z" />
    <glyph glyph-name="hookabovecomb" unicode="&#x309;" 
d="M-44 555v22q0 20 7.5 33t18 22.5t18.5 19t8 22.5q0 12 -9.5 17.5t-26.5 5.5q-16 0 -30 -3.5t-30 -11.5l-22 61q23 13 52.5 19t64.5 6q53 0 83 -19t30 -55q0 -25 -11.5 -40.5t-26.5 -27t-26.5 -23.5t-11.5 -31v-17h-88z" />
    <glyph glyph-name="uni030A" unicode="&#x30a;" 
d="M0 545q-36 0 -66 16.5t-47 46t-17 64.5q0 36 17 64.5t47 45t66 16.5q37 0 66.5 -16.5t46.5 -45.5t17 -65q0 -35 -17 -64t-46 -45.5t-67 -16.5zM0 610q27 0 44 17.5t17 43.5q0 28 -17 44.5t-44 16.5q-26 0 -43.5 -16.5t-17.5 -43.5t17.5 -44.5t43.5 -17.5z" />
    <glyph glyph-name="uni030B" unicode="&#x30b;" 
d="M39 555l47 205h123l-91 -205h-79zM-122 555l47 205h123l-92 -205h-78z" />
    <glyph glyph-name="uni030C" unicode="&#x30c;" 
d="M-64 555l-111 205h93l82 -123l82 123h93l-111 -205h-128z" />
    <glyph glyph-name="uni030F" unicode="&#x30f;" 
d="M44 555l-92 205h123l47 -205h-78zM-118 555l-91 205h123l47 -205h-79z" />
    <glyph glyph-name="uni0311" unicode="&#x311;" 
d="M-90 552l-83 7q1 60 22.5 104t60.5 68t90 24t90 -24t60.5 -68t22.5 -104l-83 -7q-4 55 -27 84.5t-63 29.5q-39 0 -62.5 -29.5t-27.5 -84.5z" />
    <glyph glyph-name="uni0312" unicode="&#x312;" 
d="M-75 562v71q0 44 13.5 79.5t47.5 64.5l53 -36q-21 -20 -29.5 -40t-8.5 -43l-31 18h104v-114h-149z" />
    <glyph glyph-name="uni031B" unicode="&#x31b;" 
d="M89 418l-90 55v18q32 0 52 8.5t30 30.5t10 62v24h130v-42q0 -42 -16.5 -75t-46 -54.5t-69.5 -26.5z" />
    <glyph glyph-name="dotbelowcomb" unicode="&#x323;" 
d="M-70 -214v133h140v-133h-140z" />
    <glyph glyph-name="uni0324" unicode="&#x324;" 
d="M33 -199v132h132v-132h-132zM-165 -199v132h132v-132h-132z" />
    <glyph glyph-name="uni0326" unicode="&#x326;" 
d="M14 -284l-54 36q22 21 30 41t8 42l31 -18h-104v114h149v-71q0 -44 -13.5 -79.5t-46.5 -64.5z" />
    <glyph glyph-name="uni0327" unicode="&#x327;" 
d="M-1 -197q-31 0 -59.5 6t-50.5 16l21 64q18 -8 36.5 -13t37.5 -5q27 0 40 6.5t13 19.5q0 20 -37 20q-9 0 -18 -0.5t-20 -4.5l-21 20l14 88h76l-13 -76l-37 14q11 4 23.5 6t22.5 2q44 0 70 -19.5t26 -54.5q0 -40 -34.5 -64.5t-89.5 -24.5z" />
    <glyph glyph-name="uni0328" unicode="&#x328;" 
d="M-23 -197q-60 0 -93 29.5t-33 78.5q0 44 29.5 80t76.5 54l43 -45q-17 -7 -30 -18t-20 -25t-7 -29q0 -23 16 -35.5t39 -12.5q15 0 28 3t27 8l15 -70q-22 -10 -43 -14t-48 -4z" />
    <glyph glyph-name="uni032E" unicode="&#x32e;" 
d="M0 -215q-76 0 -124 42t-49 113l83 8q4 -35 27.5 -56t62.5 -21q40 0 63 21t27 56l83 -8q-1 -71 -48.5 -113t-124.5 -42z" />
    <glyph glyph-name="uni0331" unicode="&#x331;" 
d="M-163 -170v85h326v-85h-326z" />
    <glyph glyph-name="uni0335" unicode="&#x335;" 
d="M-211 534v104h422v-104h-422z" />
    <glyph glyph-name="uni0337" unicode="&#x337;" 
d="M-135 213l-57 101l327 189l57 -100z" />
    <glyph glyph-name="uni0338" unicode="&#x338;" 
d="M11 -62l-69 41l337 576l69 -41z" />
    <glyph glyph-name="uni0394" unicode="&#x394;" horiz-adv-x="757" 
d="M32 0v87l284 618h124l284 -618v-87h-692zM377 544l-201 -463v40h405v-40l-202 463h-2z" />
    <glyph glyph-name="Sigma" unicode="&#x3a3;" horiz-adv-x="620" 
d="M49 -180v110l253 356v-46l-253 355v110h528v-127h-361v32l215 -307v-81l-215 -307v32h361v-127h-528z" />
    <glyph glyph-name="uni03A9" unicode="&#x3a9;" horiz-adv-x="819" 
d="M39 0v125h236v-31q-118 54 -171 130.5t-53 181.5q0 96 45 165t125.5 106.5t188.5 37.5q77 0 142 -21t113.5 -61.5t75.5 -98t27 -128.5q0 -105 -53 -181.5t-171 -130.5v31h237v-125h-322v121q78 54 112.5 119.5t34.5 142.5q0 97 -53.5 149t-142.5 52q-97 0 -147 -52
t-50 -149q0 -77 35 -142.5t112 -119.5v-121h-321z" />
    <glyph glyph-name="uni03BC" unicode="&#x3bc;" horiz-adv-x="607" 
d="M59 -216v723h151v-306q0 -48 19.5 -71t60.5 -23q45 0 74.5 31.5t29.5 84.5v284h151v-507h-147v97h1q-10 -51 -42 -79.5t-72 -28.5q-32 0 -53 12t-36 40h3l11 -257h-151z" />
    <glyph glyph-name="pi" unicode="&#x3c0;" horiz-adv-x="634" 
d="M35 0q23 74 37.5 138.5t22 127t8.5 128.5h-98v113h597v-113h-95v-199q0 -42 17.5 -62.5t62.5 -25.5l40 -5l-10 -111l-51 3q-61 4 -102 17.5t-65 39.5t-33.5 66.5t-9.5 96.5v180h-103q-1 -82 -8 -149.5t-20.5 -127t-34.5 -117.5h-155z" />
    <glyph glyph-name="uni0400" unicode="&#x400;" horiz-adv-x="599" 
d="M72 0v705h490v-121h-341v-165h317v-122h-317v-176h341v-121h-490zM287 765l-166 175h153l119 -175h-106z" />
    <glyph glyph-name="uni0401" unicode="&#x401;" horiz-adv-x="599" 
d="M72 0v705h490v-121h-341v-165h317v-122h-317v-176h341v-121h-490zM373 781v132h132v-132h-132zM175 781v132h132v-132h-132z" />
    <glyph glyph-name="uni0402" unicode="&#x402;" horiz-adv-x="897" 
d="M601 -191q-37 0 -70.5 5.5t-58.5 15.5l25 113q19 -7 40.5 -10t45.5 -3q52 0 81 33t29 95v84q0 92 -46 133t-130 41q-34 0 -66 -6.5t-60 -19.5v-290h-156v578h-224v127h604v-127h-224v-157q25 11 64 18t80 7q151 0 231.5 -74t80.5 -224v-83q0 -82 -30.5 -139.5t-85.5 -87
t-130 -29.5z" />
    <glyph glyph-name="uni0403" unicode="&#x403;" horiz-adv-x="582" 
d="M72 0v705h493v-126h-338v-579h-155zM235 765l119 175h153l-166 -175h-106z" />
    <glyph glyph-name="uni0404" unicode="&#x404;" horiz-adv-x="701" 
d="M419 -11q-115 0 -198 45t-126.5 126.5t-43.5 192.5t43.5 192t126.5 126t198 45q73 0 137.5 -22t106.5 -61l-48 -122q-46 36 -92 52.5t-100 16.5q-96 0 -150.5 -52.5t-60.5 -148.5l-39 40h355v-120h-357l40 37q6 -105 61 -158t151 -53q54 0 100 16.5t92 53.5l48 -123
q-42 -38 -106.5 -60.5t-137.5 -22.5z" />
    <glyph glyph-name="uni0405" unicode="&#x405;" horiz-adv-x="658" 
d="M327 -11q-85 0 -159 21t-126 58l46 122q34 -23 72 -39t80 -24.5t88 -8.5q72 0 102.5 22t30.5 56q0 31 -20.5 47.5t-74.5 28.5l-118 24q-97 20 -145 68t-48 128q0 68 36 118t101.5 78t153.5 28q75 0 140 -21t107 -60l-46 -114q-41 33 -91.5 49.5t-112.5 16.5
q-65 0 -99.5 -23t-34.5 -63q0 -30 21 -48.5t74 -29.5l116 -23q99 -20 147 -67t48 -125q0 -66 -35.5 -115t-100 -76.5t-152.5 -27.5z" />
    <glyph glyph-name="uni0406" unicode="&#x406;" horiz-adv-x="299" 
d="M72 0v705h156v-705h-156z" />
    <glyph glyph-name="uni0407" unicode="&#x407;" horiz-adv-x="299" 
d="M72 0v705h156v-705h-156zM183 781v132h132v-132h-132zM-15 781v132h132v-132h-132z" />
    <glyph glyph-name="uni0408" unicode="&#x408;" horiz-adv-x="381" 
d="M96 -187q-18 0 -43 2t-51 7v122q20 -4 38 -6t29 -2q46 0 65 26t19 84v659h156v-659q0 -78 -21.5 -130t-68 -77.5t-123.5 -25.5z" />
    <glyph glyph-name="uni0409" unicode="&#x409;" horiz-adv-x="1169" 
d="M89 -18l-77 112q42 24 73.5 55.5t51.5 76.5t30 109t10 153v217h522v-285h188q117 0 183.5 -53.5t66.5 -155.5t-66.5 -156.5t-183.5 -54.5h-343v579h-224v-129q0 -96 -15.5 -171.5t-45 -132.5t-72.5 -97.5t-98 -66.5zM699 118h168q64 0 93 23t29 70q0 46 -29 69t-93 23
h-168v-185z" />
    <glyph glyph-name="uni040A" unicode="&#x40a;" horiz-adv-x="1174" 
d="M72 0v705h154v-284h323v284h155v-285h188q117 0 183.5 -53.5t66.5 -155.5t-66.5 -156.5t-183.5 -54.5h-343v294h-323v-294h-154zM704 118h168q64 0 92.5 23t28.5 70q0 46 -28.5 69t-92.5 23h-168v-185z" />
    <glyph glyph-name="uni040B" unicode="&#x40b;" horiz-adv-x="888" 
d="M235 0v578h-224v127h604v-127h-224v-157q27 12 67.5 18.5t81.5 6.5q144 0 221 -74t77 -224v-148h-155v142q0 92 -42 133t-120 41q-32 0 -65.5 -5.5t-64.5 -20.5v-290h-156z" />
    <glyph glyph-name="uni040C" unicode="&#x40c;" horiz-adv-x="710" 
d="M72 0v705h154v-292h106l-27 -17l198 309h170l-227 -339l-61 42q71 -12 117.5 -49t80.5 -105l127 -254h-168l-95 200q-22 48 -54 67.5t-82 19.5h-85v-287h-154zM300 765l119 175h153l-166 -175h-106z" />
    <glyph glyph-name="uni040D" unicode="&#x40d;" horiz-adv-x="760" 
d="M72 0v705h144v-490h-25l382 490h116v-705h-145v490h25l-383 -490h-114zM328 765l-166 175h153l119 -175h-106z" />
    <glyph glyph-name="uni040E" unicode="&#x40e;" horiz-adv-x="689" 
d="M175 0l126 239l2 -45l-324 511h165l235 -377h-29l196 377h161l-370 -705h-162zM346 760q-59 0 -102.5 18.5t-70 51t-36.5 75.5l74 24q18 -48 51 -69t85 -21q53 0 85.5 22t50.5 67l71 -23q-19 -69 -73 -107t-135 -38z" />
    <glyph glyph-name="uni040F" unicode="&#x40f;" horiz-adv-x="776" 
d="M321 -170v170h-249v705h155v-578h323v578h155v-705h-249v-170h-135z" />
    <glyph glyph-name="uni0410" unicode="&#x410;" horiz-adv-x="759" 
d="M-11 0l324 705h129l328 -705h-158l-85 196l61 -43h-419l62 43l-85 -196h-157zM377 541l-129 -306l-27 38h315l-23 -38l-132 306h-4z" />
    <glyph glyph-name="uni0411" unicode="&#x411;" horiz-adv-x="696" 
d="M72 0v705h520v-119h-372v-166h195q117 0 183 -53.5t66 -155.5t-66 -156.5t-183 -54.5h-343zM220 118h175q63 0 92 23t29 70q0 46 -29 68.5t-92 22.5h-175v-184z" />
    <glyph glyph-name="uni0412" unicode="&#x412;" horiz-adv-x="696" 
d="M72 0v705h325q116 0 179 -49t63 -134q0 -63 -37.5 -107t-102.5 -59v16q76 -13 117.5 -57.5t41.5 -115.5q0 -94 -66.5 -146.5t-183.5 -52.5h-336zM221 116h168q58 0 89 22t31 70q0 49 -31 70.5t-89 21.5h-168v-184zM221 415h148q61 0 90 22t29 66q0 43 -29 65t-90 22h-148
v-175z" />
    <glyph glyph-name="uni0413" unicode="&#x413;" horiz-adv-x="582" 
d="M72 0v705h493v-126h-338v-579h-155z" />
    <glyph glyph-name="uni0414" unicode="&#x414;" horiz-adv-x="833" 
d="M12 -170v290h74q47 57 70 156.5t23 242.5v186h529v-585h103v-290h-135v170h-528v-170h-136zM240 120h313v466h-232v-82q0 -135 -20 -229t-61 -155z" />
    <glyph glyph-name="uni0415" unicode="&#x415;" horiz-adv-x="599" 
d="M72 0v705h490v-121h-341v-165h317v-122h-317v-176h341v-121h-490z" />
    <glyph glyph-name="uni0416" unicode="&#x416;" horiz-adv-x="1066" 
d="M0 0l127 254q34 68 81 105t117 49l-60 -42l-228 339h170l198 -309l-26 17h80v292h149v-292h80l-26 -17l197 309h170l-227 -339l-61 42q71 -12 117.5 -49t80.5 -105l127 -254h-167l-96 200q-22 47 -53.5 67t-82.5 20h-59v-287h-149v287h-60q-50 0 -81.5 -20t-54.5 -67
l-95 -200h-168z" />
    <glyph glyph-name="uni0417" unicode="&#x417;" horiz-adv-x="637" 
d="M307 -11q-90 0 -160.5 21.5t-122.5 60.5l47 113q43 -32 99 -49.5t125 -17.5q80 0 117.5 24t37.5 72q0 43 -30 64t-93 21h-176v120h159q61 0 91 20.5t30 62.5q0 39 -32.5 63t-102.5 24q-58 0 -113 -17t-96 -49l-47 114q47 38 119 59t154 21q134 0 201.5 -54t67.5 -139
q0 -63 -37.5 -107.5t-102.5 -59.5v16q75 -13 116.5 -57.5t41.5 -116.5q0 -62 -32 -109t-97.5 -73.5t-163.5 -26.5z" />
    <glyph glyph-name="uni0418" unicode="&#x418;" horiz-adv-x="760" 
d="M72 0v705h144v-490h-25l382 490h116v-705h-145v490h25l-383 -490h-114z" />
    <glyph glyph-name="uni0419" unicode="&#x419;" horiz-adv-x="760" 
d="M72 0v705h144v-490h-25l382 490h116v-705h-145v490h25l-383 -490h-114zM380 760q-59 0 -102.5 18.5t-70 51t-36.5 75.5l74 24q18 -48 51 -69t85 -21q53 0 85.5 22t50.5 67l71 -23q-19 -69 -73 -107t-135 -38z" />
    <glyph glyph-name="uni041A" unicode="&#x41a;" horiz-adv-x="710" 
d="M72 0v705h154v-292h106l-27 -17l198 309h170l-227 -339l-61 42q71 -12 117.5 -49t80.5 -105l127 -254h-168l-95 200q-22 48 -54 67.5t-82 19.5h-85v-287h-154z" />
    <glyph glyph-name="uni041B" unicode="&#x41b;" horiz-adv-x="778" 
d="M89 -18l-77 112q42 24 73.5 55.5t51.5 76.5t30 109t10 153v217h530v-705h-155v579h-232v-129q0 -96 -15.5 -171.5t-45 -132.5t-72.5 -97.5t-98 -66.5z" />
    <glyph glyph-name="uni041C" unicode="&#x41c;" horiz-adv-x="877" 
d="M73 0v705h137l245 -550h-32l245 550h136v-705h-142v479h40l-219 -479h-90l-220 479h42v-479h-142z" />
    <glyph glyph-name="uni041D" unicode="&#x41d;" horiz-adv-x="779" 
d="M72 0v705h156v-283h323v283h157v-705h-157v293h-323v-293h-156z" />
    <glyph glyph-name="uni041E" unicode="&#x41e;" horiz-adv-x="795" 
d="M51 353q0 110 41.5 191.5t119.5 126.5t185 45t185 -45t120.5 -126.5t42.5 -190.5q0 -111 -42.5 -192.5t-120.5 -127t-185 -45.5t-184.5 45.5t-119.5 127.5t-42 191zM214 353q0 -109 45.5 -170.5t137.5 -61.5q90 0 137 61.5t47 170.5q0 110 -46.5 170.5t-137.5 60.5
q-92 0 -137.5 -60.5t-45.5 -170.5z" />
    <glyph glyph-name="uni041F" unicode="&#x41f;" horiz-adv-x="776" 
d="M72 0v705h633v-705h-155v579h-324v-579h-154z" />
    <glyph glyph-name="uni0420" unicode="&#x420;" horiz-adv-x="675" 
d="M72 0v705h329q119 0 180.5 -57.5t61.5 -157.5q0 -99 -61.5 -157.5t-180.5 -58.5h-173v-274h-156zM228 395h153q56 0 83.5 25t27.5 70t-27.5 69.5t-83.5 24.5h-153v-189z" />
    <glyph glyph-name="uni0421" unicode="&#x421;" horiz-adv-x="685" 
d="M413 -11q-113 0 -194 45t-124.5 126.5t-43.5 192.5t43.5 192t124.5 126t194 45q73 0 133 -20.5t102 -59.5l-49 -123q-46 36 -87.5 51t-93.5 15q-99 0 -151.5 -58.5t-52.5 -167.5t52.5 -168t151.5 -59q52 0 93.5 15t87.5 51l49 -123q-42 -38 -102 -59t-133 -21z" />
    <glyph glyph-name="uni0422" unicode="&#x422;" horiz-adv-x="628" 
d="M235 0v578h-224v127h604v-127h-224v-578h-156z" />
    <glyph glyph-name="uni0423" unicode="&#x423;" horiz-adv-x="689" 
d="M175 0l126 239l2 -45l-324 511h165l235 -377h-29l196 377h161l-370 -705h-162z" />
    <glyph glyph-name="uni0424" unicode="&#x424;" horiz-adv-x="929" 
d="M387 -27v108l37 -27h-28q-107 0 -185 35.5t-119 103t-41 165.5q0 148 90.5 226t254.5 78h28l-37 -27v102h155v-102l-38 27h29q164 0 255 -78t91 -226q0 -98 -42 -165.5t-119 -103t-185 -35.5h-29l38 27v-108h-155zM388 145v426l31 -25h-37q-77 0 -125.5 -46t-48.5 -142
q0 -63 22.5 -105t62 -62.5t89.5 -20.5h37zM541 145l-32 25h38q50 0 89.5 20.5t62 62.5t22.5 105q0 96 -48 142t-126 46h-38l32 25v-426z" />
    <glyph glyph-name="uni0425" unicode="&#x425;" horiz-adv-x="682" 
d="M-18 0l295 392v-69l-287 382h183l192 -269h-50l193 269h183l-288 -382v69l297 -392h-184l-201 279h51l-202 -279h-182z" />
    <glyph glyph-name="uni0426" unicode="&#x426;" horiz-adv-x="831" 
d="M672 -170v170h-600v705h154v-578h324v578h155v-578h103v-297h-136z" />
    <glyph glyph-name="uni0427" unicode="&#x427;" horiz-adv-x="724" 
d="M498 0v263q-27 -11 -68 -18t-81 -7q-145 0 -222 73.5t-77 224.5v169h155v-163q0 -92 40 -133t122 -41q33 0 66.5 6t64.5 19v312h155v-705h-155z" />
    <glyph glyph-name="uni0428" unicode="&#x428;" horiz-adv-x="1106" 
d="M72 0v705h152v-578h254v578h152v-578h253v578h152v-705h-963z" />
    <glyph glyph-name="uni0429" unicode="&#x429;" horiz-adv-x="1161" 
d="M1004 -170v170h-932v705h152v-578h254v578h152v-578h253v578h152v-578h103v-297h-134z" />
    <glyph glyph-name="uni042A" unicode="&#x42a;" horiz-adv-x="844" 
d="M220 0v579h-209v126h364v-285h188q117 0 183 -53.5t66 -155.5t-66 -156.5t-183 -54.5h-343zM375 118h168q63 0 92 23t29 70q0 46 -29 69t-92 23h-168v-185z" />
    <glyph glyph-name="uni042B" unicode="&#x42b;" horiz-adv-x="946" 
d="M72 0v705h155v-285h157q117 0 183 -53.5t66 -155.5t-66 -156.5t-183 -54.5h-312zM227 118h137q63 0 92 23t29 70q0 46 -29 69t-92 23h-137v-185zM720 0v705h155v-705h-155z" />
    <glyph glyph-name="uni042C" unicode="&#x42c;" horiz-adv-x="696" 
d="M72 0v705h155v-285h188q117 0 183 -53.5t66 -155.5t-66 -156.5t-183 -54.5h-343zM227 118h168q63 0 92 23t29 70q0 46 -29 68.5t-92 22.5h-168v-184z" />
    <glyph glyph-name="uni042D" unicode="&#x42d;" horiz-adv-x="701" 
d="M282 -11q-73 0 -137.5 22.5t-107.5 60.5l49 123q46 -37 92 -53.5t99 -16.5q97 0 152 53t61 158l40 -37h-357v120h354l-39 -40q-6 96 -59.5 148.5t-145.5 52.5q-54 0 -100.5 -15.5t-96.5 -53.5l-49 122q47 39 112.5 61t138.5 22q113 0 194 -45t124.5 -126t43.5 -192
t-43.5 -192.5t-126 -126.5t-198.5 -45z" />
    <glyph glyph-name="uni042E" unicode="&#x42e;" horiz-adv-x="1093" 
d="M693 -11q-94 0 -167 37.5t-118 106t-57 161.5h-124v-294h-155v705h155v-285h125q14 91 59 157.5t117 102.5t165 36q106 0 184.5 -45t121.5 -126.5t43 -191.5t-43.5 -192t-122 -127t-183.5 -45zM693 120q89 0 138.5 61.5t49.5 171.5t-49.5 171t-138.5 61q-88 0 -137 -61
t-49 -171t49 -171.5t137 -61.5z" />
    <glyph glyph-name="uni042F" unicode="&#x42f;" horiz-adv-x="715" 
d="M25 0l119 209q24 42 56 62.5t75 20.5h39l1 -17q-121 0 -187 57t-66 158q0 102 65.5 158.5t185.5 56.5h331v-705h-155v273h-74q-34 0 -56 -11t-38 -39l-126 -223h-170zM340 384h149v202h-149q-130 0 -130 -101t130 -101z" />
    <glyph glyph-name="uni0430" unicode="&#x430;" horiz-adv-x="647" 
d="M267 -11q-66 0 -116 32t-78 91t-28 142q0 82 28 141t78 90.5t116 31.5q61 0 109.5 -29.5t63.5 -79.5h-11l12 99h145q-3 -33 -5.5 -66.5t-2.5 -65.5v-375h-150l-1 95h12q-16 -48 -64 -77t-108 -29zM313 103q52 0 84 37t32 114t-32 113t-84 36t-84 -36t-32 -113t31.5 -114
t84.5 -37z" />
    <glyph glyph-name="uni0431" unicode="&#x431;" horiz-adv-x="621" 
d="M316 -11q-124 0 -197.5 72.5t-73.5 213.5v85q0 145 69 233t206 115l185 39l40 -117l-211 -43q-50 -10 -82.5 -38t-49 -66.5t-16.5 -83.5v-61h-19q10 45 35.5 79t65.5 54t93 20q63 0 111.5 -29t76.5 -84t28 -131q0 -79 -32.5 -137t-91 -89.5t-137.5 -31.5zM311 102
q55 0 85.5 34.5t30.5 103.5t-31 104t-85 35t-85 -35t-31 -101q0 -71 31 -106t85 -35z" />
    <glyph glyph-name="uni0432" unicode="&#x432;" horiz-adv-x="591" 
d="M66 0v507h285q99 0 143.5 -35.5t44.5 -97.5q0 -47 -31.5 -79t-83.5 -41v15q67 -5 100.5 -39t33.5 -88q0 -65 -51.5 -103.5t-146.5 -38.5h-294zM205 90h136q39 0 59.5 15.5t20.5 46.5t-20.5 46.5t-59.5 15.5h-136v-124zM205 303h125q35 0 53.5 15t18.5 43t-18.5 42.5
t-53.5 14.5h-125v-115z" />
    <glyph glyph-name="uni0433" unicode="&#x433;" horiz-adv-x="480" 
d="M66 0v507h396v-118h-245v-389h-151z" />
    <glyph glyph-name="uni0434" unicode="&#x434;" horiz-adv-x="648" 
d="M26 -130v243h60q27 45 39 104t12 148v142h410v-394h83v-243h-127v130h-350v-130h-127zM219 112h187v282h-143v-66q0 -59 -11.5 -117.5t-32.5 -98.5z" />
    <glyph glyph-name="uni0435" unicode="&#x435;" horiz-adv-x="566" 
d="M325 -11q-132 0 -206 71t-74 193q0 79 31.5 138t88 92.5t132.5 33.5q75 0 125.5 -32t76 -89.5t25.5 -133.5v-35h-355v75h245l-17 -14q0 63 -25.5 95.5t-73.5 32.5q-53 0 -81.5 -39t-28.5 -112v-16q0 -74 36.5 -110t105.5 -36q41 0 77.5 10.5t69.5 33.5l42 -100
q-38 -28 -87.5 -43t-106.5 -15z" />
    <glyph glyph-name="uni0436" unicode="&#x436;" horiz-adv-x="873" 
d="M-9 0l107 197q18 29 36.5 50t41 34t49.5 16l-29 -48l-185 258h161l138 -191h52v191h150v-191h51l137 191h162l-186 -258l-29 48q28 -3 50 -16t41.5 -34t35.5 -50l108 -197h-160l-83 149q-11 20 -22.5 31.5t-25.5 16t-33 4.5h-46v-201h-150v201h-47q-20 0 -34 -4.5
t-25 -16t-23 -31.5l-82 -149h-160z" />
    <glyph glyph-name="uni0437" unicode="&#x437;" horiz-adv-x="543" 
d="M263 -11q-70 0 -131.5 15t-103.5 45l39 96q37 -24 88.5 -37.5t106.5 -13.5q58 0 85 14.5t27 43.5q0 26 -19.5 40t-59.5 14h-139v101h126q36 0 55 13t19 37q0 26 -24.5 41t-81.5 15q-52 0 -95.5 -12t-80.5 -33l-38 92q41 28 102 42.5t134 14.5q105 0 162 -37.5t57 -105.5
q0 -46 -31 -78.5t-84 -41.5v15q63 -5 98 -37.5t35 -89.5q0 -70 -64.5 -111.5t-181.5 -41.5z" />
    <glyph glyph-name="uni0438" unicode="&#x438;" horiz-adv-x="626" 
d="M66 0v507h136v-356h-33l268 356h124v-507h-136v356h33l-269 -356h-123z" />
    <glyph glyph-name="uni0439" unicode="&#x439;" horiz-adv-x="626" 
d="M66 0v507h136v-356h-33l268 356h124v-507h-136v356h33l-269 -356h-123zM312 551q-55 0 -95 18t-64.5 50t-33.5 73l74 24q16 -45 45 -65.5t76 -20.5q46 0 75 21t46 64l70 -23q-18 -66 -67.5 -103.5t-125.5 -37.5z" />
    <glyph glyph-name="uni043A" unicode="&#x43a;" horiz-adv-x="589" 
d="M66 0v507h149v-191h65l137 191h161l-184 -258l-30 48q27 -3 49 -16t41.5 -34t35.5 -50l108 -197h-160l-83 149q-10 20 -21.5 31.5t-25.5 16t-34 4.5h-59v-201h-149z" />
    <glyph glyph-name="uni043B" unicode="&#x43b;" horiz-adv-x="622" 
d="M61 -15l-45 118q32 10 54 27t35.5 44t19.5 67t6 95v171h425v-507h-150v392h-139v-61q0 -104 -22 -176t-67 -114t-117 -56z" />
    <glyph glyph-name="uni043C" unicode="&#x43c;" horiz-adv-x="713" 
d="M66 0v507h125l166 -282l165 282h125v-507h-133v337h25l-148 -255h-69l-148 255h24v-337h-132z" />
    <glyph glyph-name="uni043D" unicode="&#x43d;" horiz-adv-x="630" 
d="M66 0v507h149v-191h200v191h149v-507h-149v201h-200v-201h-149z" />
    <glyph glyph-name="uni043E" unicode="&#x43e;" horiz-adv-x="620" 
d="M310 -11q-81 0 -140.5 32.5t-92 91.5t-32.5 141q0 81 32.5 140t92 91t140.5 32t141 -32t92.5 -91t32.5 -140q0 -82 -32.5 -141t-92.5 -91.5t-141 -32.5zM310 103q52 0 82.5 37t30.5 114t-30.5 113t-82.5 36t-82.5 -36t-30.5 -113t30.5 -114t82.5 -37z" />
    <glyph glyph-name="uni043F" unicode="&#x43f;" horiz-adv-x="627" 
d="M66 0v507h495v-507h-149v392h-197v-392h-149z" />
    <glyph glyph-name="uni0440" unicode="&#x440;" horiz-adv-x="647" 
d="M70 -216v591q0 32 -2 65.5t-6 66.5h145l12 -99h-11q15 50 63 79.5t110 29.5q66 0 116 -31.5t78.5 -90.5t28.5 -141q0 -83 -28.5 -142t-78.5 -91t-116 -32q-61 0 -108.5 29t-63.5 77h12v-311h-151zM335 103q53 0 85 37t32 114t-32 113t-85 36q-52 0 -84.5 -36t-32.5 -113
t32.5 -114t84.5 -37z" />
    <glyph glyph-name="uni0441" unicode="&#x441;" horiz-adv-x="525" 
d="M314 -11q-81 0 -142 32t-94 92t-33 142q0 83 33.5 141.5t94 89.5t141.5 31q51 0 99.5 -15t79.5 -42l-44 -104q-25 23 -57.5 34.5t-62.5 11.5q-61 0 -95 -38t-34 -110t34 -110t95 -38q29 0 61.5 11t58.5 33l44 -103q-32 -27 -80.5 -42.5t-98.5 -15.5z" />
    <glyph glyph-name="uni0442" unicode="&#x442;" horiz-adv-x="501" 
d="M176 0v389h-168v118h486v-118h-169v-389h-149z" />
    <glyph glyph-name="uni0443" unicode="&#x443;" horiz-adv-x="566" 
d="M65 -227l-35 118q47 9 79.5 21t53.5 31.5t34 50.5l25 59l-4 -58l-220 512h159l145 -367h-31l147 367h150l-229 -527q-25 -57 -53.5 -94.5t-61.5 -59.5t-72.5 -34t-86.5 -19z" />
    <glyph glyph-name="uni0444" unicode="&#x444;" horiz-adv-x="886" 
d="M368 -216v306h11q-16 -49 -53.5 -75t-89.5 -26q-56 0 -99.5 33t-68 92t-24.5 140t24 140t67.5 91t100.5 32q52 0 89.5 -26t53.5 -73h-11v318h150v-318h-12q16 47 54 73t90 26q56 0 99.5 -32t68 -91t24.5 -140t-24.5 -140t-68 -92t-99.5 -33q-51 0 -88.5 26t-55.5 75h12
v-306h-150zM283 101q40 0 63.5 37.5t23.5 115.5t-24 115.5t-64 37.5t-64 -37.5t-24 -115.5t24 -115.5t65 -37.5zM603 101q41 0 65 37.5t24 115.5t-24.5 115.5t-64.5 37.5t-64 -37.5t-24 -115.5t24 -115.5t64 -37.5z" />
    <glyph glyph-name="uni0445" unicode="&#x445;" horiz-adv-x="573" 
d="M-14 0l240 295v-67l-227 279h178l135 -177h-54l136 177h177l-226 -280v69l240 -296h-179l-148 190h54l-149 -190h-177z" />
    <glyph glyph-name="uni0446" unicode="&#x446;" horiz-adv-x="650" 
d="M506 -130v130h-440v507h149v-392h185v392h149v-392h83v-245h-126z" />
    <glyph glyph-name="uni0447" unicode="&#x447;" horiz-adv-x="597" 
d="M385 0v172q-27 -11 -55 -16.5t-57 -5.5q-114 0 -170.5 55t-56.5 162v140h150v-126q0 -58 24.5 -84.5t80.5 -26.5q24 0 43.5 5t36.5 15v217h150v-507h-146z" />
    <glyph glyph-name="uni0448" unicode="&#x448;" horiz-adv-x="866" 
d="M66 0v507h140v-392h157v392h140v-392h158v392h140v-507h-735z" />
    <glyph glyph-name="uni0449" unicode="&#x449;" horiz-adv-x="902" 
d="M758 -130v130h-692v507h140v-392h157v392h140v-392h158v392h140v-392h83v-245h-126z" />
    <glyph glyph-name="uni044A" unicode="&#x44a;" horiz-adv-x="661" 
d="M153 0v389h-145v118h295v-163h121q103 0 155.5 -43t52.5 -125q0 -53 -25 -92.5t-71.5 -61.5t-111.5 -22h-271zM303 96h99q44 0 68.5 19.5t24.5 57.5q0 39 -24 57t-69 18h-99v-152z" />
    <glyph glyph-name="uni044B" unicode="&#x44b;" horiz-adv-x="815" 
d="M66 0v507h149v-163h122q104 0 156 -43t52 -125q0 -53 -25 -92.5t-71.5 -61.5t-111.5 -22h-271zM215 96h99q45 0 69.5 19.5t24.5 57.5q0 39 -24 57t-70 18h-99v-152zM600 0v507h150v-507h-150z" />
    <glyph glyph-name="uni044C" unicode="&#x44c;" horiz-adv-x="573" 
d="M66 0v507h149v-163h122q104 0 156 -43t52 -125q0 -53 -25 -92.5t-71.5 -61.5t-111.5 -22h-271zM215 96h99q45 0 69.5 19.5t24.5 57.5q0 39 -24 57t-70 18h-99v-152z" />
    <glyph glyph-name="uni044D" unicode="&#x44d;" horiz-adv-x="550" 
d="M229 -11q-58 0 -111.5 16t-85.5 46l42 93q29 -23 66.5 -36t75.5 -13q66 0 106 35t45 105l14 -28h-246v99h246l-14 -27q-4 43 -22.5 73t-50.5 45t-78 15q-37 0 -75 -12.5t-67 -35.5l-42 93q35 28 88.5 44t109.5 16q85 0 147 -31t95.5 -90t33.5 -142q0 -82 -34 -141.5
t-96 -91.5t-147 -32z" />
    <glyph glyph-name="uni044E" unicode="&#x44e;" horiz-adv-x="861" 
d="M551 -11q-106 0 -175 56t-85 156h-78v-201h-147v507h147v-191h79q19 95 87 148t172 53q81 0 141 -31.5t92.5 -90.5t32.5 -141t-32.5 -141.5t-92.5 -91.5t-141 -32zM551 102q52 0 84 37t32 115q0 77 -32 114t-84 37q-53 0 -84.5 -37t-31.5 -114q0 -78 31.5 -115t84.5 -37z
" />
    <glyph glyph-name="uni044F" unicode="&#x44f;" horiz-adv-x="582" 
d="M22 0l76 130q20 34 49.5 54.5t62.5 20.5h26v-12q-92 0 -140.5 39.5t-48.5 115.5t51.5 117.5t150.5 41.5h268v-507h-137v168h-46q-25 0 -45 -14.5t-34 -38.5l-65 -115h-168zM279 264h101v147h-101q-45 0 -68 -19.5t-23 -53.5q0 -36 23 -55t68 -19z" />
    <glyph glyph-name="uni0450" unicode="&#x450;" horiz-adv-x="566" 
d="M325 -11q-132 0 -206 71t-74 193q0 79 31.5 138t88 92.5t132.5 33.5q75 0 125.5 -32t76 -89.5t25.5 -133.5v-35h-355v75h245l-17 -14q0 63 -25.5 95.5t-73.5 32.5q-53 0 -81.5 -39t-28.5 -112v-16q0 -74 36.5 -110t105.5 -36q41 0 77.5 10.5t69.5 33.5l42 -100
q-38 -28 -87.5 -43t-106.5 -15zM247 555l-147 205h144l103 -205h-100z" />
    <glyph glyph-name="uni0451" unicode="&#x451;" horiz-adv-x="566" 
d="M325 -11q-132 0 -206 71t-74 193q0 79 31.5 138t88 92.5t132.5 33.5q75 0 125.5 -32t76 -89.5t25.5 -133.5v-35h-355v75h245l-17 -14q0 63 -25.5 95.5t-73.5 32.5q-53 0 -81.5 -39t-28.5 -112v-16q0 -74 36.5 -110t105.5 -36q41 0 77.5 10.5t69.5 33.5l42 -100
q-38 -28 -87.5 -43t-106.5 -15zM330 590v132h132v-132h-132zM132 590v132h132v-132h-132z" />
    <glyph glyph-name="uni0452" unicode="&#x452;" horiz-adv-x="626" 
d="M351 -187l-47 109q44 11 67 28t31.5 44t8.5 68v218q0 53 -20 75.5t-60 22.5q-50 0 -80 -30t-30 -82v-266h-151v561h-89v104h89v71h151v-71h193v-104h-193v-168h-14q24 49 70.5 76t106.5 27q90 0 134 -51t44 -159v-222q0 -63 -19 -111.5t-64.5 -83t-127.5 -56.5z" />
    <glyph glyph-name="uni0453" unicode="&#x453;" horiz-adv-x="480" 
d="M66 0v507h396v-118h-245v-389h-151zM196 555l103 205h144l-147 -205h-100z" />
    <glyph glyph-name="uni0454" unicode="&#x454;" horiz-adv-x="554" 
d="M321 -11q-84 0 -146 32t-96 92t-34 142q0 83 34 141.5t97.5 89.5t149.5 31q57 0 109.5 -16t83.5 -44l-42 -93q-30 23 -67 35.5t-75 12.5q-46 0 -78 -15t-50.5 -45t-23.5 -73l-14 27h247v-99h-247l14 29q6 -71 45.5 -106t106.5 -35q37 0 75 13t67 36l42 -93
q-32 -30 -86 -46t-112 -16z" />
    <glyph glyph-name="uni0455" unicode="&#x455;" horiz-adv-x="519" 
d="M257 -11q-68 0 -124 15t-95 42l39 100q39 -24 86.5 -38t94.5 -14q44 0 65 14t21 38q0 20 -13.5 31t-41.5 16l-103 19q-65 13 -99 48t-34 91q0 49 26.5 86.5t76.5 58.5t117 21q57 0 108 -14t87 -43l-41 -97q-31 23 -71.5 37t-77.5 14q-48 0 -69 -15.5t-21 -39.5
q0 -18 12.5 -30t38.5 -18l104 -19q67 -12 102 -45t35 -91q0 -53 -28 -90t-78.5 -57t-116.5 -20z" />
    <glyph glyph-name="uni0456" unicode="&#x456;" horiz-adv-x="290" 
d="M70 0v507h151v-507h-151zM64 590v141h162v-141h-162z" />
    <glyph glyph-name="uni0457" unicode="&#x457;" horiz-adv-x="290" 
d="M70 0v507h151v-507h-151zM179 590v132h132v-132h-132zM-19 590v132h132v-132h-132z" />
    <glyph glyph-name="uni0458" unicode="&#x458;" horiz-adv-x="290" 
d="M29 -223q-22 0 -45.5 3t-42.5 11v117q14 -4 28.5 -7t28.5 -3q32 0 52.5 19.5t20.5 67.5v522h151v-529q0 -99 -46.5 -150t-146.5 -51zM64 590v141h163v-141h-163z" />
    <glyph glyph-name="uni0459" unicode="&#x459;" horiz-adv-x="911" 
d="M61 -15l-45 118q32 10 54 27t35.5 44t19.5 67t6 95v171h422v-163h121q103 0 156 -43t53 -125q0 -53 -25.5 -92.5t-72 -61.5t-111.5 -22h-268v392h-139v-61q0 -104 -22 -176t-67 -114t-117 -56zM553 96h98q45 0 69 19.5t24 57.5q0 39 -23 57t-70 18h-98v-152z" />
    <glyph glyph-name="uni045A" unicode="&#x45a;" horiz-adv-x="922" 
d="M66 0v507h149v-191h200v191h149v-163h122q103 0 155.5 -43t52.5 -125q0 -53 -25 -92.5t-71.5 -61.5t-111.5 -22h-271v201h-200v-201h-149zM564 96h99q45 0 69 19.5t24 57.5q0 39 -23.5 57t-69.5 18h-99v-152z" />
    <glyph glyph-name="uni045B" unicode="&#x45b;" horiz-adv-x="629" 
d="M70 0v561h-89v104h89v71h151v-71h192v-104h-192v-163h-15q24 50 71 77.5t108 27.5q90 0 133.5 -51.5t43.5 -158.5v-293h-151v287q0 52 -19.5 75t-60.5 23q-50 0 -80 -30.5t-30 -81.5v-273h-151z" />
    <glyph glyph-name="uni045C" unicode="&#x45c;" horiz-adv-x="589" 
d="M66 0v507h149v-191h65l137 191h161l-184 -258l-30 48q27 -3 49 -16t41.5 -34t35.5 -50l108 -197h-160l-83 149q-10 20 -21.5 31.5t-25.5 16t-34 4.5h-59v-201h-149zM272 555l103 205h144l-147 -205h-100z" />
    <glyph glyph-name="uni045D" unicode="&#x45d;" horiz-adv-x="626" 
d="M66 0v507h136v-356h-33l268 356h124v-507h-136v356h33l-269 -356h-123zM264 555l-147 205h144l103 -205h-100z" />
    <glyph glyph-name="uni045E" unicode="&#x45e;" horiz-adv-x="566" 
d="M65 -227l-35 118q47 9 79.5 21t53.5 31.5t34 50.5l25 59l-4 -58l-220 512h159l145 -367h-31l147 367h150l-229 -527q-25 -57 -53.5 -94.5t-61.5 -59.5t-72.5 -34t-86.5 -19zM280 551q-55 0 -95 18t-64.5 50t-33.5 73l74 24q16 -45 45 -65.5t76 -20.5q46 0 75 21t46 64
l70 -23q-18 -66 -67.5 -103.5t-125.5 -37.5z" />
    <glyph glyph-name="uni045F" unicode="&#x45f;" horiz-adv-x="627" 
d="M249 -130v130h-183v507h149v-392h197v392h149v-507h-184v-130h-128z" />
    <glyph glyph-name="uni0462" unicode="&#x462;" horiz-adv-x="775" 
d="M157 0v515h-177v110h177v80h149v-80h242v-110h-242v-95h188q116 0 182.5 -53.5t66.5 -155.5t-66.5 -156.5t-182.5 -54.5h-337zM306 118h169q63 0 91.5 23t28.5 70q0 46 -28.5 69t-91.5 23h-169v-185z" />
    <glyph glyph-name="uni0463" unicode="&#x463;" horiz-adv-x="661" 
d="M153 0v409h-145v98h145v229h150v-229h171v-98h-171v-88h131q94 0 146 -40.5t52 -119.5t-52.5 -120t-145.5 -41h-281zM303 87h103q43 0 66 18.5t23 55.5q0 38 -23 54.5t-66 16.5h-103v-145z" />
    <glyph glyph-name="uni046A" unicode="&#x46a;" horiz-adv-x="1061" 
d="M0 0l129 259q25 49 61 83t84.5 52t109.5 18h39l-7 -34l-288 327h807l-289 -327l-7 34h39q62 0 110.5 -18t84 -52t59.5 -83l129 -259h-167l-96 200q-21 45 -50 66t-83 21h-56v-287h-155v287h-56q-54 0 -83.5 -21t-50.5 -66l-97 -200h-167zM530 409h2l200 228v-36h-403v36z
" />
    <glyph glyph-name="uni046B" unicode="&#x46b;" horiz-adv-x="872" 
d="M-9 0l107 181q26 44 50.5 70t57 37.5t81.5 11.5h58l-25 -42l-215 249h662l-214 -249l-26 42h58q51 0 83.5 -12t57 -38t49.5 -69l106 -181h-160l-81 133q-12 21 -23.5 32t-25 16t-32.5 5h-48v-186h-150v186h-47q-19 0 -33 -5t-25 -16t-24 -32l-81 -133h-160zM436 274h2
l149 180v-41h-302v41z" />
    <glyph glyph-name="uni0472" unicode="&#x472;" horiz-adv-x="795" 
d="M137 302v113h536v-113h-536zM51 353q0 110 41.5 191.5t119.5 126.5t185 45t185 -45t120.5 -126.5t42.5 -190.5q0 -111 -42.5 -192.5t-120.5 -127t-185 -45.5t-184.5 45.5t-119.5 127.5t-42 191zM214 353q0 -109 45.5 -170.5t137.5 -61.5q90 0 137 61.5t47 170.5
q0 110 -46.5 170.5t-137.5 60.5q-92 0 -137.5 -60.5t-45.5 -170.5z" />
    <glyph glyph-name="uni0473" unicode="&#x473;" horiz-adv-x="620" 
d="M310 -11q-81 0 -140.5 32.5t-92 91.5t-32.5 141q0 81 32.5 140t92 91t140.5 32t141 -32t92.5 -91t32.5 -140q0 -82 -32.5 -141t-92.5 -91.5t-141 -32.5zM310 103q62 0 94 39t32 112q0 72 -32 110.5t-94 38.5t-94 -38.5t-32 -110.5q0 -73 32 -112t94 -39zM141 206v96h340
v-96h-340z" />
    <glyph glyph-name="uni0474" unicode="&#x474;" horiz-adv-x="807" 
d="M297 0l-311 705h168l234 -564h-48l164 368q26 58 53 97.5t60.5 63.5t78.5 34.5t107 10.5l13 -125q-52 0 -83 -13t-53.5 -44.5t-49.5 -87.5l-205 -445h-128z" />
    <glyph glyph-name="uni0475" unicode="&#x475;" horiz-adv-x="602" 
d="M217 0l-219 507h158l145 -369h-33l97 239q22 54 49.5 84.5t70.5 43t109 12.5l12 -119q-49 0 -76.5 -17.5t-47.5 -62.5l-137 -318h-128z" />
    <glyph glyph-name="uni048A" unicode="&#x48a;" horiz-adv-x="792" 
d="M569 -169l57 169h-82v122h255l-100 -291h-130zM72 0v705h144v-490h-25l382 490h116v-705h-145v490h25l-383 -490h-114zM380 760q-59 0 -103 18.5t-70 51t-36 75.5l74 24q18 -48 50.5 -69t85.5 -21t85 22t50 67l72 -23q-19 -69 -73 -107t-135 -38z" />
    <glyph glyph-name="uni048B" unicode="&#x48b;" horiz-adv-x="660" 
d="M450 -130l45 130h-69v112h233l-84 -242h-125zM66 0v507h136v-356h-33l268 356h124v-507h-136v356h33l-269 -356h-123zM312 551q-55 0 -95 18t-64.5 50t-33.5 73l73 24q17 -45 46 -65.5t76 -20.5q46 0 75 21t46 64l70 -23q-18 -66 -67.5 -103.5t-125.5 -37.5z" />
    <glyph glyph-name="uni048C" unicode="&#x48c;" horiz-adv-x="763" 
d="M146 0v516h-146v109h146v80h147v-80h147v-109h-147v-96h188q116 0 183 -53.5t67 -155.5t-67 -156.5t-183 -54.5h-335zM293 118h168q63 0 93 23t30 70q0 46 -30 69t-93 23h-168v-185z" />
    <glyph glyph-name="uni048D" unicode="&#x48d;" horiz-adv-x="661" 
d="M153 0v409h-145v98h145v229h150v-229h171v-98h-171v-88h131q94 0 146 -40.5t52 -119.5t-52.5 -120t-145.5 -41h-281zM303 87h103q43 0 66 18.5t23 55.5q0 38 -23 54.5t-66 16.5h-103v-145z" />
    <glyph glyph-name="uni048E" unicode="&#x48e;" horiz-adv-x="675" 
d="M72 0v705h328q120 0 181.5 -59t61.5 -166q0 -76 -34 -129t-98 -77l11 18l52 -76l-68 -46l-68 101l24 -11q-13 -3 -29 -4t-33 -1h-174v-255h-154zM226 374h149q9 0 20 1t19 2l-37 -16l-49 73l65 42l66 -94l-24 4q60 23 60 94q0 106 -128 106h-141v-212z" />
    <glyph glyph-name="uni048F" unicode="&#x48f;" horiz-adv-x="647" 
d="M70 -216v591q0 32 -2.5 65.5t-5.5 66.5h145l11 -99h-11q16 50 64 79.5t110 29.5q66 0 116 -31.5t78 -90.5t28 -141q0 -79 -26.5 -137.5t-72.5 -90.5l4 17l51 -64l-55 -42l-57 74l21 -3q-37 -19 -87 -19q-62 0 -109.5 29t-62.5 77h12v-311h-151zM335 403q-52 0 -84.5 -36
t-32.5 -113t32.5 -114t84.5 -37q30 2 50 12l-4 -19l-66 84l54 41l65 -83l-17 1q34 38 34 115t-32 113t-84 36z" />
    <glyph glyph-name="uni0490" unicode="&#x490;" horiz-adv-x="582" 
d="M72 0v705h358v163h135v-289h-338v-579h-155z" />
    <glyph glyph-name="uni0491" unicode="&#x491;" horiz-adv-x="480" 
d="M66 0v507h268v111h128v-229h-247v-389h-149z" />
    <glyph glyph-name="uni0492" unicode="&#x492;" horiz-adv-x="629" 
d="M119 0v290h-96v109h96v306h493v-126h-338v-180h182v-109h-182v-290h-155z" />
    <glyph glyph-name="uni0493" unicode="&#x493;" horiz-adv-x="509" 
d="M95 0v176h-90v103h90v228h395v-117h-245v-111h142v-103h-142v-176h-150z" />
    <glyph glyph-name="uni0494" unicode="&#x494;" horiz-adv-x="733" 
d="M443 -191q-31 0 -60 3.5t-49 9.5v121q18 -7 40 -10.5t45 -3.5q52 0 81 34t29 96v83q0 92 -45.5 133t-130.5 41q-34 0 -67 -6.5t-60 -19.5v-290h-154v705h500v-126h-346v-158q24 11 64 18t82 7q150 0 231 -74t81 -224v-83q0 -81 -30.5 -138.5t-84.5 -87.5t-126 -30z" />
    <glyph glyph-name="uni0495" unicode="&#x495;" horiz-adv-x="601" 
d="M355 -187l-48 109q44 11 67.5 28t32 44t8.5 68v51q0 54 -18.5 78t-65.5 24q-52 0 -84 -31.5t-32 -82.5v-101h-149v507h396v-104h-247v-182l-18 -1q25 53 73.5 82t113.5 29q91 0 136 -52t45 -160v-56q0 -62 -18.5 -110.5t-64 -83t-127.5 -56.5z" />
    <glyph glyph-name="uni0496" unicode="&#x496;" horiz-adv-x="1087" 
d="M979 -169v169h-57v122h192v-291h-135zM0 0l127 254q34 68 81 105t117 49l-60 -42l-228 339h170l198 -309l-26 17h80v292h149v-292h80l-26 -17l197 309h170l-227 -339l-61 42q71 -12 117.5 -49t80.5 -105l127 -254h-167l-96 200q-22 47 -53.5 67t-82.5 20h-59v-287h-149
v287h-60q-50 0 -81.5 -20t-54.5 -67l-95 -200h-168z" />
    <glyph glyph-name="uni0497" unicode="&#x497;" horiz-adv-x="925" 
d="M775 -130v130h-40v112h169v-242h-129zM-9 0l107 197q18 29 36.5 50t41 34t49.5 16l-29 -48l-185 258h161l138 -191h52v191h150v-191h51l137 191h162l-186 -258l-29 48q28 -3 50 -16t41.5 -34t35.5 -50l108 -197h-160l-83 149q-11 20 -22.5 31.5t-25.5 16t-33 4.5h-46
v-201h-150v201h-47q-20 0 -34 -4.5t-25 -16t-23 -31.5l-82 -149h-160z" />
    <glyph glyph-name="uni0498" unicode="&#x498;" horiz-adv-x="637" 
d="M254 -169v244h129v-244h-129zM307 -11q-90 0 -160.5 21.5t-122.5 60.5l47 113q43 -32 99 -49.5t125 -17.5q80 0 117.5 24t37.5 72q0 43 -30 64t-93 21h-176v120h159q61 0 91 20.5t30 62.5q0 39 -32.5 63t-102.5 24q-58 0 -113 -17t-96 -49l-47 114q47 38 119 59t154 21
q134 0 201.5 -54t67.5 -139q0 -63 -37.5 -107.5t-102.5 -59.5v16q75 -13 116.5 -57.5t41.5 -116.5q0 -62 -32 -109t-97.5 -73.5t-163.5 -26.5z" />
    <glyph glyph-name="uni0499" unicode="&#x499;" horiz-adv-x="543" 
d="M214 -130v193h119v-193h-119zM263 -11q-70 0 -131.5 15t-103.5 45l39 96q37 -24 88.5 -37.5t106.5 -13.5q58 0 85 14.5t27 43.5q0 26 -19.5 40t-59.5 14h-139v101h126q36 0 55 13t19 37q0 26 -24.5 41t-81.5 15q-52 0 -95.5 -12t-80.5 -33l-38 92q41 28 102 42.5
t134 14.5q105 0 162 -37.5t57 -105.5q0 -46 -31 -78.5t-84 -41.5v15q63 -5 98 -37.5t35 -89.5q0 -70 -64.5 -111.5t-181.5 -41.5z" />
    <glyph glyph-name="uni049A" unicode="&#x49a;" horiz-adv-x="752" 
d="M619 -169v169h-57v122h193v-291h-136zM72 0v705h154v-292h106l-27 -17l198 309h170l-227 -339l-61 42q71 -12 117.5 -49t80.5 -105l127 -254h-168l-95 200q-22 48 -54 67.5t-82 19.5h-85v-287h-154z" />
    <glyph glyph-name="uni049B" unicode="&#x49b;" horiz-adv-x="641" 
d="M491 -130v130h-40v112h169v-242h-129zM66 0v507h149v-191h65l137 191h161l-184 -258l-30 48q27 -3 49 -16t41.5 -34t35.5 -50l108 -197h-160l-83 149q-10 20 -21.5 31.5t-25.5 16t-34 4.5h-59v-201h-149z" />
    <glyph glyph-name="uni049C" unicode="&#x49c;" horiz-adv-x="775" 
d="M72 0v705h155v-292h56v162h86v-162h11l188 292h170l-227 -339l-61 42q71 -12 117.5 -49t80.5 -105l127 -254h-168l-95 200q-22 48 -54 68.5t-82 20.5h-24l17 12v-170h-86v158h-56v-289h-155z" />
    <glyph glyph-name="uni049D" unicode="&#x49d;" horiz-adv-x="673" 
d="M66 0v507h149v-191h50v112h87v-112h12l136 191h162l-184 -258l-31 48q28 -3 50 -16t41.5 -34t35.5 -50l108 -197h-160l-83 149q-10 20 -21.5 31.5t-25.5 16t-34 4.5h-18l12 15v-137h-87v122h-50v-201h-149z" />
    <glyph glyph-name="uni049E" unicode="&#x49e;" horiz-adv-x="780" 
d="M134 0v522h-145v102h145v81h155v-81h122v-102h-122v-109h131l-37 -32l214 324h170l-243 -354l-41 46q46 -10 87 -42.5t75 -100.5l127 -254h-168l-95 200q-22 48 -53.5 67.5t-82.5 19.5h-84v-287h-155z" />
    <glyph glyph-name="uni049F" unicode="&#x49f;" horiz-adv-x="593" 
d="M70 0v561h-89v104h89v71h151v-71h193v-104h-193v-250h67l130 176h161l-183 -249l-22 48q28 -3 47.5 -14.5t36.5 -31.5t36 -53l108 -187h-160l-83 146q-11 19 -22.5 30.5t-25 16t-32.5 4.5h-58v-197h-151z" />
    <glyph glyph-name="uni04A0" unicode="&#x4a0;" horiz-adv-x="857" 
d="M11 579v126h362v-126h-362zM219 0v705h154v-292h106l-26 -17l197 309h171l-228 -339l-61 42q71 -12 117.5 -49t80.5 -105l127 -254h-168l-95 200q-22 48 -53.5 67.5t-82.5 19.5h-85v-287h-154z" />
    <glyph glyph-name="uni04A1" unicode="&#x4a1;" horiz-adv-x="677" 
d="M153 0v389h-145v118h295v-191h64l138 191h160l-184 -258l-29 48q27 -3 49 -16t40.5 -34t36.5 -50l107 -197h-160l-82 149q-12 20 -23.5 31.5t-25 16t-33.5 4.5h-58v-201h-150z" />
    <glyph glyph-name="uni04A2" unicode="&#x4a2;" horiz-adv-x="829" 
d="M690 -169v169h-114v122h248v-291h-134zM72 0v705h156v-283h323v283h157v-705h-157v293h-323v-293h-156z" />
    <glyph glyph-name="uni04A3" unicode="&#x4a3;" horiz-adv-x="631" 
d="M521 -130v130h-97v112h224v-242h-127zM66 0v507h149v-191h200v191h149v-507h-149v201h-200v-201h-149z" />
    <glyph glyph-name="uni04A4" unicode="&#x4a4;" horiz-adv-x="958" 
d="M72 0v705h154v-284h324v284h396v-126h-241v-579h-155v294h-324v-294h-154z" />
    <glyph glyph-name="uni04A5" unicode="&#x4a5;" horiz-adv-x="788" 
d="M66 0v507h149v-191h197v191h357v-118h-207v-389h-150v201h-197v-201h-149z" />
    <glyph glyph-name="uni04A8" unicode="&#x4a8;" horiz-adv-x="883" 
d="M407 -11q-111 0 -191 44t-122.5 124t-42.5 191q0 115 43 197.5t123.5 126.5t192.5 44q18 0 35 -1.5t30 -4.5l-12 -120q-15 2 -27 3t-23 1q-98 0 -150.5 -62.5t-52.5 -178.5q0 -123 53 -186.5t159 -63.5q81 0 132 23.5t75.5 70.5t24.5 119q0 55 -21.5 86t-59.5 31
q-37 0 -58.5 -31t-21.5 -86q0 -73 23.5 -120.5t75 -70t131.5 -22.5q36 0 71.5 8.5t71.5 24.5l36 -106q-33 -20 -79 -30.5t-101 -10.5q-77 0 -143.5 25.5t-117.5 71t-79 106t-28 129.5q0 70 27 120.5t76.5 78.5t115.5 28q67 0 115.5 -28t76 -78.5t27.5 -120.5t-29 -130
t-81 -105.5t-122 -71t-153 -25.5z" />
    <glyph glyph-name="uni04A9" unicode="&#x4a9;" horiz-adv-x="747" 
d="M346 -11q-144 0 -222.5 71.5t-78.5 196.5q0 80 33.5 138.5t94.5 90t142 31.5q25 0 47.5 -3t40.5 -10l-23 -102q-11 5 -25.5 7t-30.5 2q-61 0 -97.5 -41t-36.5 -114q0 -80 44.5 -123.5t126.5 -43.5q92 0 135.5 32.5t43.5 97.5q0 37 -16.5 57.5t-44.5 20.5
q-27 0 -43.5 -20.5t-16.5 -57.5q0 -45 18.5 -74t58 -42.5t101.5 -13.5q37 0 73 8.5t64 23.5l22 -102q-64 -30 -149 -30q-62 0 -117 18.5t-96.5 50.5t-66 75t-24.5 92q0 77 48.5 122.5t127.5 45.5q80 0 128 -46t48 -122q0 -50 -24 -93t-67 -75t-99 -50t-119 -18z" />
    <glyph glyph-name="uni04AA" unicode="&#x4aa;" horiz-adv-x="685" 
d="M347 -169v244h128v-244h-128zM413 -11q-113 0 -194 45t-124.5 126.5t-43.5 192.5t43.5 192t124.5 126t194 45q73 0 133 -20.5t102 -59.5l-49 -123q-46 36 -87.5 51t-93.5 15q-99 0 -151.5 -58.5t-52.5 -167.5t52.5 -168t151.5 -59q52 0 93.5 15t87.5 51l49 -123
q-42 -38 -102 -59t-133 -21z" />
    <glyph glyph-name="uni04AB" unicode="&#x4ab;" horiz-adv-x="524" 
d="M245 -130v193h118v-193h-118zM314 -11q-81 0 -142 32t-94 92t-33 142q0 83 33.5 141.5t94 89.5t141.5 31q51 0 99.5 -15t79.5 -42l-44 -104q-25 23 -57.5 34.5t-62.5 11.5q-61 0 -95.5 -38t-34.5 -109q0 -73 34.5 -111t95.5 -38q29 0 61.5 11t58.5 33l44 -103
q-32 -27 -80.5 -42.5t-98.5 -15.5z" />
    <glyph glyph-name="uni04AC" unicode="&#x4ac;" horiz-adv-x="628" 
d="M359 -170v170h-124v578h-224v127h604v-127h-224v-455h102v-293h-134z" />
    <glyph glyph-name="uni04AD" unicode="&#x4ad;" horiz-adv-x="502" 
d="M281 -130v130h-97v112h224v-242h-127zM176 0v389h-168v118h486v-118h-169v-389h-149z" />
    <glyph glyph-name="uni04AE" unicode="&#x4ae;" horiz-adv-x="642" 
d="M243 0v335l32 -89l-309 459h180l194 -302h-32l194 302h174l-308 -459l31 89v-335h-156z" />
    <glyph glyph-name="uni04AF" unicode="&#x4af;" horiz-adv-x="561" 
d="M203 -216v237l-210 486h158l146 -369h-33l150 369h148l-210 -480v-243h-149z" />
    <glyph glyph-name="uni04B0" unicode="&#x4b0;" horiz-adv-x="642" 
d="M243 0v335l32 -89l-309 459h180l194 -302h-32l194 302h174l-308 -459l31 89v-335h-156zM82 263v85h482v-85h-482z" />
    <glyph glyph-name="uni04B1" unicode="&#x4b1;" horiz-adv-x="561" 
d="M203 -204v147h-133v104h134v-30l-211 490h158l146 -369h-33l150 369h148l-211 -484v24h134v-104h-133v-147h-149z" />
    <glyph glyph-name="uni04B2" unicode="&#x4b2;" horiz-adv-x="724" 
d="M607 -169v169h-57v122h192v-291h-135zM-18 0l295 392v-69l-287 382h183l192 -269h-50l193 269h183l-288 -382v69l297 -392h-184l-201 279h51l-202 -279h-182z" />
    <glyph glyph-name="uni04B3" unicode="&#x4b3;" horiz-adv-x="625" 
d="M505 -130v130h-40v112h169v-242h-129zM-14 0l240 295v-67l-227 279h178l135 -177h-54l136 177h177l-226 -280v69l240 -296h-179l-148 190h54l-149 -190h-177z" />
    <glyph glyph-name="uni04B4" unicode="&#x4b4;" horiz-adv-x="979" 
d="M821 -170v170h-601v579h-209v126h546v-126h-183v-452h324v578h155v-578h103v-297h-135z" />
    <glyph glyph-name="uni04B5" unicode="&#x4b5;" horiz-adv-x="771" 
d="M626 -130v130h-473v389h-145v118h422v-118h-127v-274h217v392h150v-392h83v-245h-127z" />
    <glyph glyph-name="uni04B6" unicode="&#x4b6;" horiz-adv-x="774" 
d="M619 -169v169h-114v122h248v-291h-134zM498 0v263q-27 -11 -68 -18t-81 -7q-145 0 -222 73.5t-77 224.5v169h155v-163q0 -92 40 -133t122 -41q33 0 66.5 6t64.5 19v312h155v-705h-155z" />
    <glyph glyph-name="uni04B7" unicode="&#x4b7;" horiz-adv-x="597" 
d="M488 -130v130h-97v112h224v-242h-127zM385 0v172q-27 -11 -55 -16.5t-57 -5.5q-114 0 -170.5 55t-56.5 162v140h150v-126q0 -58 24.5 -84.5t80.5 -26.5q24 0 43.5 5t36.5 15v217h150v-507h-146z" />
    <glyph glyph-name="uni04B8" unicode="&#x4b8;" horiz-adv-x="724" 
d="M498 0v263q-25 -11 -58 -17.5t-63 -6.5l23 19v-155h-87v155l16 -20q-132 5 -205.5 76.5t-73.5 221.5v169h155v-163q0 -80 33 -123.5t101 -49.5l-26 -11v170h87v-170l-29 10q31 0 66 6.5t61 18.5v312h155v-705h-155z" />
    <glyph glyph-name="uni04B9" unicode="&#x4b9;" horiz-adv-x="640" 
d="M425 0v175q-23 -8 -47 -14t-45 -7l26 23v-116h-87v116l26 -24q-127 0 -189.5 54.5t-62.5 159.5v140h150v-128q0 -58 26.5 -82.5t78.5 -27.5l-29 -16v137h87v-137l-23 15q22 0 45 4.5t44 14.5v220h149v-507h-149z" />
    <glyph glyph-name="uni04BA" unicode="&#x4ba;" horiz-adv-x="724" 
d="M72 0v705h155v-262q26 12 67 18.5t81 6.5q145 0 222.5 -73.5t77.5 -225.5v-169h-155v163q0 93 -40.5 134t-122.5 41q-32 0 -66 -5.5t-64 -19.5v-313h-155z" />
    <glyph glyph-name="uni04BB" unicode="&#x4bb;" horiz-adv-x="629" 
d="M70 0v736h151v-324h-15q24 51 71 78t108 27q89 0 133 -51.5t44 -157.5v-308h-151v301q0 53 -19.5 76t-60.5 23q-50 0 -80 -31t-30 -83v-286h-151z" />
    <glyph glyph-name="uni04BC" unicode="&#x4bc;" horiz-adv-x="969" 
d="M607 -11q-168 0 -262 90.5t-101 248.5l30 -35h-56q-105 0 -156 51t-51 147v52h151v-51q0 -43 17.5 -62t55.5 -19h31l-22 -36q5 105 48.5 181.5t117 118t169.5 41.5q118 0 193 -47t110.5 -131t35.5 -195v-51h-550l33 57q1 -112 54.5 -170t170.5 -58q43 0 77.5 7.5t66 22.5
t65.5 37l52 -118q-37 -25 -78.5 -43t-90.5 -28t-111 -10zM585 590q-84 0 -132.5 -56t-51.5 -166l-33 43h433l-40 -59q0 79 -16.5 132t-55 79.5t-104.5 26.5z" />
    <glyph glyph-name="uni04BD" unicode="&#x4bd;" horiz-adv-x="695" 
d="M458 -11q-132 0 -206.5 71t-74.5 197l9 -30h-23q-83 0 -117.5 35.5t-34.5 104.5v35h116v-34q0 -36 12.5 -51t43.5 -15h22l-27 -30q4 73 36.5 128.5t87.5 86t128 30.5q75 0 125 -32t76 -89.5t26 -133.5v-35h-352l15 32q0 -81 34 -118.5t108 -37.5q42 0 78 10.5t70 33.5
l41 -100q-37 -28 -87 -43t-106 -15zM431 416q-35 0 -60 -17t-37 -49.5t-13 -77.5l-16 30h242l-17 -14q0 63 -25.5 95.5t-73.5 32.5z" />
    <glyph glyph-name="uni04BE" unicode="&#x4be;" horiz-adv-x="969" 
d="M607 -11q-168 0 -262 90.5t-101 248.5l30 -35h-56q-105 0 -156 51t-51 147v52h151v-51q0 -43 17.5 -62t55.5 -19h31l-22 -36q5 105 48.5 181.5t117 118t169.5 41.5q118 0 193 -47t110.5 -131t35.5 -195v-51h-550l33 57q1 -112 54.5 -170t170.5 -58q43 0 77.5 7.5t66 22.5
t65.5 37l52 -118q-37 -25 -78.5 -43t-90.5 -28t-111 -10zM585 590q-84 0 -132.5 -56t-51.5 -166l-33 43h433l-40 -59q0 79 -16.5 132t-55 79.5t-104.5 26.5zM677 -197q-60 0 -93 29.5t-33 78.5q0 44 29.5 80t76.5 54l43 -45q-17 -7 -30 -18t-20 -25t-7 -29q0 -23 16 -35.5
t39 -12.5q15 0 28 3t27 8l15 -70q-22 -10 -43 -14t-48 -4z" />
    <glyph glyph-name="uni04BF" unicode="&#x4bf;" horiz-adv-x="695" 
d="M458 -11q-132 0 -206.5 71t-74.5 197l9 -30h-23q-83 0 -117.5 35.5t-34.5 104.5v35h116v-34q0 -36 12.5 -51t43.5 -15h22l-27 -30q4 73 36.5 128.5t87.5 86t128 30.5q75 0 125 -32t76 -89.5t26 -133.5v-35h-352l15 32q0 -81 34 -118.5t108 -37.5q42 0 78 10.5t70 33.5
l41 -100q-37 -28 -87 -43t-106 -15zM431 416q-35 0 -60 -17t-37 -49.5t-13 -77.5l-16 30h242l-17 -14q0 63 -25.5 95.5t-73.5 32.5zM513 -197q-60 0 -93 29.5t-33 78.5q0 44 29.5 80t76.5 54l43 -45q-17 -7 -30 -18t-20 -25t-7 -29q0 -23 16 -35.5t39 -12.5q15 0 28 3t27 8
l15 -70q-22 -10 -43 -14t-48 -4z" />
    <glyph glyph-name="uni04C0" unicode="&#x4c0;" horiz-adv-x="299" 
d="M72 0v705h156v-705h-156z" />
    <glyph glyph-name="uni04C1" unicode="&#x4c1;" horiz-adv-x="1066" 
d="M0 0l127 254q34 68 81 105t117 49l-60 -42l-228 339h170l198 -309l-26 17h80v292h149v-292h80l-26 -17l197 309h170l-227 -339l-61 42q71 -12 117.5 -49t80.5 -105l127 -254h-167l-96 200q-22 47 -53.5 67t-82.5 20h-59v-287h-149v287h-60q-50 0 -81.5 -20t-54.5 -67
l-95 -200h-168zM531 760q-59 0 -102.5 18.5t-70 51t-36.5 75.5l74 24q18 -48 51 -69t85 -21q53 0 85.5 22t50.5 67l71 -23q-19 -69 -73 -107t-135 -38z" />
    <glyph glyph-name="uni04C2" unicode="&#x4c2;" horiz-adv-x="873" 
d="M-9 0l107 197q18 29 36.5 50t41 34t49.5 16l-29 -48l-185 258h161l138 -191h52v191h150v-191h51l137 191h162l-186 -258l-29 48q28 -3 50 -16t41.5 -34t35.5 -50l108 -197h-160l-83 149q-11 20 -22.5 31.5t-25.5 16t-33 4.5h-46v-201h-150v201h-47q-20 0 -34 -4.5
t-25 -16t-23 -31.5l-82 -149h-160zM435 551q-55 0 -95 18t-64.5 50t-33.5 73l74 24q16 -45 45 -65.5t76 -20.5q46 0 75 21t46 64l70 -23q-18 -66 -67.5 -103.5t-125.5 -37.5z" />
    <glyph glyph-name="uni04C3" unicode="&#x4c3;" horiz-adv-x="733" 
d="M443 -191q-31 0 -60 3.5t-49 9.5v121q18 -7 40 -10.5t45 -3.5q52 0 81 33.5t29 95.5v59q0 92 -47 135t-135 43h-121v-295h-154v705h154v-284h124l-35 -25l198 309h170l-228 -339l-24 49q121 -13 187 -84.5t66 -207.5v-58q0 -82 -30.5 -139.5t-84.5 -87t-126 -29.5z" />
    <glyph glyph-name="uni04C4" unicode="&#x4c4;" horiz-adv-x="598" 
d="M349 -187l-47 109q44 11 67 28t32 43.5t9 67.5v25q0 61 -30 88t-86 27h-79v-201h-149v507h149v-191h65l137 191h161l-186 -258l-66 62q111 0 172 -56.5t61 -161.5v-32q0 -62 -18.5 -109.5t-64 -82t-127.5 -56.5z" />
    <glyph glyph-name="uni04C5" unicode="&#x4c5;" horiz-adv-x="810" 
d="M585 -169l57 169h-82v122h255l-100 -291h-130zM89 -18l-77 112q42 24 73.5 55.5t51.5 76.5t30 109t10 153v217h530v-705h-155v579h-232v-129q0 -96 -15.5 -171.5t-45 -132.5t-72.5 -97.5t-98 -66.5z" />
    <glyph glyph-name="uni04C6" unicode="&#x4c6;" horiz-adv-x="656" 
d="M441 -130l45 130h-70v112h233l-84 -242h-124zM61 -15l-45 118q32 10 54 27t35.5 44t19.5 67t6 95v171h425v-507h-150v392h-139v-61q0 -104 -22 -176t-67 -114t-117 -56z" />
    <glyph glyph-name="uni04C7" unicode="&#x4c7;" horiz-adv-x="779" 
d="M494 -187q-18 0 -43.5 2t-50.5 7v122q20 -4 37.5 -6t30.5 -2q45 0 64 25.5t19 83.5v248h-323v-293h-156v705h156v-284h323v284h157v-659q0 -78 -21.5 -130t-69 -77.5t-123.5 -25.5z" />
    <glyph glyph-name="uni04C8" unicode="&#x4c8;" horiz-adv-x="630" 
d="M305 -193l-10 108l48 4q38 4 55 23t17 56v203h-200v-201h-149v507h149v-191h200v191h149v-489q0 -68 -20.5 -112t-67.5 -67t-126 -29z" />
    <glyph glyph-name="uni04C9" unicode="&#x4c9;" horiz-adv-x="811" 
d="M601 -169l57 169h-82v122h255l-100 -291h-130zM72 0v705h156v-283h323v283h157v-705h-157v293h-323v-293h-156z" />
    <glyph glyph-name="uni04CA" unicode="&#x4ca;" horiz-adv-x="660" 
d="M449 -130l45 130h-70v112h233l-84 -242h-124zM66 0v507h149v-191h200v191h149v-507h-149v201h-200v-201h-149z" />
    <glyph glyph-name="uni04CB" unicode="&#x4cb;" horiz-adv-x="724" 
d="M537 -169h-136v291h195v-122h-59v-169zM498 0v263q-27 -11 -68 -18t-81 -7q-145 0 -222 73.5t-77 224.5v169h155v-163q0 -92 40 -133t122 -41q33 0 66.5 6t64.5 19v312h155v-705h-155z" />
    <glyph glyph-name="uni04CC" unicode="&#x4cc;" horiz-adv-x="631" 
d="M429 -130h-127v211h212v-81h-85v-130zM385 0v172q-27 -11 -55 -16.5t-57 -5.5q-114 0 -170.5 55t-56.5 162v140h150v-126q0 -58 24.5 -84.5t80.5 -26.5q24 0 43.5 5t36.5 15v217h150v-507h-146z" />
    <glyph glyph-name="uni04CD" unicode="&#x4cd;" horiz-adv-x="909" 
d="M712 -169l58 169h-83v122h255l-100 -291h-130zM73 0v705h137l245 -550h-32l245 550h136v-705h-142v479h40l-219 -479h-90l-220 479h42v-479h-142z" />
    <glyph glyph-name="uni04CE" unicode="&#x4ce;" horiz-adv-x="747" 
d="M539 -130l45 130h-69v112h233l-84 -242h-125zM66 0v507h125l166 -282l165 282h125v-507h-133v337h25l-148 -255h-69l-148 255h24v-337h-132z" />
    <glyph glyph-name="uni04CF" unicode="&#x4cf;" horiz-adv-x="290" 
d="M70 0v736h151v-736h-151z" />
    <glyph glyph-name="uni04D0" unicode="&#x4d0;" horiz-adv-x="759" 
d="M-11 0l324 705h129l328 -705h-158l-85 196l61 -43h-419l62 43l-85 -196h-157zM377 541l-129 -306l-27 38h315l-23 -38l-132 306h-4zM381 760q-59 0 -102.5 18.5t-70 51t-36.5 75.5l74 24q18 -48 51 -69t85 -21q53 0 85.5 22t50.5 67l71 -23q-19 -69 -73 -107t-135 -38z
" />
    <glyph glyph-name="uni04D1" unicode="&#x4d1;" horiz-adv-x="647" 
d="M267 -11q-66 0 -116 32t-78 91t-28 142q0 82 28 141t78 90.5t116 31.5q61 0 109.5 -29.5t63.5 -79.5h-11l12 99h145q-3 -33 -5.5 -66.5t-2.5 -65.5v-375h-150l-1 95h12q-16 -48 -64 -77t-108 -29zM313 103q52 0 84 37t32 114t-32 113t-84 36t-84 -36t-32 -113t31.5 -114
t84.5 -37zM316 551q-55 0 -95 18t-64.5 50t-33.5 73l74 24q16 -45 45 -65.5t76 -20.5q46 0 75 21t46 64l70 -23q-18 -66 -67.5 -103.5t-125.5 -37.5z" />
    <glyph glyph-name="uni04D2" unicode="&#x4d2;" horiz-adv-x="759" 
d="M-11 0l324 705h129l328 -705h-158l-85 196l61 -43h-419l62 43l-85 -196h-157zM377 541l-129 -306l-27 38h315l-23 -38l-132 306h-4zM416 781v132h132v-132h-132zM218 781v132h132v-132h-132z" />
    <glyph glyph-name="uni04D3" unicode="&#x4d3;" horiz-adv-x="647" 
d="M267 -11q-66 0 -116 32t-78 91t-28 142q0 82 28 141t78 90.5t116 31.5q61 0 109.5 -29.5t63.5 -79.5h-11l12 99h145q-3 -33 -5.5 -66.5t-2.5 -65.5v-375h-150l-1 95h12q-16 -48 -64 -77t-108 -29zM313 103q52 0 84 37t32 114t-32 113t-84 36t-84 -36t-32 -113t31.5 -114
t84.5 -37zM351 590v132h132v-132h-132zM153 590v132h132v-132h-132z" />
    <glyph glyph-name="uni04D4" unicode="&#x4d4;" horiz-adv-x="1023" 
d="M-31 0l446 705h571v-121h-364l24 20l18 -228l-18 43h318v-122h-317l22 10l18 -216l-19 30h318v-121h-433l-15 192l30 -39h-360l45 41l-117 -194h-167zM488 584l-209 -347l-11 37h280l-12 -42l-28 352h-20z" />
    <glyph glyph-name="uni04D5" unicode="&#x4d5;" horiz-adv-x="882" 
d="M236 -11q-59 0 -102 23t-66 60.5t-23 80.5q0 56 26 89.5t88 48.5t168 15h49v-75h-51q-54 0 -86.5 -7.5t-47 -23.5t-14.5 -42q0 -29 21.5 -48t59.5 -19q31 0 55 13.5t37.5 38.5t13.5 58v121q0 44 -22.5 63t-71.5 19q-42 0 -81 -10t-83 -34l-41 102q40 25 97 40t116 15
q71 0 119 -23.5t70 -72.5h-35q36 48 80.5 72t104.5 24q103 0 163 -66.5t60 -184.5v-35h-346v75h236l-17 -17q0 62 -25.5 94.5t-71.5 32.5q-51 0 -80 -36t-29 -110v-9q0 -81 34 -119.5t103 -38.5q41 0 78.5 10t70.5 35l42 -100q-38 -30 -89.5 -44.5t-106.5 -14.5
q-87 0 -145.5 34.5t-86.5 98.5h27q-19 -63 -70.5 -98t-127.5 -35z" />
    <glyph glyph-name="uni04D6" unicode="&#x4d6;" horiz-adv-x="599" 
d="M72 0v705h490v-121h-341v-165h317v-122h-317v-176h341v-121h-490zM339 760q-59 0 -102.5 18.5t-70 51t-36.5 75.5l74 24q18 -48 51 -69t85 -21q53 0 85.5 22t50.5 67l71 -23q-19 -69 -73 -107t-135 -38z" />
    <glyph glyph-name="uni04D7" unicode="&#x4d7;" horiz-adv-x="566" 
d="M325 -11q-132 0 -206 71t-74 193q0 79 31.5 138t88 92.5t132.5 33.5q75 0 125.5 -32t76 -89.5t25.5 -133.5v-35h-355v75h245l-17 -14q0 63 -25.5 95.5t-73.5 32.5q-53 0 -81.5 -39t-28.5 -112v-16q0 -74 36.5 -110t105.5 -36q41 0 77.5 10.5t69.5 33.5l42 -100
q-38 -28 -87.5 -43t-106.5 -15zM295 551q-55 0 -95 18t-64.5 50t-33.5 73l74 24q16 -45 45 -65.5t76 -20.5q46 0 75 21t46 64l70 -23q-18 -66 -67.5 -103.5t-125.5 -37.5z" />
    <glyph glyph-name="uni04D8" unicode="&#x4d8;" horiz-adv-x="775" 
d="M389 -11q-118 0 -192.5 47.5t-110 131.5t-35.5 194v51h549v-119h-432l39 59q0 -79 16.5 -132t55.5 -79.5t104 -26.5q87 0 136 60t49 179q0 112 -53.5 171t-168.5 59q-42 0 -78 -7t-68 -22t-66 -38l-52 118q53 39 121.5 60t161.5 21q114 0 194.5 -44t122.5 -125t42 -194
q0 -111 -42 -192.5t-117.5 -126.5t-175.5 -45z" />
    <glyph glyph-name="uni04D9" unicode="&#x4d9;" horiz-adv-x="566" 
d="M269 -11q-106 0 -166 65t-60 178v45h354v-75h-245l17 17q0 -63 26 -95.5t74 -32.5q53 0 81 37t28 101v22q0 79 -36.5 115.5t-111.5 36.5q-36 0 -71.5 -9.5t-69.5 -33.5l-34 104q36 26 87 39.5t113 13.5q82 0 142 -31.5t92.5 -90.5t32.5 -142q0 -77 -31.5 -136.5
t-88 -93.5t-133.5 -34z" />
    <glyph glyph-name="uni04DA" unicode="&#x4da;" horiz-adv-x="775" 
d="M389 -11q-118 0 -192.5 47.5t-110 131.5t-35.5 194v51h549v-119h-432l39 59q0 -79 16.5 -132t55.5 -79.5t104 -26.5q87 0 136 60t49 179q0 112 -53.5 171t-168.5 59q-42 0 -78 -7t-68 -22t-66 -38l-52 118q53 39 121.5 60t161.5 21q114 0 194.5 -44t122.5 -125t42 -194
q0 -111 -42 -192.5t-117.5 -126.5t-175.5 -45zM423 781v132h132v-132h-132zM225 781v132h132v-132h-132z" />
    <glyph glyph-name="uni04DB" unicode="&#x4db;" horiz-adv-x="566" 
d="M269 -11q-106 0 -166 65t-60 178v45h354v-75h-245l17 17q0 -63 26 -95.5t74 -32.5q53 0 81 37t28 101v22q0 79 -36.5 115.5t-111.5 36.5q-36 0 -71.5 -9.5t-69.5 -33.5l-34 104q36 26 87 39.5t113 13.5q82 0 142 -31.5t92.5 -90.5t32.5 -142q0 -77 -31.5 -136.5
t-88 -93.5t-133.5 -34zM313 590v132h132v-132h-132zM115 590v132h132v-132h-132z" />
    <glyph glyph-name="uni04DC" unicode="&#x4dc;" horiz-adv-x="1066" 
d="M0 0l127 254q34 68 81 105t117 49l-60 -42l-228 339h170l198 -309l-26 17h80v292h149v-292h80l-26 -17l197 309h170l-227 -339l-61 42q71 -12 117.5 -49t80.5 -105l127 -254h-167l-96 200q-22 47 -53.5 67t-82.5 20h-59v-287h-149v287h-60q-50 0 -81.5 -20t-54.5 -67
l-95 -200h-168zM566 781v132h132v-132h-132zM368 781v132h132v-132h-132z" />
    <glyph glyph-name="uni04DD" unicode="&#x4dd;" horiz-adv-x="873" 
d="M-9 0l107 197q18 29 36.5 50t41 34t49.5 16l-29 -48l-185 258h161l138 -191h52v191h150v-191h51l137 191h162l-186 -258l-29 48q28 -3 50 -16t41.5 -34t35.5 -50l108 -197h-160l-83 149q-11 20 -22.5 31.5t-25.5 16t-33 4.5h-46v-201h-150v201h-47q-20 0 -34 -4.5
t-25 -16t-23 -31.5l-82 -149h-160zM469 590v132h132v-132h-132zM271 590v132h132v-132h-132z" />
    <glyph glyph-name="uni04DE" unicode="&#x4de;" horiz-adv-x="637" 
d="M307 -11q-90 0 -160.5 21.5t-122.5 60.5l47 113q43 -32 99 -49.5t125 -17.5q80 0 117.5 24t37.5 72q0 43 -30 64t-93 21h-176v120h159q61 0 91 20.5t30 62.5q0 39 -32.5 63t-102.5 24q-58 0 -113 -17t-96 -49l-47 114q47 38 119 59t154 21q134 0 201.5 -54t67.5 -139
q0 -63 -37.5 -107.5t-102.5 -59.5v16q75 -13 116.5 -57.5t41.5 -116.5q0 -62 -32 -109t-97.5 -73.5t-163.5 -26.5zM345 781v132h132v-132h-132zM147 781v132h132v-132h-132z" />
    <glyph glyph-name="uni04DF" unicode="&#x4df;" horiz-adv-x="543" 
d="M263 -11q-70 0 -131.5 15t-103.5 45l39 96q37 -24 88.5 -37.5t106.5 -13.5q58 0 85 14.5t27 43.5q0 26 -19.5 40t-59.5 14h-139v101h126q36 0 55 13t19 37q0 26 -24.5 41t-81.5 15q-52 0 -95.5 -12t-80.5 -33l-38 92q41 28 102 42.5t134 14.5q105 0 162 -37.5t57 -105.5
q0 -46 -31 -78.5t-84 -41.5v15q63 -5 98 -37.5t35 -89.5q0 -70 -64.5 -111.5t-181.5 -41.5zM299 596v132h132v-132h-132zM101 596v132h132v-132h-132z" />
    <glyph glyph-name="uni04E0" unicode="&#x4e0;" horiz-adv-x="637" 
d="M307 -11q-90 0 -160.5 21.5t-122.5 60.5l48 113q42 -32 99 -49.5t124 -17.5q80 0 117.5 23.5t37.5 69.5q0 45 -32 66.5t-108 21.5h-126v93l238 223v-35h-381v126h526v-107l-239 -224l-29 38h58q116 0 179.5 -53.5t63.5 -145.5q0 -105 -72.5 -164.5t-220.5 -59.5z" />
    <glyph glyph-name="uni04E1" unicode="&#x4e1;" horiz-adv-x="540" 
d="M240 -191q-73 0 -133 16t-102 46l42 103q36 -24 80.5 -37t94.5 -13q72 0 107.5 26.5t35.5 79.5q0 50 -36 75.5t-106 25.5h-97v71l222 224v-31h-318v112h450v-99l-208 -207l-47 29h58q108 0 169 -50.5t61 -140.5q0 -70 -33.5 -121.5t-94.5 -80t-145 -28.5z" />
    <glyph glyph-name="uni04E2" unicode="&#x4e2;" horiz-adv-x="760" 
d="M72 0v705h144v-490h-25l382 490h116v-705h-145v490h25l-383 -490h-114zM203 801v85h356v-85h-356z" />
    <glyph glyph-name="uni04E3" unicode="&#x4e3;" horiz-adv-x="626" 
d="M66 0v507h136v-356h-33l268 356h124v-507h-136v356h33l-269 -356h-123zM151 611v85h326v-85h-326z" />
    <glyph glyph-name="uni04E4" unicode="&#x4e4;" horiz-adv-x="760" 
d="M72 0v705h144v-490h-25l382 490h116v-705h-145v490h25l-383 -490h-114zM414 781v132h132v-132h-132zM216 781v132h132v-132h-132z" />
    <glyph glyph-name="uni04E5" unicode="&#x4e5;" horiz-adv-x="626" 
d="M66 0v507h136v-356h-33l268 356h124v-507h-136v356h33l-269 -356h-123zM347 590v132h132v-132h-132zM149 590v132h132v-132h-132z" />
    <glyph glyph-name="uni04E6" unicode="&#x4e6;" horiz-adv-x="795" 
d="M51 353q0 110 41.5 191.5t119.5 126.5t185 45t185 -45t120.5 -126.5t42.5 -190.5q0 -111 -42.5 -192.5t-120.5 -127t-185 -45.5t-184.5 45.5t-119.5 127.5t-42 191zM214 353q0 -109 45.5 -170.5t137.5 -61.5q90 0 137 61.5t47 170.5q0 110 -46.5 170.5t-137.5 60.5
q-92 0 -137.5 -60.5t-45.5 -170.5zM439 781v132h132v-132h-132zM241 781v132h132v-132h-132z" />
    <glyph glyph-name="uni04E7" unicode="&#x4e7;" horiz-adv-x="620" 
d="M310 -11q-81 0 -140.5 32.5t-92 91.5t-32.5 141q0 81 32.5 140t92 91t140.5 32t141 -32t92.5 -91t32.5 -140q0 -82 -32.5 -141t-92.5 -91.5t-141 -32.5zM310 103q52 0 82.5 37t30.5 114t-30.5 113t-82.5 36t-82.5 -36t-30.5 -113t30.5 -114t82.5 -37zM343 590v132h132
v-132h-132zM145 590v132h132v-132h-132z" />
    <glyph glyph-name="uni04E8" unicode="&#x4e8;" horiz-adv-x="795" 
d="M137 302v113h536v-113h-536zM51 353q0 110 41.5 191.5t119.5 126.5t185 45t185 -45t120.5 -126.5t42.5 -190.5q0 -111 -42.5 -192.5t-120.5 -127t-185 -45.5t-184.5 45.5t-119.5 127.5t-42 191zM214 353q0 -109 45.5 -170.5t137.5 -61.5q90 0 137 61.5t47 170.5
q0 110 -46.5 170.5t-137.5 60.5q-92 0 -137.5 -60.5t-45.5 -170.5z" />
    <glyph glyph-name="uni04E9" unicode="&#x4e9;" horiz-adv-x="620" 
d="M310 -11q-81 0 -140.5 32.5t-92 91.5t-32.5 141q0 81 32.5 140t92 91t140.5 32t141 -32t92.5 -91t32.5 -140q0 -82 -32.5 -141t-92.5 -91.5t-141 -32.5zM310 103q62 0 94 39t32 112q0 72 -32 110.5t-94 38.5t-94 -38.5t-32 -110.5q0 -73 32 -112t94 -39zM141 206v96h340
v-96h-340z" />
    <glyph glyph-name="uni04EA" unicode="&#x4ea;" horiz-adv-x="795" 
d="M137 302v113h536v-113h-536zM51 353q0 110 41.5 191.5t119.5 126.5t185 45t185 -45t120.5 -126.5t42.5 -190.5q0 -111 -42.5 -192.5t-120.5 -127t-185 -45.5t-184.5 45.5t-119.5 127.5t-42 191zM214 353q0 -109 45.5 -170.5t137.5 -61.5q90 0 137 61.5t47 170.5
q0 110 -46.5 170.5t-137.5 60.5q-92 0 -137.5 -60.5t-45.5 -170.5zM437 781v132h132v-132h-132zM239 781v132h132v-132h-132z" />
    <glyph glyph-name="uni04EB" unicode="&#x4eb;" horiz-adv-x="620" 
d="M310 -11q-81 0 -140.5 32.5t-92 91.5t-32.5 141q0 81 32.5 140t92 91t140.5 32t141 -32t92.5 -91t32.5 -140q0 -82 -32.5 -141t-92.5 -91.5t-141 -32.5zM310 103q62 0 94 39t32 112q0 72 -32 110.5t-94 38.5t-94 -38.5t-32 -110.5q0 -73 32 -112t94 -39zM141 206v96h340
v-96h-340zM343 590v132h132v-132h-132zM145 590v132h132v-132h-132z" />
    <glyph glyph-name="uni04EC" unicode="&#x4ec;" horiz-adv-x="701" 
d="M282 -11q-73 0 -137.5 22.5t-107.5 60.5l49 123q46 -37 92 -53.5t99 -16.5q97 0 152 53t61 158l40 -37h-357v120h354l-39 -40q-6 96 -59.5 148.5t-145.5 52.5q-54 0 -100.5 -15.5t-96.5 -53.5l-49 122q47 39 112.5 61t138.5 22q113 0 194 -45t124.5 -126t43.5 -192
t-43.5 -192.5t-126 -126.5t-198.5 -45zM353 781v132h132v-132h-132zM155 781v132h132v-132h-132z" />
    <glyph glyph-name="uni04ED" unicode="&#x4ed;" horiz-adv-x="550" 
d="M229 -11q-58 0 -111.5 16t-85.5 46l42 93q29 -23 66.5 -36t75.5 -13q66 0 106 35t45 105l14 -28h-246v99h246l-14 -27q-4 43 -22.5 73t-50.5 45t-78 15q-37 0 -75 -12.5t-67 -35.5l-42 93q35 28 88.5 44t109.5 16q85 0 147 -31t95.5 -90t33.5 -142q0 -82 -34 -141.5
t-96 -91.5t-147 -32zM282 590v132h132v-132h-132zM84 590v132h132v-132h-132z" />
    <glyph glyph-name="uni04EE" unicode="&#x4ee;" horiz-adv-x="689" 
d="M175 0l126 239l2 -45l-324 511h165l235 -377h-29l196 377h161l-370 -705h-162zM169 801v85h356v-85h-356z" />
    <glyph glyph-name="uni04EF" unicode="&#x4ef;" horiz-adv-x="563" 
d="M64 -227l-35 118q47 9 79.5 21t53.5 31.5t34 50.5l25 59l-4 -58l-220 512h159l145 -367h-31l147 367h150l-229 -527q-25 -57 -53.5 -94.5t-61.5 -59.5t-72.5 -34t-86.5 -19zM99 611v85h326v-85h-326z" />
    <glyph glyph-name="uni04F0" unicode="&#x4f0;" horiz-adv-x="689" 
d="M175 0l126 239l2 -45l-324 511h165l235 -377h-29l196 377h161l-370 -705h-162zM380 781v132h132v-132h-132zM182 781v132h132v-132h-132z" />
    <glyph glyph-name="uni04F1" unicode="&#x4f1;" horiz-adv-x="563" 
d="M64 -227l-35 118q47 9 79.5 21t53.5 31.5t34 50.5l25 59l-4 -58l-220 512h159l145 -367h-31l147 367h150l-229 -527q-25 -57 -53.5 -94.5t-61.5 -59.5t-72.5 -34t-86.5 -19zM295 590v132h132v-132h-132zM97 590v132h132v-132h-132z" />
    <glyph glyph-name="uni04F2" unicode="&#x4f2;" horiz-adv-x="689" 
d="M175 0l126 239l2 -45l-324 511h165l235 -377h-29l196 377h161l-370 -705h-162zM225 765l85 175h132l-132 -175h-85zM384 765l98 175h131l-144 -175h-85z" />
    <glyph glyph-name="uni04F3" unicode="&#x4f3;" horiz-adv-x="563" 
d="M64 -227l-35 118q47 9 79.5 21t53.5 31.5t34 50.5l25 59l-4 -58l-220 512h159l145 -367h-31l147 367h150l-229 -527q-25 -57 -53.5 -94.5t-61.5 -59.5t-72.5 -34t-86.5 -19zM301 555l47 205h123l-91 -205h-79zM140 555l47 205h123l-92 -205h-78z" />
    <glyph glyph-name="uni04F4" unicode="&#x4f4;" horiz-adv-x="724" 
d="M498 0v263q-27 -11 -68 -18t-81 -7q-145 0 -222 73.5t-77 224.5v169h155v-163q0 -92 40 -133t122 -41q33 0 66.5 6t64.5 19v312h155v-705h-155zM379 781v132h132v-132h-132zM181 781v132h132v-132h-132z" />
    <glyph glyph-name="uni04F5" unicode="&#x4f5;" horiz-adv-x="597" 
d="M385 0v172q-27 -11 -55 -16.5t-57 -5.5q-114 0 -170.5 55t-56.5 162v140h150v-126q0 -58 24.5 -84.5t80.5 -26.5q24 0 43.5 5t36.5 15v217h150v-507h-146zM322 590v132h132v-132h-132zM124 590v132h132v-132h-132z" />
    <glyph glyph-name="uni04F6" unicode="&#x4f6;" horiz-adv-x="582" 
d="M197 -169v169h-114v122h248v-291h-134zM72 0v705h493v-126h-338v-579h-155z" />
    <glyph glyph-name="uni04F7" unicode="&#x4f7;" horiz-adv-x="481" 
d="M173 -130v130h-97v112h224v-242h-127zM66 0v507h396v-118h-245v-389h-151z" />
    <glyph glyph-name="uni04F8" unicode="&#x4f8;" horiz-adv-x="946" 
d="M72 0v705h155v-285h157q117 0 183 -53.5t66 -155.5t-66 -156.5t-183 -54.5h-312zM227 118h137q63 0 92 23t29 70q0 46 -29 69t-92 23h-137v-185zM720 0v705h155v-705h-155zM506 781v132h132v-132h-132zM308 781v132h132v-132h-132z" />
    <glyph glyph-name="uni04F9" unicode="&#x4f9;" horiz-adv-x="815" 
d="M66 0v507h149v-163h122q104 0 156 -43t52 -125q0 -53 -25 -92.5t-71.5 -61.5t-111.5 -22h-271zM215 96h99q45 0 69.5 19.5t24.5 57.5q0 39 -24 57t-70 18h-99v-152zM600 0v507h150v-507h-150zM441 590v132h132v-132h-132zM243 590v132h132v-132h-132z" />
    <glyph glyph-name="uni04FA" unicode="&#x4fa;" horiz-adv-x="629" 
d="M90 -186l-10 100l58 5q51 5 74.5 25.5t23.5 55.5h-117v290h-96v109h96v306h493v-126h-338v-180h182v-109h-182v-168h102v-93q0 -101 -51 -152t-161 -59z" />
    <glyph glyph-name="uni04FB" unicode="&#x4fb;" horiz-adv-x="509" 
d="M78 -186l-10 101l64 5q35 3 48.5 24t13.5 56h-99v189h-90v98h90v220h395v-117h-245v-103h142v-98h-142v-106h83v-54q0 -101 -47 -153t-130 -57z" />
    <glyph glyph-name="uni04FC" unicode="&#x4fc;" horiz-adv-x="682" 
d="M404 -188l-3 121q46 5 68 21.5t22 47.5q0 20 -12.5 44.5t-35.5 55.5l-128 177h51l-202 -279h-182l295 392v-69l-287 382h183l192 -269h-50l193 269h183l-288 -382v69l173 -229q41 -53 57.5 -94t16.5 -78q0 -76 -59 -122t-187 -57z" />
    <glyph glyph-name="uni04FD" unicode="&#x4fd;" horiz-adv-x="573" 
d="M336 -188l-22 104q48 4 69.5 17.5t21.5 41.5q0 17 -11 37t-38 53l-98 126h51l-150 -191h-173l239 295v-67l-226 279h175l136 -177h-52l136 177h174l-226 -279v67l138 -169q28 -34 45 -60t24 -48t7 -48q0 -43 -22.5 -76t-71 -54t-126.5 -28z" />
    <glyph glyph-name="uni04FE" unicode="&#x4fe;" horiz-adv-x="682" 
d="M-18 0l295 392v-69l-287 382h183l192 -269h-50l193 269h183l-288 -382v69l297 -392h-184l-201 279h51l-202 -279h-182zM100 321v85h482v-85h-482z" />
    <glyph glyph-name="uni04FF" unicode="&#x4ff;" horiz-adv-x="573" 
d="M-14 0l240 295v-67l-227 279h178l135 -177h-54l136 177h177l-226 -280v69l240 -296h-179l-148 190h54l-149 -190h-177zM44 215v85h482v-85h-482z" />
    <glyph glyph-name="uni0510" unicode="&#x510;" horiz-adv-x="637" 
d="M330 -11q-98 0 -163 26.5t-97.5 73.5t-32.5 109q0 72 41.5 116.5t116.5 57.5v-16q-64 15 -101.5 59.5t-37.5 107.5q0 57 31.5 100.5t93 68t150.5 24.5q82 0 150.5 -21t116.5 -59l-47 -114q-41 32 -96 49t-114 17q-69 0 -101.5 -24t-32.5 -63q0 -42 29.5 -62.5t90.5 -20.5
h159v-120h-176q-62 0 -92 -21t-30 -64q0 -48 37 -72t117 -24q70 0 126 17.5t98 49.5l47 -113q-51 -39 -121.5 -60.5t-161.5 -21.5z" />
    <glyph glyph-name="uni0511" unicode="&#x511;" horiz-adv-x="542" 
d="M280 -11q-118 0 -182 41.5t-64 111.5q0 57 35 89.5t98 37.5l-1 -15q-52 9 -83 41.5t-31 78.5q0 68 62.5 105.5t167.5 37.5q65 0 124 -14.5t101 -42.5l-38 -93q-36 21 -79.5 33t-93.5 12q-57 0 -82.5 -14.5t-25.5 -41.5q0 -23 18.5 -36t53.5 -13h126v-101h-138
q-40 0 -59 -13.5t-19 -39.5q0 -30 26.5 -44.5t84.5 -14.5q54 0 106.5 13.5t88.5 37.5l38 -96q-40 -30 -101.5 -45t-132.5 -15z" />
    <glyph glyph-name="uni0512" unicode="&#x512;" horiz-adv-x="778" 
d="M493 -187q-18 0 -43 2t-51 7v122q20 -4 38 -6t30 -2q45 0 65 25.5t20 83.5v534h-232v-129q0 -96 -15.5 -171.5t-45 -132.5t-72.5 -97.5t-98 -66.5l-77 112q42 24 73.5 55.5t51.5 76.5t30 109t10 153v217h530v-659q0 -78 -21.5 -130t-68.5 -77.5t-124 -25.5z" />
    <glyph glyph-name="uni0513" unicode="&#x513;" horiz-adv-x="622" 
d="M297 -193l-10 108l48 4q37 4 54 23t17 56v394h-139v-61q0 -104 -22 -176t-67 -114t-117 -56l-45 118q32 10 54 27t35.5 44t19.5 67t6 95v171h425v-489q0 -68 -20.5 -112t-67.5 -67t-126 -29z" />
    <glyph glyph-name="uni051A" unicode="&#x51a;" horiz-adv-x="795" 
d="M585 -192q-33 17 -66.5 46.5t-62 66t-48.5 75.5l121 54q25 -51 69 -93.5t92 -69.5zM51 353q0 110 41.5 191.5t119.5 126.5t185 45t185 -45t120.5 -126.5t42.5 -190.5q0 -111 -42.5 -192.5t-120.5 -127t-185 -45.5t-184.5 45.5t-119.5 127.5t-42 191zM214 353
q0 -109 45.5 -170.5t137.5 -61.5q90 0 137 61.5t47 170.5q0 110 -46.5 170.5t-137.5 60.5q-92 0 -137.5 -60.5t-45.5 -170.5z" />
    <glyph glyph-name="uni051B" unicode="&#x51b;" horiz-adv-x="647" 
d="M427 -216v311h12q-16 -48 -64 -77t-108 -29q-66 0 -116 32t-78 91t-28 142q0 82 28 141t78 90.5t116 31.5q61 0 109.5 -29.5t63.5 -79.5h-11l12 99h145q-3 -33 -5.5 -66.5t-2.5 -65.5v-591h-151zM313 103q52 0 84 37t32 114t-32 113t-84 36t-84 -36t-32 -113t31.5 -114
t84.5 -37z" />
    <glyph glyph-name="uni051C" unicode="&#x51c;" horiz-adv-x="1126" 
d="M270 0l-250 705h161l179 -544h-43l195 544h114l179 -544h-40l190 544h151l-252 -705h-127l-173 501h23l-179 -501h-128z" />
    <glyph glyph-name="uni051D" unicode="&#x51d;" horiz-adv-x="907" 
d="M213 0l-204 507h155l134 -365h-26l135 365h100l134 -365h-21l132 365h146l-203 -507h-130l-144 374h61l-139 -374h-130z" />
    <glyph glyph-name="uni0524" unicode="&#x524;" horiz-adv-x="826" 
d="M672 -169v169h-114v122h248v-291h-134zM72 0v705h633v-705h-155v579h-324v-579h-154z" />
    <glyph glyph-name="uni0525" unicode="&#x525;" horiz-adv-x="628" 
d="M517 -130v130h-97v112h224v-242h-127zM66 0v507h495v-507h-149v392h-197v-392h-149z" />
    <glyph glyph-name="uni0526" unicode="&#x526;" horiz-adv-x="774" 
d="M642 -169v169h-114v122h248v-291h-134zM72 0v705h155v-262q26 12 67 18.5t81 6.5q145 0 222.5 -73.5t77.5 -225.5v-169h-155v163q0 93 -40.5 134t-122.5 41q-32 0 -66 -5.5t-64 -19.5v-313h-155z" />
    <glyph glyph-name="uni0527" unicode="&#x527;" horiz-adv-x="653" 
d="M517 -130v130h-97v112h224v-242h-127zM70 0v736h151v-324h-15q24 51 71 78t108 27q89 0 133 -51.5t44 -157.5v-308h-151v301q0 53 -19.5 76t-60.5 23q-50 0 -80 -31t-30 -83v-286h-151z" />
    <glyph glyph-name="uni0528" unicode="&#x528;" horiz-adv-x="779" 
d="M14 -187q-18 0 -43.5 2t-50.5 7v122q19 -4 37 -6t30 -2q46 0 65 25.5t19 83.5v660h157v-284h325v284h155v-705h-155v294h-325v-248q0 -78 -21.5 -130t-69 -77.5t-123.5 -25.5z" />
    <glyph glyph-name="uni0529" unicode="&#x529;" horiz-adv-x="630" 
d="M-44 -193l-11 108l49 4q38 4 55 23t17 56v509h149v-191h200v191h149v-507h-149v201h-200v-183q0 -68 -20.5 -112t-67 -67t-126.5 -29z" />
    <glyph glyph-name="uni052E" unicode="&#x52e;" horiz-adv-x="828" 
d="M674 -169v169h-114v122h248v-291h-134zM89 -18l-77 112q42 24 73.5 55.5t51.5 76.5t30 109t10 153v217h530v-705h-155v579h-232v-129q0 -96 -15.5 -171.5t-45 -132.5t-72.5 -97.5t-98 -66.5z" />
    <glyph glyph-name="uni052F" unicode="&#x52f;" horiz-adv-x="623" 
d="M513 -130v130h-97v112h224v-242h-127zM61 -15l-45 118q32 10 54 27t35.5 44t19.5 67t6 95v171h425v-507h-150v392h-139v-61q0 -104 -22 -176t-67 -114t-117 -56z" />
    <glyph glyph-name="uni1E08" unicode="&#x1e08;" horiz-adv-x="685" 
d="M413 -11q-113 0 -194 45t-124.5 126.5t-43.5 192.5t43.5 192t124.5 126t194 45q73 0 133 -20.5t102 -59.5l-49 -123q-46 36 -87.5 51t-93.5 15q-99 0 -151.5 -58.5t-52.5 -167.5t52.5 -168t151.5 -59q52 0 93.5 15t87.5 51l49 -123q-42 -38 -102 -59t-133 -21zM401 -197
q-31 0 -59.5 6t-50.5 16l21 64q18 -8 36.5 -13t37.5 -5q27 0 40 6.5t13 19.5q0 20 -37 20q-9 0 -18 -0.5t-20 -4.5l-21 20l14 88h76l-13 -76l-37 14q11 4 23.5 6t22.5 2q44 0 70 -19.5t26 -54.5q0 -40 -34.5 -64.5t-89.5 -24.5zM349 765l119 175h153l-166 -175h-106z" />
    <glyph glyph-name="uni1E09" unicode="&#x1e09;" horiz-adv-x="509" 
d="M306 -11q-81 0 -142 32t-94 92t-33 142q0 83 33.5 141.5t94 89.5t141.5 31q51 0 99.5 -15t79.5 -42l-44 -104q-25 23 -57.5 34.5t-62.5 11.5q-61 0 -95 -38t-34 -110t34 -110t95 -38q29 0 61.5 11t58.5 33l44 -103q-32 -27 -80.5 -42.5t-98.5 -15.5zM295 -197
q-31 0 -59.5 6t-50.5 16l21 64q18 -8 36.5 -13t37.5 -5q27 0 40 6.5t13 19.5q0 20 -37 20q-9 0 -18 -0.5t-20 -4.5l-21 20l14 88h76l-13 -76l-37 14q11 4 23.5 6t22.5 2q44 0 70 -19.5t26 -54.5q0 -40 -34.5 -64.5t-89.5 -24.5zM246 555l103 205h144l-147 -205h-100z" />
    <glyph glyph-name="uni1E0C" unicode="&#x1e0c;" horiz-adv-x="771" 
d="M72 0v705h269q123 0 208 -42t128.5 -120.5t43.5 -189.5q0 -110 -43.5 -189t-128.5 -121.5t-208 -42.5h-269zM228 128h104q118 0 175.5 55.5t57.5 169.5q0 115 -57.5 170t-175.5 55h-104v-450zM323 -214v133h140v-133h-140z" />
    <glyph glyph-name="uni1E0D" unicode="&#x1e0d;" horiz-adv-x="632" 
d="M261 -11q-66 0 -116.5 32t-79 91t-28.5 142q0 82 28 141t79 90.5t117 31.5q60 0 107.5 -28.5t63.5 -76.5h-13v324h151v-736h-149v99h13q-16 -50 -64 -80t-109 -30zM306 103q52 0 84 37t32 114t-32 113t-84 36t-84.5 -36t-32.5 -113t32.5 -114t84.5 -37zM248 -214v133h140
v-133h-140z" />
    <glyph glyph-name="uni1E0E" unicode="&#x1e0e;" horiz-adv-x="771" 
d="M72 0v705h269q123 0 208 -42t128.5 -120.5t43.5 -189.5q0 -110 -43.5 -189t-128.5 -121.5t-208 -42.5h-269zM228 128h104q118 0 175.5 55.5t57.5 169.5q0 115 -57.5 170t-175.5 55h-104v-450zM230 -170v85h326v-85h-326z" />
    <glyph glyph-name="uni1E0F" unicode="&#x1e0f;" horiz-adv-x="632" 
d="M261 -11q-66 0 -116.5 32t-79 91t-28.5 142q0 82 28 141t79 90.5t117 31.5q60 0 107.5 -28.5t63.5 -76.5h-13v324h151v-736h-149v99h13q-16 -50 -64 -80t-109 -30zM306 103q52 0 84 37t32 114t-32 113t-84 36t-84.5 -36t-32.5 -113t32.5 -114t84.5 -37zM155 -170v85h326
v-85h-326z" />
    <glyph glyph-name="uni1E14" unicode="&#x1e14;" horiz-adv-x="599" 
d="M72 0v705h490v-121h-341v-165h317v-122h-317v-176h341v-121h-490zM290 901l-114 127h140l66 -127h-92zM173 779v85h326v-85h-326z" />
    <glyph glyph-name="uni1E15" unicode="&#x1e15;" horiz-adv-x="550" 
d="M317 -11q-132 0 -206 71t-74 193q0 79 31.5 138t88 92.5t132.5 33.5q75 0 125.5 -32t76 -89.5t25.5 -133.5v-35h-355v75h245l-17 -14q0 63 -25.5 95.5t-73.5 32.5q-53 0 -81.5 -39t-28.5 -112v-16q0 -74 36.5 -110t105.5 -36q41 0 77.5 10.5t69.5 33.5l42 -100
q-38 -28 -87.5 -43t-106.5 -15zM126 564v85h326v-85h-326zM243 686l-114 127h140l66 -127h-92z" />
    <glyph glyph-name="uni1E16" unicode="&#x1e16;" horiz-adv-x="599" 
d="M72 0v705h490v-121h-341v-165h317v-122h-317v-176h341v-121h-490zM173 779v85h326v-85h-326zM290 901l66 127h140l-114 -127h-92z" />
    <glyph glyph-name="uni1E17" unicode="&#x1e17;" horiz-adv-x="550" 
d="M317 -11q-132 0 -206 71t-74 193q0 79 31.5 138t88 92.5t132.5 33.5q75 0 125.5 -32t76 -89.5t25.5 -133.5v-35h-355v75h245l-17 -14q0 63 -25.5 95.5t-73.5 32.5q-53 0 -81.5 -39t-28.5 -112v-16q0 -74 36.5 -110t105.5 -36q41 0 77.5 10.5t69.5 33.5l42 -100
q-38 -28 -87.5 -43t-106.5 -15zM126 564v85h326v-85h-326zM243 686l66 127h140l-114 -127h-92z" />
    <glyph glyph-name="uni1E1C" unicode="&#x1e1c;" horiz-adv-x="599" 
d="M72 0v705h490v-121h-341v-165h317v-122h-317v-176h341v-121h-490zM335 -197q-31 0 -59.5 6t-50.5 16l21 64q18 -8 36.5 -13t37.5 -5q27 0 40 6.5t13 19.5q0 20 -37 20q-9 0 -18 -0.5t-20 -4.5l-21 20l14 88h76l-13 -76l-37 14q11 4 23.5 6t22.5 2q44 0 70 -19.5t26 -54.5
q0 -40 -34.5 -64.5t-89.5 -24.5zM336 760q-82 0 -133.5 46.5t-57.5 124.5l83 11q5 -45 33 -70t74 -25q47 0 76 25t33 70l83 -11q-6 -78 -57.5 -124.5t-133.5 -46.5z" />
    <glyph glyph-name="uni1E1D" unicode="&#x1e1d;" horiz-adv-x="550" 
d="M317 -11q-132 0 -206 71t-74 193q0 79 31.5 138t88 92.5t132.5 33.5q75 0 125.5 -32t76 -89.5t25.5 -133.5v-35h-355v75h245l-17 -14q0 63 -25.5 95.5t-73.5 32.5q-53 0 -81.5 -39t-28.5 -112v-16q0 -74 36.5 -110t105.5 -36q41 0 77.5 10.5t69.5 33.5l42 -100
q-38 -28 -87.5 -43t-106.5 -15zM296 -197q-31 0 -59.5 6t-50.5 16l21 64q18 -8 36.5 -13t37.5 -5q27 0 40 6.5t13 19.5q0 20 -37 20q-9 0 -18 -0.5t-20 -4.5l-21 20l14 88h76l-13 -76l-37 14q11 4 23.5 6t22.5 2q44 0 70 -19.5t26 -54.5q0 -40 -34.5 -64.5t-89.5 -24.5z
M289 552q-51 0 -90 24t-60.5 68t-22.5 103l83 8q4 -56 27.5 -85.5t62.5 -29.5q40 0 63 29.5t27 85.5l83 -8q-1 -59 -22.5 -103t-60.5 -68t-90 -24z" />
    <glyph glyph-name="uni1E20" unicode="&#x1e20;" horiz-adv-x="745" 
d="M421 -11q-121 0 -203.5 44.5t-124.5 126t-42 190.5q0 112 45.5 194t131.5 127t206 45q77 0 135.5 -19.5t102.5 -55.5l-50 -121q-32 23 -60 36.5t-58 19t-69 5.5q-110 0 -165.5 -59.5t-55.5 -172.5q0 -112 52 -170t163 -58q37 0 76 7t77 21l-28 -60v190h-155v111h284v-346
q-53 -26 -122.5 -40.5t-139.5 -14.5zM238 801v85h356v-85h-356z" />
    <glyph glyph-name="uni1E21" unicode="&#x1e21;" horiz-adv-x="633" 
d="M303 -224q-73 0 -130 14.5t-102 43.5l29 108q28 -18 59.5 -29.5t65 -17t66.5 -5.5q67 0 100 32t33 91v105h10q-16 -48 -64 -77t-108 -29q-68 0 -118.5 31t-78.5 88t-28 134t28 134t78.5 87.5t118.5 30.5q61 0 107.5 -28.5t62.5 -75.5l-8 4l10 90h146q-4 -33 -6 -66.5
t-2 -65.5v-345q0 -123 -69 -188.5t-200 -65.5zM307 126q53 0 84 36t31 103t-31 102.5t-84 35.5q-55 0 -86.5 -35.5t-31.5 -102.5t31.5 -103t86.5 -36zM158 611v85h326v-85h-326z" />
    <glyph glyph-name="uni1E24" unicode="&#x1e24;" horiz-adv-x="779" 
d="M72 0v705h156v-283h323v283h157v-705h-157v293h-323v-293h-156zM320 -214v133h140v-133h-140z" />
    <glyph glyph-name="uni1E25" unicode="&#x1e25;" horiz-adv-x="613" 
d="M62 0v736h151v-324h-15q24 51 71 78t108 27q89 0 133 -51.5t44 -157.5v-308h-151v301q0 53 -19.5 76t-60.5 23q-50 0 -80 -31t-30 -83v-286h-151zM238 -214v133h140v-133h-140z" />
    <glyph glyph-name="uni1E2A" unicode="&#x1e2a;" horiz-adv-x="779" 
d="M72 0v705h156v-283h323v283h157v-705h-157v293h-323v-293h-156zM390 -215q-76 0 -124 42t-49 113l83 8q4 -35 27.5 -56t62.5 -21q40 0 63 21t27 56l83 -8q-1 -71 -48.5 -113t-124.5 -42z" />
    </font>
</defs>
</svg>
