<?xml version="1.0" standalone="no"?>
<!DOCTYPE svg PUBLIC "-//W3C//DTD SVG 1.1//EN" "http://www.w3.org/Graphics/SVG/1.1/DTD/svg11.dtd" >
<svg xmlns="http://www.w3.org/2000/svg" xmlns:xlink="http://www.w3.org/1999/xlink" version="1.1">
<metadata>
Created by FontForge 20201107 at Thu Sep 30 21:20:51 2021
 By 
Copyright 2016 The Mulish Project Authors (https://github.com/googlefonts/mulish)
</metadata>
<defs>
<font id="Mulish-ExtraBoldItalic" horiz-adv-x="0" >
  <font-face 
    font-family="Mulish ExtraBold"
    font-weight="800"
    font-style="italic"
    font-stretch="normal"
    units-per-em="1000"
    panose-1="0 0 0 0 0 0 0 0 0 0"
    ascent="800"
    descent="-200"
    x-height="507"
    cap-height="705"
    bbox="-317 -284 1399 1055"
    underline-thickness="44"
    underline-position="-107"
    slope="-9"
    unicode-range="U+000D-FB02"
  />
<missing-glyph horiz-adv-x="500" 
 />
    <glyph glyph-name="fi" unicode="fi" horiz-adv-x="658" 
d="M60 0l63 394h-96l17 113h139l-49 -39l13 76q16 98 73.5 147t155.5 49q24 0 50 -3t44 -12l-19 -116q-12 5 -30 7.5t-35 2.5q-34 0 -59 -19t-32 -65l-9 -53l-17 25h368l-80 -507h-151l62 394h-194l-63 -394h-151zM493 590l22 141h164l-23 -141h-163z" />
    <glyph glyph-name="fl" unicode="fl" horiz-adv-x="659" 
d="M60 0l63 394h-96l17 113h139l-49 -39l13 76q15 98 75 147t167 49q24 0 47 -3.5t41 -11.5l-19 -116q-13 5 -27 7.5t-31 2.5q-23 0 -45.5 -8t-38.5 -26.5t-21 -49.5l-9 -53l-17 25h149l-17 -113h-127l-63 -394h-151zM408 0l117 736h151l-117 -736h-151z" />
    <glyph glyph-name=".notdef" horiz-adv-x="500" 
 />
    <glyph glyph-name="uni0000" 
 />
    <glyph glyph-name="uni0000" 
 />
    <glyph glyph-name="nonmarkingreturn" horiz-adv-x="333" 
 />
    <glyph glyph-name="CR" unicode="&#xd;" horiz-adv-x="282" 
 />
    <glyph glyph-name="space" unicode=" " horiz-adv-x="282" 
 />
    <glyph glyph-name="exclam" unicode="!" horiz-adv-x="260" 
d="M80 223l29 482h186l-123 -482h-92zM9 0l25 160h162l-25 -160h-162z" />
    <glyph glyph-name="quotedbl" unicode="&#x22;" horiz-adv-x="481" 
d="M102 407l11 298h174l-84 -298h-101zM327 407l11 298h174l-84 -298h-101z" />
    <glyph glyph-name="numbersign" unicode="#" horiz-adv-x="600" 
d="M33 0l59 166h-65l15 93h82l71 195h-98l14 94h118l57 157h101l-57 -157h111l57 157h100l-57 -157h64l-15 -94h-82l-72 -195h101l-15 -93h-119l-59 -166h-101l59 166h-109l-58 -166h-102zM226 259h109l71 195h-110z" />
    <glyph glyph-name="dollar" unicode="$" horiz-adv-x="600" 
d="M192 -115l21 133l29 -24q-43 3 -88 11.5t-84 23.5t-66 36l58 120q40 -28 96 -45.5t122 -17.5t99.5 21.5t37.5 53.5q5 28 -13.5 47t-68.5 28l-94 20q-55 13 -95 41t-58 70t-10 95q11 64 46 108t91.5 70t131.5 33l-28 -16l21 127h119l-21 -127l-21 18q52 -4 103 -22t82 -48
l-53 -114q-32 27 -77.5 41.5t-97.5 14.5q-66 0 -103 -23t-44 -60q-5 -30 12.5 -48.5t65.5 -29.5l94 -20q100 -21 140.5 -72.5t27.5 -133.5q-14 -87 -84 -137.5t-175 -62.5l24 23l-21 -134h-119z" />
    <glyph glyph-name="percent" unicode="%" horiz-adv-x="958" 
d="M301 0h-133l520 705h134zM234 285q-92 0 -133.5 60.5t-25.5 165.5q16 97 72 151t137 54q92 0 133.5 -60t24.5 -165q-15 -96 -70.5 -151t-137.5 -55zM241 378q31 0 51 28t30 88q10 71 -2.5 99t-42.5 28q-31 0 -50.5 -25.5t-29.5 -87.5q-12 -71 0.5 -100.5t43.5 -29.5z
M706 -11q-92 0 -133.5 60.5t-25.5 166.5q16 98 71.5 151t136.5 53q92 0 134 -59.5t25 -164.5q-16 -97 -70.5 -152t-137.5 -55zM713 84q31 0 51 27.5t29 88.5q12 69 -1 98t-43 29q-31 0 -51 -26t-30 -88q-10 -72 2.5 -100.5t42.5 -28.5z" />
    <glyph glyph-name="ampersand" unicode="&#x26;" horiz-adv-x="698" 
d="M620 -11q-44 13 -85 39t-73 58l39 -1q-45 -44 -111 -70t-138 -26q-80 0 -136.5 26t-82.5 72.5t-16 109.5q10 61 55.5 106t117.5 81l43 22l-32 -28q-34 39 -47.5 83.5t-6.5 90.5t34.5 83t75.5 59t116 22q58 0 100 -20t61.5 -58t11.5 -91q-5 -35 -26 -68t-58.5 -62.5
t-93.5 -55.5l5 30l139 -164h-29q32 41 54.5 93t34.5 109h128q-16 -82 -50 -155.5t-84 -130.5l-4 34q24 -28 54 -48t68 -32zM276 105q44 0 81 16t71 47l-15 -33l-174 201l66 -2l-34 -18q-46 -23 -71.5 -48.5t-32.5 -62.5q-6 -45 21.5 -72.5t87.5 -27.5zM367 616
q-34 0 -55.5 -19t-25.5 -47q-3 -21 0 -38t14.5 -34.5t31.5 -42.5l-32 -1q62 28 92.5 54t35.5 60q6 32 -11.5 50t-49.5 18z" />
    <glyph glyph-name="quotesingle" unicode="'" horiz-adv-x="256" 
d="M102 407l11 298h174l-84 -298h-101z" />
    <glyph glyph-name="parenleft" unicode="(" horiz-adv-x="378" 
d="M167 -180q-38 80 -55.5 165t-17.5 166q0 106 27 206.5t74 189t107 158.5h122q-75 -134 -124.5 -286t-49.5 -322q0 -60 10 -131t26 -146h-119z" />
    <glyph glyph-name="parenright" unicode=")" horiz-adv-x="378" 
d="M79 -180h-122q76 134 125.5 286.5t49.5 321.5q0 60 -10 131t-27 146h120q37 -80 54.5 -164.5t17.5 -166.5q0 -105 -27 -205.5t-74 -189t-107 -159.5z" />
    <glyph glyph-name="asterisk" unicode="*" horiz-adv-x="459" 
d="M185 345l-78 57l102 112l-140 39l36 91l134 -53l3 145h97l-20 -144l142 52l24 -91l-147 -39l85 -112l-78 -57l-70 122z" />
    <glyph glyph-name="plus" unicode="+" horiz-adv-x="600" 
d="M213 40l31 195h-193l17 104h192l30 189h107l-30 -189h192l-17 -104h-191l-31 -195h-107z" />
    <glyph glyph-name="comma" unicode="," horiz-adv-x="260" 
d="M64 -144l-51 56q38 33 55 59.5t24 64.5l30 -36h-113l25 160h161l-18 -116q-5 -37 -17 -68.5t-35 -60.5t-61 -59z" />
    <glyph glyph-name="hyphen" unicode="-" horiz-adv-x="444" 
d="M59 217l19 118h314l-18 -118h-315z" />
    <glyph glyph-name="period" unicode="." horiz-adv-x="260" 
d="M9 0l25 160h162l-26 -160h-161z" />
    <glyph glyph-name="slash" unicode="/" horiz-adv-x="334" 
d="M53 -61h-129l401 816h128z" />
    <glyph glyph-name="zero" unicode="0" horiz-adv-x="600" 
d="M271 -11q-137 0 -190.5 100.5t-25.5 281.5q28 178 105 261.5t200 83.5q133 0 190 -95t27 -282q-28 -177 -107.5 -263.5t-198.5 -86.5zM281 115q57 0 93.5 55.5t56.5 178.5q14 90 9.5 143t-27.5 75.5t-62 22.5q-57 0 -93 -52.5t-56 -175.5q-14 -90 -9.5 -144.5t27.5 -78.5
t61 -24z" />
    <glyph glyph-name="one" unicode="1" horiz-adv-x="600" 
d="M61 0l21 128h160l70 447l72 -4l-235 -126l23 150l206 110h111l-92 -577h150l-20 -128h-466z" />
    <glyph glyph-name="two" unicode="2" horiz-adv-x="600" 
d="M33 0l18 115l265 239q47 42 70 74t29 66q8 46 -18 69.5t-79 23.5q-45 0 -91 -15t-94 -50l-46 115q50 37 119.5 58t137.5 21q85 0 139 -27t76 -75.5t12 -114.5q-10 -64 -49.5 -117.5t-106.5 -110.5l-212 -183v40h334l-20 -128h-484z" />
    <glyph glyph-name="three" unicode="3" horiz-adv-x="600" 
d="M258 -11q-73 0 -138 21t-102 58l54 116q40 -33 87.5 -49.5t100.5 -16.5q60 0 94.5 20.5t41.5 66.5q13 89 -99 89h-122l19 123h104q51 0 84 21.5t39 62.5q7 41 -18 63.5t-78 22.5q-52 0 -99 -16t-92 -50l-46 115q50 38 118.5 59t139.5 21q124 0 183 -54.5t44 -146.5
q-9 -59 -51 -101t-105 -56l1 13q66 -11 100.5 -60t23.5 -123q-16 -98 -91.5 -148.5t-192.5 -50.5z" />
    <glyph glyph-name="four" unicode="4" horiz-adv-x="600" 
d="M298 0l21 129h-306l18 108l401 468h128l-74 -459h97l-19 -117h-97l-19 -129h-150zM337 246l44 275h28l-264 -311l1 36h191z" />
    <glyph glyph-name="five" unicode="5" horiz-adv-x="600" 
d="M273 -11q-46 0 -91 10t-82 27.5t-60 41.5l52 116q40 -32 87 -49t97 -17q58 0 94.5 26t44.5 74q7 51 -20 80t-81 29q-38 0 -72 -14t-64 -43h-100l69 435h450l-21 -127h-304l-30 -192h-36q30 32 71.5 49t94.5 17q64 0 111 -29t69 -83t10 -130q-10 -66 -47 -115.5t-98 -77.5
t-144 -28z" />
    <glyph glyph-name="six" unicode="6" horiz-adv-x="600" 
d="M295 -11q-93 0 -152 44t-80.5 127.5t-2.5 202.5q19 118 68 196.5t123 117.5t166 39q59 0 111.5 -17t88.5 -54l-55 -116q-33 30 -71.5 44t-81.5 14q-82 0 -133 -53t-70 -162l-10 -65h-13q23 71 73.5 111t123.5 40q62 0 106.5 -30.5t65.5 -85.5t9 -130q-11 -72 -48 -121.5
t-93 -75.5t-125 -26zM299 110q53 0 82.5 30t37.5 79q9 55 -16.5 87t-74.5 32t-80.5 -31t-39.5 -80q-9 -54 16.5 -85.5t74.5 -31.5z" />
    <glyph glyph-name="seven" unicode="7" horiz-adv-x="600" 
d="M25 0l437 625l-3 -50h-362l22 130h507l-18 -116l-407 -589h-176z" />
    <glyph glyph-name="eight" unicode="8" horiz-adv-x="600" 
d="M271 -11q-134 0 -199 59.5t-50 159.5q12 71 64 115t124 53l-3 -26q-62 14 -93 65.5t-21 118.5q14 88 86.5 135t190.5 47q79 0 132 -25.5t77.5 -71t14.5 -105.5q-11 -68 -56 -112t-109 -54l3 24q46 -8 77.5 -34t45 -65.5t4.5 -90.5q-15 -94 -91.5 -143.5t-196.5 -49.5z
M278 108q62 0 98 23.5t43 70.5q8 47 -20.5 71t-92.5 24q-62 0 -97.5 -22.5t-43.5 -68.5q-7 -45 21 -71.5t92 -26.5zM327 416q52 0 84 22.5t39 65.5q6 43 -18 68t-77 25t-84 -23t-38 -63q-6 -41 17.5 -68t76.5 -27z" />
    <glyph glyph-name="nine" unicode="9" horiz-adv-x="600" 
d="M215 -11q-58 0 -110.5 17.5t-89.5 54.5l55 115q33 -29 71.5 -43.5t81.5 -14.5q82 0 134 53.5t68 161.5l10 65h15q-23 -71 -73.5 -111t-124.5 -40q-60 0 -105.5 30.5t-66.5 86t-9 130.5q11 72 48 121t93.5 75t125.5 26q93 0 152 -44t80 -127.5t2 -202.5
q-18 -118 -67.5 -196.5t-123.5 -117.5t-166 -39zM303 368q50 0 82 31t40 80q8 53 -17 85t-75 32q-52 0 -82.5 -30t-37.5 -80q-9 -54 16.5 -86t73.5 -32z" />
    <glyph glyph-name="colon" unicode=":" horiz-adv-x="260" 
d="M64 347l25 160h162l-26 -160h-161zM9 0l25 160h161l-25 -160h-161z" />
    <glyph glyph-name="semicolon" unicode=";" horiz-adv-x="260" 
d="M59 -144l-51 47q41 35 60.5 66t24.5 67l27 -36h-110l25 160h162l-18 -112q-9 -57 -35.5 -102.5t-84.5 -89.5zM64 346l25 160h162l-26 -160h-161z" />
    <glyph glyph-name="less" unicode="&#x3c;" horiz-adv-x="600" 
d="M509 31l-458 200l18 113l522 199l-19 -119l-477 -180l11 73l421 -179z" />
    <glyph glyph-name="equal" unicode="=" horiz-adv-x="600" 
d="M67 335l17 104h490l-17 -104h-490zM36 136l17 103h489l-16 -103h-490z" />
    <glyph glyph-name="greater" unicode="&#x3e;" horiz-adv-x="600" 
d="M20 31l19 119l477 180l-12 -74l-420 180l18 107l458 -199l-18 -113z" />
    <glyph glyph-name="question" unicode="?" horiz-adv-x="473" 
d="M166 223l8 47q4 29 14.5 54.5t31.5 51.5t54 55q19 17 34 34.5t25 36.5t10 38q0 24 -19.5 37.5t-55.5 13.5q-40 0 -81 -13t-78 -34l20 127q38 21 88.5 33t94.5 12q56 0 98 -18.5t65.5 -51t23.5 -76.5q0 -41 -16.5 -76t-44.5 -63.5t-64 -52.5q-55 -40 -78 -69t-30 -56
l-10 -30h-90zM94 0l26 160h162l-25 -160h-163z" />
    <glyph glyph-name="at" unicode="@" horiz-adv-x="962" 
d="M500 -166q-97 0 -177.5 30.5t-139 88t-91 136.5t-32.5 176q0 102 33 185t94 142.5t145.5 91.5t186.5 32q90 0 163.5 -26.5t127 -76t82.5 -119t29 -154.5q0 -86 -26 -149.5t-71.5 -97.5t-103.5 -34q-62 0 -97.5 33t-40.5 93l38 19q-25 -73 -71 -109t-102 -36
q-82 0 -126.5 51t-44.5 139q0 73 27 130t75.5 89.5t109.5 32.5q53 0 86.5 -26t46.5 -78h-21l18 94h109l-41 -231q-3 -18 -4.5 -32.5t-1.5 -25.5q0 -30 11.5 -43.5t35.5 -13.5q28 0 51.5 24t37.5 69t14 102q0 69 -21.5 122t-62 90t-98 56t-130.5 19q-80 0 -146 -25.5
t-112.5 -72.5t-72.5 -114t-26 -150q0 -106 42 -183t118.5 -118t178.5 -41q72 0 131.5 19.5t104.5 55.5l44 -77q-47 -41 -119.5 -64t-160.5 -23zM470 151q34 0 60.5 21t41 59.5t14.5 88.5q0 43 -18.5 65.5t-58.5 22.5q-34 0 -61 -20t-42 -55t-15 -83t20.5 -73.5t58.5 -25.5z
" />
    <glyph glyph-name="A" unicode="A" horiz-adv-x="759" 
d="M-51 0l436 705h129l216 -705h-152l-55 196l55 -43h-419l69 43l-116 -196h-163zM429 541l-178 -306l-21 38h315l-29 -38l-83 306h-4z" />
    <glyph glyph-name="B" unicode="B" horiz-adv-x="696" 
d="M32 0l112 705h322q118 0 173.5 -50t41.5 -141q-10 -60 -54 -102.5t-112 -57.5l2 16q74 -13 108 -61.5t23 -119.5q-14 -89 -85 -139t-188 -50h-343zM200 116h169q59 0 92.5 21t39.5 64q6 37 -4.5 58t-35.5 31t-63 10h-170zM247 415h150q61 0 92.5 21t37.5 61
q8 48 -16.5 70.5t-83.5 22.5h-152z" />
    <glyph glyph-name="C" unicode="C" horiz-adv-x="685" 
d="M389 -11q-123 0 -200 49.5t-107 135.5t-13 196q18 110 71.5 187.5t139 118.5t195.5 40q69 -1 124.5 -19.5t92.5 -50.5l-53 -124q-41 31 -79.5 44t-91.5 13q-95 0 -157 -56t-80 -161q-11 -72 5 -125t59.5 -82t113.5 -29q47 0 93.5 15t93.5 51l42 -123q-50 -38 -114.5 -59
t-134.5 -21z" />
    <glyph glyph-name="D" unicode="D" horiz-adv-x="771" 
d="M32 0l112 705h255q131 0 211.5 -45t111 -127.5t12.5 -196.5q-27 -167 -136.5 -251.5t-289.5 -84.5h-276zM208 128h104q119 0 184.5 53.5t83.5 161.5q18 122 -31 178.5t-168 56.5h-102z" />
    <glyph glyph-name="E" unicode="E" horiz-adv-x="599" 
d="M32 0l112 705h490l-19 -121h-341l-26 -165h317l-19 -122h-317l-28 -176h340l-19 -121h-490z" />
    <glyph glyph-name="F" unicode="F" horiz-adv-x="578" 
d="M32 0l112 705h479l-19 -121h-324l-27 -172h300l-19 -120h-300l-46 -292h-156z" />
    <glyph glyph-name="G" unicode="G" horiz-adv-x="745" 
d="M397 -11q-130 0 -209 47.5t-108 132.5t-11 198q18 112 74.5 189.5t146 118.5t203.5 41q77 0 132.5 -17t92.5 -46l-54 -121q-42 27 -80 38t-97 11q-109 0 -174 -58.5t-82 -166.5q-17 -111 25 -173t158 -62q43 0 80.5 7t78.5 21l-45 -60l30 190h-155l18 111h284l-55 -345
q-35 -18 -78 -30.5t-88 -19t-87 -6.5z" />
    <glyph glyph-name="H" unicode="H" horiz-adv-x="779" 
d="M32 0l112 705h156l-45 -283h323l45 283h157l-112 -705h-157l47 293h-324l-46 -293h-156z" />
    <glyph glyph-name="I" unicode="I" horiz-adv-x="299" 
d="M32 0l112 705h156l-112 -705h-156z" />
    <glyph glyph-name="J" unicode="J" horiz-adv-x="381" 
d="M26 -187q-18 0 -42.5 2.5t-49.5 9.5l19 122q19 -7 36.5 -9t29.5 -2q46 0 69.5 26t32.5 84l104 659h156l-106 -672q-13 -78 -42 -126.5t-79.5 -71t-127.5 -22.5z" />
    <glyph glyph-name="K" unicode="K" horiz-adv-x="685" 
d="M32 0l112 705h156l-49 -307h2l333 307h190l-405 -369l-5 64l320 -400h-184l-261 322h-2l-51 -322h-156z" />
    <glyph glyph-name="L" unicode="L" horiz-adv-x="569" 
d="M32 0l112 705h156l-92 -574h318l-20 -131h-474z" />
    <glyph glyph-name="M" unicode="M" horiz-adv-x="877" 
d="M33 0l112 705h137l157 -550h-32l333 550h136l-112 -705h-142l76 479h40l-295 -479h-89l-145 479h42l-76 -479h-142z" />
    <glyph glyph-name="N" unicode="N" horiz-adv-x="760" 
d="M32 0l112 705h116l304 -496l-26 9l78 487h145l-112 -705h-116l-304 496l26 -9l-78 -487h-145z" />
    <glyph glyph-name="O" unicode="O" horiz-adv-x="795" 
d="M69 370q18 110 69.5 187.5t132.5 118t184 40.5q115 0 188.5 -49.5t103 -135t11.5 -195.5q-17 -110 -69.5 -187.5t-133 -118.5t-183.5 -41q-115 0 -188.5 49.5t-102.5 135.5t-12 196zM231 360q-12 -76 2 -129t52.5 -81.5t98.5 -28.5q89 0 142.5 61t69.5 164
q12 76 -2.5 129t-53 81t-99.5 28q-89 0 -141 -60t-69 -164z" />
    <glyph glyph-name="P" unicode="P" horiz-adv-x="675" 
d="M32 0l112 705h314q125 0 181 -62.5t39 -168.5q-9 -59 -42.5 -104.5t-90.5 -70.5t-137 -25h-177l-43 -274h-156zM251 395h153q57 0 87.5 23t37.5 67q8 48 -16.5 73.5t-81.5 25.5h-151z" />
    <glyph glyph-name="Q" unicode="Q" horiz-adv-x="795" 
d="M515 -192q-30 17 -59 46.5t-52 66t-37 75.5l130 54q17 -51 54.5 -93.5t80.5 -69.5zM69 370q18 110 69.5 187.5t132.5 118t184 40.5q115 0 188.5 -49.5t103 -135t11.5 -195.5q-17 -110 -69.5 -187.5t-133 -118.5t-183.5 -41q-115 0 -188.5 49.5t-102.5 135.5t-12 196z
M231 360q-12 -76 2 -129t52.5 -81.5t98.5 -28.5q89 0 142.5 61t69.5 164q12 76 -2.5 129t-53 81t-99.5 28q-89 0 -141 -60t-69 -164z" />
    <glyph glyph-name="R" unicode="R" horiz-adv-x="708" 
d="M32 0l112 705h305q130 0 187.5 -58.5t40.5 -165.5q-10 -62 -46 -107.5t-93.5 -70t-129.5 -24.5l4 22h37q43 0 72 -23.5t46 -66.5l76 -211h-163l-79 227q-9 29 -33.5 38.5t-58.5 9.5h-78l-43 -275h-156zM249 387h145q59 0 92 24.5t40 70.5q8 52 -19.5 77t-88.5 25h-138z
" />
    <glyph glyph-name="S" unicode="S" horiz-adv-x="658" 
d="M294 -11q-80 0 -150.5 19t-115.5 49l51 122q46 -26 103.5 -43.5t125.5 -17.5q72 0 105.5 22t38.5 56q5 31 -12 50.5t-65 26.5l-110 19q-92 15 -137.5 69.5t-32.5 139.5q10 66 51.5 114t109.5 74.5t156 26.5q69 0 130.5 -17.5t98.5 -49.5l-52 -118q-36 25 -84 40.5
t-109 15.5q-65 0 -103 -22t-45 -61q-5 -31 12.5 -53t67.5 -30l109 -18q95 -15 139 -67.5t30 -137.5q-9 -61 -49 -108t-106 -74t-157 -27z" />
    <glyph glyph-name="T" unicode="T" horiz-adv-x="628" 
d="M195 0l92 578h-224l20 127h604l-20 -127h-224l-92 -578h-156z" />
    <glyph glyph-name="U" unicode="U" horiz-adv-x="746" 
d="M344 -11q-96 0 -162.5 34t-94.5 102.5t-12 174.5l65 405h156l-65 -413q-14 -84 15.5 -127.5t113.5 -43.5q75 0 116.5 42t56.5 131l65 411h154l-67 -417q-16 -100 -57 -166.5t-111.5 -99.5t-172.5 -33z" />
    <glyph glyph-name="V" unicode="V" horiz-adv-x="735" 
d="M263 0l-204 705h162l151 -564h-48l329 564h168l-429 -705h-129z" />
    <glyph glyph-name="W" unicode="W" horiz-adv-x="1126" 
d="M230 0l-138 705h156l91 -544h-42l282 544h114l92 -544h-40l276 544h157l-364 -705h-127l-93 501h21l-257 -501h-128z" />
    <glyph glyph-name="X" unicode="X" horiz-adv-x="682" 
d="M-61 0l357 392l-5 -69l-226 382h176l150 -269h-50l236 269h190l-349 -382l4 69l234 -392h-177l-157 279h52l-246 -279h-189z" />
    <glyph glyph-name="Y" unicode="Y" horiz-adv-x="642" 
d="M203 0l53 335l17 -89l-234 459h173l146 -302h-32l242 302h180l-382 -466l47 96l-54 -335h-156z" />
    <glyph glyph-name="Z" unicode="Z" horiz-adv-x="615" 
d="M6 0l18 115l450 508l-7 -46h-370l21 128h525l-18 -114l-451 -508l7 45h385l-21 -128h-539z" />
    <glyph glyph-name="bracketleft" unicode="[" horiz-adv-x="376" 
d="M30 -180l140 885h261l-18 -112h-112l-104 -661h112l-18 -112h-261z" />
    <glyph glyph-name="backslash" unicode="\" horiz-adv-x="334" 
d="M196 -61l-143 816h120l143 -816h-120z" />
    <glyph glyph-name="bracketright" unicode="]" horiz-adv-x="376" 
d="M-52 -180l17 112h112l104 661h-111l18 112h259l-140 -885h-259z" />
    <glyph glyph-name="asciicircum" unicode="^" horiz-adv-x="600" 
d="M25 140l278 488h112l124 -488h-109l-109 447h73l-252 -447h-117z" />
    <glyph glyph-name="underscore" unicode="_" horiz-adv-x="505" 
d="M-40 -88l15 88h475l-14 -88h-476z" />
    <glyph glyph-name="grave" unicode="`" horiz-adv-x="500" 
d="M275 555l-142 205h143l98 -205h-99z" />
    <glyph glyph-name="a" unicode="a" horiz-adv-x="632" 
d="M232 -11q-69 0 -117.5 35t-68.5 98.5t-7 147.5q20 123 91 185t169 62q61 0 104.5 -28.5t52.5 -76.5l-10 -4l27 99h145q-8 -33 -15.5 -66.5t-13.5 -65.5l-59 -375h-150l16 99h16q-24 -50 -69.5 -80t-110.5 -30zM285 103q51 0 87 35.5t48 108.5q13 82 -14 119t-81 37
q-51 0 -87 -35t-48 -108q-13 -82 14 -119.5t81 -37.5z" />
    <glyph glyph-name="b" unicode="b" horiz-adv-x="632" 
d="M333 -11q-60 0 -103.5 29t-52.5 77l10 4l-16 -99h-149l117 736h151l-52 -324l-18 -4q24 50 70 79.5t110 29.5q70 0 118 -35t68.5 -97.5t6.5 -147.5q-20 -123 -91 -185.5t-169 -62.5zM308 103q52 0 87.5 35.5t46.5 108.5q13 82 -13.5 119t-80.5 37q-51 0 -87.5 -35
t-48.5 -108q-12 -82 15 -119.5t81 -37.5z" />
    <glyph glyph-name="c" unicode="c" horiz-adv-x="509" 
d="M280 -11q-87 0 -145.5 35.5t-83.5 99t-12 146.5q20 123 100.5 185t198.5 62q47 0 92.5 -13.5t72.5 -38.5l-46 -102q-23 19 -54 29t-60 10q-58 0 -98 -34.5t-52 -106.5q-12 -70 17.5 -112.5t95.5 -42.5q27 0 59.5 10.5t61.5 32.5l40 -102q-30 -26 -81 -42t-106 -16z" />
    <glyph glyph-name="d" unicode="d" horiz-adv-x="632" 
d="M232 -11q-69 0 -117.5 35t-68.5 98.5t-7 147.5q20 123 91 185t169 62q61 0 104.5 -28.5t52.5 -76.5h-12l52 324h151l-117 -736h-149l16 99h15q-24 -50 -69.5 -80t-110.5 -30zM285 103q51 0 87 35.5t48 108.5q13 82 -14 119t-81 37q-51 0 -87 -35t-48 -108
q-13 -82 14 -119.5t81 -37.5z" />
    <glyph glyph-name="e" unicode="e" horiz-adv-x="550" 
d="M292 -11q-93 0 -154 36t-86 100t-12 148q12 76 49 130.5t94.5 84t132.5 29.5t124 -33t69.5 -90t8.5 -131l-6 -33h-354l11 74h246l-20 -16q10 64 -12 96t-72 32q-36 0 -62 -16.5t-42 -46t-21 -65.5l-6 -39q-10 -70 21.5 -108t111.5 -38q36 0 70.5 10.5t69.5 33.5l40 -100
q-41 -29 -93 -43.5t-108 -14.5z" />
    <glyph glyph-name="f" unicode="f" horiz-adv-x="386" 
d="M60 0l63 394h-96l17 113h139l-49 -39l13 76q15 98 75 147t167 49q24 0 47 -3.5t41 -11.5l-19 -116q-13 5 -27 7.5t-31 2.5q-23 0 -45.5 -8t-38.5 -26.5t-21 -49.5l-9 -53l-17 25h149l-17 -113h-127l-63 -394h-151z" />
    <glyph glyph-name="g" unicode="g" horiz-adv-x="633" 
d="M237 -224q-72 0 -127 14.5t-97 43.5l40 109q25 -18 54 -29.5t61.5 -17.5t65.5 -6q70 0 106.5 32t45.5 91l17 105h10q-20 -46 -67 -75.5t-110 -29.5q-68 0 -117 32t-70.5 92.5t-7.5 144.5q19 115 89 175t171 60q61 0 104.5 -28.5t51.5 -75.5l-7 4l24 90h146
q-9 -33 -16.5 -66.5t-12.5 -65.5l-55 -345q-19 -123 -94.5 -188.5t-204.5 -65.5zM288 126q54 0 90 35.5t46 101.5q10 69 -16 104.5t-80 35.5t-90 -35t-47 -101q-11 -69 16 -105t81 -36z" />
    <glyph glyph-name="h" unicode="h" horiz-adv-x="613" 
d="M22 0l117 736h151l-52 -324h-15q30 52 79 78.5t110 26.5q91 0 129 -54t20 -165l-47 -298h-151l47 298q9 55 -9 78.5t-58 23.5q-51 0 -84 -31t-41 -83l-45 -286h-151z" />
    <glyph glyph-name="i" unicode="i" horiz-adv-x="274" 
d="M22 0l80 507h151l-80 -507h-151zM109 590l23 141h163l-23 -141h-163z" />
    <glyph glyph-name="j" unicode="j" horiz-adv-x="274" 
d="M-55 -223q-22 0 -44 3t-41 11l19 117q13 -4 26.5 -7t28.5 -3q32 0 55.5 19.5t30.5 67.5l83 522h151l-84 -529q-16 -99 -70.5 -150t-154.5 -51zM110 590l22 141h163l-23 -141h-162z" />
    <glyph glyph-name="k" unicode="k" horiz-adv-x="574" 
d="M22 0l117 736h151l-70 -440h2l216 211h185l-281 -270v55l214 -292h-179l-167 220h-2l-35 -220h-151z" />
    <glyph glyph-name="l" unicode="l" horiz-adv-x="274" 
d="M22 0l117 736h151l-117 -736h-151z" />
    <glyph glyph-name="m" unicode="m" horiz-adv-x="911" 
d="M22 0l59 375q5 32 8.5 65.5t4.5 66.5h146l-5 -94h-12q29 52 74.5 78t104.5 26t96 -28t44 -85h-19q30 52 82 82.5t110 30.5q89 0 125.5 -53.5t19.5 -167.5l-48 -296h-151l48 301q8 52 -6.5 75.5t-52.5 23.5q-46 0 -75 -32t-38 -88l-45 -280h-151l47 301q9 52 -5 75.5
t-52 23.5q-47 0 -76 -32t-38 -88l-44 -280h-151z" />
    <glyph glyph-name="n" unicode="n" horiz-adv-x="613" 
d="M22 0l59 375q5 32 8.5 65.5t4.5 66.5h146l-5 -94l-12 -1q30 52 79 78.5t110 26.5q91 0 129 -54t20 -165l-47 -298h-151l47 298q9 55 -9.5 78.5t-57.5 23.5q-51 0 -84 -31t-41 -83l-45 -286h-151z" />
    <glyph glyph-name="o" unicode="o" horiz-adv-x="604" 
d="M274 -11q-86 0 -143.5 34t-81 97t-10.5 150q13 82 53.5 137t102.5 82.5t137 27.5q87 0 143.5 -33.5t80 -96.5t9.5 -150q-13 -81 -53.5 -136t-101.5 -83.5t-136 -28.5zM282 103q50 0 85.5 35.5t47.5 108.5q13 82 -13.5 119t-79.5 37q-50 0 -85 -35t-47 -108
q-13 -82 13 -119.5t79 -37.5z" />
    <glyph glyph-name="p" unicode="p" horiz-adv-x="632" 
d="M-12 -216l93 591q5 32 8.5 65.5t4.5 66.5h146l-5 -99h-15q24 50 70 79.5t110 29.5q70 0 118 -35t68.5 -97.5t6.5 -147.5q-20 -123 -91 -185.5t-169 -62.5q-60 0 -103.5 29t-52.5 77h11l-49 -311h-151zM308 103q52 0 87.5 35.5t46.5 108.5q13 82 -13.5 119t-80.5 37
q-51 0 -87.5 -35t-48.5 -108q-12 -82 15 -119.5t81 -37.5z" />
    <glyph glyph-name="q" unicode="q" horiz-adv-x="632" 
d="M345 -216l49 311l18 4q-24 -50 -69.5 -80t-110.5 -30q-69 0 -117.5 35t-68.5 98.5t-7 147.5q20 123 91 185t169 62q61 0 104.5 -28.5t52.5 -76.5l-10 -4l27 99h145q-8 -33 -15.5 -66.5t-13.5 -65.5l-93 -591h-151zM285 103q51 0 87 35.5t48 108.5q13 82 -14 119t-81 37
q-51 0 -87 -35t-48 -108q-13 -82 14 -119.5t81 -37.5z" />
    <glyph glyph-name="r" unicode="r" horiz-adv-x="411" 
d="M21 0l59 373q5 33 9 67t5 67h146l-6 -148h-26q18 54 46.5 89t65.5 52t80 17q14 0 26.5 -1.5t23.5 -3.5l-22 -133q-18 8 -32.5 10t-36.5 2q-37 0 -67 -15.5t-50.5 -46t-27.5 -76.5l-41 -253h-152z" />
    <glyph glyph-name="s" unicode="s" horiz-adv-x="504" 
d="M219 -11q-65 0 -119 14t-88 38l42 100q36 -21 81 -34t91 -13q43 0 66.5 13.5t27.5 37.5q3 21 -9 33.5t-39 16.5l-87 14q-72 12 -102 52t-21 102q9 49 40.5 83.5t81.5 52.5t110 18q57 0 105.5 -12.5t80.5 -37.5l-45 -97q-27 19 -65.5 31.5t-75.5 12.5q-46 0 -69.5 -15.5
t-27.5 -38.5q-3 -19 7 -33t37 -18l88 -14q74 -12 104.5 -50t20.5 -100q-8 -51 -40.5 -86t-82.5 -52.5t-112 -17.5z" />
    <glyph glyph-name="t" unicode="t" horiz-adv-x="396" 
d="M261 -11q-102 0 -144 52t-27 146l33 207h-96l17 113h96l20 124l157 37l-26 -161h130l-18 -113h-129l-32 -199q-7 -47 10.5 -65.5t50.5 -18.5q16 0 29 2.5t28 7.5l-19 -117q-21 -8 -41 -11.5t-39 -3.5z" />
    <glyph glyph-name="u" unicode="u" horiz-adv-x="607" 
d="M213 -11q-94 0 -136 55t-26 160l48 303h151l-48 -302q-8 -51 9.5 -74.5t60.5 -23.5q49 0 78.5 31.5t38.5 84.5l45 284h151l-80 -507h-147l15 97h15q-29 -51 -73 -79.5t-102 -28.5z" />
    <glyph glyph-name="v" unicode="v" horiz-adv-x="551" 
d="M169 0l-138 507h154l86 -368h-33l208 368h155l-302 -507h-130z" />
    <glyph glyph-name="w" unicode="w" horiz-adv-x="891" 
d="M165 0l-123 507h148l77 -365h-26l193 365h101l75 -365h-21l190 365h151l-283 -507h-130l-85 374h61l-198 -374h-130z" />
    <glyph glyph-name="x" unicode="x" horiz-adv-x="557" 
d="M-67 0l287 295l-2 -67l-183 279h170l107 -177h-54l164 177h184l-271 -280l6 69l193 -296h-175l-118 190h56l-179 -190h-185z" />
    <glyph glyph-name="y" unicode="y" horiz-adv-x="550" 
d="M-18 -227l-23 118q49 9 83 21t58 31.5t43 50.5l34 59l-7 -58l-140 512h155l86 -367h-31l205 367h156l-312 -527q-35 -57 -69.5 -94.5t-71 -59.5t-77.5 -34t-89 -19z" />
    <glyph glyph-name="z" unicode="z" horiz-adv-x="530" 
d="M7 0l16 98l348 332l-6 -36h-295l17 113h438l-16 -99l-352 -335l6 39h310l-18 -112h-448z" />
    <glyph glyph-name="braceleft" unicode="{" horiz-adv-x="414" 
d="M231 -180q-51 0 -84 17.5t-46.5 47.5t-7.5 68l28 174q6 39 -3 56t-44 20l-42 5l16 108l43 5q35 3 50.5 20t22.5 56l28 175q11 68 47.5 100.5t94.5 32.5h136l-18 -112h-65q-19 0 -32.5 -9.5t-17.5 -33.5l-27 -171q-5 -36 -24.5 -62.5t-45 -40.5t-47.5 -14l-1 4
q23 0 43 -15.5t31.5 -42.5t5.5 -63l-26 -170q-4 -24 5 -33.5t29 -9.5h68l-18 -112h-99z" />
    <glyph glyph-name="bar" unicode="|" horiz-adv-x="293" 
d="M2 -180l140 885h151l-140 -885h-151z" />
    <glyph glyph-name="braceright" unicode="}" horiz-adv-x="414" 
d="M-54 -180l18 112h66q19 0 32.5 9.5t17.5 33.5l26 171q6 37 25.5 63t45 40.5t47.5 14.5l1 -4q-22 0 -42.5 15t-31.5 42.5t-6 63.5l27 169q4 24 -5.5 33.5t-29.5 9.5h-68l17 112h100q51 0 84 -17.5t46.5 -47.5t7.5 -68l-28 -174q-6 -39 3 -56t44 -20l42 -4l-17 -109l-42 -4
q-34 -4 -50.5 -21t-22.5 -56l-28 -175q-11 -68 -48 -100.5t-94 -32.5h-137z" />
    <glyph glyph-name="asciitilde" unicode="~" horiz-adv-x="600" 
d="M415 204q-32 0 -63 12.5t-60 25.5q-24 13 -45.5 22t-40.5 9q-25 0 -44.5 -15.5t-35.5 -44.5l-69 50q24 51 59 79.5t80 28.5q33 0 65 -13t60 -26q25 -12 45.5 -21t37.5 -9q26 0 46 15t36 45l69 -52q-24 -49 -59.5 -77.5t-80.5 -28.5z" />
    <glyph glyph-name="uni00A0" unicode="&#xa0;" horiz-adv-x="282" 
 />
    <glyph glyph-name="exclamdown" unicode="&#xa1;" horiz-adv-x="260" 
d="M-32 -180l121 464h91l-26 -464h-186zM64 347l25 160h162l-25 -160h-162z" />
    <glyph glyph-name="cent" unicode="&#xa2;" horiz-adv-x="600" 
d="M199 -115l23 145l23 -32q-91 19 -137.5 85.5t-30.5 170.5q16 99 78.5 161.5t167.5 77.5l-34 -37l25 154h118l-23 -145l-27 32q50 -1 92 -14t69 -37l-47 -102q-22 19 -53.5 28.5t-60.5 9.5q-57 0 -98 -33t-52 -98q-7 -42 3.5 -75t38.5 -51.5t71 -18.5q28 0 60.5 10.5
t60.5 30.5l40 -101q-34 -27 -90 -43t-115 -13l38 32l-22 -137h-118z" />
    <glyph glyph-name="sterling" unicode="&#xa3;" horiz-adv-x="600" 
d="M1 0l16 103q39 12 62 31.5t28 53.5l20 120h-78l14 90h78l14 91q18 109 87.5 168t183.5 59q64 0 116 -17.5t87 -49.5l-54 -109q-35 28 -68 40.5t-72 12.5q-56 0 -86 -25.5t-37 -77.5l-15 -92h159l-14 -90h-158l-14 -87q-7 -39 -27 -64t-52 -36l1 4h359l-20 -125h-530z" />
    <glyph glyph-name="currency" unicode="&#xa4;" horiz-adv-x="600" 
d="M118 -32l-56 56l73 75q-22 31 -34 68.5t-12 77.5q0 41 12 78.5t34 68.5l-73 74l56 57l74 -75q30 21 65.5 33t74.5 12t74.5 -11.5t64.5 -32.5l74 76l60 -61l-75 -75q22 -31 32.5 -67.5t10.5 -76.5t-11.5 -77t-32.5 -68l74 -76l-56 -55l-73 75q-30 -22 -66 -34.5t-76 -12.5
q-39 0 -75.5 12t-65.5 33zM332 116q33 0 61 17.5t44 47t16 64.5q0 36 -16 65.5t-44 47t-61 17.5t-61 -17.5t-44.5 -47t-16.5 -65.5q0 -35 16 -64.5t43.5 -47t62.5 -17.5z" />
    <glyph glyph-name="yen" unicode="&#xa5;" horiz-adv-x="600" 
d="M182 0l25 159h-156l13 86h157l11 72h-156l13 86h129l-3 -18l-166 320h163l128 -266h-33l215 266h173l-269 -320l3 18h129l-13 -86h-157l-12 -72h157l-13 -86h-157l-26 -159h-155z" />
    <glyph glyph-name="brokenbar" unicode="&#xa6;" horiz-adv-x="293" 
d="M89 372l53 333h151l-53 -333h-151zM2 -180l53 334h151l-53 -334h-151z" />
    <glyph glyph-name="section" unicode="&#xa7;" horiz-adv-x="586" 
d="M232 -191q-63 0 -123 17.5t-111 50.5l49 97q23 -18 53 -32t63 -21.5t64 -7.5q47 0 75 21.5t28 57.5q0 27 -13.5 44t-43.5 33l-123 67q-55 30 -83.5 69.5t-28.5 85.5q0 55 25 95t75 68l-5 -14q-9 17 -14 35.5t-5 40.5q0 64 33 108.5t88 68t122 23.5q56 0 111 -15.5
t101 -47.5l-42 -95q-35 24 -80.5 39t-86.5 15q-46 0 -74 -21.5t-28 -58.5q0 -27 13.5 -44t43.5 -34l122 -66q56 -31 84.5 -70t28.5 -85q0 -55 -26.5 -95.5t-75.5 -69.5l3 22q12 -18 17.5 -37.5t5.5 -41.5q0 -65 -33 -110.5t-87.5 -68.5t-121.5 -23zM171 319
q0 -26 17.5 -46.5t49.5 -38.5l113 -59q16 -11 29.5 -20t22.5 -20l-16 -1q16 18 23 36.5t7 35.5q0 25 -17.5 45.5t-50.5 39.5l-112 58q-16 10 -29 19.5t-23 20.5l19 7q-18 -19 -25.5 -39t-7.5 -38z" />
    <glyph glyph-name="dieresis" unicode="&#xa8;" horiz-adv-x="500" 
d="M337 590l19 132h132l-20 -132h-131zM139 590l20 132h132l-20 -132h-132z" />
    <glyph glyph-name="copyright" unicode="&#xa9;" horiz-adv-x="815" 
d="M428 -11q-76 0 -142.5 28t-116 77t-77 115.5t-27.5 143.5t27.5 143t77 115t115.5 77t144 28q77 0 143 -28t115 -77t76.5 -115t27.5 -143t-27.5 -143.5t-76.5 -115.5t-115 -77t-144 -28zM449 137q-102 0 -162 58.5t-60 158.5t60 157t162 57q40 0 80 -12t65 -33l-35 -89
q-20 18 -45.5 27.5t-53.5 9.5q-49 0 -77.5 -31t-28.5 -87q0 -55 28.5 -86.5t77.5 -31.5q28 0 53.5 9.5t45.5 27.5l35 -89q-25 -21 -65.5 -33.5t-79.5 -12.5zM429 48q65 0 119.5 23t95.5 64.5t63 97t22 120.5t-22 120.5t-63 96.5t-95.5 64t-119.5 23q-66 0 -121 -23
t-95.5 -64t-63 -96.5t-22.5 -120.5t22.5 -120.5t63 -97t96 -64.5t120.5 -23z" />
    <glyph glyph-name="ordfeminine" unicode="&#xaa;" horiz-adv-x="349" 
d="M160 406q-32 0 -56.5 13t-36.5 36.5t-8 54.5q5 30 25.5 47.5t58 25t91.5 7.5h54l-8 -49h-58q-63 0 -68 -34q-2 -17 7.5 -27.5t31.5 -10.5q28 0 49.5 19t27.5 52l9 58q3 22 -10 34.5t-46 12.5q-23 0 -52 -6t-56 -20l-20 66q27 14 67 22.5t75 8.5q79 0 112 -33.5t22 -99.5
l-27 -170h-90l9 55h-3q-19 -31 -43.5 -46.5t-56.5 -15.5z" />
    <glyph glyph-name="guillemotleft" unicode="&#xab;" horiz-adv-x="529" 
d="M126 85l-102 182l160 184h132l-164 -192l95 -174h-121zM349 85l-102 182l160 184h132l-164 -192l95 -174h-121z" />
    <glyph glyph-name="logicalnot" unicode="&#xac;" horiz-adv-x="600" 
d="M419 135l33 201h-384l17 103h489l-48 -304h-107z" />
    <glyph glyph-name="uni00AD" unicode="&#xad;" horiz-adv-x="444" 
d="M59 217l19 118h314l-18 -118h-315z" />
    <glyph glyph-name="registered" unicode="&#xae;" horiz-adv-x="815" 
d="M428 -11q-76 0 -142.5 28t-116 77t-77 115.5t-27.5 143.5t27.5 143t77 115t115.5 77t144 28q77 0 143 -28t115 -77t76.5 -115t27.5 -143t-27.5 -143.5t-76.5 -115.5t-115 -77t-144 -28zM429 48q65 0 119.5 23t95.5 64.5t63 97t22 120.5t-22 120.5t-63 96.5t-95.5 64
t-119.5 23q-66 0 -121 -23t-95.5 -64t-63 -96.5t-22.5 -120.5t22.5 -120.5t63 -97t96 -64.5t120.5 -23zM266 142v423h191q72 0 110.5 -35.5t38.5 -90.5q0 -58 -37.5 -88.5t-105.5 -30.5l28 11q34 0 54.5 -16.5t32.5 -65.5l32 -107h-114l-35 122q-6 20 -18 27t-30 7h-50
l18 12v-168h-115zM379 381h61q30 0 44.5 12t14.5 39t-14.5 39t-44.5 12h-61v-102z" />
    <glyph glyph-name="macron" unicode="&#xaf;" horiz-adv-x="500" 
d="M144 611l13 85h326l-13 -85h-326z" />
    <glyph glyph-name="degree" unicode="&#xb0;" horiz-adv-x="384" 
d="M242 398q-47 0 -83.5 20.5t-57.5 56.5t-21 81t21 81t58 56.5t83 20.5q47 0 83 -20.5t57 -56t21 -81.5q0 -45 -21 -81t-57 -56.5t-83 -20.5zM242 479q32 0 52.5 22t20.5 55t-20.5 55t-52.5 22t-53 -22t-21 -55t21 -55t53 -22z" />
    <glyph glyph-name="plusminus" unicode="&#xb1;" horiz-adv-x="600" 
d="M229 146l23 141h-192l17 104h191l23 141h107l-23 -141h191l-16 -104h-191l-23 -141h-107zM15 0l16 103h490l-17 -103h-489z" />
    <glyph glyph-name="uni00B2" unicode="&#xb2;" horiz-adv-x="380" 
d="M48 282l14 87l141 120q27 23 40 41t16 34q4 24 -8.5 36t-38.5 12q-24 0 -52.5 -8.5t-50.5 -24.5l-16 90q30 19 69 29.5t85 10.5q76 0 115 -35.5t29 -95.5q-5 -30 -25.5 -58.5t-59.5 -62.5l-103 -86l-3 9h174l-16 -98h-310z" />
    <glyph glyph-name="uni00B3" unicode="&#xb3;" horiz-adv-x="380" 
d="M201 277q-50 0 -90 8.5t-67 26.5l25 87q23 -16 55 -23.5t69 -7.5q33 0 52.5 11.5t22.5 33.5q3 20 -11 29t-40 9h-88l14 86h74q27 0 43.5 10.5t19.5 30.5q3 19 -10 29.5t-46 10.5q-30 0 -63 -9.5t-54 -23.5l-16 87q34 18 75.5 27.5t86.5 9.5q78 0 116 -32t29 -85
q-6 -39 -37.5 -66.5t-74.5 -34.5l3 13q49 -4 73.5 -32.5t16.5 -76.5q-9 -56 -59 -87t-119 -31z" />
    <glyph glyph-name="acute" unicode="&#xb4;" horiz-adv-x="500" 
d="M248 555l132 205h148l-180 -205h-100z" />
    <glyph glyph-name="uni00B5" unicode="&#xb5;" horiz-adv-x="587" 
d="M-20 -216l113 723h151l-45 -304q-8 -48 7 -72t55 -24q47 0 77.5 33t39.5 90l41 277h151l-78 -507h-147l15 96h2q-17 -50 -46.5 -78.5t-69.5 -28.5q-30 0 -52.5 12.5t-33.5 34.5v1l-28 -253h-152z" />
    <glyph glyph-name="paragraph" unicode="&#xb6;" horiz-adv-x="651" 
d="M187 -180l70 442q-57 0 -100.5 25.5t-67 69t-23.5 98.5q0 75 33.5 131.5t92 87.5t133.5 31h325l-140 -885h-106l123 777h-111l-123 -777h-106z" />
    <glyph glyph-name="periodcentered" unicode="&#xb7;" horiz-adv-x="263" 
d="M41 196l25 160h162l-24 -160h-163z" />
    <glyph glyph-name="cedilla" unicode="&#xb8;" horiz-adv-x="500" 
d="M179 -197q-30 0 -58.5 6t-48.5 16l26 64q17 -8 35.5 -13t38.5 -5q27 0 40.5 7t13.5 21q0 9 -8.5 13.5t-26.5 4.5q-8 0 -17 -0.5t-22 -4.5l-18 20l27 88h75l-24 -76l-35 14q12 4 24 6t22 2q42 0 65.5 -17.5t23.5 -50.5q0 -43 -38 -69t-95 -26z" />
    <glyph glyph-name="uni00B9" unicode="&#xb9;" horiz-adv-x="380" 
d="M54 282l16 98h100l34 221h49l-149 -71l18 112l132 63h87l-52 -325h85l-15 -98h-305z" />
    <glyph glyph-name="ordmasculine" unicode="&#xba;" horiz-adv-x="365" 
d="M215 408q-76 0 -116.5 43t-29.5 120q11 67 57.5 106t121.5 39q76 0 117 -42.5t29 -119.5q-10 -66 -57 -106t-122 -40zM219 481q30 0 51.5 21t27.5 61t-8.5 60.5t-45.5 20.5q-30 0 -51 -20t-27 -61q-7 -41 7.5 -61.5t45.5 -20.5z" />
    <glyph glyph-name="guillemotright" unicode="&#xbb;" horiz-adv-x="529" 
d="M132 85h-131l163 192l-95 174h121l102 -182zM354 85h-131l163 192l-95 174h121l102 -182z" />
    <glyph glyph-name="onequarter" unicode="&#xbc;" horiz-adv-x="925" 
d="M54 282l16 98h100l34 221h49l-149 -71l18 112l132 63h87l-52 -325h85l-15 -98h-305zM304 -11h-128l539 727h128zM712 0l11 69h-193l13 80l244 274h101l-42 -266h55l-13 -88h-56l-11 -69h-109zM741 157l23 153h13l-147 -168l-1 15h112z" />
    <glyph glyph-name="onehalf" unicode="&#xbd;" horiz-adv-x="975" 
d="M54 282l16 98h100l34 221h49l-149 -71l18 112l132 63h87l-52 -325h85l-15 -98h-305zM304 -11h-128l539 727h128zM598 0l14 87l141 120q27 23 40 41t16 34q4 24 -8.5 36t-38.5 12q-24 0 -52.5 -8.5t-50.5 -24.5l-16 90q30 19 69 29.5t85 10.5q76 0 115 -35.5t29 -95.5
q-5 -30 -25.5 -58.5t-59.5 -62.5l-103 -86l-3 9h174l-16 -98h-310z" />
    <glyph glyph-name="threequarters" unicode="&#xbe;" horiz-adv-x="925" 
d="M201 277q-50 0 -90 8.5t-67 26.5l25 87q23 -16 55 -23.5t69 -7.5q33 0 52.5 11.5t22.5 33.5q3 20 -11 29t-40 9h-88l14 86h74q27 0 43.5 10.5t19.5 30.5q3 19 -10 29.5t-46 10.5q-30 0 -63 -9.5t-54 -23.5l-16 87q34 18 75.5 27.5t86.5 9.5q78 0 116 -32t29 -85
q-6 -39 -37.5 -66.5t-74.5 -34.5l3 13q49 -4 73.5 -32.5t16.5 -76.5q-9 -56 -59 -87t-119 -31zM304 -11h-128l539 727h128zM712 0l11 69h-193l13 80l244 274h101l-42 -266h55l-13 -88h-56l-11 -69h-109zM741 157l23 153h13l-147 -168l-1 15h112z" />
    <glyph glyph-name="questiondown" unicode="&#xbf;" horiz-adv-x="473" 
d="M163 -200q-54 0 -96.5 18.5t-66.5 51.5t-24 76q0 42 17 77t45 63.5t63 52.5q56 40 77.5 69.5t31.5 54.5l9 21h91l-7 -37q-5 -29 -16 -54.5t-31 -51.5t-54 -55q-18 -17 -34 -34.5t-25.5 -36.5t-9.5 -39q0 -24 19.5 -37.5t54.5 -13.5q40 0 81 13.5t79 33.5l-20 -126
q-38 -22 -88.5 -34t-95.5 -12zM382 507l-26 -160h-163l25 160h164z" />
    <glyph glyph-name="Agrave" unicode="&#xc0;" horiz-adv-x="759" 
d="M-51 0l436 705h129l216 -705h-152l-55 196l55 -43h-419l69 43l-116 -196h-163zM429 541l-178 -306l-21 38h315l-29 -38l-83 306h-4zM408 765l-152 175h152l105 -175h-105z" />
    <glyph glyph-name="Aacute" unicode="&#xc1;" horiz-adv-x="759" 
d="M-51 0l436 705h129l216 -705h-152l-55 196l55 -43h-419l69 43l-116 -196h-163zM429 541l-178 -306l-21 38h315l-29 -38l-83 306h-4zM409 765l130 175h157l-182 -175h-105z" />
    <glyph glyph-name="Acircumflex" unicode="&#xc2;" horiz-adv-x="759" 
d="M-51 0l436 705h129l216 -705h-152l-55 196l55 -43h-419l69 43l-116 -196h-163zM429 541l-178 -306l-21 38h315l-29 -38l-83 306h-4zM267 765l142 175h126l108 -175h-103l-75 95l-95 -95h-103z" />
    <glyph glyph-name="Atilde" unicode="&#xc3;" horiz-adv-x="759" 
d="M-51 0l436 705h129l216 -705h-152l-55 196l55 -43h-419l69 43l-116 -196h-163zM429 541l-178 -306l-21 38h315l-29 -38l-83 306h-4zM299 766l-71 4q11 76 50.5 116.5t98.5 40.5q30 0 56.5 -10.5t49.5 -23.5q20 -10 38 -18t37 -8q55 0 72 64l72 -4q-11 -76 -50.5 -116.5
t-98.5 -40.5q-30 0 -56.5 11t-49.5 23q-20 10 -38.5 18t-36.5 8q-56 0 -73 -64z" />
    <glyph glyph-name="Adieresis" unicode="&#xc4;" horiz-adv-x="759" 
d="M-51 0l436 705h129l216 -705h-152l-55 196l55 -43h-419l69 43l-116 -196h-163zM429 541l-178 -306l-21 38h315l-29 -38l-83 306h-4zM495 781l21 132h132l-22 -132h-131zM298 781l21 132h131l-21 -132h-131z" />
    <glyph glyph-name="Aring" unicode="&#xc5;" horiz-adv-x="759" 
d="M-51 0l436 705h129l216 -705h-152l-55 196l55 -43h-419l69 43l-116 -196h-163zM429 541l-178 -306l-21 38h315l-29 -38l-83 306h-4zM472 753q-36 0 -66 17t-47 46t-17 64q0 36 17 64.5t47 45t66 16.5q38 0 67 -16.5t46.5 -45t17.5 -64.5q0 -35 -17.5 -64t-46.5 -46
t-67 -17zM472 818q27 0 44 18t17 44q0 27 -17 44t-44 17q-26 0 -43.5 -17.5t-17.5 -43.5t17.5 -44t43.5 -18z" />
    <glyph glyph-name="AE" unicode="&#xc6;" horiz-adv-x="1023" 
d="M-71 0l553 705h576l-20 -121h-364l28 20l-18 -228l-12 43h318l-19 -122h-317l24 10l-17 -216l-14 30h318l-19 -121h-433l15 192l24 -39h-359l55 41l-146 -194h-173zM542 584l-262 -347l-8 37h279l-18 -42l28 352h-19z" />
    <glyph glyph-name="Ccedilla" unicode="&#xc7;" horiz-adv-x="685" 
d="M389 -11q-123 0 -200 49.5t-107 135.5t-13 196q18 110 71.5 187.5t139 118.5t195.5 40q69 -1 124.5 -19.5t92.5 -50.5l-53 -124q-41 31 -79.5 44t-91.5 13q-95 0 -157 -56t-80 -161q-11 -72 5 -125t59.5 -82t113.5 -29q47 0 93.5 15t93.5 51l42 -123q-50 -38 -114.5 -59
t-134.5 -21zM338 -197q-30 0 -58.5 6t-48.5 16l26 64q17 -8 35.5 -13t38.5 -5q27 0 40.5 7t13.5 21q0 9 -8.5 13.5t-26.5 4.5q-8 0 -17 -0.5t-22 -4.5l-18 20l27 88h75l-24 -76l-35 14q12 4 24 6t22 2q42 0 65.5 -17.5t23.5 -50.5q0 -43 -38 -69t-95 -26z" />
    <glyph glyph-name="Egrave" unicode="&#xc8;" horiz-adv-x="599" 
d="M32 0l112 705h490l-19 -121h-341l-26 -165h317l-19 -122h-317l-28 -176h340l-19 -121h-490zM365 765l-152 175h152l105 -175h-105z" />
    <glyph glyph-name="Eacute" unicode="&#xc9;" horiz-adv-x="599" 
d="M32 0l112 705h490l-19 -121h-341l-26 -165h317l-19 -122h-317l-28 -176h340l-19 -121h-490zM366 765l130 175h157l-182 -175h-105z" />
    <glyph glyph-name="Ecircumflex" unicode="&#xca;" horiz-adv-x="599" 
d="M32 0l112 705h490l-19 -121h-341l-26 -165h317l-19 -122h-317l-28 -176h340l-19 -121h-490zM224 765l142 175h126l108 -175h-103l-75 95l-95 -95h-103z" />
    <glyph glyph-name="Edieresis" unicode="&#xcb;" horiz-adv-x="599" 
d="M32 0l112 705h490l-19 -121h-341l-26 -165h317l-19 -122h-317l-28 -176h340l-19 -121h-490zM452 781l21 132h132l-22 -132h-131zM255 781l21 132h131l-21 -132h-131z" />
    <glyph glyph-name="Igrave" unicode="&#xcc;" horiz-adv-x="299" 
d="M32 0l112 705h156l-112 -705h-156zM179 765l-152 175h152l105 -175h-105z" />
    <glyph glyph-name="Iacute" unicode="&#xcd;" horiz-adv-x="299" 
d="M32 0l112 705h156l-112 -705h-156zM180 765l130 175h157l-182 -175h-105z" />
    <glyph glyph-name="Icircumflex" unicode="&#xce;" horiz-adv-x="299" 
d="M32 0l112 705h156l-112 -705h-156zM37 765l142 175h126l108 -175h-103l-75 95l-95 -95h-103z" />
    <glyph glyph-name="Idieresis" unicode="&#xcf;" horiz-adv-x="299" 
d="M32 0l112 705h156l-112 -705h-156zM266 781l21 132h132l-22 -132h-131zM69 781l21 132h131l-21 -132h-131z" />
    <glyph glyph-name="Eth" unicode="&#xd0;" horiz-adv-x="771" 
d="M32 0l112 705h255q131 0 211.5 -45t111 -127.5t12.5 -196.5q-27 -167 -136.5 -251.5t-289.5 -84.5h-276zM208 128h104q119 0 184.5 53.5t83.5 161.5q18 122 -31 178.5t-168 56.5h-102zM-3 301l18 111h427l-18 -111h-427z" />
    <glyph glyph-name="Ntilde" unicode="&#xd1;" horiz-adv-x="760" 
d="M32 0l112 705h116l304 -496l-26 9l78 487h145l-112 -705h-116l-304 496l26 -9l-78 -487h-145zM303 766l-71 4q11 76 50.5 116.5t98.5 40.5q30 0 56.5 -10.5t49.5 -23.5q20 -10 38 -18t37 -8q55 0 72 64l72 -4q-11 -76 -50.5 -116.5t-98.5 -40.5q-30 0 -56.5 11t-49.5 23
q-20 10 -38.5 18t-36.5 8q-56 0 -73 -64z" />
    <glyph glyph-name="Ograve" unicode="&#xd2;" horiz-adv-x="795" 
d="M69 370q18 110 69.5 187.5t132.5 118t184 40.5q115 0 188.5 -49.5t103 -135t11.5 -195.5q-17 -110 -69.5 -187.5t-133 -118.5t-183.5 -41q-115 0 -188.5 49.5t-102.5 135.5t-12 196zM231 360q-12 -76 2 -129t52.5 -81.5t98.5 -28.5q89 0 142.5 61t69.5 164
q12 76 -2.5 129t-53 81t-99.5 28q-89 0 -141 -60t-69 -164zM427 765l-152 175h152l105 -175h-105z" />
    <glyph glyph-name="Oacute" unicode="&#xd3;" horiz-adv-x="795" 
d="M69 370q18 110 69.5 187.5t132.5 118t184 40.5q115 0 188.5 -49.5t103 -135t11.5 -195.5q-17 -110 -69.5 -187.5t-133 -118.5t-183.5 -41q-115 0 -188.5 49.5t-102.5 135.5t-12 196zM231 360q-12 -76 2 -129t52.5 -81.5t98.5 -28.5q89 0 142.5 61t69.5 164
q12 76 -2.5 129t-53 81t-99.5 28q-89 0 -141 -60t-69 -164zM427 765l130 175h157l-182 -175h-105z" />
    <glyph glyph-name="Ocircumflex" unicode="&#xd4;" horiz-adv-x="795" 
d="M69 370q18 110 69.5 187.5t132.5 118t184 40.5q115 0 188.5 -49.5t103 -135t11.5 -195.5q-17 -110 -69.5 -187.5t-133 -118.5t-183.5 -41q-115 0 -188.5 49.5t-102.5 135.5t-12 196zM231 360q-12 -76 2 -129t52.5 -81.5t98.5 -28.5q89 0 142.5 61t69.5 164
q12 76 -2.5 129t-53 81t-99.5 28q-89 0 -141 -60t-69 -164zM285 765l142 175h126l108 -175h-103l-75 95l-95 -95h-103z" />
    <glyph glyph-name="Otilde" unicode="&#xd5;" horiz-adv-x="795" 
d="M69 370q18 110 69.5 187.5t132.5 118t184 40.5q115 0 188.5 -49.5t103 -135t11.5 -195.5q-17 -110 -69.5 -187.5t-133 -118.5t-183.5 -41q-115 0 -188.5 49.5t-102.5 135.5t-12 196zM231 360q-12 -76 2 -129t52.5 -81.5t98.5 -28.5q89 0 142.5 61t69.5 164
q12 76 -2.5 129t-53 81t-99.5 28q-89 0 -141 -60t-69 -164zM317 766l-71 4q11 76 50.5 116.5t98.5 40.5q30 0 56.5 -10.5t49.5 -23.5q20 -10 38 -18t37 -8q55 0 72 64l72 -4q-11 -76 -50.5 -116.5t-98.5 -40.5q-30 0 -56.5 11t-49.5 23q-20 10 -38.5 18t-36.5 8
q-56 0 -73 -64z" />
    <glyph glyph-name="Odieresis" unicode="&#xd6;" horiz-adv-x="795" 
d="M69 370q18 110 69.5 187.5t132.5 118t184 40.5q115 0 188.5 -49.5t103 -135t11.5 -195.5q-17 -110 -69.5 -187.5t-133 -118.5t-183.5 -41q-115 0 -188.5 49.5t-102.5 135.5t-12 196zM231 360q-12 -76 2 -129t52.5 -81.5t98.5 -28.5q89 0 142.5 61t69.5 164
q12 76 -2.5 129t-53 81t-99.5 28q-89 0 -141 -60t-69 -164zM513 781l21 132h132l-22 -132h-131zM316 781l21 132h131l-21 -132h-131z" />
    <glyph glyph-name="multiply" unicode="&#xd7;" horiz-adv-x="600" 
d="M138 52l-71 72l176 163l-147 160l75 73l148 -161l175 161l70 -73l-176 -161l147 -162l-74 -72l-148 161z" />
    <glyph glyph-name="Oslash" unicode="&#xd8;" horiz-adv-x="795" 
d="M69 370q18 110 69.5 187.5t132.5 118t184 40.5q115 0 188.5 -49.5t103 -135t11.5 -195.5q-17 -110 -69.5 -187.5t-133 -118.5t-183.5 -41q-115 0 -188.5 49.5t-102.5 135.5t-12 196zM231 360q-12 -76 2 -129t52.5 -81.5t98.5 -28.5q89 0 142.5 61t69.5 164
q12 76 -2.5 129t-53 81t-99.5 28q-89 0 -141 -60t-69 -164zM272 64l-87 -118l-93 64l88 118l59 63l295 388l33 64l88 117l93 -64l-88 -117l-60 -64l-294 -388z" />
    <glyph glyph-name="Ugrave" unicode="&#xd9;" horiz-adv-x="746" 
d="M344 -11q-96 0 -162.5 34t-94.5 102.5t-12 174.5l65 405h156l-65 -413q-14 -84 15.5 -127.5t113.5 -43.5q75 0 116.5 42t56.5 131l65 411h154l-67 -417q-16 -100 -57 -166.5t-111.5 -99.5t-172.5 -33zM404 765l-152 175h152l105 -175h-105z" />
    <glyph glyph-name="Uacute" unicode="&#xda;" horiz-adv-x="746" 
d="M344 -11q-96 0 -162.5 34t-94.5 102.5t-12 174.5l65 405h156l-65 -413q-14 -84 15.5 -127.5t113.5 -43.5q75 0 116.5 42t56.5 131l65 411h154l-67 -417q-16 -100 -57 -166.5t-111.5 -99.5t-172.5 -33zM405 765l130 175h157l-182 -175h-105z" />
    <glyph glyph-name="Ucircumflex" unicode="&#xdb;" horiz-adv-x="746" 
d="M344 -11q-96 0 -162.5 34t-94.5 102.5t-12 174.5l65 405h156l-65 -413q-14 -84 15.5 -127.5t113.5 -43.5q75 0 116.5 42t56.5 131l65 411h154l-67 -417q-16 -100 -57 -166.5t-111.5 -99.5t-172.5 -33zM263 765l142 175h126l108 -175h-103l-75 95l-95 -95h-103z" />
    <glyph glyph-name="Udieresis" unicode="&#xdc;" horiz-adv-x="746" 
d="M344 -11q-96 0 -162.5 34t-94.5 102.5t-12 174.5l65 405h156l-65 -413q-14 -84 15.5 -127.5t113.5 -43.5q75 0 116.5 42t56.5 131l65 411h154l-67 -417q-16 -100 -57 -166.5t-111.5 -99.5t-172.5 -33zM491 781l21 132h132l-22 -132h-131zM294 781l21 132h131l-21 -132
h-131z" />
    <glyph glyph-name="Yacute" unicode="&#xdd;" horiz-adv-x="642" 
d="M203 0l53 335l17 -89l-234 459h173l146 -302h-32l242 302h180l-382 -466l47 96l-54 -335h-156zM351 765l130 175h157l-182 -175h-105z" />
    <glyph glyph-name="Thorn" unicode="&#xde;" horiz-adv-x="676" 
d="M32 0l112 705h156l-19 -116h158q126 0 181.5 -62.5t39.5 -167.5q-9 -60 -43 -105.5t-90.5 -70.5t-136.5 -25h-177l-25 -158h-156zM232 279h153q57 0 88 23t38 67q7 49 -17 74t-81 25h-151z" />
    <glyph glyph-name="germandbls" unicode="&#xdf;" horiz-adv-x="697" 
d="M22 0l73 462q23 142 100.5 212.5t220.5 70.5q72 0 125 -23t78 -67t14 -110q-5 -34 -24.5 -67.5t-59.5 -63.5t-109 -55l3 28q78 -22 129.5 -52t74.5 -72.5t14 -102.5q-9 -57 -41.5 -95t-81 -57t-106.5 -19q-66 0 -111.5 13.5t-80.5 37.5l41 99q35 -20 70.5 -31.5
t73.5 -11.5q41 0 65 18t29 51q4 28 -12 53t-60 48t-127 43l18 113q57 16 89 34.5t46.5 40.5t18.5 46q7 43 -16.5 68t-73.5 25q-62 0 -100.5 -35t-52.5 -118l-76 -483h-151z" />
    <glyph glyph-name="agrave" unicode="&#xe0;" horiz-adv-x="632" 
d="M232 -11q-69 0 -117.5 35t-68.5 98.5t-7 147.5q20 123 91 185t169 62q61 0 104.5 -28.5t52.5 -76.5l-10 -4l27 99h145q-8 -33 -15.5 -66.5t-13.5 -65.5l-59 -375h-150l16 99h16q-24 -50 -69.5 -80t-110.5 -30zM285 103q51 0 87 35.5t48 108.5q13 82 -14 119t-81 37
q-51 0 -87 -35t-48 -108q-13 -82 14 -119.5t81 -37.5zM309 555l-142 205h143l98 -205h-99z" />
    <glyph glyph-name="aacute" unicode="&#xe1;" horiz-adv-x="632" 
d="M232 -11q-69 0 -117.5 35t-68.5 98.5t-7 147.5q20 123 91 185t169 62q61 0 104.5 -28.5t52.5 -76.5l-10 -4l27 99h145q-8 -33 -15.5 -66.5t-13.5 -65.5l-59 -375h-150l16 99h16q-24 -50 -69.5 -80t-110.5 -30zM285 103q51 0 87 35.5t48 108.5q13 82 -14 119t-81 37
q-51 0 -87 -35t-48 -108q-13 -82 14 -119.5t81 -37.5zM309 555l132 205h148l-180 -205h-100z" />
    <glyph glyph-name="acircumflex" unicode="&#xe2;" horiz-adv-x="632" 
d="M232 -11q-69 0 -117.5 35t-68.5 98.5t-7 147.5q20 123 91 185t169 62q61 0 104.5 -28.5t52.5 -76.5l-10 -4l27 99h145q-8 -33 -15.5 -66.5t-13.5 -65.5l-59 -375h-150l16 99h16q-24 -50 -69.5 -80t-110.5 -30zM285 103q51 0 87 35.5t48 108.5q13 82 -14 119t-81 37
q-51 0 -87 -35t-48 -108q-13 -82 14 -119.5t81 -37.5zM178 555l132 205h128l91 -205h-93l-68 123l-96 -123h-94z" />
    <glyph glyph-name="atilde" unicode="&#xe3;" horiz-adv-x="632" 
d="M232 -11q-69 0 -117.5 35t-68.5 98.5t-7 147.5q20 123 91 185t169 62q61 0 104.5 -28.5t52.5 -76.5l-10 -4l27 99h145q-8 -33 -15.5 -66.5t-13.5 -65.5l-59 -375h-150l16 99h16q-24 -50 -69.5 -80t-110.5 -30zM285 103q51 0 87 35.5t48 108.5q13 82 -14 119t-81 37
q-51 0 -87 -35t-48 -108q-13 -82 14 -119.5t81 -37.5zM233 581l-71 4q9 76 45.5 116.5t90.5 40.5q28 0 46.5 -10t34.5 -23q15 -11 29.5 -19t32.5 -8q49 0 65 64l72 -4q-10 -76 -46.5 -116.5t-89.5 -40.5q-28 0 -48 11t-36 23q-14 10 -28 18t-31 8q-50 0 -66 -64z" />
    <glyph glyph-name="adieresis" unicode="&#xe4;" horiz-adv-x="632" 
d="M232 -11q-69 0 -117.5 35t-68.5 98.5t-7 147.5q20 123 91 185t169 62q61 0 104.5 -28.5t52.5 -76.5l-10 -4l27 99h145q-8 -33 -15.5 -66.5t-13.5 -65.5l-59 -375h-150l16 99h16q-24 -50 -69.5 -80t-110.5 -30zM285 103q51 0 87 35.5t48 108.5q13 82 -14 119t-81 37
q-51 0 -87 -35t-48 -108q-13 -82 14 -119.5t81 -37.5zM399 590l19 132h132l-20 -132h-131zM201 590l20 132h132l-20 -132h-132z" />
    <glyph glyph-name="aring" unicode="&#xe5;" horiz-adv-x="632" 
d="M232 -11q-69 0 -117.5 35t-68.5 98.5t-7 147.5q20 123 91 185t169 62q61 0 104.5 -28.5t52.5 -76.5l-10 -4l27 99h145q-8 -33 -15.5 -66.5t-13.5 -65.5l-59 -375h-150l16 99h16q-24 -50 -69.5 -80t-110.5 -30zM285 103q51 0 87 35.5t48 108.5q13 82 -14 119t-81 37
q-51 0 -87 -35t-48 -108q-13 -82 14 -119.5t81 -37.5zM378 545q-37 0 -67 16.5t-47 46t-17 64.5q0 36 17 64.5t47 45t66 16.5q38 0 67.5 -16.5t46.5 -45.5t17 -65q0 -35 -17 -64t-46.5 -45.5t-66.5 -16.5zM377 610q27 0 44.5 17.5t17.5 43.5q0 28 -17 44.5t-44 16.5
q-26 0 -43.5 -16.5t-17.5 -43.5t17 -44.5t43 -17.5z" />
    <glyph glyph-name="ae" unicode="&#xe6;" horiz-adv-x="866" 
d="M207 -11q-70 0 -113.5 26.5t-60.5 68t-10 85.5q9 49 43 78.5t98.5 43t161.5 13.5h51l-11 -74h-59q-47 0 -80 -7t-50.5 -22t-21.5 -39q-6 -31 13 -51t60 -20q49 0 81 30t40 80l17 108q8 49 -16 72t-70 23q-45 0 -83 -9.5t-84 -32.5l-37 102q29 16 66.5 28t77.5 18.5
t76 6.5q81 0 124 -24t57 -72h-41q40 50 89.5 73t108.5 23q74 0 123 -33t69 -90t8 -131l-5 -33h-348l12 74h238l-19 -16q10 64 -12 96t-71 32q-35 0 -61.5 -16.5t-41.5 -46t-21 -65.5l-6 -39q-10 -70 22 -108t110 -38q36 0 70 10.5t69 33.5l39 -100q-41 -29 -92.5 -43.5
t-106.5 -14.5q-87 0 -144.5 34.5t-83.5 98.5h31q-29 -63 -81.5 -98t-124.5 -35z" />
    <glyph glyph-name="ccedilla" unicode="&#xe7;" horiz-adv-x="509" 
d="M280 -11q-87 0 -145.5 35.5t-83.5 99t-12 146.5q20 123 100.5 185t198.5 62q47 0 92.5 -13.5t72.5 -38.5l-46 -102q-23 19 -54 29t-60 10q-58 0 -98 -34.5t-52 -106.5q-12 -70 17.5 -112.5t95.5 -42.5q27 0 59.5 10.5t61.5 32.5l40 -102q-30 -26 -81 -42t-106 -16z
M233 -197q-30 0 -58.5 6t-48.5 16l26 64q17 -8 35.5 -13t38.5 -5q27 0 40.5 7t13.5 21q0 9 -8.5 13.5t-26.5 4.5q-8 0 -17 -0.5t-22 -4.5l-18 20l27 88h75l-24 -76l-35 14q12 4 24 6t22 2q42 0 65.5 -17.5t23.5 -50.5q0 -43 -38 -69t-95 -26z" />
    <glyph glyph-name="egrave" unicode="&#xe8;" horiz-adv-x="550" 
d="M292 -11q-93 0 -154 36t-86 100t-12 148q12 76 49 130.5t94.5 84t132.5 29.5t124 -33t69.5 -90t8.5 -131l-6 -33h-354l11 74h246l-20 -16q10 64 -12 96t-72 32q-36 0 -62 -16.5t-42 -46t-21 -65.5l-6 -39q-10 -70 21.5 -108t111.5 -38q36 0 70.5 10.5t69.5 33.5l40 -100
q-41 -29 -93 -43.5t-108 -14.5zM287 555l-142 205h143l98 -205h-99z" />
    <glyph glyph-name="eacute" unicode="&#xe9;" horiz-adv-x="550" 
d="M292 -11q-93 0 -154 36t-86 100t-12 148q12 76 49 130.5t94.5 84t132.5 29.5t124 -33t69.5 -90t8.5 -131l-6 -33h-354l11 74h246l-20 -16q10 64 -12 96t-72 32q-36 0 -62 -16.5t-42 -46t-21 -65.5l-6 -39q-10 -70 21.5 -108t111.5 -38q36 0 70.5 10.5t69.5 33.5l40 -100
q-41 -29 -93 -43.5t-108 -14.5zM287 555l132 205h148l-180 -205h-100z" />
    <glyph glyph-name="ecircumflex" unicode="&#xea;" horiz-adv-x="550" 
d="M292 -11q-93 0 -154 36t-86 100t-12 148q12 76 49 130.5t94.5 84t132.5 29.5t124 -33t69.5 -90t8.5 -131l-6 -33h-354l11 74h246l-20 -16q10 64 -12 96t-72 32q-36 0 -62 -16.5t-42 -46t-21 -65.5l-6 -39q-10 -70 21.5 -108t111.5 -38q36 0 70.5 10.5t69.5 33.5l40 -100
q-41 -29 -93 -43.5t-108 -14.5zM156 555l132 205h128l91 -205h-93l-68 123l-96 -123h-94z" />
    <glyph glyph-name="edieresis" unicode="&#xeb;" horiz-adv-x="550" 
d="M292 -11q-93 0 -154 36t-86 100t-12 148q12 76 49 130.5t94.5 84t132.5 29.5t124 -33t69.5 -90t8.5 -131l-6 -33h-354l11 74h246l-20 -16q10 64 -12 96t-72 32q-36 0 -62 -16.5t-42 -46t-21 -65.5l-6 -39q-10 -70 21.5 -108t111.5 -38q36 0 70.5 10.5t69.5 33.5l40 -100
q-41 -29 -93 -43.5t-108 -14.5zM377 590l19 132h132l-20 -132h-131zM179 590l20 132h132l-20 -132h-132z" />
    <glyph glyph-name="igrave" unicode="&#xec;" horiz-adv-x="274" 
d="M22 0l80 507h151l-80 -507h-151zM136 555l-142 205h143l98 -205h-99z" />
    <glyph glyph-name="iacute" unicode="&#xed;" horiz-adv-x="274" 
d="M22 0l80 507h151l-80 -507h-151zM136 555l132 205h148l-180 -205h-100z" />
    <glyph glyph-name="icircumflex" unicode="&#xee;" horiz-adv-x="274" 
d="M22 0l80 507h151l-80 -507h-151zM5 555l132 205h128l91 -205h-93l-68 123l-96 -123h-94z" />
    <glyph glyph-name="idieresis" unicode="&#xef;" horiz-adv-x="274" 
d="M22 0l80 507h151l-80 -507h-151zM226 590l19 132h132l-20 -132h-131zM28 590l20 132h132l-20 -132h-132z" />
    <glyph glyph-name="eth" unicode="&#xf0;" horiz-adv-x="612" 
d="M272 -11q-82 0 -139.5 31.5t-83.5 88.5t-14 130q10 66 47.5 113.5t95 73t126.5 25.5q68 0 114.5 -29.5t58.5 -95.5h-31q11 70 -11 133t-72 110h31l-216 -90l-26 62l174 72l-3 -14q-28 18 -61 31.5t-69 21.5l38 94q74 -8 131 -32t98 -58l-27 3l131 55l28 -61l-107 -45
l4 20q43 -46 66.5 -104t29 -121t-4.5 -126q-22 -142 -103.5 -215t-204.5 -73zM283 104q51 0 86 31.5t43 83.5q10 56 -15.5 88t-80.5 32q-53 0 -87.5 -30.5t-43.5 -84.5q-9 -57 17 -88.5t81 -31.5z" />
    <glyph glyph-name="ntilde" unicode="&#xf1;" horiz-adv-x="613" 
d="M22 0l59 375q5 32 8.5 65.5t4.5 66.5h146l-5 -94l-12 -1q30 52 79 78.5t110 26.5q91 0 129 -54t20 -165l-47 -298h-151l47 298q9 55 -9.5 78.5t-57.5 23.5q-51 0 -84 -31t-41 -83l-45 -286h-151zM230 581l-71 4q9 76 45.5 116.5t90.5 40.5q28 0 46.5 -10t34.5 -23
q15 -11 29.5 -19t32.5 -8q49 0 65 64l72 -4q-10 -76 -46.5 -116.5t-89.5 -40.5q-28 0 -48 11t-36 23q-14 10 -28 18t-31 8q-50 0 -66 -64z" />
    <glyph glyph-name="ograve" unicode="&#xf2;" horiz-adv-x="604" 
d="M274 -11q-86 0 -143.5 34t-81 97t-10.5 150q13 82 53.5 137t102.5 82.5t137 27.5q87 0 143.5 -33.5t80 -96.5t9.5 -150q-13 -81 -53.5 -136t-101.5 -83.5t-136 -28.5zM282 103q50 0 85.5 35.5t47.5 108.5q13 82 -13.5 119t-79.5 37q-50 0 -85 -35t-47 -108
q-13 -82 13 -119.5t79 -37.5zM301 555l-142 205h143l98 -205h-99z" />
    <glyph glyph-name="oacute" unicode="&#xf3;" horiz-adv-x="604" 
d="M274 -11q-86 0 -143.5 34t-81 97t-10.5 150q13 82 53.5 137t102.5 82.5t137 27.5q87 0 143.5 -33.5t80 -96.5t9.5 -150q-13 -81 -53.5 -136t-101.5 -83.5t-136 -28.5zM282 103q50 0 85.5 35.5t47.5 108.5q13 82 -13.5 119t-79.5 37q-50 0 -85 -35t-47 -108
q-13 -82 13 -119.5t79 -37.5zM301 555l132 205h148l-180 -205h-100z" />
    <glyph glyph-name="ocircumflex" unicode="&#xf4;" horiz-adv-x="604" 
d="M274 -11q-86 0 -143.5 34t-81 97t-10.5 150q13 82 53.5 137t102.5 82.5t137 27.5q87 0 143.5 -33.5t80 -96.5t9.5 -150q-13 -81 -53.5 -136t-101.5 -83.5t-136 -28.5zM282 103q50 0 85.5 35.5t47.5 108.5q13 82 -13.5 119t-79.5 37q-50 0 -85 -35t-47 -108
q-13 -82 13 -119.5t79 -37.5zM170 555l132 205h128l91 -205h-93l-68 123l-96 -123h-94z" />
    <glyph glyph-name="otilde" unicode="&#xf5;" horiz-adv-x="604" 
d="M274 -11q-86 0 -143.5 34t-81 97t-10.5 150q13 82 53.5 137t102.5 82.5t137 27.5q87 0 143.5 -33.5t80 -96.5t9.5 -150q-13 -81 -53.5 -136t-101.5 -83.5t-136 -28.5zM282 103q50 0 85.5 35.5t47.5 108.5q13 82 -13.5 119t-79.5 37q-50 0 -85 -35t-47 -108
q-13 -82 13 -119.5t79 -37.5zM225 581l-71 4q9 76 45.5 116.5t90.5 40.5q28 0 46.5 -10t34.5 -23q15 -11 29.5 -19t32.5 -8q49 0 65 64l72 -4q-10 -76 -46.5 -116.5t-89.5 -40.5q-28 0 -48 11t-36 23q-14 10 -28 18t-31 8q-50 0 -66 -64z" />
    <glyph glyph-name="odieresis" unicode="&#xf6;" horiz-adv-x="604" 
d="M274 -11q-86 0 -143.5 34t-81 97t-10.5 150q13 82 53.5 137t102.5 82.5t137 27.5q87 0 143.5 -33.5t80 -96.5t9.5 -150q-13 -81 -53.5 -136t-101.5 -83.5t-136 -28.5zM282 103q50 0 85.5 35.5t47.5 108.5q13 82 -13.5 119t-79.5 37q-50 0 -85 -35t-47 -108
q-13 -82 13 -119.5t79 -37.5zM391 590l19 132h132l-20 -132h-131zM193 590l20 132h132l-20 -132h-132z" />
    <glyph glyph-name="divide" unicode="&#xf7;" horiz-adv-x="600" 
d="M51 235l17 104h491l-17 -104h-491zM202 34l19 115h114l-18 -115h-115zM264 425l18 115h115l-18 -115h-115z" />
    <glyph glyph-name="oslash" unicode="&#xf8;" horiz-adv-x="604" 
d="M274 -11q-86 0 -143.5 34t-81 97t-10.5 150q13 82 53.5 137t102.5 82.5t137 27.5q87 0 143.5 -33.5t80 -96.5t9.5 -150q-13 -81 -53.5 -136t-101.5 -83.5t-136 -28.5zM282 103q59 0 96.5 36t49.5 110q13 77 -16 115.5t-89 38.5t-97.5 -35.5t-48.5 -108.5q-12 -74 14 -115
t91 -41zM131 -47l-66 45l412 554l64 -45z" />
    <glyph glyph-name="ugrave" unicode="&#xf9;" horiz-adv-x="607" 
d="M213 -11q-94 0 -136 55t-26 160l48 303h151l-48 -302q-8 -51 9.5 -74.5t60.5 -23.5q49 0 78.5 31.5t38.5 84.5l45 284h151l-80 -507h-147l15 97h15q-29 -51 -73 -79.5t-102 -28.5zM301 556l-142 205h143l98 -205h-99z" />
    <glyph glyph-name="uacute" unicode="&#xfa;" horiz-adv-x="607" 
d="M213 -11q-94 0 -136 55t-26 160l48 303h151l-48 -302q-8 -51 9.5 -74.5t60.5 -23.5q49 0 78.5 31.5t38.5 84.5l45 284h151l-80 -507h-147l15 97h15q-29 -51 -73 -79.5t-102 -28.5zM301 556l132 205h148l-180 -205h-100z" />
    <glyph glyph-name="ucircumflex" unicode="&#xfb;" horiz-adv-x="607" 
d="M213 -11q-94 0 -136 55t-26 160l48 303h151l-48 -302q-8 -51 9.5 -74.5t60.5 -23.5q49 0 78.5 31.5t38.5 84.5l45 284h151l-80 -507h-147l15 97h15q-29 -51 -73 -79.5t-102 -28.5zM170 556l132 205h128l91 -205h-93l-68 123l-96 -123h-94z" />
    <glyph glyph-name="udieresis" unicode="&#xfc;" horiz-adv-x="607" 
d="M213 -11q-94 0 -136 55t-26 160l48 303h151l-48 -302q-8 -51 9.5 -74.5t60.5 -23.5q49 0 78.5 31.5t38.5 84.5l45 284h151l-80 -507h-147l15 97h15q-29 -51 -73 -79.5t-102 -28.5zM391 591l19 132h132l-20 -132h-131zM193 591l20 132h132l-20 -132h-132z" />
    <glyph glyph-name="yacute" unicode="&#xfd;" horiz-adv-x="550" 
d="M-18 -227l-23 118q49 9 83 21t58 31.5t43 50.5l34 59l-7 -58l-140 512h155l86 -367h-31l205 367h156l-312 -527q-35 -57 -69.5 -94.5t-71 -59.5t-77.5 -34t-89 -19zM273 555l132 205h148l-180 -205h-100z" />
    <glyph glyph-name="thorn" unicode="&#xfe;" horiz-adv-x="632" 
d="M-12 -216l151 952h151l-52 -324l-18 -4q24 50 70 79.5t110 29.5q70 0 118 -35t68.5 -97.5t6.5 -147.5q-20 -123 -91 -185.5t-169 -62.5q-60 0 -103.5 29t-52.5 77h11l-49 -311h-151zM308 103q52 0 87.5 35.5t46.5 108.5q13 82 -13.5 119t-80.5 37q-51 0 -87.5 -35
t-48.5 -108q-12 -82 15 -119.5t81 -37.5z" />
    <glyph glyph-name="ydieresis" unicode="&#xff;" horiz-adv-x="550" 
d="M-18 -227l-23 118q49 9 83 21t58 31.5t43 50.5l34 59l-7 -58l-140 512h155l86 -367h-31l205 367h156l-312 -527q-35 -57 -69.5 -94.5t-71 -59.5t-77.5 -34t-89 -19zM362 590l19 132h132l-20 -132h-131zM164 590l20 132h132l-20 -132h-132z" />
    <glyph glyph-name="Amacron" unicode="&#x100;" horiz-adv-x="759" 
d="M-51 0l436 705h129l216 -705h-152l-55 196l55 -43h-419l69 43l-116 -196h-163zM429 541l-178 -306l-21 38h315l-29 -38l-83 306h-4zM288 801l13 85h356l-13 -85h-356z" />
    <glyph glyph-name="amacron" unicode="&#x101;" horiz-adv-x="632" 
d="M232 -11q-69 0 -117.5 35t-68.5 98.5t-7 147.5q20 123 91 185t169 62q61 0 104.5 -28.5t52.5 -76.5l-10 -4l27 99h145q-8 -33 -15.5 -66.5t-13.5 -65.5l-59 -375h-150l16 99h16q-24 -50 -69.5 -80t-110.5 -30zM285 103q51 0 87 35.5t48 108.5q13 82 -14 119t-81 37
q-51 0 -87 -35t-48 -108q-13 -82 14 -119.5t81 -37.5zM206 611l13 85h326l-13 -85h-326z" />
    <glyph glyph-name="Abreve" unicode="&#x102;" horiz-adv-x="759" 
d="M-51 0l436 705h129l216 -705h-152l-55 196l55 -43h-419l69 43l-116 -196h-163zM429 541l-178 -306l-21 38h315l-29 -38l-83 306h-4zM463 760q-53 0 -93 22t-62 60.5t-22 88.5l83 11q0 -45 27 -70t73 -25t77 25t39 70l82 -11q-12 -78 -66.5 -124.5t-137.5 -46.5z" />
    <glyph glyph-name="abreve" unicode="&#x103;" horiz-adv-x="632" 
d="M232 -11q-69 0 -117.5 35t-68.5 98.5t-7 147.5q20 123 91 185t169 62q61 0 104.5 -28.5t52.5 -76.5l-10 -4l27 99h145q-8 -33 -15.5 -66.5t-13.5 -65.5l-59 -375h-150l16 99h16q-24 -50 -69.5 -80t-110.5 -30zM285 103q51 0 87 35.5t48 108.5q13 82 -14 119t-81 37
q-51 0 -87 -35t-48 -108q-13 -82 14 -119.5t81 -37.5zM367 552q-50 0 -87 24t-55.5 68t-15.5 103l84 8q-2 -56 19.5 -85.5t60.5 -29.5q40 0 66 29.5t34 85.5l82 -8q-6 -59 -31 -103t-65 -68t-92 -24z" />
    <glyph glyph-name="Aogonek" unicode="&#x104;" horiz-adv-x="759" 
d="M-51 0l436 705h129l216 -705h-152l-55 196l55 -43h-419l69 43l-116 -196h-163zM429 541l-178 -306l-21 38h315l-29 -38l-83 306h-4zM633 -197q-54 0 -82.5 26.5t-28.5 70.5q0 49 33 87.5t83 57.5l38 -45q-33 -13 -48 -34t-15 -41t14 -32.5t36 -12.5q14 0 26.5 3t27.5 8
l12 -71q-28 -8 -49.5 -12.5t-46.5 -4.5z" />
    <glyph glyph-name="aogonek" unicode="&#x105;" horiz-adv-x="632" 
d="M232 -11q-69 0 -117.5 35t-68.5 98.5t-7 147.5q20 123 91 185t169 62q61 0 104.5 -28.5t52.5 -76.5l-10 -4l27 99h145q-8 -33 -15.5 -66.5t-13.5 -65.5l-59 -375h-150l16 99h16q-24 -50 -69.5 -80t-110.5 -30zM285 103q51 0 87 35.5t48 108.5q13 82 -14 119t-81 37
q-51 0 -87 -35t-48 -108q-13 -82 14 -119.5t81 -37.5zM459 -197q-54 0 -82.5 26.5t-28.5 70.5q0 49 33 87.5t83 57.5l38 -45q-33 -13 -48 -34t-15 -41t14 -32.5t36 -12.5q14 0 26.5 3t27.5 8l12 -71q-28 -8 -49.5 -12.5t-46.5 -4.5z" />
    <glyph glyph-name="Cacute" unicode="&#x106;" horiz-adv-x="685" 
d="M389 -11q-123 0 -200 49.5t-107 135.5t-13 196q18 110 71.5 187.5t139 118.5t195.5 40q69 -1 124.5 -19.5t92.5 -50.5l-53 -124q-41 31 -79.5 44t-91.5 13q-95 0 -157 -56t-80 -161q-11 -72 5 -125t59.5 -82t113.5 -29q47 0 93.5 15t93.5 51l42 -123q-50 -38 -114.5 -59
t-134.5 -21zM432 765l130 175h157l-182 -175h-105z" />
    <glyph glyph-name="cacute" unicode="&#x107;" horiz-adv-x="509" 
d="M280 -11q-87 0 -145.5 35.5t-83.5 99t-12 146.5q20 123 100.5 185t198.5 62q47 0 92.5 -13.5t72.5 -38.5l-46 -102q-23 19 -54 29t-60 10q-58 0 -98 -34.5t-52 -106.5q-12 -70 17.5 -112.5t95.5 -42.5q27 0 59.5 10.5t61.5 32.5l40 -102q-30 -26 -81 -42t-106 -16z
M295 555l132 205h148l-180 -205h-100z" />
    <glyph glyph-name="Ccircumflex" unicode="&#x108;" horiz-adv-x="685" 
d="M389 -11q-123 0 -200 49.5t-107 135.5t-13 196q18 110 71.5 187.5t139 118.5t195.5 40q69 -1 124.5 -19.5t92.5 -50.5l-53 -124q-41 31 -79.5 44t-91.5 13q-95 0 -157 -56t-80 -161q-11 -72 5 -125t59.5 -82t113.5 -29q47 0 93.5 15t93.5 51l42 -123q-50 -38 -114.5 -59
t-134.5 -21zM290 765l142 175h126l108 -175h-103l-75 95l-95 -95h-103z" />
    <glyph glyph-name="ccircumflex" unicode="&#x109;" horiz-adv-x="509" 
d="M280 -11q-87 0 -145.5 35.5t-83.5 99t-12 146.5q20 123 100.5 185t198.5 62q47 0 92.5 -13.5t72.5 -38.5l-46 -102q-23 19 -54 29t-60 10q-58 0 -98 -34.5t-52 -106.5q-12 -70 17.5 -112.5t95.5 -42.5q27 0 59.5 10.5t61.5 32.5l40 -102q-30 -26 -81 -42t-106 -16z
M164 555l132 205h128l91 -205h-93l-68 123l-96 -123h-94z" />
    <glyph glyph-name="Cdotaccent" unicode="&#x10a;" horiz-adv-x="685" 
d="M389 -11q-123 0 -200 49.5t-107 135.5t-13 196q18 110 71.5 187.5t139 118.5t195.5 40q69 -1 124.5 -19.5t92.5 -50.5l-53 -124q-41 31 -79.5 44t-91.5 13q-95 0 -157 -56t-80 -161q-11 -72 5 -125t59.5 -82t113.5 -29q47 0 93.5 15t93.5 51l42 -123q-50 -38 -114.5 -59
t-134.5 -21zM417 786l20 133h140l-21 -133h-139z" />
    <glyph glyph-name="cdotaccent" unicode="&#x10b;" horiz-adv-x="509" 
d="M280 -11q-87 0 -145.5 35.5t-83.5 99t-12 146.5q20 123 100.5 185t198.5 62q47 0 92.5 -13.5t72.5 -38.5l-46 -102q-23 19 -54 29t-60 10q-58 0 -98 -34.5t-52 -106.5q-12 -70 17.5 -112.5t95.5 -42.5q27 0 59.5 10.5t61.5 32.5l40 -102q-30 -26 -81 -42t-106 -16z
M279 590l21 133h141l-21 -133h-141z" />
    <glyph glyph-name="Ccaron" unicode="&#x10c;" horiz-adv-x="685" 
d="M389 -11q-123 0 -200 49.5t-107 135.5t-13 196q18 110 71.5 187.5t139 118.5t195.5 40q69 -1 124.5 -19.5t92.5 -50.5l-53 -124q-41 31 -79.5 44t-91.5 13q-95 0 -157 -56t-80 -161q-11 -72 5 -125t59.5 -82t113.5 -29q47 0 93.5 15t93.5 51l42 -123q-50 -38 -114.5 -59
t-134.5 -21zM420 765l-109 175h100l77 -95l93 95h107l-142 -175h-126z" />
    <glyph glyph-name="ccaron" unicode="&#x10d;" horiz-adv-x="509" 
d="M280 -11q-87 0 -145.5 35.5t-83.5 99t-12 146.5q20 123 100.5 185t198.5 62q47 0 92.5 -13.5t72.5 -38.5l-46 -102q-23 19 -54 29t-60 10q-58 0 -98 -34.5t-52 -106.5q-12 -70 17.5 -112.5t95.5 -42.5q27 0 59.5 10.5t61.5 32.5l40 -102q-30 -26 -81 -42t-106 -16z
M281 555l-91 205h93l68 -123l96 123h93l-131 -205h-128z" />
    <glyph glyph-name="Dcaron" unicode="&#x10e;" horiz-adv-x="771" 
d="M32 0l112 705h255q131 0 211.5 -45t111 -127.5t12.5 -196.5q-27 -167 -136.5 -251.5t-289.5 -84.5h-276zM208 128h104q119 0 184.5 53.5t83.5 161.5q18 122 -31 178.5t-168 56.5h-102zM412 765l-109 175h100l77 -95l93 95h107l-142 -175h-126z" />
    <glyph glyph-name="dcaron" unicode="&#x10f;" horiz-adv-x="632" 
d="M232 -11q-69 0 -117.5 35t-68.5 98.5t-7 147.5q20 123 91 185t169 62q61 0 104.5 -28.5t52.5 -76.5h-12l52 324h151l-117 -736h-149l16 99h15q-24 -50 -69.5 -80t-110.5 -30zM285 103q51 0 87 35.5t48 108.5q13 82 -14 119t-81 37q-51 0 -87 -35t-48 -108
q-13 -82 14 -119.5t81 -37.5zM653 542l31 194h95l-59 -194h-67z" />
    <glyph glyph-name="Dcroat" unicode="&#x110;" horiz-adv-x="771" 
d="M32 0l112 705h255q131 0 211.5 -45t111 -127.5t12.5 -196.5q-27 -167 -136.5 -251.5t-289.5 -84.5h-276zM208 128h104q119 0 184.5 53.5t83.5 161.5q18 122 -31 178.5t-168 56.5h-102zM-3 301l18 111h427l-18 -111h-427z" />
    <glyph glyph-name="dcroat" unicode="&#x111;" horiz-adv-x="632" 
d="M232 -11q-69 0 -117.5 34t-68.5 94.5t-7 141.5q20 118 91 177.5t169 59.5q61 0 104.5 -27.5t52.5 -74.5l-12 18l24 149h-191l16 104h192l11 71h151l-11 -71h86l-16 -104h-87l-89 -561h-149l16 99l15 -4q-24 -48 -69.5 -77t-110.5 -29zM285 103q51 0 87 33.5t48 100.5
q13 75 -14 110t-81 35q-51 0 -87 -33t-48 -101q-13 -74 14 -109.5t81 -35.5z" />
    <glyph glyph-name="Emacron" unicode="&#x112;" horiz-adv-x="599" 
d="M32 0l112 705h490l-19 -121h-341l-26 -165h317l-19 -122h-317l-28 -176h340l-19 -121h-490zM245 801l13 85h356l-13 -85h-356z" />
    <glyph glyph-name="emacron" unicode="&#x113;" horiz-adv-x="550" 
d="M292 -11q-93 0 -154 36t-86 100t-12 148q12 76 49 130.5t94.5 84t132.5 29.5t124 -33t69.5 -90t8.5 -131l-6 -33h-354l11 74h246l-20 -16q10 64 -12 96t-72 32q-36 0 -62 -16.5t-42 -46t-21 -65.5l-6 -39q-10 -70 21.5 -108t111.5 -38q36 0 70.5 10.5t69.5 33.5l40 -100
q-41 -29 -93 -43.5t-108 -14.5zM184 611l13 85h326l-13 -85h-326z" />
    <glyph glyph-name="Ebreve" unicode="&#x114;" horiz-adv-x="599" 
d="M32 0l112 705h490l-19 -121h-341l-26 -165h317l-19 -122h-317l-28 -176h340l-19 -121h-490zM420 760q-53 0 -93 22t-62 60.5t-22 88.5l83 11q0 -45 27 -70t73 -25t77 25t39 70l82 -11q-12 -78 -66.5 -124.5t-137.5 -46.5z" />
    <glyph glyph-name="ebreve" unicode="&#x115;" horiz-adv-x="550" 
d="M292 -11q-93 0 -154 36t-86 100t-12 148q12 76 49 130.5t94.5 84t132.5 29.5t124 -33t69.5 -90t8.5 -131l-6 -33h-354l11 74h246l-20 -16q10 64 -12 96t-72 32q-36 0 -62 -16.5t-42 -46t-21 -65.5l-6 -39q-10 -70 21.5 -108t111.5 -38q36 0 70.5 10.5t69.5 33.5l40 -100
q-41 -29 -93 -43.5t-108 -14.5zM345 552q-50 0 -87 24t-55.5 68t-15.5 103l84 8q-2 -56 19.5 -85.5t60.5 -29.5q40 0 66 29.5t34 85.5l82 -8q-6 -59 -31 -103t-65 -68t-92 -24z" />
    <glyph glyph-name="Edotaccent" unicode="&#x116;" horiz-adv-x="599" 
d="M32 0l112 705h490l-19 -121h-341l-26 -165h317l-19 -122h-317l-28 -176h340l-19 -121h-490zM351 786l20 133h140l-21 -133h-139z" />
    <glyph glyph-name="edotaccent" unicode="&#x117;" horiz-adv-x="550" 
d="M292 -11q-93 0 -154 36t-86 100t-12 148q12 76 49 130.5t94.5 84t132.5 29.5t124 -33t69.5 -90t8.5 -131l-6 -33h-354l11 74h246l-20 -16q10 64 -12 96t-72 32q-36 0 -62 -16.5t-42 -46t-21 -65.5l-6 -39q-10 -70 21.5 -108t111.5 -38q36 0 70.5 10.5t69.5 33.5l40 -100
q-41 -29 -93 -43.5t-108 -14.5zM272 590l21 133h141l-21 -133h-141z" />
    <glyph glyph-name="Eogonek" unicode="&#x118;" horiz-adv-x="599" 
d="M32 0l112 705h490l-19 -121h-341l-26 -165h317l-19 -122h-317l-28 -176h340l-19 -121h-490zM432 -197q-54 0 -82.5 26.5t-28.5 70.5q0 49 33 87.5t83 57.5l38 -45q-33 -13 -48 -34t-15 -41t14 -32.5t36 -12.5q14 0 26.5 3t27.5 8l12 -71q-28 -8 -49.5 -12.5t-46.5 -4.5z
" />
    <glyph glyph-name="eogonek" unicode="&#x119;" horiz-adv-x="550" 
d="M292 -11q-93 0 -154 36t-86 100t-12 148q12 76 49 130.5t94.5 84t132.5 29.5t124 -33t69.5 -90t8.5 -131l-6 -33h-354l11 74h246l-20 -16q10 64 -12 96t-72 32q-36 0 -62 -16.5t-42 -46t-21 -65.5l-6 -39q-10 -70 21.5 -108t111.5 -38q36 0 70.5 10.5t69.5 33.5l40 -100
q-41 -29 -93 -43.5t-108 -14.5zM313 -197q-54 0 -82.5 26.5t-28.5 70.5q0 49 33 87.5t83 57.5l38 -45q-33 -13 -48 -34t-15 -41t14 -32.5t36 -12.5q14 0 26.5 3t27.5 8l12 -71q-28 -8 -49.5 -12.5t-46.5 -4.5z" />
    <glyph glyph-name="Ecaron" unicode="&#x11a;" horiz-adv-x="599" 
d="M32 0l112 705h490l-19 -121h-341l-26 -165h317l-19 -122h-317l-28 -176h340l-19 -121h-490zM355 765l-109 175h100l77 -95l93 95h107l-142 -175h-126z" />
    <glyph glyph-name="ecaron" unicode="&#x11b;" horiz-adv-x="550" 
d="M292 -11q-93 0 -154 36t-86 100t-12 148q12 76 49 130.5t94.5 84t132.5 29.5t124 -33t69.5 -90t8.5 -131l-6 -33h-354l11 74h246l-20 -16q10 64 -12 96t-72 32q-36 0 -62 -16.5t-42 -46t-21 -65.5l-6 -39q-10 -70 21.5 -108t111.5 -38q36 0 70.5 10.5t69.5 33.5l40 -100
q-41 -29 -93 -43.5t-108 -14.5zM274 555l-91 205h93l68 -123l96 123h93l-131 -205h-128z" />
    <glyph glyph-name="Gcircumflex" unicode="&#x11c;" horiz-adv-x="745" 
d="M397 -11q-130 0 -209 47.5t-108 132.5t-11 198q18 112 74.5 189.5t146 118.5t203.5 41q77 0 132.5 -17t92.5 -46l-54 -121q-42 27 -80 38t-97 11q-109 0 -174 -58.5t-82 -166.5q-17 -111 25 -173t158 -62q43 0 80.5 7t78.5 21l-45 -60l30 190h-155l18 111h284l-55 -345
q-35 -18 -78 -30.5t-88 -19t-87 -6.5zM304 765l142 175h126l108 -175h-103l-75 95l-95 -95h-103z" />
    <glyph glyph-name="gcircumflex" unicode="&#x11d;" horiz-adv-x="633" 
d="M237 -224q-72 0 -127 14.5t-97 43.5l40 109q25 -18 54 -29.5t61.5 -17.5t65.5 -6q70 0 106.5 32t45.5 91l17 105h10q-20 -46 -67 -75.5t-110 -29.5q-68 0 -117 32t-70.5 92.5t-7.5 144.5q19 115 89 175t171 60q61 0 104.5 -28.5t51.5 -75.5l-7 4l24 90h146
q-9 -33 -16.5 -66.5t-12.5 -65.5l-55 -345q-19 -123 -94.5 -188.5t-204.5 -65.5zM288 126q54 0 90 35.5t46 101.5q10 69 -16 104.5t-80 35.5t-90 -35t-47 -101q-11 -69 16 -105t81 -36zM188 555l132 205h128l91 -205h-93l-68 123l-96 -123h-94z" />
    <glyph glyph-name="Gbreve" unicode="&#x11e;" horiz-adv-x="745" 
d="M397 -11q-130 0 -209 47.5t-108 132.5t-11 198q18 112 74.5 189.5t146 118.5t203.5 41q77 0 132.5 -17t92.5 -46l-54 -121q-42 27 -80 38t-97 11q-109 0 -174 -58.5t-82 -166.5q-17 -111 25 -173t158 -62q43 0 80.5 7t78.5 21l-45 -60l30 190h-155l18 111h284l-55 -345
q-35 -18 -78 -30.5t-88 -19t-87 -6.5zM499 760q-53 0 -93 22t-62 60.5t-22 88.5l83 11q0 -45 27 -70t73 -25t77 25t39 70l82 -11q-12 -78 -66.5 -124.5t-137.5 -46.5z" />
    <glyph glyph-name="gbreve" unicode="&#x11f;" horiz-adv-x="633" 
d="M237 -224q-72 0 -127 14.5t-97 43.5l40 109q25 -18 54 -29.5t61.5 -17.5t65.5 -6q70 0 106.5 32t45.5 91l17 105h10q-20 -46 -67 -75.5t-110 -29.5q-68 0 -117 32t-70.5 92.5t-7.5 144.5q19 115 89 175t171 60q61 0 104.5 -28.5t51.5 -75.5l-7 4l24 90h146
q-9 -33 -16.5 -66.5t-12.5 -65.5l-55 -345q-19 -123 -94.5 -188.5t-204.5 -65.5zM288 126q54 0 90 35.5t46 101.5q10 69 -16 104.5t-80 35.5t-90 -35t-47 -101q-11 -69 16 -105t81 -36zM376 552q-50 0 -87 24t-55.5 68t-15.5 103l84 8q-2 -56 19.5 -85.5t60.5 -29.5
q40 0 66 29.5t34 85.5l82 -8q-6 -59 -31 -103t-65 -68t-92 -24z" />
    <glyph glyph-name="Gdotaccent" unicode="&#x120;" horiz-adv-x="745" 
d="M397 -11q-130 0 -209 47.5t-108 132.5t-11 198q18 112 74.5 189.5t146 118.5t203.5 41q77 0 132.5 -17t92.5 -46l-54 -121q-42 27 -80 38t-97 11q-109 0 -174 -58.5t-82 -166.5q-17 -111 25 -173t158 -62q43 0 80.5 7t78.5 21l-45 -60l30 190h-155l18 111h284l-55 -345
q-35 -18 -78 -30.5t-88 -19t-87 -6.5zM431 786l20 133h140l-21 -133h-139z" />
    <glyph glyph-name="gdotaccent" unicode="&#x121;" horiz-adv-x="633" 
d="M237 -224q-72 0 -127 14.5t-97 43.5l40 109q25 -18 54 -29.5t61.5 -17.5t65.5 -6q70 0 106.5 32t45.5 91l17 105h10q-20 -46 -67 -75.5t-110 -29.5q-68 0 -117 32t-70.5 92.5t-7.5 144.5q19 115 89 175t171 60q61 0 104.5 -28.5t51.5 -75.5l-7 4l24 90h146
q-9 -33 -16.5 -66.5t-12.5 -65.5l-55 -345q-19 -123 -94.5 -188.5t-204.5 -65.5zM288 126q54 0 90 35.5t46 101.5q10 69 -16 104.5t-80 35.5t-90 -35t-47 -101q-11 -69 16 -105t81 -36zM304 590l21 133h141l-21 -133h-141z" />
    <glyph glyph-name="uni0122" unicode="&#x122;" horiz-adv-x="745" 
d="M397 -11q-130 0 -209 47.5t-108 132.5t-11 198q18 112 74.5 189.5t146 118.5t203.5 41q77 0 132.5 -17t92.5 -46l-54 -121q-42 27 -80 38t-97 11q-109 0 -174 -58.5t-82 -166.5q-17 -111 25 -173t158 -62q43 0 80.5 7t78.5 21l-45 -60l30 190h-155l18 111h284l-55 -345
q-35 -18 -78 -30.5t-88 -19t-87 -6.5zM353 -284l-44 41q25 18 34.5 36t13.5 42l29 -18h-105l19 114h149l-13 -80q-7 -45 -23.5 -76.5t-59.5 -58.5z" />
    <glyph glyph-name="uni0123" unicode="&#x123;" horiz-adv-x="633" 
d="M237 -224q-72 0 -127 14.5t-97 43.5l40 109q25 -18 54 -29.5t61.5 -17.5t65.5 -6q70 0 106.5 32t45.5 91l17 105h10q-20 -46 -67 -75.5t-110 -29.5q-68 0 -117 32t-70.5 92.5t-7.5 144.5q19 115 89 175t171 60q61 0 104.5 -28.5t51.5 -75.5l-7 4l24 90h146
q-9 -33 -16.5 -66.5t-12.5 -65.5l-55 -345q-19 -123 -94.5 -188.5t-204.5 -65.5zM288 126q54 0 90 35.5t46 101.5q10 69 -16 104.5t-80 35.5t-90 -35t-47 -101q-11 -69 16 -105t81 -36zM295 562l13 81q8 45 24.5 76.5t59.5 57.5l43 -41q-24 -17 -33.5 -35.5t-14.5 -42.5
l-28 18h105l-19 -114h-150z" />
    <glyph glyph-name="Hcircumflex" unicode="&#x124;" horiz-adv-x="779" 
d="M32 0l112 705h156l-45 -283h323l45 283h157l-112 -705h-157l47 293h-324l-46 -293h-156zM278 765l142 175h126l108 -175h-103l-75 95l-95 -95h-103z" />
    <glyph glyph-name="hcircumflex" unicode="&#x125;" horiz-adv-x="613" 
d="M22 0l117 736h151l-52 -324h-15q30 52 79 78.5t110 26.5q91 0 129 -54t20 -165l-47 -298h-151l47 298q9 55 -9 78.5t-58 23.5q-51 0 -84 -31t-41 -83l-45 -286h-151zM201 786l142 175h126l108 -175h-103l-75 95l-95 -95h-103z" />
    <glyph glyph-name="Hbar" unicode="&#x126;" horiz-adv-x="838" 
d="M62 0l79 506h-83l17 111h84l15 88h156l-15 -88h323l15 88h156l-15 -88h84l-18 -111h-84l-79 -506h-156l43 278h-322l-44 -278h-156zM282 407h323l15 99h-323z" />
    <glyph glyph-name="hbar" unicode="&#x127;" horiz-adv-x="613" 
d="M22 0l88 561h-88l16 104h90l11 71h151l-11 -71h191l-16 -104h-193l-26 -164h-14q30 53 79.5 79.5t109.5 26.5q90 0 128.5 -54.5t20.5 -165.5l-45 -283h-151l45 284q9 55 -9 78.5t-58 23.5q-51 0 -83.5 -31.5t-41.5 -82.5l-43 -272h-151z" />
    <glyph glyph-name="Itilde" unicode="&#x128;" horiz-adv-x="299" 
d="M32 0l112 705h156l-112 -705h-156zM69 766l-71 4q11 76 50.5 116.5t98.5 40.5q30 0 56.5 -10.5t49.5 -23.5q20 -10 38 -18t37 -8q55 0 72 64l72 -4q-11 -76 -50.5 -116.5t-98.5 -40.5q-30 0 -56.5 11t-49.5 23q-20 10 -38.5 18t-36.5 8q-56 0 -73 -64z" />
    <glyph glyph-name="itilde" unicode="&#x129;" horiz-adv-x="274" 
d="M22 0l80 507h151l-80 -507h-151zM60 581l-71 4q9 76 45.5 116.5t90.5 40.5q28 0 46.5 -10t34.5 -23q15 -11 29.5 -19t32.5 -8q49 0 65 64l72 -4q-10 -76 -46.5 -116.5t-89.5 -40.5q-28 0 -48 11t-36 23q-14 10 -28 18t-31 8q-50 0 -66 -64z" />
    <glyph glyph-name="Imacron" unicode="&#x12a;" horiz-adv-x="299" 
d="M32 0l112 705h156l-112 -705h-156zM59 801l13 85h356l-13 -85h-356z" />
    <glyph glyph-name="imacron" unicode="&#x12b;" horiz-adv-x="274" 
d="M22 0l80 507h151l-80 -507h-151zM33 611l13 85h326l-13 -85h-326z" />
    <glyph glyph-name="Ibreve" unicode="&#x12c;" horiz-adv-x="299" 
d="M32 0l112 705h156l-112 -705h-156zM233 760q-53 0 -93 22t-62 60.5t-22 88.5l83 11q0 -45 27 -70t73 -25t77 25t39 70l82 -11q-12 -78 -66.5 -124.5t-137.5 -46.5z" />
    <glyph glyph-name="ibreve" unicode="&#x12d;" horiz-adv-x="274" 
d="M22 0l80 507h151l-80 -507h-151zM193 552q-50 0 -87 24t-55.5 68t-15.5 103l84 8q-2 -56 19.5 -85.5t60.5 -29.5q40 0 66 29.5t34 85.5l82 -8q-6 -59 -31 -103t-65 -68t-92 -24z" />
    <glyph glyph-name="Iogonek" unicode="&#x12e;" horiz-adv-x="299" 
d="M32 0l112 705h156l-112 -705h-156zM109 -197q-54 0 -82.5 26.5t-28.5 70.5q0 49 33 87.5t83 57.5l38 -45q-33 -13 -48 -34t-15 -41t14 -32.5t36 -12.5q14 0 26.5 3t27.5 8l12 -71q-28 -8 -49.5 -12.5t-46.5 -4.5z" />
    <glyph glyph-name="iogonek" unicode="&#x12f;" horiz-adv-x="274" 
d="M22 0l80 507h151l-80 -507h-151zM109 590l22 141h163l-22 -141h-163zM96 -197q-54 0 -82.5 26.5t-28.5 70.5q0 49 33 87.5t83 57.5l38 -45q-33 -13 -48 -34t-15 -41t14 -32.5t36 -12.5q14 0 26.5 3t27.5 8l12 -71q-28 -8 -49.5 -12.5t-46.5 -4.5z" />
    <glyph glyph-name="Idotaccent" unicode="&#x130;" horiz-adv-x="299" 
d="M32 0l112 705h156l-112 -705h-156zM165 786l20 133h140l-21 -133h-139z" />
    <glyph glyph-name="dotlessi" unicode="&#x131;" horiz-adv-x="274" 
d="M22 0l80 507h151l-80 -507h-151z" />
    <glyph glyph-name="IJ" unicode="&#x132;" horiz-adv-x="680" 
d="M32 0l112 705h156l-112 -705h-156zM325 -187q-18 0 -42.5 2.5t-49.5 9.5l19 122q19 -7 36.5 -9t29.5 -2q46 0 69.5 26t32.5 84l104 659h156l-106 -672q-13 -78 -42 -126.5t-79.5 -71t-127.5 -22.5z" />
    <glyph glyph-name="Jcircumflex" unicode="&#x134;" horiz-adv-x="381" 
d="M26 -187q-18 0 -42.5 2.5t-49.5 9.5l19 122q19 -7 36.5 -9t29.5 -2q46 0 69.5 26t32.5 84l104 659h156l-106 -672q-13 -78 -42 -126.5t-79.5 -71t-127.5 -22.5zM121 765l142 175h126l108 -175h-103l-75 95l-95 -95h-103z" />
    <glyph glyph-name="jcircumflex" unicode="&#x135;" horiz-adv-x="274" 
d="M-54 -223q-22 0 -44 3t-40 11l18 117q13 -4 27 -7t28 -3q33 0 56 19.5t31 67.5l82 522h151l-83 -529q-16 -99 -70.5 -150t-155.5 -51zM6 555l132 205h128l91 -205h-93l-68 123l-96 -123h-94z" />
    <glyph glyph-name="uni0136" unicode="&#x136;" horiz-adv-x="685" 
d="M32 0l112 705h156l-49 -307h2l333 307h190l-405 -369l-5 64l320 -400h-184l-261 322h-2l-51 -322h-156zM276 -284l-44 41q25 18 34.5 36t13.5 42l29 -18h-105l19 114h149l-13 -80q-7 -45 -23.5 -76.5t-59.5 -58.5z" />
    <glyph glyph-name="uni0137" unicode="&#x137;" horiz-adv-x="574" 
d="M22 0l117 736h151l-70 -440h2l216 211h185l-281 -270v55l214 -292h-179l-167 220h-2l-35 -220h-151zM213 -284l-44 41q25 18 34.5 36t13.5 42l29 -18h-105l19 114h149l-13 -80q-7 -45 -23.5 -76.5t-59.5 -58.5z" />
    <glyph glyph-name="kgreenlandic" unicode="&#x138;" horiz-adv-x="574" 
d="M22 0l80 507h151l-33 -211h2l216 211h185l-281 -270v55l214 -292h-179l-167 220h-2l-35 -220h-151z" />
    <glyph glyph-name="Lacute" unicode="&#x139;" horiz-adv-x="569" 
d="M32 0l112 705h156l-92 -574h318l-20 -131h-474zM180 765l130 175h157l-182 -175h-105z" />
    <glyph glyph-name="lacute" unicode="&#x13a;" horiz-adv-x="274" 
d="M22 0l117 736h151l-117 -736h-151zM171 786l130 175h157l-182 -175h-105z" />
    <glyph glyph-name="uni013B" unicode="&#x13b;" horiz-adv-x="569" 
d="M32 0l112 705h156l-92 -574h318l-20 -131h-474zM243 -284l-44 41q25 18 34.5 36t13.5 42l29 -18h-105l19 114h149l-13 -80q-7 -45 -23.5 -76.5t-59.5 -58.5z" />
    <glyph glyph-name="uni013C" unicode="&#x13c;" horiz-adv-x="274" 
d="M22 0l117 736h151l-117 -736h-151zM65 -284l-44 41q25 18 34.5 36t13.5 42l29 -18h-105l19 114h149l-13 -80q-7 -45 -23.5 -76.5t-59.5 -58.5z" />
    <glyph glyph-name="Lcaron" unicode="&#x13d;" horiz-adv-x="569" 
d="M32 0l112 705h156l-92 -574h318l-20 -131h-474zM362 462l39 243h112l-63 -243h-88z" />
    <glyph glyph-name="lcaron" unicode="&#x13e;" horiz-adv-x="274" 
d="M22 0l117 736h151l-117 -736h-151zM297 542l31 194h95l-59 -194h-67z" />
    <glyph glyph-name="Ldot" unicode="&#x13f;" horiz-adv-x="569" 
d="M32 0l112 705h156l-92 -574h318l-20 -131h-474zM371 326l23 140h163l-22 -140h-164z" />
    <glyph glyph-name="ldot" unicode="&#x140;" horiz-adv-x="274" 
d="M22 0l117 736h151l-117 -736h-151zM264 282l23 140h163l-22 -140h-164z" />
    <glyph glyph-name="Lslash" unicode="&#x141;" horiz-adv-x="569" 
d="M32 0l112 705h156l-92 -574h318l-20 -131h-474zM12 231l-49 105l444 207l48 -105z" />
    <glyph glyph-name="lslash" unicode="&#x142;" horiz-adv-x="274" 
d="M22 0l117 736h151l-117 -736h-151zM4 232l-48 105l358 174l48 -106z" />
    <glyph glyph-name="Nacute" unicode="&#x143;" horiz-adv-x="760" 
d="M32 0l112 705h116l304 -496l-26 9l78 487h145l-112 -705h-116l-304 496l26 -9l-78 -487h-145zM413 765l130 175h157l-182 -175h-105z" />
    <glyph glyph-name="nacute" unicode="&#x144;" horiz-adv-x="613" 
d="M22 0l59 375q5 32 8.5 65.5t4.5 66.5h146l-5 -94l-12 -1q30 52 79 78.5t110 26.5q91 0 129 -54t20 -165l-47 -298h-151l47 298q9 55 -9.5 78.5t-57.5 23.5q-51 0 -84 -31t-41 -83l-45 -286h-151zM306 555l132 205h148l-180 -205h-100z" />
    <glyph glyph-name="uni0145" unicode="&#x145;" horiz-adv-x="760" 
d="M32 0l112 705h116l304 -496l-26 9l78 487h145l-112 -705h-116l-304 496l26 -9l-78 -487h-145zM312 -284l-44 41q25 18 34.5 36t13.5 42l29 -18h-105l19 114h149l-13 -80q-7 -45 -23.5 -76.5t-59.5 -58.5z" />
    <glyph glyph-name="uni0146" unicode="&#x146;" horiz-adv-x="613" 
d="M22 0l59 375q5 32 8.5 65.5t4.5 66.5h146l-5 -94l-12 -1q30 52 79 78.5t110 26.5q91 0 129 -54t20 -165l-47 -298h-151l47 298q9 55 -9.5 78.5t-57.5 23.5q-51 0 -84 -31t-41 -83l-45 -286h-151zM235 -284l-44 41q25 18 34.5 36t13.5 42l29 -18h-105l19 114h149l-13 -80
q-7 -45 -23.5 -76.5t-59.5 -58.5z" />
    <glyph glyph-name="Ncaron" unicode="&#x147;" horiz-adv-x="760" 
d="M32 0l112 705h116l304 -496l-26 9l78 487h145l-112 -705h-116l-304 496l26 -9l-78 -487h-145zM402 765l-109 175h100l77 -95l93 95h107l-142 -175h-126z" />
    <glyph glyph-name="ncaron" unicode="&#x148;" horiz-adv-x="613" 
d="M22 0l59 375q5 32 8.5 65.5t4.5 66.5h146l-5 -94l-12 -1q30 52 79 78.5t110 26.5q91 0 129 -54t20 -165l-47 -298h-151l47 298q9 55 -9.5 78.5t-57.5 23.5q-51 0 -84 -31t-41 -83l-45 -286h-151zM292 555l-91 205h93l68 -123l96 123h93l-131 -205h-128z" />
    <glyph glyph-name="napostrophe" unicode="&#x149;" horiz-adv-x="697" 
d="M191 564l-50 36q23 19 32.5 39t11.5 40l30 -17h-105l18 115h149l-12 -73q-6 -42 -21.5 -76t-52.5 -64zM106 0l59 375q5 32 8.5 65.5t4.5 66.5h146l-5 -94l-12 -1q30 52 79 78.5t110 26.5q91 0 129 -54t20 -165l-47 -298h-151l47 298q9 55 -9.5 78.5t-57.5 23.5
q-51 0 -84 -31t-41 -83l-45 -286h-151z" />
    <glyph glyph-name="Eng" unicode="&#x14a;" horiz-adv-x="760" 
d="M357 -193l7 108l52 5q38 3 59.5 22t28.5 56l9 61l20 -59l-304 496l26 -9l-78 -487h-145l112 705h116l304 -496l-26 9l78 487h145l-110 -692q-10 -70 -38 -112.5t-78.5 -63.5t-130.5 -27z" />
    <glyph glyph-name="eng" unicode="&#x14b;" horiz-adv-x="613" 
d="M22 0l59 375q5 32 8.5 65.5t4.5 66.5h146l-5 -94l-12 -1q30 52 79 78.5t110 26.5q91 0 129 -54t20 -165l-50 -318q-17 -99 -72.5 -151t-158.5 -52q-23 0 -44 3t-40 11l19 117q13 -4 25.5 -7t29.5 -3q34 0 58.5 20.5t32.5 68.5l49 311q9 55 -9.5 78.5t-57.5 23.5
q-51 0 -84 -31t-41 -83l-45 -286h-151z" />
    <glyph glyph-name="Omacron" unicode="&#x14c;" horiz-adv-x="795" 
d="M69 370q18 110 69.5 187.5t132.5 118t184 40.5q115 0 188.5 -49.5t103 -135t11.5 -195.5q-17 -110 -69.5 -187.5t-133 -118.5t-183.5 -41q-115 0 -188.5 49.5t-102.5 135.5t-12 196zM231 360q-12 -76 2 -129t52.5 -81.5t98.5 -28.5q89 0 142.5 61t69.5 164
q12 76 -2.5 129t-53 81t-99.5 28q-89 0 -141 -60t-69 -164zM306 801l13 85h356l-13 -85h-356z" />
    <glyph glyph-name="omacron" unicode="&#x14d;" horiz-adv-x="604" 
d="M274 -11q-86 0 -143.5 34t-81 97t-10.5 150q13 82 53.5 137t102.5 82.5t137 27.5q87 0 143.5 -33.5t80 -96.5t9.5 -150q-13 -81 -53.5 -136t-101.5 -83.5t-136 -28.5zM282 103q50 0 85.5 35.5t47.5 108.5q13 82 -13.5 119t-79.5 37q-50 0 -85 -35t-47 -108
q-13 -82 13 -119.5t79 -37.5zM198 611l13 85h326l-13 -85h-326z" />
    <glyph glyph-name="Obreve" unicode="&#x14e;" horiz-adv-x="795" 
d="M69 370q18 110 69.5 187.5t132.5 118t184 40.5q115 0 188.5 -49.5t103 -135t11.5 -195.5q-17 -110 -69.5 -187.5t-133 -118.5t-183.5 -41q-115 0 -188.5 49.5t-102.5 135.5t-12 196zM231 360q-12 -76 2 -129t52.5 -81.5t98.5 -28.5q89 0 142.5 61t69.5 164
q12 76 -2.5 129t-53 81t-99.5 28q-89 0 -141 -60t-69 -164zM481 760q-53 0 -93 22t-62 60.5t-22 88.5l83 11q0 -45 27 -70t73 -25t77 25t39 70l82 -11q-12 -78 -66.5 -124.5t-137.5 -46.5z" />
    <glyph glyph-name="obreve" unicode="&#x14f;" horiz-adv-x="604" 
d="M274 -11q-86 0 -143.5 34t-81 97t-10.5 150q13 82 53.5 137t102.5 82.5t137 27.5q87 0 143.5 -33.5t80 -96.5t9.5 -150q-13 -81 -53.5 -136t-101.5 -83.5t-136 -28.5zM282 103q50 0 85.5 35.5t47.5 108.5q13 82 -13.5 119t-79.5 37q-50 0 -85 -35t-47 -108
q-13 -82 13 -119.5t79 -37.5zM359 552q-50 0 -87 24t-55.5 68t-15.5 103l84 8q-2 -56 19.5 -85.5t60.5 -29.5q40 0 66 29.5t34 85.5l82 -8q-6 -59 -31 -103t-65 -68t-92 -24z" />
    <glyph glyph-name="Ohungarumlaut" unicode="&#x150;" horiz-adv-x="795" 
d="M69 370q18 110 69.5 187.5t132.5 118t184 40.5q115 0 188.5 -49.5t103 -135t11.5 -195.5q-17 -110 -69.5 -187.5t-133 -118.5t-183.5 -41q-115 0 -188.5 49.5t-102.5 135.5t-12 196zM231 360q-12 -76 2 -129t52.5 -81.5t98.5 -28.5q89 0 142.5 61t69.5 164
q12 76 -2.5 129t-53 81t-99.5 28q-89 0 -141 -60t-69 -164zM357 765l101 175h131l-147 -175h-85zM516 765l113 175h131l-159 -175h-85z" />
    <glyph glyph-name="ohungarumlaut" unicode="&#x151;" horiz-adv-x="604" 
d="M274 -11q-86 0 -143.5 34t-81 97t-10.5 150q13 82 53.5 137t102.5 82.5t137 27.5q87 0 143.5 -33.5t80 -96.5t9.5 -150q-13 -81 -53.5 -136t-101.5 -83.5t-136 -28.5zM282 103q50 0 85.5 35.5t47.5 108.5q13 82 -13.5 119t-79.5 37q-50 0 -85 -35t-47 -108
q-13 -82 13 -119.5t79 -37.5zM390 555l65 205h123l-110 -205h-78zM228 555l66 205h123l-110 -205h-79z" />
    <glyph glyph-name="OE" unicode="&#x152;" horiz-adv-x="1054" 
d="M496 0l112 705h481l-19 -121h-332l-26 -165h309l-19 -122h-309l-28 -176h331l-19 -121h-481zM345 -11q-106 0 -173.5 49.5t-93.5 135.5t-9 196q18 110 67.5 187.5t126 118t172.5 40.5q59 0 105.5 -16t73.5 -48l-26 -160q-20 48 -57 70t-90 22q-89 0 -141 -60t-69 -164
q-12 -75 1 -128.5t50 -82t95 -28.5q59 0 97.5 21.5t66.5 57.5l-23 -149q-34 -29 -76.5 -45.5t-96.5 -16.5z" />
    <glyph glyph-name="oe" unicode="&#x153;" horiz-adv-x="929" 
d="M274 -11q-86 0 -143.5 34t-81.5 97t-10 150q13 82 53.5 137t102.5 82.5t137 27.5t124.5 -29t72.5 -85h-44q26 39 58 64t70.5 37.5t81.5 12.5q75 0 123 -32.5t69 -89t10 -130.5l-6 -35h-348l11 74h241l-21 -16q10 64 -13.5 96t-69.5 32q-35 0 -61.5 -16.5t-41.5 -46
t-21 -65.5l-6 -39q-10 -70 21.5 -108t110.5 -38q36 0 70 10.5t68 33.5l40 -100q-40 -29 -92 -43.5t-107 -14.5q-82 0 -138 31.5t-79 87.5l43 1q-35 -58 -92 -89t-132 -31zM282 103q50 0 85.5 35.5t47.5 108.5q13 82 -13.5 119t-79.5 37q-50 0 -84.5 -35t-47.5 -108
q-13 -82 13 -119.5t79 -37.5z" />
    <glyph glyph-name="Racute" unicode="&#x154;" horiz-adv-x="708" 
d="M32 0l112 705h305q130 0 187.5 -58.5t40.5 -165.5q-10 -62 -46 -107.5t-93.5 -70t-129.5 -24.5l4 22h37q43 0 72 -23.5t46 -66.5l76 -211h-163l-79 227q-9 29 -33.5 38.5t-58.5 9.5h-78l-43 -275h-156zM249 387h145q59 0 92 24.5t40 70.5q8 52 -19.5 77t-88.5 25h-138z
M389 765l130 175h157l-182 -175h-105z" />
    <glyph glyph-name="racute" unicode="&#x155;" horiz-adv-x="411" 
d="M21 0l59 373q5 33 9 67t5 67h146l-6 -148h-26q18 54 46.5 89t65.5 52t80 17q14 0 26.5 -1.5t23.5 -3.5l-22 -133q-18 8 -32.5 10t-36.5 2q-37 0 -67 -15.5t-50.5 -46t-27.5 -76.5l-41 -253h-152zM247 555l132 205h148l-180 -205h-100z" />
    <glyph glyph-name="uni0156" unicode="&#x156;" horiz-adv-x="708" 
d="M32 0l112 705h305q130 0 187.5 -58.5t40.5 -165.5q-10 -62 -46 -107.5t-93.5 -70t-129.5 -24.5l4 22h37q43 0 72 -23.5t46 -66.5l76 -211h-163l-79 227q-9 29 -33.5 38.5t-58.5 9.5h-78l-43 -275h-156zM249 387h145q59 0 92 24.5t40 70.5q8 52 -19.5 77t-88.5 25h-138z
M287 -284l-44 41q25 18 34.5 36t13.5 42l29 -18h-105l19 114h149l-13 -80q-7 -45 -23.5 -76.5t-59.5 -58.5z" />
    <glyph glyph-name="uni0157" unicode="&#x157;" horiz-adv-x="411" 
d="M21 0l59 373q5 33 9 67t5 67h146l-6 -148h-26q18 54 46.5 89t65.5 52t80 17q14 0 26.5 -1.5t23.5 -3.5l-22 -133q-18 8 -32.5 10t-36.5 2q-37 0 -67 -15.5t-50.5 -46t-27.5 -76.5l-41 -253h-152zM64 -284l-44 41q25 18 34.5 36t13.5 42l29 -18h-105l19 114h149l-13 -80
q-7 -45 -23.5 -76.5t-59.5 -58.5z" />
    <glyph glyph-name="Rcaron" unicode="&#x158;" horiz-adv-x="708" 
d="M32 0l112 705h305q130 0 187.5 -58.5t40.5 -165.5q-10 -62 -46 -107.5t-93.5 -70t-129.5 -24.5l4 22h37q43 0 72 -23.5t46 -66.5l76 -211h-163l-79 227q-9 29 -33.5 38.5t-58.5 9.5h-78l-43 -275h-156zM249 387h145q59 0 92 24.5t40 70.5q8 52 -19.5 77t-88.5 25h-138z
M378 765l-109 175h100l77 -95l93 95h107l-142 -175h-126z" />
    <glyph glyph-name="rcaron" unicode="&#x159;" horiz-adv-x="411" 
d="M21 0l59 373q5 33 9 67t5 67h146l-6 -148h-26q18 54 46.5 89t65.5 52t80 17q14 0 26.5 -1.5t23.5 -3.5l-22 -133q-18 8 -32.5 10t-36.5 2q-37 0 -67 -15.5t-50.5 -46t-27.5 -76.5l-41 -253h-152zM233 555l-91 205h93l68 -123l96 123h93l-131 -205h-128z" />
    <glyph glyph-name="Sacute" unicode="&#x15a;" horiz-adv-x="658" 
d="M294 -11q-80 0 -150.5 19t-115.5 49l51 122q46 -26 103.5 -43.5t125.5 -17.5q72 0 105.5 22t38.5 56q5 31 -12 50.5t-65 26.5l-110 19q-92 15 -137.5 69.5t-32.5 139.5q10 66 51.5 114t109.5 74.5t156 26.5q69 0 130.5 -17.5t98.5 -49.5l-52 -118q-36 25 -84 40.5
t-109 15.5q-65 0 -103 -22t-45 -61q-5 -31 12.5 -53t67.5 -30l109 -18q95 -15 139 -67.5t30 -137.5q-9 -61 -49 -108t-106 -74t-157 -27zM367 765l130 175h157l-182 -175h-105z" />
    <glyph glyph-name="sacute" unicode="&#x15b;" horiz-adv-x="504" 
d="M219 -11q-65 0 -119 14t-88 38l42 100q36 -21 81 -34t91 -13q43 0 66.5 13.5t27.5 37.5q3 21 -9 33.5t-39 16.5l-87 14q-72 12 -102 52t-21 102q9 49 40.5 83.5t81.5 52.5t110 18q57 0 105.5 -12.5t80.5 -37.5l-45 -97q-27 19 -65.5 31.5t-75.5 12.5q-46 0 -69.5 -15.5
t-27.5 -38.5q-3 -19 7 -33t37 -18l88 -14q74 -12 104.5 -50t20.5 -100q-8 -51 -40.5 -86t-82.5 -52.5t-112 -17.5zM256 555l132 205h148l-180 -205h-100z" />
    <glyph glyph-name="Scircumflex" unicode="&#x15c;" horiz-adv-x="658" 
d="M294 -11q-80 0 -150.5 19t-115.5 49l51 122q46 -26 103.5 -43.5t125.5 -17.5q72 0 105.5 22t38.5 56q5 31 -12 50.5t-65 26.5l-110 19q-92 15 -137.5 69.5t-32.5 139.5q10 66 51.5 114t109.5 74.5t156 26.5q69 0 130.5 -17.5t98.5 -49.5l-52 -118q-36 25 -84 40.5
t-109 15.5q-65 0 -103 -22t-45 -61q-5 -31 12.5 -53t67.5 -30l109 -18q95 -15 139 -67.5t30 -137.5q-9 -61 -49 -108t-106 -74t-157 -27zM225 765l142 175h126l108 -175h-103l-75 95l-95 -95h-103z" />
    <glyph glyph-name="scircumflex" unicode="&#x15d;" horiz-adv-x="504" 
d="M219 -11q-65 0 -119 14t-88 38l42 100q36 -21 81 -34t91 -13q43 0 66.5 13.5t27.5 37.5q3 21 -9 33.5t-39 16.5l-87 14q-72 12 -102 52t-21 102q9 49 40.5 83.5t81.5 52.5t110 18q57 0 105.5 -12.5t80.5 -37.5l-45 -97q-27 19 -65.5 31.5t-75.5 12.5q-46 0 -69.5 -15.5
t-27.5 -38.5q-3 -19 7 -33t37 -18l88 -14q74 -12 104.5 -50t20.5 -100q-8 -51 -40.5 -86t-82.5 -52.5t-112 -17.5zM124 555l132 205h128l91 -205h-93l-68 123l-96 -123h-94z" />
    <glyph glyph-name="Scedilla" unicode="&#x15e;" horiz-adv-x="658" 
d="M294 -11q-80 0 -150.5 19t-115.5 49l51 122q46 -26 103.5 -43.5t125.5 -17.5q72 0 105.5 22t38.5 56q5 31 -12 50.5t-65 26.5l-110 19q-92 15 -137.5 69.5t-32.5 139.5q10 66 51.5 114t109.5 74.5t156 26.5q69 0 130.5 -17.5t98.5 -49.5l-52 -118q-36 25 -84 40.5
t-109 15.5q-65 0 -103 -22t-45 -61q-5 -31 12.5 -53t67.5 -30l109 -18q95 -15 139 -67.5t30 -137.5q-9 -61 -49 -108t-106 -74t-157 -27zM269 -197q-30 0 -58.5 6t-48.5 16l26 64q17 -8 35.5 -13t38.5 -5q27 0 40.5 7t13.5 21q0 9 -8.5 13.5t-26.5 4.5q-8 0 -17 -0.5
t-22 -4.5l-18 20l27 88h75l-24 -76l-35 14q12 4 24 6t22 2q42 0 65.5 -17.5t23.5 -50.5q0 -43 -38 -69t-95 -26z" />
    <glyph glyph-name="scedilla" unicode="&#x15f;" horiz-adv-x="504" 
d="M219 -11q-65 0 -119 14t-88 38l42 100q36 -21 81 -34t91 -13q43 0 66.5 13.5t27.5 37.5q3 21 -9 33.5t-39 16.5l-87 14q-72 12 -102 52t-21 102q9 49 40.5 83.5t81.5 52.5t110 18q57 0 105.5 -12.5t80.5 -37.5l-45 -97q-27 19 -65.5 31.5t-75.5 12.5q-46 0 -69.5 -15.5
t-27.5 -38.5q-3 -19 7 -33t37 -18l88 -14q74 -12 104.5 -50t20.5 -100q-8 -51 -40.5 -86t-82.5 -52.5t-112 -17.5zM186 -197q-30 0 -58.5 6t-48.5 16l26 64q17 -8 35.5 -13t38.5 -5q27 0 40.5 7t13.5 21q0 9 -8.5 13.5t-26.5 4.5q-8 0 -17 -0.5t-22 -4.5l-18 20l27 88h75
l-24 -76l-35 14q12 4 24 6t22 2q42 0 65.5 -17.5t23.5 -50.5q0 -43 -38 -69t-95 -26z" />
    <glyph glyph-name="Scaron" unicode="&#x160;" horiz-adv-x="658" 
d="M294 -11q-80 0 -150.5 19t-115.5 49l51 122q46 -26 103.5 -43.5t125.5 -17.5q72 0 105.5 22t38.5 56q5 31 -12 50.5t-65 26.5l-110 19q-92 15 -137.5 69.5t-32.5 139.5q10 66 51.5 114t109.5 74.5t156 26.5q69 0 130.5 -17.5t98.5 -49.5l-52 -118q-36 25 -84 40.5
t-109 15.5q-65 0 -103 -22t-45 -61q-5 -31 12.5 -53t67.5 -30l109 -18q95 -15 139 -67.5t30 -137.5q-9 -61 -49 -108t-106 -74t-157 -27zM355 765l-109 175h100l77 -95l93 95h107l-142 -175h-126z" />
    <glyph glyph-name="scaron" unicode="&#x161;" horiz-adv-x="504" 
d="M219 -11q-65 0 -119 14t-88 38l42 100q36 -21 81 -34t91 -13q43 0 66.5 13.5t27.5 37.5q3 21 -9 33.5t-39 16.5l-87 14q-72 12 -102 52t-21 102q9 49 40.5 83.5t81.5 52.5t110 18q57 0 105.5 -12.5t80.5 -37.5l-45 -97q-27 19 -65.5 31.5t-75.5 12.5q-46 0 -69.5 -15.5
t-27.5 -38.5q-3 -19 7 -33t37 -18l88 -14q74 -12 104.5 -50t20.5 -100q-8 -51 -40.5 -86t-82.5 -52.5t-112 -17.5zM242 555l-91 205h93l68 -123l96 123h93l-131 -205h-128z" />
    <glyph glyph-name="uni0162" unicode="&#x162;" horiz-adv-x="628" 
d="M195 0l92 578h-224l20 127h604l-20 -127h-224l-92 -578h-156zM251 -197q-30 0 -58.5 6t-48.5 16l26 64q17 -8 35.5 -13t38.5 -5q27 0 40.5 7t13.5 21q0 9 -8.5 13.5t-26.5 4.5q-8 0 -17 -0.5t-22 -4.5l-18 20l27 88h75l-24 -76l-35 14q12 4 24 6t22 2q42 0 65.5 -17.5
t23.5 -50.5q0 -43 -38 -69t-95 -26z" />
    <glyph glyph-name="uni0163" unicode="&#x163;" horiz-adv-x="396" 
d="M261 -11q-102 0 -144 52t-27 146l33 207h-96l17 113h96l20 124l157 37l-26 -161h130l-18 -113h-129l-32 -199q-7 -47 10.5 -65.5t50.5 -18.5q16 0 29 2.5t28 7.5l-19 -117q-21 -8 -41 -11.5t-39 -3.5zM185 -197q-30 0 -58.5 6t-48.5 16l26 64q17 -8 35.5 -13t38.5 -5
q27 0 40.5 7t13.5 21q0 9 -8.5 13.5t-26.5 4.5q-8 0 -17 -0.5t-22 -4.5l-18 20l27 88h75l-24 -76l-35 14q12 4 24 6t22 2q42 0 65.5 -17.5t23.5 -50.5q0 -43 -38 -69t-95 -26z" />
    <glyph glyph-name="Tcaron" unicode="&#x164;" horiz-adv-x="628" 
d="M195 0l92 578h-224l20 127h604l-20 -127h-224l-92 -578h-156zM333 765l-109 175h100l77 -95l93 95h107l-142 -175h-126z" />
    <glyph glyph-name="tcaron" unicode="&#x165;" horiz-adv-x="396" 
d="M261 -11q-102 0 -144 52t-27 146l33 207h-96l17 113h96l20 124l157 37l-26 -161h130l-18 -113h-129l-32 -199q-7 -47 10.5 -65.5t50.5 -18.5q16 0 29 2.5t28 7.5l-19 -117q-21 -8 -41 -11.5t-39 -3.5zM348 545l29 181h95l-57 -181h-67z" />
    <glyph glyph-name="Tbar" unicode="&#x166;" horiz-adv-x="628" 
d="M195 0l92 578h-224l20 127h604l-20 -127h-224l-92 -578h-156zM108 301l18 111h427l-18 -111h-427z" />
    <glyph glyph-name="tbar" unicode="&#x167;" horiz-adv-x="396" 
d="M261 -11q-102 0 -144 52t-27 146l33 207h-96l17 113h96l20 124l157 37l-26 -161h130l-18 -113h-129l-32 -199q-7 -47 10.5 -65.5t50.5 -18.5q16 0 29 2.5t28 7.5l-19 -117q-21 -8 -41 -11.5t-39 -3.5zM29 222l14 88h327l-15 -88h-326z" />
    <glyph glyph-name="Utilde" unicode="&#x168;" horiz-adv-x="746" 
d="M344 -11q-96 0 -162.5 34t-94.5 102.5t-12 174.5l65 405h156l-65 -413q-14 -84 15.5 -127.5t113.5 -43.5q75 0 116.5 42t56.5 131l65 411h154l-67 -417q-16 -100 -57 -166.5t-111.5 -99.5t-172.5 -33zM295 766l-71 4q11 76 50.5 116.5t98.5 40.5q30 0 56.5 -10.5
t49.5 -23.5q20 -10 38 -18t37 -8q55 0 72 64l72 -4q-11 -76 -50.5 -116.5t-98.5 -40.5q-30 0 -56.5 11t-49.5 23q-20 10 -38.5 18t-36.5 8q-56 0 -73 -64z" />
    <glyph glyph-name="utilde" unicode="&#x169;" horiz-adv-x="607" 
d="M213 -11q-94 0 -136 55t-26 160l48 303h151l-48 -302q-8 -51 9.5 -74.5t60.5 -23.5q49 0 78.5 31.5t38.5 84.5l45 284h151l-80 -507h-147l15 97h15q-29 -51 -73 -79.5t-102 -28.5zM225 582l-71 4q9 76 45.5 116.5t90.5 40.5q28 0 46.5 -10t34.5 -23q15 -11 29.5 -19
t32.5 -8q49 0 65 64l72 -4q-10 -76 -46.5 -116.5t-89.5 -40.5q-28 0 -48 11t-36 23q-14 10 -28 18t-31 8q-50 0 -66 -64z" />
    <glyph glyph-name="Umacron" unicode="&#x16a;" horiz-adv-x="746" 
d="M344 -11q-96 0 -162.5 34t-94.5 102.5t-12 174.5l65 405h156l-65 -413q-14 -84 15.5 -127.5t113.5 -43.5q75 0 116.5 42t56.5 131l65 411h154l-67 -417q-16 -100 -57 -166.5t-111.5 -99.5t-172.5 -33zM284 801l13 85h356l-13 -85h-356z" />
    <glyph glyph-name="umacron" unicode="&#x16b;" horiz-adv-x="607" 
d="M213 -11q-94 0 -136 55t-26 160l48 303h151l-48 -302q-8 -51 9.5 -74.5t60.5 -23.5q49 0 78.5 31.5t38.5 84.5l45 284h151l-80 -507h-147l15 97h15q-29 -51 -73 -79.5t-102 -28.5zM198 612l13 85h326l-13 -85h-326z" />
    <glyph glyph-name="Ubreve" unicode="&#x16c;" horiz-adv-x="746" 
d="M344 -11q-96 0 -162.5 34t-94.5 102.5t-12 174.5l65 405h156l-65 -413q-14 -84 15.5 -127.5t113.5 -43.5q75 0 116.5 42t56.5 131l65 411h154l-67 -417q-16 -100 -57 -166.5t-111.5 -99.5t-172.5 -33zM459 760q-53 0 -93 22t-62 60.5t-22 88.5l83 11q0 -45 27 -70t73 -25
t77 25t39 70l82 -11q-12 -78 -66.5 -124.5t-137.5 -46.5z" />
    <glyph glyph-name="ubreve" unicode="&#x16d;" horiz-adv-x="607" 
d="M213 -11q-94 0 -136 55t-26 160l48 303h151l-48 -302q-8 -51 9.5 -74.5t60.5 -23.5q49 0 78.5 31.5t38.5 84.5l45 284h151l-80 -507h-147l15 97h15q-29 -51 -73 -79.5t-102 -28.5zM359 553q-50 0 -87 24t-55.5 68t-15.5 103l84 8q-2 -56 19.5 -85.5t60.5 -29.5
q40 0 66 29.5t34 85.5l82 -8q-6 -59 -31 -103t-65 -68t-92 -24z" />
    <glyph glyph-name="Uring" unicode="&#x16e;" horiz-adv-x="746" 
d="M344 -11q-96 0 -162.5 34t-94.5 102.5t-12 174.5l65 405h156l-65 -413q-14 -84 15.5 -127.5t113.5 -43.5q75 0 116.5 42t56.5 131l65 411h154l-67 -417q-16 -100 -57 -166.5t-111.5 -99.5t-172.5 -33zM469 753q-36 0 -66 17t-47 46t-17 64q0 36 17 64.5t47 45t66 16.5
q38 0 67 -16.5t46.5 -45t17.5 -64.5q0 -35 -17.5 -64t-46.5 -46t-67 -17zM469 818q27 0 44 18t17 44q0 27 -17 44t-44 17q-26 0 -43.5 -17.5t-17.5 -43.5t17.5 -44t43.5 -18z" />
    <glyph glyph-name="uring" unicode="&#x16f;" horiz-adv-x="607" 
d="M213 -11q-94 0 -136 55t-26 160l48 303h151l-48 -302q-8 -51 9.5 -74.5t60.5 -23.5q49 0 78.5 31.5t38.5 84.5l45 284h151l-80 -507h-147l15 97h15q-29 -51 -73 -79.5t-102 -28.5zM370 546q-37 0 -67 16.5t-47 46t-17 64.5q0 36 17 64.5t47 45t66 16.5q38 0 67.5 -16.5
t46.5 -45.5t17 -65q0 -35 -17 -64t-46.5 -45.5t-66.5 -16.5zM369 611q27 0 44.5 17.5t17.5 43.5q0 28 -17 44.5t-44 16.5q-26 0 -43.5 -16.5t-17.5 -43.5t17 -44.5t43 -17.5z" />
    <glyph glyph-name="Uhungarumlaut" unicode="&#x170;" horiz-adv-x="746" 
d="M344 -11q-96 0 -162.5 34t-94.5 102.5t-12 174.5l65 405h156l-65 -413q-14 -84 15.5 -127.5t113.5 -43.5q75 0 116.5 42t56.5 131l65 411h154l-67 -417q-16 -100 -57 -166.5t-111.5 -99.5t-172.5 -33zM335 765l101 175h131l-147 -175h-85zM494 765l113 175h131l-159 -175
h-85z" />
    <glyph glyph-name="uhungarumlaut" unicode="&#x171;" horiz-adv-x="607" 
d="M213 -11q-94 0 -136 55t-26 160l48 303h151l-48 -302q-8 -51 9.5 -74.5t60.5 -23.5q49 0 78.5 31.5t38.5 84.5l45 284h151l-80 -507h-147l15 97h15q-29 -51 -73 -79.5t-102 -28.5zM390 556l65 205h123l-110 -205h-78zM228 556l66 205h123l-110 -205h-79z" />
    <glyph glyph-name="Uogonek" unicode="&#x172;" horiz-adv-x="746" 
d="M344 -11q-96 0 -162.5 34t-94.5 102.5t-12 174.5l65 405h156l-65 -413q-14 -84 15.5 -127.5t113.5 -43.5q75 0 116.5 42t56.5 131l65 411h154l-67 -417q-16 -100 -57 -166.5t-111.5 -99.5t-172.5 -33zM388 -197q-54 0 -82.5 26.5t-28.5 70.5q0 49 33 87.5t83 57.5l38 -45
q-33 -13 -48 -34t-15 -41t14 -32.5t36 -12.5q14 0 26.5 3t27.5 8l12 -71q-28 -8 -49.5 -12.5t-46.5 -4.5z" />
    <glyph glyph-name="uogonek" unicode="&#x173;" horiz-adv-x="607" 
d="M213 -11q-94 0 -136 55t-26 160l48 303h151l-48 -302q-8 -51 9.5 -74.5t60.5 -23.5q49 0 78.5 31.5t38.5 84.5l45 284h151l-80 -507h-147l15 97h15q-29 -51 -73 -79.5t-102 -28.5zM423 -197q-54 0 -82.5 26.5t-28.5 70.5q0 49 33 87.5t83 57.5l38 -45q-33 -13 -48 -34
t-15 -41t14 -32.5t36 -12.5q14 0 26.5 3t27.5 8l12 -71q-28 -8 -49.5 -12.5t-46.5 -4.5z" />
    <glyph glyph-name="Wcircumflex" unicode="&#x174;" horiz-adv-x="1126" 
d="M230 0l-138 705h156l91 -544h-42l282 544h114l92 -544h-40l276 544h157l-364 -705h-127l-93 501h21l-257 -501h-128zM451 765l142 175h126l108 -175h-103l-75 95l-95 -95h-103z" />
    <glyph glyph-name="wcircumflex" unicode="&#x175;" horiz-adv-x="891" 
d="M165 0l-123 507h148l77 -365h-26l193 365h101l75 -365h-21l190 365h151l-283 -507h-130l-85 374h61l-198 -374h-130zM313 555l132 205h128l91 -205h-93l-68 123l-96 -123h-94z" />
    <glyph glyph-name="Ycircumflex" unicode="&#x176;" horiz-adv-x="642" 
d="M203 0l53 335l17 -89l-234 459h173l146 -302h-32l242 302h180l-382 -466l47 96l-54 -335h-156zM209 765l142 175h126l108 -175h-103l-75 95l-95 -95h-103z" />
    <glyph glyph-name="ycircumflex" unicode="&#x177;" horiz-adv-x="550" 
d="M-18 -227l-23 118q49 9 83 21t58 31.5t43 50.5l34 59l-7 -58l-140 512h155l86 -367h-31l205 367h156l-312 -527q-35 -57 -69.5 -94.5t-71 -59.5t-77.5 -34t-89 -19zM142 555l132 205h128l91 -205h-93l-68 123l-96 -123h-94z" />
    <glyph glyph-name="Ydieresis" unicode="&#x178;" horiz-adv-x="642" 
d="M203 0l53 335l17 -89l-234 459h173l146 -302h-32l242 302h180l-382 -466l47 96l-54 -335h-156zM437 781l21 132h132l-22 -132h-131zM240 781l21 132h131l-21 -132h-131z" />
    <glyph glyph-name="Zacute" unicode="&#x179;" horiz-adv-x="615" 
d="M6 0l18 115l450 508l-7 -46h-370l21 128h525l-18 -114l-451 -508l7 45h385l-21 -128h-539zM346 765l130 175h157l-182 -175h-105z" />
    <glyph glyph-name="zacute" unicode="&#x17a;" horiz-adv-x="530" 
d="M7 0l16 98l348 332l-6 -36h-295l17 113h438l-16 -99l-352 -335l6 39h310l-18 -112h-448zM270 555l132 205h148l-180 -205h-100z" />
    <glyph glyph-name="Zdotaccent" unicode="&#x17b;" horiz-adv-x="615" 
d="M6 0l18 115l450 508l-7 -46h-370l21 128h525l-18 -114l-451 -508l7 45h385l-21 -128h-539zM331 786l20 133h140l-21 -133h-139z" />
    <glyph glyph-name="zdotaccent" unicode="&#x17c;" horiz-adv-x="530" 
d="M7 0l16 98l348 332l-6 -36h-295l17 113h438l-16 -99l-352 -335l6 39h310l-18 -112h-448zM255 590l21 133h141l-21 -133h-141z" />
    <glyph glyph-name="Zcaron" unicode="&#x17d;" horiz-adv-x="615" 
d="M6 0l18 115l450 508l-7 -46h-370l21 128h525l-18 -114l-451 -508l7 45h385l-21 -128h-539zM335 765l-109 175h100l77 -95l93 95h107l-142 -175h-126z" />
    <glyph glyph-name="zcaron" unicode="&#x17e;" horiz-adv-x="530" 
d="M7 0l16 98l348 332l-6 -36h-295l17 113h438l-16 -99l-352 -335l6 39h310l-18 -112h-448zM257 555l-91 205h93l68 -123l96 123h93l-131 -205h-128z" />
    <glyph glyph-name="uni0181" unicode="&#x181;" horiz-adv-x="866" 
d="M201 0l95 597h-24q-48 0 -73.5 -21.5t-32.5 -68.5l-8 -50h-126l9 55q15 95 78.5 144t177.5 49h338q119 0 174 -50t41 -141q-9 -60 -53.5 -102.5t-111.5 -57.5l2 16q74 -13 108 -61.5t23 -119.5q-14 -89 -85.5 -139t-188.5 -50h-343zM370 116h169q58 0 91.5 21t40.5 64
q6 37 -5 58t-36 31t-63 10h-169zM417 415h150q60 0 92 21t38 61q7 48 -17 70.5t-83 22.5h-153z" />
    <glyph glyph-name="uni018A" unicode="&#x18a;" horiz-adv-x="941" 
d="M201 0l95 597h-24q-48 0 -73.5 -21.5t-32.5 -68.5l-8 -50h-126l9 55q15 95 78.5 144t173.5 49h275q132 0 212.5 -45t111 -127.5t12.5 -196.5q-26 -167 -136 -251.5t-290 -84.5h-277zM378 128h103q119 0 185.5 53.5t83.5 161.5q18 122 -31 178.5t-169 56.5h-101z" />
    <glyph glyph-name="uni018F" unicode="&#x18f;" horiz-adv-x="775" 
d="M364 -11q-117 0 -188 48.5t-97 132.5t-11 192l8 51h550l-19 -119h-433l49 59q-13 -79 -2.5 -132t46.5 -79.5t101 -26.5q87 0 140.5 55.5t71.5 170.5q18 117 -24 180t-156 63q-60 0 -114.5 -15t-109.5 -49l-45 118q60 38 132 58t160 20q121 0 197 -48.5t106 -133.5
t12 -197q-17 -108 -69 -186t-130.5 -120t-174.5 -42z" />
    <glyph glyph-name="florin" unicode="&#x192;" horiz-adv-x="600" 
d="M-43 -191l18 119h63q32 0 55.5 19t40.5 64l143 386l24 -19h-132l18 113h150l-32 -19l18 52q31 90 98.5 141t158.5 51h67l-19 -119h-51q-41 0 -65.5 -19.5t-41.5 -64.5l-15 -41l-18 19h133l-18 -113h-150l25 20l-148 -398q-34 -89 -98 -140t-150 -51h-74z" />
    <glyph glyph-name="Ohorn" unicode="&#x1a0;" horiz-adv-x="795" 
d="M69 370q18 110 69.5 187.5t132.5 118t184 40.5q115 0 188.5 -49.5t103 -135t11.5 -195.5q-17 -110 -69.5 -187.5t-133 -118.5t-183.5 -41q-115 0 -188.5 49.5t-102.5 135.5t-12 196zM231 360q-12 -76 2 -129t52.5 -81.5t98.5 -28.5q89 0 142.5 61t69.5 164
q12 76 -2.5 129t-53 81t-99.5 28q-89 0 -141 -60t-69 -164zM562 633l-32 76q19 -1 34 -2.5t29 -1.5q32 0 52 8t32.5 30.5t19.5 63.5l3 23h132l-7 -42q-7 -42 -28 -77.5t-55 -56.5t-77 -21h-103z" />
    <glyph glyph-name="ohorn" unicode="&#x1a1;" horiz-adv-x="604" 
d="M274 -11q-86 0 -143.5 34t-81 97t-10.5 150q13 82 53.5 137t102.5 82.5t137 27.5q87 0 143.5 -33.5t80 -96.5t9.5 -150q-13 -81 -53.5 -136t-101.5 -83.5t-136 -28.5zM282 103q50 0 85.5 35.5t47.5 108.5q13 82 -13.5 119t-79.5 37q-50 0 -85 -35t-47 -108
q-13 -82 13 -119.5t79 -37.5zM482 434l-84 55l2 18q32 0 52 8.5t32.5 30.5t19.5 62l3 24h132l-8 -44q-10 -63 -48.5 -105t-100.5 -49z" />
    <glyph glyph-name="Uhorn" unicode="&#x1af;" horiz-adv-x="746" 
d="M344 -11q-96 0 -162.5 34t-94.5 102.5t-12 174.5l65 405h156l-65 -413q-14 -84 15.5 -127.5t113.5 -43.5q75 0 116.5 42t56.5 131l65 411h154l-67 -417q-16 -100 -57 -166.5t-111.5 -99.5t-172.5 -33zM736 633l-84 55l3 17q32 1 52 8.5t32.5 28.5t18.5 62l4 26h131
l-6 -45q-10 -62 -49.5 -103.5t-101.5 -48.5z" />
    <glyph glyph-name="uhorn" unicode="&#x1b0;" horiz-adv-x="607" 
d="M213 -11q-94 0 -136 55t-26 160l48 303h151l-48 -302q-8 -51 9.5 -74.5t60.5 -23.5q49 0 78.5 31.5t38.5 84.5l45 284h151l-80 -507h-147l15 97h15q-29 -51 -73 -79.5t-102 -28.5zM557 434l-84 55l2 18q32 0 52 8.5t32.5 30.5t19.5 62l3 24h132l-8 -44
q-10 -63 -48.5 -105t-100.5 -49z" />
    <glyph glyph-name="uni01B3" unicode="&#x1b3;" horiz-adv-x="642" 
d="M203 0l53 335l17 -89l-234 459h173l146 -302h-32l171 212q31 39 62 61t66.5 31t79.5 9q24 0 44 -3.5t33 -9.5l-16 -106q-10 4 -22 5.5t-28 1.5q-24 0 -46 -10.5t-43 -36.5l-261 -318l47 96l-54 -335h-156z" />
    <glyph glyph-name="uni01B4" unicode="&#x1b4;" horiz-adv-x="600" 
d="M-19 -227l-22 118q50 9 84 21t57.5 31.5t42.5 50.5l34 59l-7 -58l-140 512h155l86 -367h-31l138 249q25 45 53.5 73.5t66 41.5t90.5 13q22 0 43 -3.5t33 -8.5l-29 -111q-10 4 -19.5 5t-19.5 1q-30 0 -54 -15.5t-49 -56.5l-204 -348q-35 -57 -69.5 -94.5t-71 -59.5
t-78 -34t-89.5 -19z" />
    <glyph glyph-name="uni01C4" unicode="&#x1c4;" horiz-adv-x="1371" 
d="M32 0l112 705h255q131 0 211.5 -45t111 -127.5t12.5 -196.5q-27 -167 -136.5 -251.5t-289.5 -84.5h-276zM208 128h104q119 0 184.5 53.5t83.5 161.5q18 122 -31 178.5t-168 56.5h-102zM762 0l18 115l450 508l-7 -46h-370l21 128h525l-18 -114l-451 -508l7 45h385
l-21 -128h-539zM1091 765l-109 175h100l77 -95l93 95h107l-142 -175h-126z" />
    <glyph glyph-name="uni01C5" unicode="&#x1c5;" horiz-adv-x="1301" 
d="M32 0l112 705h255q131 0 211.5 -45t111 -127.5t12.5 -196.5q-27 -167 -136.5 -251.5t-289.5 -84.5h-276zM208 128h104q119 0 184.5 53.5t83.5 161.5q18 122 -31 178.5t-168 56.5h-102zM778 0l16 98l348 332l-6 -36h-295l17 113h438l-16 -99l-352 -335l6 39h310l-18 -112
h-448zM1028 555l-91 205h93l68 -123l96 123h93l-131 -205h-128z" />
    <glyph glyph-name="uni01C6" unicode="&#x1c6;" horiz-adv-x="1162" 
d="M232 -11q-69 0 -117.5 35t-68.5 98.5t-7 147.5q20 123 91 185t169 62q61 0 104.5 -28.5t52.5 -76.5h-12l52 324h151l-117 -736h-149l16 99h15q-24 -50 -69.5 -80t-110.5 -30zM285 103q51 0 87 35.5t48 108.5q13 82 -14 119t-81 37q-51 0 -87 -35t-48 -108
q-13 -82 14 -119.5t81 -37.5zM639 0l16 98l348 332l-6 -36h-295l17 113h438l-16 -99l-352 -335l6 39h310l-18 -112h-448zM888 555l-91 205h93l68 -123l96 123h93l-131 -205h-128z" />
    <glyph glyph-name="uni01C7" unicode="&#x1c7;" horiz-adv-x="990" 
d="M32 0l112 705h156l-92 -574h318l-20 -131h-474zM635 -187q-18 0 -42.5 2.5t-49.5 9.5l19 122q19 -7 36.5 -9t29.5 -2q46 0 69.5 26t32.5 84l104 659h156l-106 -672q-13 -78 -42 -126.5t-79.5 -71t-127.5 -22.5z" />
    <glyph glyph-name="uni01C8" unicode="&#x1c8;" horiz-adv-x="843" 
d="M32 0l112 705h156l-92 -574h318l-20 -131h-474zM514 -223q-22 0 -44 3t-41 11l19 117q13 -4 26.5 -7t28.5 -3q32 0 55.5 19.5t30.5 67.5l83 522h151l-84 -529q-16 -99 -70.5 -150t-154.5 -51zM679 590l22 141h163l-23 -141h-162z" />
    <glyph glyph-name="uni01C9" unicode="&#x1c9;" horiz-adv-x="548" 
d="M22 0l117 736h151l-117 -736h-151zM219 -223q-22 0 -44 3t-41 11l19 117q13 -4 26.5 -7t28.5 -3q32 0 55.5 19.5t30.5 67.5l83 522h151l-84 -529q-16 -99 -70.5 -150t-154.5 -51zM384 590l22 141h163l-23 -141h-162z" />
    <glyph glyph-name="uni01CA" unicode="&#x1ca;" horiz-adv-x="1141" 
d="M32 0l112 705h116l304 -496l-26 9l78 487h145l-112 -705h-116l-304 496l26 -9l-78 -487h-145zM786 -187q-18 0 -42.5 2.5t-49.5 9.5l19 122q19 -7 36.5 -9t29.5 -2q46 0 69.5 26t32.5 84l104 659h156l-106 -672q-13 -78 -42 -126.5t-79.5 -71t-127.5 -22.5z" />
    <glyph glyph-name="uni01CB" unicode="&#x1cb;" horiz-adv-x="1034" 
d="M32 0l112 705h116l304 -496l-26 9l78 487h145l-112 -705h-116l-304 496l26 -9l-78 -487h-145zM705 -223q-22 0 -44 3t-41 11l19 117q13 -4 26.5 -7t28.5 -3q32 0 55.5 19.5t30.5 67.5l83 522h151l-84 -529q-16 -99 -70.5 -150t-154.5 -51zM870 590l22 141h163l-23 -141
h-162z" />
    <glyph glyph-name="uni01CC" unicode="&#x1cc;" horiz-adv-x="886" 
d="M22 0l59 375q5 32 8.5 65.5t4.5 66.5h146l-5 -94l-12 -1q30 52 79 78.5t110 26.5q91 0 129 -54t20 -165l-47 -298h-151l47 298q9 55 -9.5 78.5t-57.5 23.5q-51 0 -84 -31t-41 -83l-45 -286h-151zM558 -223q-22 0 -44 3t-41 11l19 117q13 -4 26.5 -7t28.5 -3
q32 0 55.5 19.5t30.5 67.5l83 522h151l-84 -529q-16 -99 -70.5 -150t-154.5 -51zM723 590l22 141h163l-23 -141h-162z" />
    <glyph glyph-name="uni01CD" unicode="&#x1cd;" horiz-adv-x="759" 
d="M-51 0l436 705h129l216 -705h-152l-55 196l55 -43h-419l69 43l-116 -196h-163zM429 541l-178 -306l-21 38h315l-29 -38l-83 306h-4zM398 765l-109 175h100l77 -95l93 95h107l-142 -175h-126z" />
    <glyph glyph-name="uni01CE" unicode="&#x1ce;" horiz-adv-x="632" 
d="M232 -11q-69 0 -117.5 35t-68.5 98.5t-7 147.5q20 123 91 185t169 62q61 0 104.5 -28.5t52.5 -76.5l-10 -4l27 99h145q-8 -33 -15.5 -66.5t-13.5 -65.5l-59 -375h-150l16 99h16q-24 -50 -69.5 -80t-110.5 -30zM285 103q51 0 87 35.5t48 108.5q13 82 -14 119t-81 37
q-51 0 -87 -35t-48 -108q-13 -82 14 -119.5t81 -37.5zM296 555l-91 205h93l68 -123l96 123h93l-131 -205h-128z" />
    <glyph glyph-name="uni01D4" unicode="&#x1d4;" horiz-adv-x="607" 
d="M213 -11q-94 0 -136 55t-26 160l48 303h151l-48 -302q-8 -51 9.5 -74.5t60.5 -23.5q49 0 78.5 31.5t38.5 84.5l45 284h151l-80 -507h-147l15 97h15q-29 -51 -73 -79.5t-102 -28.5zM288 556l-91 205h93l68 -123l96 123h93l-131 -205h-128z" />
    <glyph glyph-name="uni01E5" unicode="&#x1e5;" horiz-adv-x="634" 
d="M234 -223q-73 0 -127.5 13.5t-95.5 43.5l38 102q25 -15 55 -27t63 -19t64 -7q103 0 137 71l6 -12h-128l10 63h145l-22 -27q2 7 2.5 13t1.5 12l23 141h12q-23 -46 -72.5 -73t-108.5 -27q-68 0 -116 31.5t-68.5 88t-8.5 132.5q12 73 47 122t88 74t116 25t107 -27t56 -75
l-8 2l24 90h146q-9 -33 -16.5 -66.5t-12.5 -65.5l-54 -344q-1 -9 -3.5 -19t-4.5 -19l-12 12h72l-11 -63h-81l20 15q-32 -88 -102.5 -134t-180.5 -46zM293 155q52 0 87.5 31.5t44.5 88.5q10 63 -17.5 95.5t-82.5 32.5q-53 0 -87.5 -31.5t-43.5 -89.5q-10 -63 17.5 -95
t81.5 -32z" />
    <glyph glyph-name="Gcaron" unicode="&#x1e6;" horiz-adv-x="745" 
d="M397 -11q-130 0 -209 47.5t-108 132.5t-11 198q18 112 74.5 189.5t146 118.5t203.5 41q77 0 132.5 -17t92.5 -46l-54 -121q-42 27 -80 38t-97 11q-109 0 -174 -58.5t-82 -166.5q-17 -111 25 -173t158 -62q43 0 80.5 7t78.5 21l-45 -60l30 190h-155l18 111h284l-55 -345
q-35 -18 -78 -30.5t-88 -19t-87 -6.5zM434 765l-109 175h100l77 -95l93 95h107l-142 -175h-126z" />
    <glyph glyph-name="gcaron" unicode="&#x1e7;" horiz-adv-x="633" 
d="M237 -224q-72 0 -127 14.5t-97 43.5l40 109q25 -18 54 -29.5t61.5 -17.5t65.5 -6q70 0 106.5 32t45.5 91l17 105h10q-20 -46 -67 -75.5t-110 -29.5q-68 0 -117 32t-70.5 92.5t-7.5 144.5q19 115 89 175t171 60q61 0 104.5 -28.5t51.5 -75.5l-7 4l24 90h146
q-9 -33 -16.5 -66.5t-12.5 -65.5l-55 -345q-19 -123 -94.5 -188.5t-204.5 -65.5zM288 126q54 0 90 35.5t46 101.5q10 69 -16 104.5t-80 35.5t-90 -35t-47 -101q-11 -69 16 -105t81 -36zM305 555l-91 205h93l68 -123l96 123h93l-131 -205h-128z" />
    <glyph glyph-name="uni01E9" unicode="&#x1e9;" horiz-adv-x="574" 
d="M22 0l117 736h151l-70 -440h2l216 211h185l-281 -270v55l214 -292h-179l-167 220h-2l-35 -220h-151zM312 786l-109 175h100l77 -95l93 95h107l-142 -175h-126z" />
    <glyph glyph-name="uni01EA" unicode="&#x1ea;" horiz-adv-x="795" 
d="M69 370q18 110 69.5 187.5t132.5 118t184 40.5q115 0 188.5 -49.5t103 -135t11.5 -195.5q-17 -110 -69.5 -187.5t-133 -118.5t-183.5 -41q-115 0 -188.5 49.5t-102.5 135.5t-12 196zM231 360q-12 -76 2 -129t52.5 -81.5t98.5 -28.5q89 0 142.5 61t69.5 164
q12 76 -2.5 129t-53 81t-99.5 28q-89 0 -141 -60t-69 -164zM384 -197q-54 0 -82.5 26.5t-28.5 70.5q0 49 33 87.5t83 57.5l38 -45q-33 -13 -48 -34t-15 -41t14 -32.5t36 -12.5q14 0 26.5 3t27.5 8l12 -71q-28 -8 -49.5 -12.5t-46.5 -4.5z" />
    <glyph glyph-name="uni01EB" unicode="&#x1eb;" horiz-adv-x="604" 
d="M274 -11q-86 0 -143.5 34t-81 97t-10.5 150q13 82 53.5 137t102.5 82.5t137 27.5q87 0 143.5 -33.5t80 -96.5t9.5 -150q-13 -81 -53.5 -136t-101.5 -83.5t-136 -28.5zM282 103q50 0 85.5 35.5t47.5 108.5q13 82 -13.5 119t-79.5 37q-50 0 -85 -35t-47 -108
q-13 -82 13 -119.5t79 -37.5zM277 -197q-54 0 -82.5 26.5t-28.5 70.5q0 49 33 87.5t83 57.5l38 -45q-33 -13 -48 -34t-15 -41t14 -32.5t36 -12.5q14 0 26.5 3t27.5 8l12 -71q-28 -8 -49.5 -12.5t-46.5 -4.5z" />
    <glyph glyph-name="Aringacute" unicode="&#x1fa;" horiz-adv-x="759" 
d="M-51 0l436 705h129l216 -705h-152l-55 196l55 -43h-419l69 43l-116 -196h-163zM429 541l-178 -306l-21 38h315l-29 -38l-83 306h-4zM462 753q-34 0 -62.5 16t-45.5 43.5t-17 61.5t17 61t45.5 42.5t62.5 15.5q17 0 33 -4t29 -12l61 57h113l-125 -108q13 -23 13 -52
q0 -34 -16.5 -61.5t-44.5 -43.5t-63 -16zM462 812q26 0 43.5 17.5t17.5 44.5q0 26 -17.5 43.5t-43.5 17.5t-43.5 -17.5t-17.5 -43.5q0 -27 17.5 -44.5t43.5 -17.5z" />
    <glyph glyph-name="aringacute" unicode="&#x1fb;" horiz-adv-x="632" 
d="M232 -11q-69 0 -117.5 35t-68.5 98.5t-7 147.5q20 123 91 185t169 62q61 0 104.5 -28.5t52.5 -76.5l-10 -4l27 99h145q-8 -33 -15.5 -66.5t-13.5 -65.5l-59 -375h-150l16 99h16q-24 -50 -69.5 -80t-110.5 -30zM285 103q51 0 87 35.5t48 108.5q13 82 -14 119t-81 37
q-51 0 -87 -35t-48 -108q-13 -82 14 -119.5t81 -37.5zM374 539q-35 0 -63 15.5t-44.5 43t-16.5 60.5q0 34 16.5 61.5t44.5 43.5t63 16q17 0 33 -5t29 -12l62 57h112l-125 -108q13 -24 13 -53q0 -33 -16.5 -60.5t-44.5 -43t-63 -15.5zM374 597q27 0 44 17.5t17 43.5
q0 27 -17 44t-44 17q-26 0 -43.5 -17t-17.5 -44q0 -26 17.5 -43.5t43.5 -17.5z" />
    <glyph glyph-name="AEacute" unicode="&#x1fc;" horiz-adv-x="1023" 
d="M-71 0l553 705h576l-20 -121h-364l28 20l-18 -228l-12 43h318l-19 -122h-317l24 10l-17 -216l-14 30h318l-19 -121h-433l15 192l24 -39h-359l55 41l-146 -194h-173zM542 584l-262 -347l-8 37h279l-18 -42l28 352h-19zM551 765l130 175h157l-182 -175h-105z" />
    <glyph glyph-name="aeacute" unicode="&#x1fd;" horiz-adv-x="866" 
d="M207 -11q-70 0 -113.5 26.5t-60.5 68t-10 85.5q9 49 43 78.5t98.5 43t161.5 13.5h51l-11 -74h-59q-47 0 -80 -7t-50.5 -22t-21.5 -39q-6 -31 13 -51t60 -20q49 0 81 30t40 80l17 108q8 49 -16 72t-70 23q-45 0 -83 -9.5t-84 -32.5l-37 102q29 16 66.5 28t77.5 18.5
t76 6.5q81 0 124 -24t57 -72h-41q40 50 89.5 73t108.5 23q74 0 123 -33t69 -90t8 -131l-5 -33h-348l12 74h238l-19 -16q10 64 -12 96t-71 32q-35 0 -61.5 -16.5t-41.5 -46t-21 -65.5l-6 -39q-10 -70 22 -108t110 -38q36 0 70 10.5t69 33.5l39 -100q-41 -29 -92.5 -43.5
t-106.5 -14.5q-87 0 -144.5 34.5t-83.5 98.5h31q-29 -63 -81.5 -98t-124.5 -35zM432 555l132 205h148l-180 -205h-100z" />
    <glyph glyph-name="Oslashacute" unicode="&#x1fe;" horiz-adv-x="795" 
d="M69 370q18 110 69.5 187.5t132.5 118t184 40.5q115 0 188.5 -49.5t103 -135t11.5 -195.5q-17 -110 -69.5 -187.5t-133 -118.5t-183.5 -41q-115 0 -188.5 49.5t-102.5 135.5t-12 196zM231 360q-12 -76 2 -129t52.5 -81.5t98.5 -28.5q89 0 142.5 61t69.5 164
q12 76 -2.5 129t-53 81t-99.5 28q-89 0 -141 -60t-69 -164zM272 64l-87 -118l-93 64l88 118l59 63l295 388l33 64l88 117l93 -64l-88 -117l-60 -64l-294 -388zM427 765l130 175h157l-182 -175h-105z" />
    <glyph glyph-name="oslashacute" unicode="&#x1ff;" horiz-adv-x="604" 
d="M274 -11q-86 0 -143.5 34t-81 97t-10.5 150q13 82 53.5 137t102.5 82.5t137 27.5q87 0 143.5 -33.5t80 -96.5t9.5 -150q-13 -81 -53.5 -136t-101.5 -83.5t-136 -28.5zM282 103q59 0 96.5 36t49.5 110q13 77 -16 115.5t-89 38.5t-97.5 -35.5t-48.5 -108.5q-12 -74 14 -115
t91 -41zM131 -47l-66 45l412 554l64 -45zM302 555l132 205h148l-180 -205h-100z" />
    <glyph glyph-name="uni0200" unicode="&#x200;" horiz-adv-x="759" 
d="M-51 0l436 705h129l216 -705h-152l-55 196l55 -43h-419l69 43l-116 -196h-163zM429 541l-178 -306l-21 38h315l-29 -38l-83 306h-4zM498 765l-117 175h131l70 -175h-84zM339 765l-129 175h130l84 -175h-85z" />
    <glyph glyph-name="uni0201" unicode="&#x201;" horiz-adv-x="632" 
d="M232 -11q-69 0 -117.5 35t-68.5 98.5t-7 147.5q20 123 91 185t169 62q61 0 104.5 -28.5t52.5 -76.5l-10 -4l27 99h145q-8 -33 -15.5 -66.5t-13.5 -65.5l-59 -375h-150l16 99h16q-24 -50 -69.5 -80t-110.5 -30zM285 103q51 0 87 35.5t48 108.5q13 82 -14 119t-81 37
q-51 0 -87 -35t-48 -108q-13 -82 14 -119.5t81 -37.5zM403 555l-73 205h122l29 -205h-78zM242 555l-73 205h122l30 -205h-79z" />
    <glyph glyph-name="uni0202" unicode="&#x202;" horiz-adv-x="759" 
d="M-51 0l436 705h129l216 -705h-152l-55 196l55 -43h-419l69 43l-116 -196h-163zM429 541l-178 -306l-21 38h315l-29 -38l-83 306h-4zM351 760l-83 11q12 79 67.5 125t137.5 46q54 0 93.5 -21.5t61.5 -60.5t22 -89l-84 -11q1 45 -25.5 70t-73.5 25q-46 0 -77 -25t-39 -70z
" />
    <glyph glyph-name="uni0203" unicode="&#x203;" horiz-adv-x="632" 
d="M232 -11q-69 0 -117.5 35t-68.5 98.5t-7 147.5q20 123 91 185t169 62q61 0 104.5 -28.5t52.5 -76.5l-10 -4l27 99h145q-8 -33 -15.5 -66.5t-13.5 -65.5l-59 -375h-150l16 99h16q-24 -50 -69.5 -80t-110.5 -30zM285 103q51 0 87 35.5t48 108.5q13 82 -14 119t-81 37
q-51 0 -87 -35t-48 -108q-13 -82 14 -119.5t81 -37.5zM264 552l-82 7q6 60 31.5 104t65 68t91.5 24q51 0 87.5 -24.5t55.5 -68.5t15 -103l-84 -7q2 55 -19 84.5t-61 29.5q-39 0 -65.5 -29.5t-34.5 -84.5z" />
    <glyph glyph-name="uni0204" unicode="&#x204;" horiz-adv-x="599" 
d="M32 0l112 705h490l-19 -121h-341l-26 -165h317l-19 -122h-317l-28 -176h340l-19 -121h-490zM455 765l-117 175h131l70 -175h-84zM296 765l-129 175h130l84 -175h-85z" />
    <glyph glyph-name="uni0205" unicode="&#x205;" horiz-adv-x="550" 
d="M292 -11q-93 0 -154 36t-86 100t-12 148q12 76 49 130.5t94.5 84t132.5 29.5t124 -33t69.5 -90t8.5 -131l-6 -33h-354l11 74h246l-20 -16q10 64 -12 96t-72 32q-36 0 -62 -16.5t-42 -46t-21 -65.5l-6 -39q-10 -70 21.5 -108t111.5 -38q36 0 70.5 10.5t69.5 33.5l40 -100
q-41 -29 -93 -43.5t-108 -14.5zM381 555l-73 205h122l29 -205h-78zM220 555l-73 205h122l30 -205h-79z" />
    <glyph glyph-name="uni0206" unicode="&#x206;" horiz-adv-x="599" 
d="M32 0l112 705h490l-19 -121h-341l-26 -165h317l-19 -122h-317l-28 -176h340l-19 -121h-490zM308 760l-83 11q12 79 67.5 125t137.5 46q54 0 93.5 -21.5t61.5 -60.5t22 -89l-84 -11q1 45 -25.5 70t-73.5 25q-46 0 -77 -25t-39 -70z" />
    <glyph glyph-name="uni0207" unicode="&#x207;" horiz-adv-x="550" 
d="M292 -11q-93 0 -154 36t-86 100t-12 148q12 76 49 130.5t94.5 84t132.5 29.5t124 -33t69.5 -90t8.5 -131l-6 -33h-354l11 74h246l-20 -16q10 64 -12 96t-72 32q-36 0 -62 -16.5t-42 -46t-21 -65.5l-6 -39q-10 -70 21.5 -108t111.5 -38q36 0 70.5 10.5t69.5 33.5l40 -100
q-41 -29 -93 -43.5t-108 -14.5zM242 552l-82 7q6 60 31.5 104t65 68t91.5 24q51 0 87.5 -24.5t55.5 -68.5t15 -103l-84 -7q2 55 -19 84.5t-61 29.5q-39 0 -65.5 -29.5t-34.5 -84.5z" />
    <glyph glyph-name="uni0208" unicode="&#x208;" horiz-adv-x="299" 
d="M32 0l112 705h156l-112 -705h-156zM269 765l-117 175h131l70 -175h-84zM110 765l-129 175h130l84 -175h-85z" />
    <glyph glyph-name="uni0209" unicode="&#x209;" horiz-adv-x="274" 
d="M22 0l80 507h151l-80 -507h-151zM230 555l-73 205h122l29 -205h-78zM69 555l-73 205h122l30 -205h-79z" />
    <glyph glyph-name="uni020A" unicode="&#x20a;" horiz-adv-x="299" 
d="M32 0l112 705h156l-112 -705h-156zM121 760l-83 11q12 79 67.5 125t137.5 46q54 0 93.5 -21.5t61.5 -60.5t22 -89l-84 -11q1 45 -25.5 70t-73.5 25q-46 0 -77 -25t-39 -70z" />
    <glyph glyph-name="uni020B" unicode="&#x20b;" horiz-adv-x="274" 
d="M22 0l80 507h151l-80 -507h-151zM90 552l-82 7q6 60 31.5 104t65 68t91.5 24q51 0 87.5 -24.5t55.5 -68.5t15 -103l-84 -7q2 55 -19 84.5t-61 29.5q-39 0 -65.5 -29.5t-34.5 -84.5z" />
    <glyph glyph-name="uni020C" unicode="&#x20c;" horiz-adv-x="795" 
d="M69 370q18 110 69.5 187.5t132.5 118t184 40.5q115 0 188.5 -49.5t103 -135t11.5 -195.5q-17 -110 -69.5 -187.5t-133 -118.5t-183.5 -41q-115 0 -188.5 49.5t-102.5 135.5t-12 196zM231 360q-12 -76 2 -129t52.5 -81.5t98.5 -28.5q89 0 142.5 61t69.5 164
q12 76 -2.5 129t-53 81t-99.5 28q-89 0 -141 -60t-69 -164zM517 765l-117 175h131l70 -175h-84zM358 765l-129 175h130l84 -175h-85z" />
    <glyph glyph-name="uni020D" unicode="&#x20d;" horiz-adv-x="604" 
d="M274 -11q-86 0 -143.5 34t-81 97t-10.5 150q13 82 53.5 137t102.5 82.5t137 27.5q87 0 143.5 -33.5t80 -96.5t9.5 -150q-13 -81 -53.5 -136t-101.5 -83.5t-136 -28.5zM282 103q50 0 85.5 35.5t47.5 108.5q13 82 -13.5 119t-79.5 37q-50 0 -85 -35t-47 -108
q-13 -82 13 -119.5t79 -37.5zM395 555l-73 205h122l29 -205h-78zM234 555l-73 205h122l30 -205h-79z" />
    <glyph glyph-name="uni020E" unicode="&#x20e;" horiz-adv-x="795" 
d="M69 370q18 110 69.5 187.5t132.5 118t184 40.5q115 0 188.5 -49.5t103 -135t11.5 -195.5q-17 -110 -69.5 -187.5t-133 -118.5t-183.5 -41q-115 0 -188.5 49.5t-102.5 135.5t-12 196zM231 360q-12 -76 2 -129t52.5 -81.5t98.5 -28.5q89 0 142.5 61t69.5 164
q12 76 -2.5 129t-53 81t-99.5 28q-89 0 -141 -60t-69 -164zM369 760l-83 11q12 79 67.5 125t137.5 46q54 0 93.5 -21.5t61.5 -60.5t22 -89l-84 -11q1 45 -25.5 70t-73.5 25q-46 0 -77 -25t-39 -70z" />
    <glyph glyph-name="uni020F" unicode="&#x20f;" horiz-adv-x="604" 
d="M274 -11q-86 0 -143.5 34t-81 97t-10.5 150q13 82 53.5 137t102.5 82.5t137 27.5q87 0 143.5 -33.5t80 -96.5t9.5 -150q-13 -81 -53.5 -136t-101.5 -83.5t-136 -28.5zM282 103q50 0 85.5 35.5t47.5 108.5q13 82 -13.5 119t-79.5 37q-50 0 -85 -35t-47 -108
q-13 -82 13 -119.5t79 -37.5zM256 552l-82 7q6 60 31.5 104t65 68t91.5 24q51 0 87.5 -24.5t55.5 -68.5t15 -103l-84 -7q2 55 -19 84.5t-61 29.5q-39 0 -65.5 -29.5t-34.5 -84.5z" />
    <glyph glyph-name="uni0210" unicode="&#x210;" horiz-adv-x="708" 
d="M32 0l112 705h305q130 0 187.5 -58.5t40.5 -165.5q-10 -62 -46 -107.5t-93.5 -70t-129.5 -24.5l4 22h37q43 0 72 -23.5t46 -66.5l76 -211h-163l-79 227q-9 29 -33.5 38.5t-58.5 9.5h-78l-43 -275h-156zM249 387h145q59 0 92 24.5t40 70.5q8 52 -19.5 77t-88.5 25h-138z
M478 765l-117 175h131l70 -175h-84zM319 765l-129 175h130l84 -175h-85z" />
    <glyph glyph-name="uni0211" unicode="&#x211;" horiz-adv-x="411" 
d="M21 0l59 373q5 33 9 67t5 67h146l-6 -148h-26q18 54 46.5 89t65.5 52t80 17q14 0 26.5 -1.5t23.5 -3.5l-22 -133q-18 8 -32.5 10t-36.5 2q-37 0 -67 -15.5t-50.5 -46t-27.5 -76.5l-41 -253h-152zM340 555l-73 205h122l29 -205h-78zM179 555l-73 205h122l30 -205h-79z" />
    <glyph glyph-name="uni0212" unicode="&#x212;" horiz-adv-x="708" 
d="M32 0l112 705h305q130 0 187.5 -58.5t40.5 -165.5q-10 -62 -46 -107.5t-93.5 -70t-129.5 -24.5l4 22h37q43 0 72 -23.5t46 -66.5l76 -211h-163l-79 227q-9 29 -33.5 38.5t-58.5 9.5h-78l-43 -275h-156zM249 387h145q59 0 92 24.5t40 70.5q8 52 -19.5 77t-88.5 25h-138z
M331 760l-83 11q12 79 67.5 125t137.5 46q54 0 93.5 -21.5t61.5 -60.5t22 -89l-84 -11q1 45 -25.5 70t-73.5 25q-46 0 -77 -25t-39 -70z" />
    <glyph glyph-name="uni0213" unicode="&#x213;" horiz-adv-x="411" 
d="M21 0l59 373q5 33 9 67t5 67h146l-6 -148h-26q18 54 46.5 89t65.5 52t80 17q14 0 26.5 -1.5t23.5 -3.5l-22 -133q-18 8 -32.5 10t-36.5 2q-37 0 -67 -15.5t-50.5 -46t-27.5 -76.5l-41 -253h-152zM201 552l-82 7q6 60 31.5 104t65 68t91.5 24q51 0 87.5 -24.5t55.5 -68.5
t15 -103l-84 -7q2 55 -19 84.5t-61 29.5q-39 0 -65.5 -29.5t-34.5 -84.5z" />
    <glyph glyph-name="uni0214" unicode="&#x214;" horiz-adv-x="746" 
d="M344 -11q-96 0 -162.5 34t-94.5 102.5t-12 174.5l65 405h156l-65 -413q-14 -84 15.5 -127.5t113.5 -43.5q75 0 116.5 42t56.5 131l65 411h154l-67 -417q-16 -100 -57 -166.5t-111.5 -99.5t-172.5 -33zM494 765l-117 175h131l70 -175h-84zM335 765l-129 175h130l84 -175
h-85z" />
    <glyph glyph-name="uni0215" unicode="&#x215;" horiz-adv-x="607" 
d="M213 -11q-94 0 -136 55t-26 160l48 303h151l-48 -302q-8 -51 9.5 -74.5t60.5 -23.5q49 0 78.5 31.5t38.5 84.5l45 284h151l-80 -507h-147l15 97h15q-29 -51 -73 -79.5t-102 -28.5zM395 556l-73 205h122l29 -205h-78zM234 556l-73 205h122l30 -205h-79z" />
    <glyph glyph-name="uni0216" unicode="&#x216;" horiz-adv-x="746" 
d="M344 -11q-96 0 -162.5 34t-94.5 102.5t-12 174.5l65 405h156l-65 -413q-14 -84 15.5 -127.5t113.5 -43.5q75 0 116.5 42t56.5 131l65 411h154l-67 -417q-16 -100 -57 -166.5t-111.5 -99.5t-172.5 -33zM347 760l-83 11q12 79 67.5 125t137.5 46q54 0 93.5 -21.5
t61.5 -60.5t22 -89l-84 -11q1 45 -25.5 70t-73.5 25q-46 0 -77 -25t-39 -70z" />
    <glyph glyph-name="uni0217" unicode="&#x217;" horiz-adv-x="607" 
d="M213 -11q-94 0 -136 55t-26 160l48 303h151l-48 -302q-8 -51 9.5 -74.5t60.5 -23.5q49 0 78.5 31.5t38.5 84.5l45 284h151l-80 -507h-147l15 97h15q-29 -51 -73 -79.5t-102 -28.5zM256 553l-82 7q6 60 31.5 104t65 68t91.5 24q51 0 87.5 -24.5t55.5 -68.5t15 -103l-84 -7
q2 55 -19 84.5t-61 29.5q-39 0 -65.5 -29.5t-34.5 -84.5z" />
    <glyph glyph-name="uni0218" unicode="&#x218;" horiz-adv-x="658" 
d="M294 -11q-80 0 -150.5 19t-115.5 49l51 122q46 -26 103.5 -43.5t125.5 -17.5q72 0 105.5 22t38.5 56q5 31 -12 50.5t-65 26.5l-110 19q-92 15 -137.5 69.5t-32.5 139.5q10 66 51.5 114t109.5 74.5t156 26.5q69 0 130.5 -17.5t98.5 -49.5l-52 -118q-36 25 -84 40.5
t-109 15.5q-65 0 -103 -22t-45 -61q-5 -31 12.5 -53t67.5 -30l109 -18q95 -15 139 -67.5t30 -137.5q-9 -61 -49 -108t-106 -74t-157 -27zM261 -284l-44 41q25 18 34.5 36t13.5 42l29 -18h-105l19 114h149l-13 -80q-7 -45 -23.5 -76.5t-59.5 -58.5z" />
    <glyph glyph-name="uni0219" unicode="&#x219;" horiz-adv-x="504" 
d="M219 -11q-65 0 -119 14t-88 38l42 100q36 -21 81 -34t91 -13q43 0 66.5 13.5t27.5 37.5q3 21 -9 33.5t-39 16.5l-87 14q-72 12 -102 52t-21 102q9 49 40.5 83.5t81.5 52.5t110 18q57 0 105.5 -12.5t80.5 -37.5l-45 -97q-27 19 -65.5 31.5t-75.5 12.5q-46 0 -69.5 -15.5
t-27.5 -38.5q-3 -19 7 -33t37 -18l88 -14q74 -12 104.5 -50t20.5 -100q-8 -51 -40.5 -86t-82.5 -52.5t-112 -17.5zM177 -284l-44 41q25 18 34.5 36t13.5 42l29 -18h-105l19 114h149l-13 -80q-7 -45 -23.5 -76.5t-59.5 -58.5z" />
    <glyph glyph-name="uni021A" unicode="&#x21a;" horiz-adv-x="628" 
d="M195 0l92 578h-224l20 127h604l-20 -127h-224l-92 -578h-156zM242 -284l-44 41q25 18 34.5 36t13.5 42l29 -18h-105l19 114h149l-13 -80q-7 -45 -23.5 -76.5t-59.5 -58.5z" />
    <glyph glyph-name="uni021B" unicode="&#x21b;" horiz-adv-x="396" 
d="M261 -11q-102 0 -144 52t-27 146l33 207h-96l17 113h96l20 124l157 37l-26 -161h130l-18 -113h-129l-32 -199q-7 -47 10.5 -65.5t50.5 -18.5q16 0 29 2.5t28 7.5l-19 -117q-21 -8 -41 -11.5t-39 -3.5zM176 -284l-44 41q25 18 34.5 36t13.5 42l29 -18h-105l19 114h149
l-13 -80q-7 -45 -23.5 -76.5t-59.5 -58.5z" />
    <glyph glyph-name="uni021F" unicode="&#x21f;" horiz-adv-x="613" 
d="M22 0l117 736h151l-52 -324h-15q30 52 79 78.5t110 26.5q91 0 129 -54t20 -165l-47 -298h-151l47 298q9 55 -9 78.5t-58 23.5q-51 0 -84 -31t-41 -83l-45 -286h-151zM332 786l-109 175h100l77 -95l93 95h107l-142 -175h-126z" />
    <glyph glyph-name="uni0226" unicode="&#x226;" horiz-adv-x="759" 
d="M-51 0l436 705h129l216 -705h-152l-55 196l55 -43h-419l69 43l-116 -196h-163zM429 541l-178 -306l-21 38h315l-29 -38l-83 306h-4zM394 786l20 133h140l-21 -133h-139z" />
    <glyph glyph-name="uni0227" unicode="&#x227;" horiz-adv-x="632" 
d="M232 -11q-69 0 -117.5 35t-68.5 98.5t-7 147.5q20 123 91 185t169 62q61 0 104.5 -28.5t52.5 -76.5l-10 -4l27 99h145q-8 -33 -15.5 -66.5t-13.5 -65.5l-59 -375h-150l16 99h16q-24 -50 -69.5 -80t-110.5 -30zM285 103q51 0 87 35.5t48 108.5q13 82 -14 119t-81 37
q-51 0 -87 -35t-48 -108q-13 -82 14 -119.5t81 -37.5zM294 590l21 133h141l-21 -133h-141z" />
    <glyph glyph-name="uni0228" unicode="&#x228;" horiz-adv-x="599" 
d="M32 0l112 705h490l-19 -121h-341l-26 -165h317l-19 -122h-317l-28 -176h340l-19 -121h-490zM272 -197q-30 0 -58.5 6t-48.5 16l26 64q17 -8 35.5 -13t38.5 -5q27 0 40.5 7t13.5 21q0 9 -8.5 13.5t-26.5 4.5q-8 0 -17 -0.5t-22 -4.5l-18 20l27 88h75l-24 -76l-35 14
q12 4 24 6t22 2q42 0 65.5 -17.5t23.5 -50.5q0 -43 -38 -69t-95 -26z" />
    <glyph glyph-name="uni022A" unicode="&#x22a;" horiz-adv-x="795" 
d="M69 370q18 110 69.5 187.5t132.5 118t184 40.5q115 0 188.5 -49.5t103 -135t11.5 -195.5q-17 -110 -69.5 -187.5t-133 -118.5t-183.5 -41q-115 0 -188.5 49.5t-102.5 135.5t-12 196zM231 360q-12 -76 2 -129t52.5 -81.5t98.5 -28.5q89 0 142.5 61t69.5 164
q12 76 -2.5 129t-53 81t-99.5 28q-89 0 -141 -60t-69 -164zM340 923l13 85h327l-14 -85h-326zM317 782l15 96h131l-15 -96h-131zM514 782l15 96h132l-15 -96h-132z" />
    <glyph glyph-name="uni022B" unicode="&#x22b;" horiz-adv-x="604" 
d="M274 -11q-86 0 -143.5 34t-81 97t-10.5 150q13 82 53.5 137t102.5 82.5t137 27.5q87 0 143.5 -33.5t80 -96.5t9.5 -150q-13 -81 -53.5 -136t-101.5 -83.5t-136 -28.5zM282 103q50 0 85.5 35.5t47.5 108.5q13 82 -13.5 119t-79.5 37q-50 0 -85 -35t-47 -108
q-13 -82 13 -119.5t79 -37.5zM212 709l14 85h326l-14 -85h-326zM189 568l14 95h132l-15 -95h-131zM386 568l15 95h131l-15 -95h-131z" />
    <glyph glyph-name="uni022C" unicode="&#x22c;" horiz-adv-x="795" 
d="M69 370q18 110 69.5 187.5t132.5 118t184 40.5q115 0 188.5 -49.5t103 -135t11.5 -195.5q-17 -110 -69.5 -187.5t-133 -118.5t-183.5 -41q-115 0 -188.5 49.5t-102.5 135.5t-12 196zM231 360q-12 -76 2 -129t52.5 -81.5t98.5 -28.5q89 0 142.5 61t69.5 164
q12 76 -2.5 129t-53 81t-99.5 28q-89 0 -141 -60t-69 -164zM341 923l14 85h326l-13 -85h-327zM557 766q-22 0 -42.5 7.5t-39.5 14.5q-14 7 -27.5 12.5t-26.5 5.5q-23 0 -36.5 -10t-18.5 -30l-66 3q8 56 40 84t81 28q21 0 41.5 -7t39.5 -14q14 -7 28 -12.5t26 -5.5
q23 0 36 10t19 30l66 -4q-8 -55 -40 -83.5t-80 -28.5z" />
    <glyph glyph-name="uni022D" unicode="&#x22d;" horiz-adv-x="604" 
d="M274 -11q-86 0 -143.5 34t-81 97t-10.5 150q13 82 53.5 137t102.5 82.5t137 27.5q87 0 143.5 -33.5t80 -96.5t9.5 -150q-13 -81 -53.5 -136t-101.5 -83.5t-136 -28.5zM282 103q50 0 85.5 35.5t47.5 108.5q13 82 -13.5 119t-79.5 37q-50 0 -85 -35t-47 -108
q-13 -82 13 -119.5t79 -37.5zM210 709l14 85h326l-14 -85h-326zM235 552l-66 3q8 55 39.5 83.5t79.5 28.5q23 0 43.5 -7.5t39.5 -14.5q15 -7 28.5 -12t26.5 -5q23 0 35.5 9.5t19.5 29.5l65 -3q-8 -56 -39.5 -84t-78.5 -28q-22 0 -43.5 7t-39.5 15q-16 7 -29.5 12t-25.5 5
q-23 0 -36 -9.5t-19 -29.5z" />
    <glyph glyph-name="uni0230" unicode="&#x230;" horiz-adv-x="795" 
d="M69 370q18 110 69.5 187.5t132.5 118t184 40.5q115 0 188.5 -49.5t103 -135t11.5 -195.5q-17 -110 -69.5 -187.5t-133 -118.5t-183.5 -41q-115 0 -188.5 49.5t-102.5 135.5t-12 196zM231 360q-12 -76 2 -129t52.5 -81.5t98.5 -28.5q89 0 142.5 61t69.5 164
q12 76 -2.5 129t-53 81t-99.5 28q-89 0 -141 -60t-69 -164zM340 923l13 85h327l-14 -85h-326zM416 782l15 96h131l-15 -96h-131z" />
    <glyph glyph-name="uni0231" unicode="&#x231;" horiz-adv-x="604" 
d="M274 -11q-86 0 -143.5 34t-81 97t-10.5 150q13 82 53.5 137t102.5 82.5t137 27.5q87 0 143.5 -33.5t80 -96.5t9.5 -150q-13 -81 -53.5 -136t-101.5 -83.5t-136 -28.5zM282 103q50 0 85.5 35.5t47.5 108.5q13 82 -13.5 119t-79.5 37q-50 0 -85 -35t-47 -108
q-13 -82 13 -119.5t79 -37.5zM206 709l14 85h326l-14 -85h-326zM281 568l15 95h132l-15 -95h-132z" />
    <glyph glyph-name="uni0232" unicode="&#x232;" horiz-adv-x="642" 
d="M203 0l53 335l17 -89l-234 459h173l146 -302h-32l242 302h180l-382 -466l47 96l-54 -335h-156zM230 801l13 85h356l-13 -85h-356z" />
    <glyph glyph-name="uni0233" unicode="&#x233;" horiz-adv-x="550" 
d="M-18 -227l-23 118q49 9 83 21t58 31.5t43 50.5l34 59l-7 -58l-140 512h155l86 -367h-31l205 367h156l-312 -527q-35 -57 -69.5 -94.5t-71 -59.5t-77.5 -34t-89 -19zM169 611l13 85h326l-13 -85h-326z" />
    <glyph glyph-name="uni0237" unicode="&#x237;" horiz-adv-x="274" 
d="M-54 -223q-22 0 -44 3t-40 11l18 117q13 -4 27 -7t28 -3q33 0 56 19.5t31 67.5l82 522h151l-83 -529q-16 -99 -70.5 -150t-155.5 -51z" />
    <glyph glyph-name="uni0253" unicode="&#x253;" horiz-adv-x="632" 
d="M333 -11q-60 0 -103.5 29t-52.5 77l10 4l-16 -99h-149l86 540q17 106 77.5 156.5t164.5 50.5q18 0 37.5 -3t33.5 -8l-28 -112q-12 4 -20 5t-19 1q-81 0 -96 -92l-20 -126l-18 -4q24 50 70 79.5t110 29.5q70 0 118 -35t68.5 -97.5t6.5 -147.5q-20 -123 -91 -185.5
t-169 -62.5zM308 103q52 0 87.5 35.5t46.5 108.5q13 82 -13.5 119t-80.5 37q-51 0 -87.5 -35t-48.5 -108q-12 -82 15 -119.5t81 -37.5z" />
    <glyph glyph-name="uni0257" unicode="&#x257;" horiz-adv-x="630" 
d="M232 -11q-69 0 -117.5 35t-68.5 98.5t-7 147.5q20 123 91 185t169 62q61 0 104.5 -28.5t52.5 -76.5h-12l22 132q16 104 77.5 153.5t163.5 49.5q18 0 38.5 -3t33.5 -8l-29 -112q-11 4 -19.5 5t-19.5 1q-37 0 -62.5 -21.5t-33.5 -70.5l-85 -538h-149l16 99h15
q-24 -50 -70.5 -80t-109.5 -30zM285 103q51 0 87 35.5t48 108.5q13 82 -14 119t-81 37q-51 0 -87 -35t-48 -108q-13 -82 14 -119.5t81 -37.5z" />
    <glyph glyph-name="uni0259" unicode="&#x259;" horiz-adv-x="550" 
d="M244 -11q-79 0 -130.5 33t-71.5 90.5t-9 130.5l5 34h355l-11 -75h-245l20 17q-12 -63 10.5 -95.5t74.5 -32.5q35 0 60.5 17t41.5 46t22 65l5 38q11 71 -21.5 108.5t-111.5 37.5q-36 0 -70.5 -9t-70.5 -32l-37 100q44 28 96.5 41.5t110.5 13.5q89 0 148 -35.5t84.5 -99.5
t11.5 -149q-12 -73 -47.5 -128t-91 -85.5t-128.5 -30.5z" />
    <glyph glyph-name="uni02B9" unicode="&#x2b9;" horiz-adv-x="256" 
d="M102 407l11 298h174l-84 -298h-101z" />
    <glyph glyph-name="uni02BA" unicode="&#x2ba;" horiz-adv-x="481" 
d="M102 407l11 298h174l-84 -298h-101zM327 407l11 298h174l-84 -298h-101z" />
    <glyph glyph-name="uni02BB" unicode="&#x2bb;" horiz-adv-x="500" 
d="M224 562l12 78q7 44 24.5 76.5t59.5 60.5l45 -40q-25 -19 -35.5 -37.5t-14.5 -41.5l-28 18h104l-18 -114h-149z" />
    <glyph glyph-name="uni02BC" unicode="&#x2bc;" horiz-adv-x="366" 
d="M254 564l-50 36q23 19 32.5 39t11.5 40l30 -17h-105l18 115h149l-12 -73q-6 -42 -21.5 -76t-52.5 -64z" />
    <glyph glyph-name="uni02BE" unicode="&#x2be;" horiz-adv-x="500" 
d="M297 550l10 60q22 0 37.5 16t15.5 39q0 17 -10 28.5t-28 12.5l10 60q42 -4 67.5 -31.5t25.5 -66.5q0 -34 -18 -61.5t-47 -42.5t-63 -14z" />
    <glyph glyph-name="uni02BF" unicode="&#x2bf;" horiz-adv-x="500" 
d="M299 550q-42 4 -68 31.5t-26 66.5q0 35 18 62t47.5 42.5t63.5 13.5l-10 -60q-23 0 -38.5 -16t-15.5 -39q0 -17 10.5 -28.5t28.5 -13.5z" />
    <glyph glyph-name="circumflex" unicode="&#x2c6;" horiz-adv-x="500" 
d="M122 555l132 205h128l91 -205h-93l-68 123l-96 -123h-94z" />
    <glyph glyph-name="caron" unicode="&#x2c7;" horiz-adv-x="500" 
d="M246 555l-91 205h93l68 -123l96 123h93l-131 -205h-128z" />
    <glyph glyph-name="uni02C8" unicode="&#x2c8;" horiz-adv-x="500" 
d="M258 593l32 205h93l-32 -205h-93z" />
    <glyph glyph-name="uni02C9" unicode="&#x2c9;" horiz-adv-x="500" 
d="M144 611l13 85h326l-13 -85h-326z" />
    <glyph glyph-name="uni02CA" unicode="&#x2ca;" horiz-adv-x="500" 
d="M248 555l128 205h147l-175 -205h-100z" />
    <glyph glyph-name="uni02CB" unicode="&#x2cb;" horiz-adv-x="500" 
d="M275 555l-141 205h143l97 -205h-99z" />
    <glyph glyph-name="uni02CC" unicode="&#x2cc;" horiz-adv-x="500" 
d="M121 -270l32 205h93l-32 -205h-93z" />
    <glyph glyph-name="breve" unicode="&#x2d8;" horiz-adv-x="500" 
d="M313 552q-50 0 -87 24t-55.5 68t-15.5 103l84 8q-2 -56 19.5 -85.5t60.5 -29.5q40 0 66 29.5t34 85.5l82 -8q-6 -59 -31 -103t-65 -68t-92 -24z" />
    <glyph glyph-name="dotaccent" unicode="&#x2d9;" horiz-adv-x="500" 
d="M233 590l21 133h141l-21 -133h-141z" />
    <glyph glyph-name="ring" unicode="&#x2da;" horiz-adv-x="500" 
d="M319 545q-37 0 -67 16.5t-47 46t-17 64.5q0 36 17 64.5t47 45t66 16.5q38 0 67.5 -16.5t46.5 -45.5t17 -65q0 -35 -17 -64t-46.5 -45.5t-66.5 -16.5zM318 610q27 0 44.5 17.5t17.5 43.5q0 28 -17 44.5t-44 16.5q-26 0 -43.5 -16.5t-17.5 -43.5t17 -44.5t43 -17.5z" />
    <glyph glyph-name="ogonek" unicode="&#x2db;" horiz-adv-x="500" 
d="M159 -197q-54 0 -82.5 26.5t-28.5 70.5q0 49 33 87.5t83 57.5l38 -45q-33 -13 -48 -34t-15 -41t14 -32.5t36 -12.5q14 0 26.5 3t27.5 8l12 -71q-28 -8 -49.5 -12.5t-46.5 -4.5z" />
    <glyph glyph-name="tilde" unicode="&#x2dc;" horiz-adv-x="500" 
d="M173 581l-71 4q9 76 45.5 116.5t90.5 40.5q28 0 46.5 -10t34.5 -23q15 -11 29.5 -19t32.5 -8q49 0 65 64l72 -4q-10 -76 -46.5 -116.5t-89.5 -40.5q-28 0 -48 11t-36 23q-14 10 -28 18t-31 8q-50 0 -66 -64z" />
    <glyph glyph-name="hungarumlaut" unicode="&#x2dd;" horiz-adv-x="500" 
d="M337 555l65 205h123l-110 -205h-78zM175 555l66 205h123l-110 -205h-79z" />
    <glyph glyph-name="gravecomb" unicode="&#x300;" 
d="M25 555l-142 205h143l98 -205h-99z" />
    <glyph glyph-name="acutecomb" unicode="&#x301;" 
d="M-2 555l132 205h148l-180 -205h-100z" />
    <glyph glyph-name="uni0302" unicode="&#x302;" 
d="M-128 555l132 205h128l91 -205h-93l-68 123l-96 -123h-94z" />
    <glyph glyph-name="tildecomb" unicode="&#x303;" 
d="M-77 581l-71 4q9 76 45.5 116.5t90.5 40.5q28 0 46.5 -10t34.5 -23q15 -11 29.5 -19t32.5 -8q49 0 65 64l72 -4q-10 -76 -46.5 -116.5t-89.5 -40.5q-28 0 -48 11t-36 23q-14 10 -28 18t-31 8q-50 0 -66 -64z" />
    <glyph glyph-name="uni0304" unicode="&#x304;" 
d="M-106 611l13 85h326l-13 -85h-326z" />
    <glyph glyph-name="uni0306" unicode="&#x306;" 
d="M63 552q-50 0 -87 24t-55.5 68t-15.5 103l84 8q-2 -56 19.5 -85.5t60.5 -29.5q40 0 66 29.5t34 85.5l82 -8q-6 -59 -31 -103t-65 -68t-92 -24z" />
    <glyph glyph-name="uni0307" unicode="&#x307;" 
d="M-17 590l21 133h141l-21 -133h-141z" />
    <glyph glyph-name="uni0308" unicode="&#x308;" 
d="M87 590l19 132h132l-20 -132h-131zM-111 590l20 132h132l-20 -132h-132z" />
    <glyph glyph-name="hookabovecomb" unicode="&#x309;" 
d="M16 555l3 23q3 20 13 33t21.5 23t19.5 19.5t8 22.5q0 11 -9.5 16t-26.5 5q-16 0 -30.5 -3.5t-30.5 -11.5l-17 61q25 13 54.5 19t64.5 6q51 0 79 -18t28 -50q0 -27 -11.5 -43.5t-27.5 -28.5t-29.5 -24t-17.5 -32l-3 -17h-88z" />
    <glyph glyph-name="uni030A" unicode="&#x30a;" 
d="M69 545q-37 0 -67 16.5t-47 46t-17 64.5q0 36 17 64.5t47 45t66 16.5q38 0 67.5 -16.5t46.5 -45.5t17 -65q0 -35 -17 -64t-46.5 -45.5t-66.5 -16.5zM68 610q27 0 44.5 17.5t17.5 43.5q0 28 -17 44.5t-44 16.5q-26 0 -43.5 -16.5t-17.5 -43.5t17 -44.5t43 -17.5z" />
    <glyph glyph-name="uni030B" unicode="&#x30b;" 
d="M87 555l65 205h123l-110 -205h-78zM-75 555l66 205h123l-110 -205h-79z" />
    <glyph glyph-name="uni030C" unicode="&#x30c;" 
d="M-4 555l-91 205h93l68 -123l96 123h93l-131 -205h-128z" />
    <glyph glyph-name="uni030F" unicode="&#x30f;" 
d="M106 555l-73 205h122l29 -205h-78zM-55 555l-73 205h122l30 -205h-79z" />
    <glyph glyph-name="uni0311" unicode="&#x311;" 
d="M-42 552l-82 7q6 60 31.5 104t65 68t91.5 24q51 0 87.5 -24.5t55.5 -68.5t15 -103l-84 -7q2 55 -19 84.5t-61 29.5q-39 0 -65.5 -29.5t-34.5 -84.5z" />
    <glyph glyph-name="uni0312" unicode="&#x312;" 
d="M-27 562l13 81q8 45 24.5 76.5t59.5 57.5l43 -41q-24 -17 -33.5 -35.5t-14.5 -42.5l-28 18h105l-19 -114h-150z" />
    <glyph glyph-name="uni031B" unicode="&#x31b;" 
d="M119 418l-84 55l2 18q32 0 52 8.5t32.5 30.5t19.5 62l3 24h132l-8 -44q-10 -63 -48.5 -105t-100.5 -49z" />
    <glyph glyph-name="dotbelowcomb" unicode="&#x323;" 
d="M-145 -214l22 133h140l-22 -133h-140z" />
    <glyph glyph-name="uni0324" unicode="&#x324;" 
d="M-39 -199l21 132h131l-21 -132h-131zM-236 -199l21 132h131l-21 -132h-131z" />
    <glyph glyph-name="uni0326" unicode="&#x326;" 
d="M-74 -284l-44 41q25 18 34.5 36t13.5 42l29 -18h-105l19 114h149l-13 -80q-7 -45 -23.5 -76.5t-59.5 -58.5z" />
    <glyph glyph-name="uni0327" unicode="&#x327;" 
d="M-71 -197q-30 0 -58.5 6t-48.5 16l26 64q17 -8 35.5 -13t38.5 -5q27 0 40.5 7t13.5 21q0 9 -8.5 13.5t-26.5 4.5q-8 0 -17 -0.5t-22 -4.5l-18 20l27 88h75l-24 -76l-35 14q12 4 24 6t22 2q42 0 65.5 -17.5t23.5 -50.5q0 -43 -38 -69t-95 -26z" />
    <glyph glyph-name="uni0328" unicode="&#x328;" 
d="M-91 -197q-54 0 -82.5 26.5t-28.5 70.5q0 49 33 87.5t83 57.5l38 -45q-33 -13 -48 -34t-15 -41t14 -32.5t36 -12.5q14 0 26.5 3t27.5 8l12 -71q-28 -8 -49.5 -12.5t-46.5 -4.5z" />
    <glyph glyph-name="uni032E" unicode="&#x32e;" 
d="M-61 -215q-76 0 -121.5 42t-40.5 113l83 8q0 -35 22 -56t61 -21q40 0 65.5 21t31.5 56l83 -8q-7 -71 -57 -113t-127 -42z" />
    <glyph glyph-name="uni0331" unicode="&#x331;" 
d="M-230 -170l14 85h326l-14 -85h-326z" />
    <glyph glyph-name="uni0335" unicode="&#x335;" 
d="M-167 534l17 104h422l-16 -104h-423z" />
    <glyph glyph-name="uni0337" unicode="&#x337;" 
d="M-133 219l-48 105l358 174l48 -106z" />
    <glyph glyph-name="uni0338" unicode="&#x338;" 
d="M-34 -52l-65 45l412 554l64 -45z" />
    <glyph glyph-name="uni0394" unicode="&#x394;" horiz-adv-x="757" 
d="M-8 0l14 85l376 620h125l180 -620l-10 -85h-685zM423 540l-268 -459l6 40h392l-6 -40l-122 459h-2z" />
    <glyph glyph-name="Sigma" unicode="&#x3a3;" horiz-adv-x="620" 
d="M-21 -180l18 109l320 357l12 -46l-226 356l17 109h542l-20 -127h-376l-7 32l196 -307l-12 -81l-276 -307l-1 32h376l-20 -127h-543z" />
    <glyph glyph-name="uni03A9" unicode="&#x3a9;" horiz-adv-x="819" 
d="M-2 0l20 125h237l-2 -38q-93 55 -139 129t-46 155q0 108 49.5 185.5t136.5 118t201 40.5q71 0 132.5 -19.5t108 -55.5t72.5 -86t26 -110q0 -91 -34.5 -160t-97 -118t-148.5 -79l1 38h246l-20 -125h-320l19 121q86 48 139 120t53 166q0 54 -21.5 93.5t-62 61.5t-99.5 22
q-71 0 -120 -29t-74 -80t-25 -118q0 -62 27 -122t81 -114l-19 -121h-321z" />
    <glyph glyph-name="uni03BC" unicode="&#x3bc;" horiz-adv-x="607" 
d="M-13 -216l112 723h152l-45 -299q-8 -50 8 -75.5t56 -25.5q49 0 81 34.5t41 92.5l41 273h153l-79 -507h-153l14 96h2q-17 -50 -47.5 -78.5t-71.5 -28.5q-31 0 -50 12t-29 34v1l-29 -252h-156z" />
    <glyph glyph-name="pi" unicode="&#x3c0;" horiz-adv-x="634" 
d="M-3 0q35 74 59.5 138.5t41.5 127t27 128.5h-98l18 113h598l-19 -113h-95l-29 -186q-6 -32 -2 -55t22 -36.5t56 -16.5l26 -2l-21 -107l-33 2q-82 6 -129.5 28.5t-64 71t-3.5 129.5l27 172h-103q-13 -82 -30 -149.5t-39.5 -127t-53.5 -117.5h-155z" />
    <glyph glyph-name="uni0400" unicode="&#x400;" horiz-adv-x="599" 
d="M32 0l112 705h490l-19 -121h-341l-26 -165h317l-19 -122h-317l-28 -176h340l-19 -121h-490zM370 765l-152 175h152l105 -175h-105z" />
    <glyph glyph-name="uni0401" unicode="&#x401;" horiz-adv-x="599" 
d="M32 0l112 705h490l-19 -121h-341l-26 -165h317l-19 -122h-317l-28 -176h340l-19 -121h-490zM456 781l21 132h132l-22 -132h-131zM259 781l21 132h131l-21 -132h-131z" />
    <glyph glyph-name="uni0402" unicode="&#x402;" horiz-adv-x="897" 
d="M540 -191q-37 0 -69.5 5.5t-56.5 15.5l34 113q18 -7 39 -10t44 -3q52 0 86 33t44 95l14 84q15 92 -24.5 133t-123.5 41q-34 0 -67 -6.5t-62 -19.5l-47 -290h-156l92 578h-224l20 127h604l-21 -127h-223l-25 -157q27 11 67 18t80 7q150 0 220 -74t45 -224l-13 -83
q-14 -92 -52 -148.5t-96 -82t-129 -25.5z" />
    <glyph glyph-name="uni0403" unicode="&#x403;" horiz-adv-x="582" 
d="M32 0l112 705h493l-21 -126h-338l-91 -579h-155zM318 765l130 175h157l-182 -175h-105z" />
    <glyph glyph-name="uni0404" unicode="&#x404;" horiz-adv-x="701" 
d="M409 -11q-100 0 -170 29.5t-112 81.5t-56.5 121t-1.5 149q18 110 72.5 187.5t143 118.5t204.5 40q69 -1 125 -18.5t94 -50.5l-53 -123q-42 31 -81.5 44t-98.5 13q-96 0 -157.5 -53t-82.5 -149l-35 40h354l-19 -120h-356l50 37q-9 -97 34.5 -154t151.5 -57
q54 0 101.5 15.5t93.5 51.5l44 -123q-50 -38 -114 -59t-131 -21z" />
    <glyph glyph-name="uni0405" unicode="&#x405;" horiz-adv-x="658" 
d="M294 -11q-80 0 -150.5 19t-115.5 49l51 122q46 -26 103.5 -43.5t125.5 -17.5q72 0 105.5 22t38.5 56q5 31 -12 50.5t-65 26.5l-110 19q-92 15 -137.5 69.5t-32.5 139.5q10 66 51.5 114t109.5 74.5t156 26.5q69 0 130.5 -17.5t98.5 -49.5l-52 -118q-36 25 -84 40.5
t-109 15.5q-65 0 -103 -22t-45 -61q-5 -31 12.5 -53t67.5 -30l109 -18q95 -15 139 -67.5t30 -137.5q-9 -61 -49 -108t-106 -74t-157 -27z" />
    <glyph glyph-name="uni0406" unicode="&#x406;" horiz-adv-x="299" 
d="M32 0l112 705h156l-112 -705h-156z" />
    <glyph glyph-name="uni0407" unicode="&#x407;" horiz-adv-x="299" 
d="M32 0l112 705h156l-112 -705h-156zM266 781l21 132h132l-22 -132h-131zM69 781l21 132h131l-21 -132h-131z" />
    <glyph glyph-name="uni0408" unicode="&#x408;" horiz-adv-x="381" 
d="M26 -187q-18 0 -42.5 2.5t-49.5 9.5l19 122q19 -7 36.5 -9t29.5 -2q46 0 69.5 26t32.5 84l104 659h156l-106 -672q-13 -78 -42 -126.5t-79.5 -71t-127.5 -22.5z" />
    <glyph glyph-name="uni0409" unicode="&#x409;" horiz-adv-x="1169" 
d="M54 -18l-74 112q48 23 85.5 52.5t65 71.5t47.5 103t34 147l37 237h522l-45 -285h173q123 0 184.5 -57t43.5 -170q-15 -99 -88.5 -146t-187.5 -47h-347l92 579h-225l-22 -143q-15 -98 -42 -172t-64.5 -127t-85 -91t-103.5 -64zM677 118h169q63 0 95.5 22t39.5 68
q8 48 -17 71t-88 23h-169z" />
    <glyph glyph-name="uni040A" unicode="&#x40a;" horiz-adv-x="1174" 
d="M32 0l112 705h154l-45 -284h324l44 284h155l-45 -285h173q124 0 185 -57t44 -170q-16 -99 -89 -146t-187 -47h-348l48 294h-324l-47 -294h-154zM683 118h169q63 0 95.5 22t39.5 68q7 48 -17.5 71t-87.5 23h-169z" />
    <glyph glyph-name="uni040B" unicode="&#x40b;" horiz-adv-x="888" 
d="M195 0l92 578h-224l20 127h604l-20 -127h-224l-25 -157q29 12 70 18.5t80 6.5q145 0 210.5 -76.5t42.5 -221.5l-23 -148h-155l22 142q16 92 -20.5 133t-116.5 41q-32 0 -65 -5.5t-65 -20.5l-47 -290h-156z" />
    <glyph glyph-name="uni040C" unicode="&#x40c;" horiz-adv-x="710" 
d="M32 0l112 705h154l-47 -292h106l-32 -17l247 309h177l-282 -339l-58 42q69 -12 108.5 -49t62.5 -105l86 -254h-160l-63 200q-15 48 -45.5 67.5t-80.5 19.5h-85l-46 -287h-154zM383 765l130 175h157l-182 -175h-105z" />
    <glyph glyph-name="uni040D" unicode="&#x40d;" horiz-adv-x="760" 
d="M32 0l112 705h144l-78 -490l-25 -3l460 493h116l-112 -705h-145l77 490l25 3l-460 -493h-114zM411 765l-152 175h152l105 -175h-105z" />
    <glyph glyph-name="uni040E" unicode="&#x40e;" horiz-adv-x="689" 
d="M130 0l163 239v-45l-242 511h160l174 -377h-29l257 377h166l-482 -705h-167zM425 760q-57 0 -97.5 18.5t-64 51.5t-32.5 75l76 24q15 -47 44.5 -68t79.5 -21q51 0 84 22.5t54 65.5l69 -23q-15 -45 -45.5 -77.5t-73 -50t-94.5 -17.5z" />
    <glyph glyph-name="uni040F" unicode="&#x40f;" horiz-adv-x="776" 
d="M253 -170l28 170h-249l112 705h155l-93 -578h324l92 578h155l-112 -705h-249l-27 -170h-136z" />
    <glyph glyph-name="uni0410" unicode="&#x410;" horiz-adv-x="759" 
d="M-51 0l436 705h129l216 -705h-152l-55 196l55 -43h-419l69 43l-116 -196h-163zM429 541l-178 -306l-21 38h315l-29 -38l-83 306h-4z" />
    <glyph glyph-name="uni0411" unicode="&#x411;" horiz-adv-x="696" 
d="M32 0l112 705h520l-20 -119h-371l-26 -166h180q123 0 184 -57t44 -170q-15 -99 -88.5 -146t-188.5 -47h-346zM199 118h174q63 0 96 22t39 68q8 48 -16.5 71t-87.5 23h-175z" />
    <glyph glyph-name="uni0412" unicode="&#x412;" horiz-adv-x="696" 
d="M32 0l112 705h322q118 0 173.5 -50t41.5 -141q-10 -60 -54 -102.5t-112 -57.5l2 16q74 -13 108 -61.5t23 -119.5q-14 -89 -85 -139t-188 -50h-343zM200 116h169q59 0 92.5 21t39.5 64q6 37 -4.5 58t-35.5 31t-63 10h-170zM247 415h150q61 0 92.5 21t37.5 61
q8 48 -16.5 70.5t-83.5 22.5h-152z" />
    <glyph glyph-name="uni0413" unicode="&#x413;" horiz-adv-x="582" 
d="M32 0l112 705h493l-21 -126h-338l-91 -579h-155z" />
    <glyph glyph-name="uni0414" unicode="&#x414;" horiz-adv-x="833" 
d="M-54 -170l46 290h73q55 57 94 156t62 243l30 186h529l-93 -585h103l-46 -290h-135l27 170h-528l-27 -170h-135zM224 120h308l73 466h-232l-12 -82q-21 -135 -55.5 -229t-81.5 -155z" />
    <glyph glyph-name="uni0415" unicode="&#x415;" horiz-adv-x="599" 
d="M32 0l112 705h490l-19 -121h-341l-26 -165h317l-19 -122h-317l-28 -176h340l-19 -121h-490z" />
    <glyph glyph-name="uni0416" unicode="&#x416;" horiz-adv-x="1066" 
d="M-43 0l167 254q44 68 98 105t127 49l-64 -42l-173 339h163l149 -309l-20 17h80l47 292h149l-47 -292h80l-32 -17l247 309h176l-281 -339l-57 42q66 -12 106 -49t64 -105l86 -254h-160l-64 200q-15 47 -45 67t-80 20h-60l-45 -287h-149l45 287h-60q-49 0 -82.5 -20
t-63.5 -67l-128 -200h-173z" />
    <glyph glyph-name="uni0417" unicode="&#x417;" horiz-adv-x="638" 
d="M281 -11q-89 0 -156 21.5t-112 60.5l50 112q39 -31 92 -48.5t124 -17.5q75 0 116.5 23.5t48.5 69.5q7 45 -18.5 66.5t-83.5 21.5h-183l19 120h166q58 0 89 20t37 59q7 43 -22.5 67t-101.5 24q-57 0 -113.5 -16.5t-104.5 -48.5l-44 113q55 38 129.5 59t157.5 21
q96 0 155 -26.5t83 -72t15 -103.5q-9 -57 -50 -99.5t-115 -59.5l2 16q68 -12 105.5 -59t24.5 -124q-9 -58 -46.5 -103t-103.5 -70.5t-160 -25.5z" />
    <glyph glyph-name="uni0418" unicode="&#x418;" horiz-adv-x="760" 
d="M32 0l112 705h144l-78 -490l-25 -3l460 493h116l-112 -705h-145l77 490l25 3l-460 -493h-114z" />
    <glyph glyph-name="uni0419" unicode="&#x419;" horiz-adv-x="760" 
d="M32 0l112 705h144l-78 -490l-25 -3l460 493h116l-112 -705h-145l77 490l25 3l-460 -493h-114zM459 760q-57 0 -97.5 18.5t-64 51.5t-32.5 75l76 24q15 -47 44.5 -68t79.5 -21q51 0 84 22.5t54 65.5l69 -23q-15 -45 -45.5 -77.5t-73 -50t-94.5 -17.5z" />
    <glyph glyph-name="uni041A" unicode="&#x41a;" horiz-adv-x="710" 
d="M32 0l112 705h154l-47 -292h106l-32 -17l247 309h177l-282 -339l-58 42q69 -12 108.5 -49t62.5 -105l86 -254h-160l-63 200q-15 48 -45.5 67.5t-80.5 19.5h-85l-46 -287h-154z" />
    <glyph glyph-name="uni041B" unicode="&#x41b;" horiz-adv-x="778" 
d="M54 -18l-74 112q48 23 85.5 52.5t65 71.5t47.5 103t34 147l37 237h530l-112 -705h-155l92 579h-233l-22 -143q-15 -98 -42 -172t-64.5 -127t-85 -91t-103.5 -64z" />
    <glyph glyph-name="uni041C" unicode="&#x41c;" horiz-adv-x="877" 
d="M33 0l112 705h137l157 -550h-32l333 550h136l-112 -705h-142l76 479h40l-295 -479h-89l-145 479h42l-76 -479h-142z" />
    <glyph glyph-name="uni041D" unicode="&#x41d;" horiz-adv-x="779" 
d="M32 0l112 705h156l-45 -283h323l45 283h157l-112 -705h-157l47 293h-324l-46 -293h-156z" />
    <glyph glyph-name="uni041E" unicode="&#x41e;" horiz-adv-x="795" 
d="M69 370q18 110 69.5 187.5t132.5 118t184 40.5q115 0 188.5 -49.5t103 -135t11.5 -195.5q-17 -110 -69.5 -187.5t-133 -118.5t-183.5 -41q-115 0 -188.5 49.5t-102.5 135.5t-12 196zM231 360q-12 -76 2 -129t52.5 -81.5t98.5 -28.5q89 0 142.5 61t69.5 164
q12 76 -2.5 129t-53 81t-99.5 28q-89 0 -141 -60t-69 -164z" />
    <glyph glyph-name="uni041F" unicode="&#x41f;" horiz-adv-x="776" 
d="M32 0l112 705h633l-112 -705h-155l91 579h-323l-92 -579h-154z" />
    <glyph glyph-name="uni0420" unicode="&#x420;" horiz-adv-x="675" 
d="M32 0l112 705h314q125 0 181 -62.5t39 -168.5q-9 -59 -42.5 -104.5t-90.5 -70.5t-137 -25h-177l-43 -274h-156zM251 395h153q57 0 87.5 23t37.5 67q8 48 -16.5 73.5t-81.5 25.5h-151z" />
    <glyph glyph-name="uni0421" unicode="&#x421;" horiz-adv-x="685" 
d="M389 -11q-123 0 -200 49.5t-107 135.5t-13 196q18 110 71.5 187.5t139 118.5t195.5 40q69 -1 124.5 -19.5t92.5 -50.5l-53 -124q-41 31 -79.5 44t-91.5 13q-95 0 -157 -56t-80 -161q-11 -72 5 -125t59.5 -82t113.5 -29q47 0 93.5 15t93.5 51l42 -123q-50 -38 -114.5 -59
t-134.5 -21z" />
    <glyph glyph-name="uni0422" unicode="&#x422;" horiz-adv-x="628" 
d="M195 0l92 578h-224l20 127h604l-20 -127h-224l-92 -578h-156z" />
    <glyph glyph-name="uni0423" unicode="&#x423;" horiz-adv-x="689" 
d="M130 0l163 239v-45l-242 511h160l174 -377h-29l257 377h166l-482 -705h-167z" />
    <glyph glyph-name="uni0424" unicode="&#x424;" horiz-adv-x="929" 
d="M342 -27l18 108l33 -27h-22q-108 0 -181 38t-104.5 110t-15.5 173q23 142 123.5 214.5t257.5 72.5h38l-42 -27l16 102h155l-16 -102l-33 27h22q109 0 182 -38t104.5 -109.5t14.5 -173.5q-15 -94 -65.5 -158t-130.5 -96.5t-185 -32.5h-39l43 27l-18 -108h-155zM371 145
l67 426l27 -25h-37q-78 0 -132.5 -42t-70.5 -137q-10 -68 6 -112t52 -64.5t85 -20.5h38zM524 145l-28 25h38q51 0 93.5 19t71 58.5t38.5 101.5q11 69 -5 112.5t-52 64t-86 20.5h-39l36 25z" />
    <glyph glyph-name="uni0425" unicode="&#x425;" horiz-adv-x="682" 
d="M-61 0l357 392l-5 -69l-226 382h176l150 -269h-50l236 269h190l-349 -382l4 69l234 -392h-177l-157 279h52l-246 -279h-189z" />
    <glyph glyph-name="uni0426" unicode="&#x426;" horiz-adv-x="830" 
d="M606 -170l26 170h-600l112 705h154l-92 -578h324l92 578h155l-93 -578h104l-47 -297h-135z" />
    <glyph glyph-name="uni0427" unicode="&#x427;" horiz-adv-x="724" 
d="M458 0l41 263q-28 -11 -69.5 -18t-82.5 -7q-90 0 -152.5 32.5t-89 99t-11.5 166.5l28 169h155l-27 -163q-15 -94 20 -134t121 -40q33 0 65 6t64 19l50 312h155l-112 -705h-155z" />
    <glyph glyph-name="uni0428" unicode="&#x428;" horiz-adv-x="1107" 
d="M32 0l112 705h152l-92 -578h254l92 578h152l-92 -578h253l92 578h152l-112 -705h-963z" />
    <glyph glyph-name="uni0429" unicode="&#x429;" horiz-adv-x="1161" 
d="M937 -170l27 170h-932l112 705h152l-92 -578h254l92 578h152l-92 -578h253l92 578h152l-92 -578h104l-47 -297h-135z" />
    <glyph glyph-name="uni042A" unicode="&#x42a;" horiz-adv-x="844" 
d="M180 0l91 579h-208l20 126h364l-46 -285h174q123 0 184.5 -57t43.5 -170q-15 -99 -88.5 -146t-188.5 -47h-346zM353 118h168q64 0 96.5 22t39.5 68q7 48 -17.5 71t-87.5 23h-169z" />
    <glyph glyph-name="uni042B" unicode="&#x42b;" horiz-adv-x="947" 
d="M32 0l112 705h155l-46 -285h144q123 0 184.5 -57t43.5 -170q-15 -99 -88.5 -146t-188.5 -47h-316zM205 118h138q63 0 96 22t39 68q8 48 -16.5 71t-87.5 23h-140zM680 0l112 705h155l-112 -705h-155z" />
    <glyph glyph-name="uni042C" unicode="&#x42c;" horiz-adv-x="696" 
d="M32 0l112 705h155l-46 -285h174q123 0 184.5 -57t43.5 -170q-15 -99 -88.5 -146t-188.5 -47h-346zM205 118h168q63 0 96 22t39 68q8 48 -16.5 71t-87.5 23h-170z" />
    <glyph glyph-name="uni042D" unicode="&#x42d;" horiz-adv-x="701" 
d="M243 -11q-69 1 -125.5 19t-94.5 50l53 123q43 -30 82.5 -43t97.5 -13q97 0 158.5 52.5t82.5 148.5l39 -27h-356l19 120h354l-50 -50q9 97 -35 154.5t-150 57.5q-54 0 -102 -16t-94 -52l-44 123q56 41 124.5 60.5t135.5 19.5q93 0 160.5 -29.5t108 -81t55 -121t1.5 -149.5
q-17 -109 -72.5 -187t-143.5 -119t-204 -40z" />
    <glyph glyph-name="uni042E" unicode="&#x42e;" horiz-adv-x="1092" 
d="M668 -11q-99 0 -168 38.5t-104 107t-35 159.5h-128l-46 -294h-155l112 705h155l-46 -285h124q36 143 135 219.5t239 76.5q116 0 189.5 -49t103 -134.5t11.5 -195.5q-17 -110 -70 -188t-134 -119t-183 -41zM680 121q88 0 142 61t71 164q12 76 -2.5 129t-53 81t-99.5 28
q-90 0 -142 -60t-68 -164q-12 -75 1 -128.5t51.5 -82t99.5 -28.5z" />
    <glyph glyph-name="uni042F" unicode="&#x42f;" horiz-adv-x="716" 
d="M-18 0l151 209q31 42 68.5 64t80.5 22h39l-8 -17q-75 0 -126 27t-73.5 77.5t-12.5 119.5q17 102 89 152.5t192 50.5h334l-112 -705h-155l44 273h-75q-22 0 -39.5 -4.5t-31 -15.5t-27.5 -30l-161 -223h-177zM356 384h155l31 202h-149q-70 0 -104 -24.5t-41 -71.5
q-8 -52 20 -79t88 -27z" />
    <glyph glyph-name="uni0430" unicode="&#x430;" horiz-adv-x="647" 
d="M240 -11q-69 0 -117.5 35t-68.5 98.5t-7 147.5q20 123 91 185t169 62q61 0 104.5 -28.5t52.5 -76.5l-10 -4l27 99h145q-8 -33 -15.5 -66.5t-13.5 -65.5l-59 -375h-150l16 99h16q-24 -50 -69.5 -80t-110.5 -30zM293 103q51 0 87 35.5t48 108.5q13 82 -14 119t-81 37
q-51 0 -87 -35t-48 -108q-13 -82 14 -119.5t81 -37.5z" />
    <glyph glyph-name="uni0431" unicode="&#x431;" horiz-adv-x="622" 
d="M291 -11q-137 0 -200 79t-41 220l14 83q22 136 104.5 223t223.5 114l191 39l22 -119l-207 -40q-85 -17 -130.5 -66.5t-57.5 -122.5l-10 -61h-20q17 45 46.5 79t71.5 54t94 20q65 0 110.5 -31t65 -89.5t7.5 -140.5q-13 -79 -53.5 -132.5t-100 -81t-130.5 -27.5zM290 102
q53 0 88.5 34.5t46.5 101.5q11 70 -15.5 105.5t-80.5 35.5t-89 -34.5t-46 -101.5q-12 -70 15 -105.5t81 -35.5z" />
    <glyph glyph-name="uni0432" unicode="&#x432;" horiz-adv-x="591" 
d="M26 0l80 507h277q71 0 111.5 -16.5t55.5 -47t8 -73.5q-7 -46 -43.5 -77.5t-89.5 -40.5l1 15q64 -5 93 -38.5t20 -89.5q-10 -66 -65 -102.5t-141 -36.5h-307zM179 90h137q39 0 62 14.5t27 45.5q5 32 -13 48t-57 16h-137zM213 303h128q34 0 54.5 15t23.5 42
q5 29 -11.5 43.5t-51.5 14.5h-126z" />
    <glyph glyph-name="uni0433" unicode="&#x433;" horiz-adv-x="480" 
d="M26 0l80 507h396l-19 -118h-245l-61 -389h-151z" />
    <glyph glyph-name="uni0434" unicode="&#x434;" horiz-adv-x="648" 
d="M-35 -130l39 243h60q34 45 55.5 104t34.5 148l23 142h410l-62 -394h83l-39 -243h-127l21 130h-350l-21 -130h-127zM200 112h184l45 282h-143l-11 -66q-9 -59 -28.5 -117.5t-46.5 -98.5z" />
    <glyph glyph-name="uni0435" unicode="&#x435;" horiz-adv-x="566" 
d="M300 -11q-93 0 -154 36t-86 100t-12 148q12 76 49 130.5t94.5 84t132.5 29.5t124 -33t69.5 -90t8.5 -131l-6 -33h-354l11 74h246l-20 -16q10 64 -12 96t-72 32q-36 0 -62 -16.5t-42 -46t-21 -65.5l-6 -39q-10 -70 21.5 -108t111.5 -38q36 0 70.5 10.5t69.5 33.5l40 -100
q-41 -29 -93 -43.5t-108 -14.5z" />
    <glyph glyph-name="uni0436" unicode="&#x436;" horiz-adv-x="867" 
d="M-52 0l139 197q23 29 45.5 50t47.5 34t53 16l-32 -48l-147 258h156l107 -191h55l30 191h150l-31 -191h49l168 191h166l-225 -258l-24 48q26 -3 45.5 -16t34.5 -34t28 -50l76 -197h-155l-59 149q-7 20 -17.5 31.5t-24.5 16t-33 4.5h-47l-31 -201h-150l32 201h-47
q-20 0 -34 -4.5t-26 -16t-28 -31.5l-105 -149h-166z" />
    <glyph glyph-name="uni0437" unicode="&#x437;" horiz-adv-x="543" 
d="M229 -11q-68 0 -126.5 15t-97.5 45l46 96q33 -24 83 -37.5t103 -13.5q57 0 86 14.5t34 43.5q5 26 -12.5 40t-57.5 14h-139l16 101h126q36 0 57 13t24 37q4 26 -17.5 41t-79.5 15q-52 0 -97.5 -11.5t-85.5 -32.5l-33 92q47 27 110.5 41.5t137.5 14.5q109 0 161.5 -39
t41.5 -108q-7 -45 -43 -77t-90 -41l2 15q63 -5 92 -40t21 -89q-11 -67 -77.5 -108t-184.5 -41z" />
    <glyph glyph-name="uni0438" unicode="&#x438;" horiz-adv-x="626" 
d="M26 0l80 507h136l-56 -356l-36 1l328 355h123l-80 -507h-136l56 356l36 -1l-328 -355h-123z" />
    <glyph glyph-name="uni0439" unicode="&#x439;" horiz-adv-x="626" 
d="M26 0l80 507h136l-56 -356l-36 1l328 355h123l-80 -507h-136l56 356l36 -1l-328 -355h-123zM365 552q-54 0 -91.5 19t-59 52t-28.5 73l73 24q13 -46 40 -67t72 -21q46 0 74 22.5t47 64.5l70 -23q-13 -45 -41.5 -77.5t-67.5 -49.5t-88 -17z" />
    <glyph glyph-name="uni043A" unicode="&#x43a;" horiz-adv-x="589" 
d="M26 0l80 507h150l-30 -191h61l167 191h166l-225 -258l-24 48q27 -3 46.5 -16t34 -34t27.5 -50l77 -197h-156l-59 149q-7 20 -17.5 31.5t-24 16t-32.5 4.5h-59l-33 -201h-149z" />
    <glyph glyph-name="uni043B" unicode="&#x43b;" horiz-adv-x="622" 
d="M24 -15l-31 118q33 10 57.5 27t42 44t29.5 66t21 92l28 175h425l-80 -507h-150l63 392h-140l-12 -78q-13 -75 -34 -132t-52 -97t-72.5 -64.5t-94.5 -35.5z" />
    <glyph glyph-name="uni043C" unicode="&#x43c;" horiz-adv-x="713" 
d="M26 0l80 507h125l121 -282l210 282h125l-80 -507h-133l54 337h28l-189 -255h-68l-108 255h21l-54 -337h-132z" />
    <glyph glyph-name="uni043D" unicode="&#x43d;" horiz-adv-x="630" 
d="M26 0l80 507h150l-30 -191h199l30 191h150l-81 -507h-149l32 201h-199l-33 -201h-149z" />
    <glyph glyph-name="uni043E" unicode="&#x43e;" horiz-adv-x="620" 
d="M282 -11q-86 0 -143.5 34t-81 97t-10.5 150q13 82 53.5 137t102.5 82.5t137 27.5q87 0 143.5 -33.5t80 -96.5t9.5 -150q-13 -81 -53.5 -136t-101.5 -83.5t-136 -28.5zM290 103q50 0 85.5 35.5t47.5 108.5q13 82 -13.5 119t-79.5 37q-50 0 -85 -35t-47 -108
q-13 -82 13 -119.5t79 -37.5z" />
    <glyph glyph-name="uni043F" unicode="&#x43f;" horiz-adv-x="627" 
d="M26 0l80 507h496l-81 -507h-149l62 392h-196l-63 -392h-149z" />
    <glyph glyph-name="uni0440" unicode="&#x440;" horiz-adv-x="647" 
d="M-4 -216l93 591q5 32 8.5 65.5t4.5 66.5h146l-5 -99h-15q24 50 70 79.5t110 29.5q70 0 118 -35t68.5 -97.5t6.5 -147.5q-20 -123 -91 -185.5t-169 -62.5q-60 0 -103.5 29t-52.5 77h11l-49 -311h-151zM316 103q52 0 87.5 35.5t46.5 108.5q13 82 -13.5 119t-80.5 37
q-51 0 -87.5 -35t-48.5 -108q-12 -82 15 -119.5t81 -37.5z" />
    <glyph glyph-name="uni0441" unicode="&#x441;" horiz-adv-x="525" 
d="M288 -11q-87 0 -145.5 35.5t-83.5 99t-12 146.5q20 123 100.5 185t198.5 62q47 0 92.5 -13.5t72.5 -38.5l-46 -102q-23 19 -54 29t-60 10q-58 0 -98 -34.5t-52 -106.5q-12 -70 17.5 -112.5t95.5 -42.5q27 0 59.5 10.5t61.5 32.5l40 -102q-30 -26 -81 -42t-106 -16z" />
    <glyph glyph-name="uni0442" unicode="&#x442;" horiz-adv-x="501" 
d="M136 0l61 389h-168l19 118h486l-19 -118h-169l-61 -389h-149z" />
    <glyph glyph-name="uni0443" unicode="&#x443;" horiz-adv-x="566" 
d="M-10 -227l-23 118q49 9 83 21t58 31.5t43 50.5l34 59l-7 -58l-140 512h155l86 -367h-31l205 367h156l-312 -527q-35 -57 -69.5 -94.5t-71 -59.5t-77.5 -34t-89 -19z" />
    <glyph glyph-name="uni0444" unicode="&#x444;" horiz-adv-x="886" 
d="M294 -216l47 306h15q-24 -49 -62.5 -75t-85.5 -26q-63 0 -104 35t-56 97t-2 143q20 127 81.5 190t146.5 63q52 0 87 -26t44 -73h-11l51 318h149l-50 -318h-15q25 47 63.5 73t85.5 26q63 0 104 -34.5t56.5 -96t2.5 -142.5q-20 -126 -82 -190.5t-148 -64.5q-51 0 -86 26.5
t-44 74.5h10l-48 -306h-149zM260 101q41 0 69.5 37.5t40.5 115.5t-6.5 115.5t-60.5 37.5q-39 0 -67.5 -37.5t-41.5 -115.5t5.5 -115.5t60.5 -37.5zM582 101q40 0 69 36.5t41 115.5q13 77 -6 115.5t-61 38.5q-40 0 -69 -38.5t-41 -115.5q-12 -79 7 -115.5t60 -36.5z" />
    <glyph glyph-name="uni0445" unicode="&#x445;" horiz-adv-x="573" 
d="M-59 0l287 295l-2 -67l-183 279h170l107 -177h-54l164 177h184l-271 -280l6 69l193 -296h-175l-118 190h56l-179 -190h-185z" />
    <glyph glyph-name="uni0446" unicode="&#x446;" horiz-adv-x="650" 
d="M445 -130l21 130h-440l80 507h150l-62 -392h184l62 392h149l-61 -392h82l-39 -245h-126z" />
    <glyph glyph-name="uni0447" unicode="&#x447;" horiz-adv-x="597" 
d="M345 0l27 172q-28 -11 -57.5 -16.5t-58.5 -5.5q-68 0 -115 24.5t-68 72.5t-9 120l22 140h150l-20 -126q-9 -58 11.5 -84.5t76.5 -26.5q24 0 44.5 5t38.5 15l34 217h150l-80 -507h-146z" />
    <glyph glyph-name="uni0448" unicode="&#x448;" horiz-adv-x="866" 
d="M26 0l80 507h140l-61 -392h157l62 392h139l-61 -392h157l62 392h140l-80 -507h-735z" />
    <glyph glyph-name="uni0449" unicode="&#x449;" horiz-adv-x="902" 
d="M697 -130l21 130h-692l80 507h140l-61 -392h157l62 392h139l-61 -392h157l62 392h140l-61 -392h82l-39 -245h-126z" />
    <glyph glyph-name="uni044A" unicode="&#x44a;" horiz-adv-x="661" 
d="M114 0l61 389h-146l19 118h295l-26 -163h114q109 0 155 -47t32 -132q-13 -84 -74.5 -124.5t-158.5 -40.5h-271zM278 96h101q45 0 71 18t32 54q7 42 -14.5 61t-67.5 19h-98z" />
    <glyph glyph-name="uni044B" unicode="&#x44b;" horiz-adv-x="815" 
d="M26 0l80 507h150l-26 -163h113q110 0 156 -47t32 -132q-13 -84 -74.5 -124.5t-158.5 -40.5h-272zM191 96h100q45 0 71 18t32 54q7 42 -13.5 61t-67.5 19h-99zM560 0l80 507h150l-80 -507h-150z" />
    <glyph glyph-name="uni044C" unicode="&#x44c;" horiz-adv-x="573" 
d="M26 0l80 507h150l-26 -163h113q110 0 156 -47t32 -132q-13 -84 -74.5 -124.5t-158.5 -40.5h-272zM191 96h100q45 0 71 18t32 54q7 42 -13.5 61t-67.5 19h-99z" />
    <glyph glyph-name="uni044D" unicode="&#x44d;" horiz-adv-x="550" 
d="M193 -11q-56 0 -102.5 14t-73.5 39l42 95q26 -21 59.5 -31.5t70.5 -10.5q69 0 112 34t60 99l13 -21h-247l17 99h246l-26 -34q5 70 -29.5 104.5t-101.5 34.5q-38 0 -74 -10.5t-69 -34.5l-31 94q33 26 85.5 41.5t113.5 15.5q87 0 146.5 -35.5t86 -98t12.5 -146.5
q-13 -82 -55.5 -137t-108 -83t-146.5 -28z" />
    <glyph glyph-name="uni044E" unicode="&#x44e;" horiz-adv-x="861" 
d="M523 -11q-109 0 -171.5 56.5t-64.5 155.5h-83l-31 -201h-147l80 507h147l-31 -191h78q31 99 105.5 150t175.5 51q87 0 143.5 -33.5t80 -96.5t9.5 -150q-13 -81 -53 -136t-101 -83.5t-137 -28.5zM532 103q50 0 85.5 35.5t46.5 108.5q13 82 -13.5 119t-78.5 37
q-51 0 -85.5 -35t-46.5 -108q-13 -82 13 -119.5t79 -37.5z" />
    <glyph glyph-name="uni044F" unicode="&#x44f;" horiz-adv-x="582" 
d="M-21 0l97 132q26 35 59.5 55t63.5 20h30l-6 -12q-89 0 -130 45.5t-30 118.5q11 68 67.5 108t150.5 40h276l-80 -507h-137l26 168h-45q-25 0 -46 -13.5t-36 -34.5l-87 -120h-173zM277 264h104l24 147h-100q-46 0 -72.5 -19t-30.5 -51q-6 -37 14.5 -57t60.5 -20z" />
    <glyph glyph-name="uni0450" unicode="&#x450;" horiz-adv-x="566" 
d="M300 -11q-93 0 -154 36t-86 100t-12 148q12 76 49 130.5t94.5 84t132.5 29.5t124 -33t69.5 -90t8.5 -131l-6 -33h-354l11 74h246l-20 -16q10 64 -12 96t-72 32q-36 0 -62 -16.5t-42 -46t-21 -65.5l-6 -39q-10 -70 21.5 -108t111.5 -38q36 0 70.5 10.5t69.5 33.5l40 -100
q-41 -29 -93 -43.5t-108 -14.5zM295 555l-142 205h143l98 -205h-99z" />
    <glyph glyph-name="uni0451" unicode="&#x451;" horiz-adv-x="566" 
d="M300 -11q-93 0 -154 36t-86 100t-12 148q12 76 49 130.5t94.5 84t132.5 29.5t124 -33t69.5 -90t8.5 -131l-6 -33h-354l11 74h246l-20 -16q10 64 -12 96t-72 32q-36 0 -62 -16.5t-42 -46t-21 -65.5l-6 -39q-10 -70 21.5 -108t111.5 -38q36 0 70.5 10.5t69.5 33.5l40 -100
q-41 -29 -93 -43.5t-108 -14.5zM385 590l19 132h132l-20 -132h-131zM187 590l20 132h132l-20 -132h-132z" />
    <glyph glyph-name="uni0452" unicode="&#x452;" horiz-adv-x="625" 
d="M282 -187l-31 109q46 11 71.5 28t38.5 44t20 68l33 214q9 56 -9 79t-58 23q-50 0 -83 -30.5t-41 -82.5l-42 -265h-151l88 561h-88l16 104h89l12 71h151l-12 -71h192l-16 -104h-193l-27 -170l-15 -1q30 53 79 79.5t110 26.5q91 0 129 -54.5t20 -165.5l-33 -212
q-11 -69 -37.5 -117.5t-77.5 -80t-135 -53.5z" />
    <glyph glyph-name="uni0453" unicode="&#x453;" horiz-adv-x="480" 
d="M26 0l80 507h396l-19 -118h-245l-61 -389h-151zM245 555l132 205h148l-180 -205h-100z" />
    <glyph glyph-name="uni0454" unicode="&#x454;" horiz-adv-x="554" 
d="M306 -11q-93 0 -156 35.5t-89.5 99t-13.5 146.5t55.5 137.5t108 82t146.5 27.5q57 0 103.5 -13.5t73.5 -38.5l-43 -96q-26 22 -59.5 32.5t-70.5 10.5q-68 0 -111.5 -34.5t-59.5 -98.5l-11 27h246l-16 -99h-247l24 29q-5 -71 29.5 -106t101.5 -35q38 0 74.5 11t69.5 35
l37 -94q-30 -26 -82 -42t-110 -16z" />
    <glyph glyph-name="uni0455" unicode="&#x455;" horiz-adv-x="519" 
d="M227 -11q-65 0 -119 14t-88 38l42 100q36 -21 81 -34t91 -13q43 0 66.5 13.5t27.5 37.5q3 21 -9 33.5t-39 16.5l-87 14q-72 12 -102 52t-21 102q9 49 40.5 83.5t81.5 52.5t110 18q57 0 105.5 -12.5t80.5 -37.5l-45 -97q-27 19 -65.5 31.5t-75.5 12.5q-46 0 -69.5 -15.5
t-27.5 -38.5q-3 -19 7 -33t37 -18l88 -14q74 -12 104.5 -50t20.5 -100q-8 -51 -40.5 -86t-82.5 -52.5t-112 -17.5z" />
    <glyph glyph-name="uni0456" unicode="&#x456;" horiz-adv-x="290" 
d="M30 0l80 507h151l-80 -507h-151zM117 590l23 141h163l-23 -141h-163z" />
    <glyph glyph-name="uni0457" unicode="&#x457;" horiz-adv-x="290" 
d="M30 0l80 507h151l-80 -507h-151zM234 590l19 132h132l-20 -132h-131zM36 590l20 132h132l-20 -132h-132z" />
    <glyph glyph-name="uni0458" unicode="&#x458;" horiz-adv-x="290" 
d="M-47 -223q-22 0 -44 3t-41 11l19 117q13 -4 26.5 -7t28.5 -3q32 0 55.5 19.5t30.5 67.5l83 522h151l-84 -529q-16 -99 -70.5 -150t-154.5 -51zM118 590l22 141h163l-23 -141h-162z" />
    <glyph glyph-name="uni0459" unicode="&#x459;" horiz-adv-x="911" 
d="M24 -15l-31 118q33 10 57.5 27t42 44t29.5 66t21 92l28 175h423l-27 -163h114q109 0 155.5 -47t32.5 -132q-14 -84 -75.5 -124.5t-157.5 -40.5h-270l63 392h-140l-12 -78q-12 -75 -33 -132t-52 -97t-73 -64.5t-95 -35.5zM528 96h101q45 0 71 18t32 54q7 42 -14 61t-68 19
h-98z" />
    <glyph glyph-name="uni045A" unicode="&#x45a;" horiz-adv-x="922" 
d="M26 0l80 507h150l-30 -191h199l31 191h149l-27 -163h114q109 0 155.5 -47t32.5 -132q-13 -84 -74.5 -124.5t-158.5 -40.5h-272l32 201h-199l-33 -201h-149zM539 96h101q45 0 71 18t32 54q7 42 -14 61t-67 19h-99z" />
    <glyph glyph-name="uni045B" unicode="&#x45b;" horiz-adv-x="629" 
d="M30 0l88 561h-88l16 104h90l11 71h151l-11 -71h191l-16 -104h-193l-26 -164h-14q30 53 79.5 79.5t109.5 26.5q90 0 128.5 -54.5t20.5 -165.5l-45 -283h-151l45 284q9 55 -9 78.5t-58 23.5q-51 0 -83.5 -31.5t-41.5 -82.5l-43 -272h-151z" />
    <glyph glyph-name="uni045C" unicode="&#x45c;" horiz-adv-x="589" 
d="M26 0l80 507h150l-30 -191h61l167 191h166l-225 -258l-24 48q27 -3 46.5 -16t34 -34t27.5 -50l77 -197h-156l-59 149q-7 20 -17.5 31.5t-24 16t-32.5 4.5h-59l-33 -201h-149zM320 555l132 205h148l-180 -205h-100z" />
    <glyph glyph-name="uni045D" unicode="&#x45d;" horiz-adv-x="626" 
d="M26 0l80 507h136l-56 -356l-36 1l328 355h123l-80 -507h-136l56 356l36 -1l-328 -355h-123zM312 555l-142 205h143l98 -205h-99z" />
    <glyph glyph-name="uni045E" unicode="&#x45e;" horiz-adv-x="566" 
d="M-10 -227l-23 118q49 9 83 21t58 31.5t43 50.5l34 59l-7 -58l-140 512h155l86 -367h-31l205 367h156l-312 -527q-35 -57 -69.5 -94.5t-71 -59.5t-77.5 -34t-89 -19zM333 552q-54 0 -91.5 19t-59 52t-28.5 73l73 24q13 -46 40 -67t72 -21q46 0 74 22.5t47 64.5l70 -23
q-13 -45 -41.5 -77.5t-67.5 -49.5t-88 -17z" />
    <glyph glyph-name="uni045F" unicode="&#x45f;" horiz-adv-x="627" 
d="M188 -130l21 130h-183l80 507h150l-62 -392h196l62 392h150l-81 -507h-184l-21 -130h-128z" />
    <glyph glyph-name="uni0462" unicode="&#x462;" horiz-adv-x="775" 
d="M117 0l82 515h-177l17 110h178l12 80h149l-13 -80h243l-18 -110h-243l-15 -95h174q124 0 185 -57t43 -170q-15 -99 -88.5 -146t-187.5 -47h-341zM285 118h168q63 0 95.5 22t39.5 68q7 48 -17.5 71t-87.5 23h-169z" />
    <glyph glyph-name="uni0463" unicode="&#x463;" horiz-adv-x="661" 
d="M114 0l65 409h-146l15 98h146l37 229h150l-37 -229h172l-15 -98h-172l-14 -88h129q95 0 140.5 -43.5t32.5 -125.5q-13 -80 -71 -116t-151 -36h-281zM277 87h106q43 0 68 17.5t30 53.5q6 40 -14 57t-61 17h-106z" />
    <glyph glyph-name="uni046A" unicode="&#x46a;" horiz-adv-x="1061" 
d="M-43 0l170 259q49 75 119 114t160 39h43l-14 -34l-235 327h807l-341 -327l-2 34h39q62 0 106.5 -17.5t74 -52t46.5 -83.5l88 -259h-160l-65 200q-10 32 -25 51t-38.5 27.5t-59.5 8.5h-56l-45 -287h-155l46 287h-57q-54 0 -85.5 -21t-59.5 -66l-128 -200h-173zM554 409h2
l237 228l-6 -36h-403l5 36z" />
    <glyph glyph-name="uni046B" unicode="&#x46b;" horiz-adv-x="872" 
d="M-52 0l136 181q32 44 61.5 70t64.5 37.5t84 11.5h58l-32 -42l-175 249h662l-253 -249l-20 42h58q50 0 80.5 -12t50.5 -38t38 -69l78 -181h-155l-60 133q-10 21 -20 32t-23 16t-33 5h-47l-30 -186h-150l30 186h-48q-19 0 -32.5 -5t-26 -16t-28.5 -32l-102 -133h-166z
M438 274h2l177 180l-7 -41h-300l7 41z" />
    <glyph glyph-name="uni0472" unicode="&#x472;" horiz-adv-x="795" 
d="M145 302l17 113h537l-18 -113h-536zM69 370q18 110 69.5 187.5t132.5 118t184 40.5q115 0 188.5 -49.5t103 -135t11.5 -195.5q-17 -110 -69.5 -187.5t-133 -118.5t-183.5 -41q-115 0 -188.5 49.5t-102.5 135.5t-12 196zM231 360q-12 -76 2 -129t52.5 -81.5t98.5 -28.5
q89 0 142.5 61t69.5 164q12 76 -2.5 129t-53 81t-99.5 28q-89 0 -141 -60t-69 -164z" />
    <glyph glyph-name="uni0473" unicode="&#x473;" horiz-adv-x="620" 
d="M282 -11q-86 0 -143.5 34t-81 97t-10.5 150q13 82 53.5 137t102 82.5t137.5 27.5q87 0 143.5 -33.5t80 -96.5t9.5 -150q-13 -81 -53.5 -136t-101.5 -83.5t-136 -28.5zM290 103q59 0 96.5 36t49.5 110q13 77 -16 115.5t-89 38.5t-98 -35.5t-48 -108.5q-12 -74 14 -115
t91 -41zM133 206l15 96h340l-14 -96h-341z" />
    <glyph glyph-name="uni0474" unicode="&#x474;" horiz-adv-x="807" 
d="M257 0l-198 705h162l144 -564h-48l222 368q36 59 69.5 99t71 63.5t85 33.5t111.5 10l-7 -125q-51 0 -84 -13t-60.5 -44.5t-62.5 -87.5l-277 -445h-128z" />
    <glyph glyph-name="uni0475" unicode="&#x475;" horiz-adv-x="602" 
d="M177 0l-139 507h154l87 -368h-33l135 239q32 56 65 86t78 41.5t112 11.5l-7 -119q-32 0 -55.5 -7.5t-42 -24.5t-36.5 -48l-188 -318h-130z" />
    <glyph glyph-name="uni048A" unicode="&#x48a;" horiz-adv-x="792" 
d="M502 -169l84 169h-82l19 122h255l-146 -291h-130zM32 0l112 705h144l-78 -490l-25 -3l460 493h116l-112 -705h-145l77 490l25 3l-460 -493h-114zM459 760q-58 0 -98 18.5t-64 51.5t-33 75l77 24q14 -47 43.5 -68t79.5 -21q51 0 84 22.5t54 65.5l70 -23
q-16 -45 -46.5 -77.5t-72.5 -50t-94 -17.5z" />
    <glyph glyph-name="uni048B" unicode="&#x48b;" horiz-adv-x="660" 
d="M389 -130l66 130h-69l18 112h232l-122 -242h-125zM26 0l80 507h136l-56 -356l-36 1l328 355h123l-80 -507h-136l56 356l36 -1l-328 -355h-123zM365 552q-53 0 -91 19t-59.5 52t-28.5 73l73 24q13 -46 40.5 -67t72.5 -21t73 22.5t47 64.5l71 -23q-14 -45 -42.5 -77.5
t-67.5 -49.5t-88 -17z" />
    <glyph glyph-name="uni048C" unicode="&#x48c;" horiz-adv-x="763" 
d="M106 0l82 516h-146l17 109h146l13 80h148l-13 -80h145l-16 -109h-146l-15 -96h173q123 0 184.5 -57t43.5 -170q-16 -99 -89 -146t-187 -47h-340zM273 118h168q63 0 95.5 22t39.5 68q7 48 -17.5 71t-87.5 23h-169z" />
    <glyph glyph-name="uni048D" unicode="&#x48d;" horiz-adv-x="661" 
d="M114 0l65 409h-146l15 98h146l37 229h150l-37 -229h172l-15 -98h-172l-14 -88h129q95 0 140.5 -43.5t32.5 -125.5q-13 -80 -71 -116t-151 -36h-281zM277 87h106q43 0 68 17.5t30 53.5q6 40 -14 57t-61 17h-106z" />
    <glyph glyph-name="uni048E" unicode="&#x48e;" horiz-adv-x="675" 
d="M32 0l112 705h306q129 0 187 -61t40 -180q-10 -64 -52.5 -115t-110.5 -76l13 18l41 -76l-71 -43l-53 101l19 -14q-14 -2 -29.5 -3t-33.5 -1h-174l-40 -255h-154zM245 374h150q8 0 19.5 1t18.5 2l-36 -15l-38 73l68 41l52 -95l-24 6q33 11 51.5 34t23.5 56q9 55 -17.5 82
t-92.5 27h-141z" />
    <glyph glyph-name="uni048F" unicode="&#x48f;" horiz-adv-x="647" 
d="M-5 -216l93 591q6 32 9 65.5t4 66.5h146l-4 -99h-15q23 50 69.5 79.5t110.5 29.5q70 0 118 -35t68.5 -97.5t6.5 -147.5q-13 -79 -45.5 -130t-84.5 -83l3 18l41 -64l-60 -41l-46 74l19 -3q-20 -10 -42 -14.5t-45 -4.5q-60 0 -103.5 29t-53.5 77h11l-49 -311h-151zM355 403
q-51 0 -87.5 -35t-47.5 -108q-13 -82 14 -119.5t78 -37.5q29 0 51 12l-7 -19l-52 84l59 40l51 -82l-15 1q19 18 32 43.5t19 64.5q13 82 -13.5 119t-81.5 37z" />
    <glyph glyph-name="uni0490" unicode="&#x490;" horiz-adv-x="582" 
d="M32 0l112 705h359l26 163h134l-46 -289h-339l-91 -579h-155z" />
    <glyph glyph-name="uni0491" unicode="&#x491;" horiz-adv-x="480" 
d="M26 0l80 507h269l17 111h128l-36 -229h-247l-62 -389h-149z" />
    <glyph glyph-name="uni0492" unicode="&#x492;" horiz-adv-x="629" 
d="M79 0l46 290h-96l17 109h96l49 306h493l-20 -126h-339l-28 -180h183l-18 -109h-182l-46 -290h-155z" />
    <glyph glyph-name="uni0493" unicode="&#x493;" horiz-adv-x="508" 
d="M55 0l27 176h-90l17 103h90l36 228h396l-19 -117h-245l-18 -111h142l-16 -103h-143l-27 -176h-150z" />
    <glyph glyph-name="uni0494" unicode="&#x494;" horiz-adv-x="733" 
d="M379 -191q-31 0 -59 3.5t-48 10.5l12 119q18 -6 39.5 -9.5t43.5 -3.5q52 0 86.5 34t44.5 96l13 83q15 92 -24.5 133t-123.5 41q-34 0 -68 -6.5t-63 -19.5l-46 -290h-154l112 705h500l-21 -126h-345l-26 -158q27 11 68 18t81 7q151 0 220.5 -74.5t45.5 -223.5l-13 -83
q-14 -90 -53 -146.5t-96 -83t-126 -26.5z" />
    <glyph glyph-name="uni0495" unicode="&#x495;" horiz-adv-x="601" 
d="M285 -187l-30 109q46 11 72 28t39 44t20 68l8 51q8 55 -8 78.5t-64 23.5q-55 0 -89 -31t-41 -83l-17 -101h-149l80 507h396l-17 -104h-246l-28 -182l-19 -1q31 54 81 82.5t116 28.5q93 0 132.5 -53.5t22.5 -158.5l-9 -56q-9 -64 -35.5 -112.5t-78 -82t-136.5 -55.5z" />
    <glyph glyph-name="uni0496" unicode="&#x496;" horiz-adv-x="1087" 
d="M913 -169l27 169h-58l19 122h193l-46 -291h-135zM-43 0l167 254q44 68 98 105t127 49l-64 -42l-173 339h163l149 -309l-20 17h80l47 292h149l-47 -292h80l-32 -17l247 309h176l-281 -339l-57 42q66 -12 106 -49t64 -105l86 -254h-160l-64 200q-15 47 -45 67t-80 20h-60
l-45 -287h-149l45 287h-60q-49 0 -82.5 -20t-63.5 -67l-128 -200h-173z" />
    <glyph glyph-name="uni0497" unicode="&#x497;" horiz-adv-x="918" 
d="M714 -130l21 130h-40l18 112h169l-39 -242h-129zM-52 0l139 197q23 29 45.5 50t47.5 34t53 16l-32 -48l-147 258h156l107 -191h55l30 191h150l-31 -191h49l168 191h166l-225 -258l-24 48q26 -3 45.5 -16t34.5 -34t28 -50l76 -197h-155l-59 149q-7 20 -17.5 31.5t-24.5 16
t-33 4.5h-47l-31 -201h-150l32 201h-47q-20 0 -34 -4.5t-26 -16t-28 -31.5l-105 -149h-166z" />
    <glyph glyph-name="uni0498" unicode="&#x498;" horiz-adv-x="638" 
d="M189 -169l38 244h129l-39 -244h-128zM281 -11q-89 0 -156 21.5t-112 60.5l50 112q39 -31 92 -48.5t124 -17.5q75 0 116.5 23.5t48.5 69.5q7 45 -18.5 66.5t-83.5 21.5h-183l19 120h166q58 0 89 20t37 59q7 43 -22.5 67t-101.5 24q-57 0 -113.5 -16.5t-104.5 -48.5
l-44 113q55 38 129.5 59t157.5 21q96 0 155 -26.5t83 -72t15 -103.5q-9 -57 -50 -99.5t-115 -59.5l2 16q68 -12 105.5 -59t24.5 -124q-9 -58 -46.5 -103t-103.5 -70.5t-160 -25.5z" />
    <glyph glyph-name="uni0499" unicode="&#x499;" horiz-adv-x="543" 
d="M153 -130l32 193h117l-30 -193h-119zM229 -11q-68 0 -126.5 15t-97.5 45l46 96q33 -24 83 -37.5t103 -13.5q57 0 86 14.5t34 43.5q5 26 -12.5 40t-57.5 14h-139l16 101h126q36 0 57 13t24 37q4 26 -17.5 41t-79.5 15q-52 0 -97.5 -11.5t-85.5 -32.5l-33 92
q47 27 110.5 41.5t137.5 14.5q109 0 161.5 -39t41.5 -108q-7 -45 -43 -77t-90 -41l2 15q63 -5 92 -40t21 -89q-11 -67 -77.5 -108t-184.5 -41z" />
    <glyph glyph-name="uni049A" unicode="&#x49a;" horiz-adv-x="752" 
d="M555 -169l27 169h-57l19 122h192l-45 -291h-136zM32 0l112 705h154l-47 -292h106l-32 -17l247 309h177l-282 -339l-58 42q69 -12 108.5 -49t62.5 -105l86 -254h-160l-63 200q-15 48 -45.5 67.5t-80.5 19.5h-85l-46 -287h-154z" />
    <glyph glyph-name="uni049B" unicode="&#x49b;" horiz-adv-x="641" 
d="M430 -130l21 130h-40l18 112h169l-39 -242h-129zM26 0l80 507h150l-30 -191h61l167 191h166l-225 -258l-24 48q27 -3 46.5 -16t34 -34t27.5 -50l77 -197h-156l-59 149q-7 20 -17.5 31.5t-24 16t-32.5 4.5h-59l-33 -201h-149z" />
    <glyph glyph-name="uni049C" unicode="&#x49c;" horiz-adv-x="775" 
d="M32 0l112 705h155l-47 -292h56l26 162h86l-26 -162h8l235 292h176l-281 -339l-58 42q69 -12 108.5 -49t62.5 -105l87 -254h-161l-63 200q-15 48 -45 68.5t-81 20.5h-24l19 12l-27 -170h-86l25 158h-56l-46 -289h-155z" />
    <glyph glyph-name="uni049D" unicode="&#x49d;" horiz-adv-x="673" 
d="M26 0l80 507h150l-30 -191h48l18 112h87l-18 -112h10l167 191h167l-225 -258l-25 48q27 -3 46.5 -16t34 -34t27.5 -50l77 -197h-155l-60 149q-7 20 -17 31.5t-23.5 16t-33.5 4.5h-18l13 15l-21 -137h-88l19 122h-48l-33 -201h-149z" />
    <glyph glyph-name="uni049E" unicode="&#x49e;" horiz-adv-x="780" 
d="M94 0l83 522h-146l17 102h146l12 81h155l-13 -81h122l-16 -102h-123l-17 -109h131l-44 -32l265 324h176l-299 -354l-37 46q44 -10 78.5 -42.5t57.5 -100.5l87 -254h-162l-63 200q-14 48 -44.5 67.5t-80.5 19.5h-85l-45 -287h-155z" />
    <glyph glyph-name="uni049F" unicode="&#x49f;" horiz-adv-x="592" 
d="M30 0l88 561h-88l16 104h89l12 71h151l-12 -71h192l-16 -104h-193l-39 -250h64l158 176h166l-222 -249l-17 48q27 -3 44.5 -14.5t30.5 -31.5t26 -53l79 -187h-155l-60 146q-8 19 -18.5 30.5t-24 16t-32.5 4.5h-58l-30 -197h-151z" />
    <glyph glyph-name="uni04A0" unicode="&#x4a0;" horiz-adv-x="855" 
d="M63 579l20 126h362l-20 -126h-362zM180 0l112 705h154l-47 -292h106l-32 -17l247 309h177l-282 -339l-58 42q69 -12 108.5 -49t61.5 -105l87 -254h-160l-64 200q-14 48 -44.5 67.5t-80.5 19.5h-85l-46 -287h-154z" />
    <glyph glyph-name="uni04A1" unicode="&#x4a1;" horiz-adv-x="677" 
d="M113 0l61 389h-145l19 118h295l-30 -191h62l167 191h167l-225 -258l-25 48q26 -3 46 -16t34.5 -34t26.5 -50l77 -197h-156l-58 149q-7 20 -17.5 31.5t-24.5 16t-34 4.5h-58l-32 -201h-150z" />
    <glyph glyph-name="uni04A2" unicode="&#x4a2;" horiz-adv-x="829" 
d="M623 -169l27 169h-114l19 122h248l-46 -291h-134zM32 0l112 705h156l-45 -283h323l45 283h157l-112 -705h-157l47 293h-324l-46 -293h-156z" />
    <glyph glyph-name="uni04A3" unicode="&#x4a3;" horiz-adv-x="631" 
d="M460 -130l21 130h-97l18 112h224l-39 -242h-127zM26 0l80 507h150l-30 -191h199l30 191h150l-81 -507h-149l32 201h-199l-33 -201h-149z" />
    <glyph glyph-name="uni04A4" unicode="&#x4a4;" horiz-adv-x="958" 
d="M32 0l112 705h154l-45 -284h324l45 284h396l-21 -126h-241l-91 -579h-155l47 294h-324l-47 -294h-154z" />
    <glyph glyph-name="uni04A5" unicode="&#x4a5;" horiz-adv-x="787" 
d="M26 0l80 507h150l-30 -191h196l31 191h357l-19 -118h-208l-61 -389h-150l32 201h-196l-33 -201h-149z" />
    <glyph glyph-name="uni04A8" unicode="&#x4a8;" horiz-adv-x="883" 
d="M380 -11q-118 0 -193.5 48t-105.5 133.5t-12 200.5t72.5 191.5t138 115t185.5 38.5q24 0 41 -1.5t30 -4.5l-21 -121q-14 2 -26.5 3.5t-24.5 1.5q-96 0 -157 -61.5t-80 -173.5q-19 -118 24 -187t149 -69q78 0 132.5 23t87.5 70t44 120q9 55 -8 86t-56 31q-37 0 -63 -31
t-35 -86q-11 -71 6 -118.5t64 -71t125 -23.5q38 0 75 8.5t76 24.5l25 -106q-36 -20 -83.5 -30.5t-103.5 -10.5q-77 0 -141 26t-108 72t-63.5 109t-7.5 136q11 67 44.5 115.5t84.5 74.5t113 26q71 0 118.5 -28.5t68 -81t8.5 -123.5q-11 -69 -49.5 -128t-96.5 -103t-129 -69.5
t-148 -25.5z" />
    <glyph glyph-name="uni04A9" unicode="&#x4a9;" horiz-adv-x="747" 
d="M312 -11q-100 0 -163.5 36t-88.5 100.5t-12 147.5q13 81 54.5 135.5t103.5 81.5t136 27q25 0 46.5 -3t37.5 -10l-22 -101q-10 4 -24.5 6t-28.5 2q-64 0 -107 -41t-54 -114q-13 -80 25 -123.5t120 -43.5q92 0 140.5 32t58.5 97q7 37 -7 58t-43 21q-28 0 -46.5 -20.5
t-23.5 -54.5q-10 -67 26.5 -100t130.5 -33q35 0 73 8.5t68 23.5l14 -102q-34 -15 -70 -22.5t-78 -7.5q-67 0 -121.5 19t-92 53t-54.5 80t-8 101q7 42 32 76.5t66 54.5t93 20q53 0 91 -21t56 -60.5t9 -94.5q-7 -47 -38 -88t-78 -72.5t-104 -49.5t-117 -18z" />
    <glyph glyph-name="uni04AA" unicode="&#x4aa;" horiz-adv-x="685" 
d="M280 -169l38 244h130l-39 -244h-129zM389 -11q-123 0 -200 49.5t-107 135.5t-13 196q18 110 71.5 187.5t139 118.5t195.5 40q69 -1 124.5 -19.5t92.5 -50.5l-53 -124q-41 31 -79.5 44t-91.5 13q-95 0 -157 -56t-80 -161q-11 -72 5 -125t59.5 -82t113.5 -29q47 0 93.5 15
t93.5 51l42 -123q-50 -38 -114.5 -59t-134.5 -21z" />
    <glyph glyph-name="uni04AB" unicode="&#x4ab;" horiz-adv-x="525" 
d="M184 -130l31 193h118l-31 -193h-118zM288 -11q-88 0 -146.5 35.5t-83 99t-11.5 146.5q20 123 100.5 185t198.5 62q46 0 91.5 -13.5t73.5 -38.5l-47 -102q-22 19 -53.5 29t-60.5 10q-57 0 -97.5 -34.5t-52.5 -106.5q-11 -70 18.5 -112.5t94.5 -42.5q28 0 60.5 10.5
t60.5 32.5l41 -102q-30 -26 -81 -42t-106 -16z" />
    <glyph glyph-name="uni04AC" unicode="&#x4ac;" horiz-adv-x="628" 
d="M291 -170l28 170h-124l92 578h-224l20 127h604l-20 -127h-224l-72 -455h101l-46 -293h-135z" />
    <glyph glyph-name="uni04AD" unicode="&#x4ad;" horiz-adv-x="502" 
d="M220 -130l21 130h-97l18 112h224l-39 -242h-127zM136 0l61 389h-168l19 118h486l-19 -118h-169l-61 -389h-149z" />
    <glyph glyph-name="uni04AE" unicode="&#x4ae;" horiz-adv-x="642" 
d="M203 0l53 335l17 -89l-234 459h173l146 -302h-32l242 302h180l-382 -466l47 96l-54 -335h-156z" />
    <glyph glyph-name="uni04AF" unicode="&#x4af;" horiz-adv-x="561" 
d="M129 -216l38 237l-133 486h154l87 -368h-33l207 368h154l-286 -481l-38 -242h-150z" />
    <glyph glyph-name="uni04B0" unicode="&#x4b0;" horiz-adv-x="642" 
d="M203 0l53 335l17 -89l-234 459h173l146 -302h-32l242 302h180l-382 -466l47 96l-54 -335h-156zM82 263l12 85h482l-13 -85h-481z" />
    <glyph glyph-name="uni04B1" unicode="&#x4b1;" horiz-adv-x="561" 
d="M131 -204l23 147h-132l16 104h134l-4 -30l-134 490h153l88 -369h-33l207 369h154l-288 -485l4 25h133l-16 -104h-132l-23 -147h-150z" />
    <glyph glyph-name="uni04B2" unicode="&#x4b2;" horiz-adv-x="724" 
d="M541 -169l26 169h-57l19 122h193l-46 -291h-135zM-61 0l357 392l-5 -69l-226 382h176l150 -269h-50l236 269h190l-349 -382l4 69l234 -392h-177l-157 279h52l-246 -279h-189z" />
    <glyph glyph-name="uni04B3" unicode="&#x4b3;" horiz-adv-x="625" 
d="M444 -130l21 130h-40l17 112h169l-38 -242h-129zM-59 0l287 295l-2 -67l-183 279h169l108 -177h-54l164 177h184l-271 -280l6 69l193 -296h-175l-118 190h56l-179 -190h-185z" />
    <glyph glyph-name="uni04B4" unicode="&#x4b4;" horiz-adv-x="978" 
d="M754 -170l28 170h-602l91 579h-208l20 126h546l-21 -126h-182l-72 -452h324l92 578h155l-92 -578h104l-47 -297h-136z" />
    <glyph glyph-name="uni04B5" unicode="&#x4b5;" horiz-adv-x="771" 
d="M565 -130l21 130h-473l61 389h-145l19 118h422l-19 -118h-127l-43 -274h217l62 392h150l-62 -392h82l-38 -245h-127z" />
    <glyph glyph-name="uni04B6" unicode="&#x4b6;" horiz-adv-x="774" 
d="M552 -169l27 169h-114l19 122h248l-45 -291h-135zM458 0l41 263q-28 -11 -69.5 -18t-82.5 -7q-90 0 -152.5 32.5t-89 99t-11.5 166.5l28 169h155l-27 -163q-15 -94 20 -134t121 -40q33 0 65 6t64 19l50 312h155l-112 -705h-155z" />
    <glyph glyph-name="uni04B7" unicode="&#x4b7;" horiz-adv-x="597" 
d="M427 -130l21 130h-97l18 112h224l-39 -242h-127zM345 0l27 172q-28 -11 -57.5 -16.5t-58.5 -5.5q-68 0 -115 24.5t-68 72.5t-9 120l22 140h150l-20 -126q-9 -58 11.5 -84.5t76.5 -26.5q24 0 44.5 5t38.5 15l34 217h150l-80 -507h-146z" />
    <glyph glyph-name="uni04B8" unicode="&#x4b8;" horiz-adv-x="724" 
d="M458 0l42 263q-27 -11 -61 -17.5t-64 -6.5l26 19l-24 -155h-88l24 155l13 -20q-80 4 -138 36.5t-83.5 97t-10.5 164.5l28 169h155l-27 -163q-13 -81 13.5 -124t94.5 -49l-28 -11l27 170h87l-27 -170l-28 10q31 0 67.5 6.5t64.5 18.5l49 312h155l-112 -705h-155z" />
    <glyph glyph-name="uni04B9" unicode="&#x4b9;" horiz-adv-x="640" 
d="M385 0l28 175q-24 -9 -49.5 -14.5t-48.5 -6.5l32 23l-18 -116h-87l18 116l22 -24q-119 0 -177 54.5t-41 159.5l22 140h150l-20 -128q-9 -58 14 -82.5t74 -27.5l-32 -16l22 137h87l-22 -137l-21 15q22 0 46 4.5t46 14.5l35 220h150l-81 -507h-149z" />
    <glyph glyph-name="uni04BA" unicode="&#x4ba;" horiz-adv-x="724" 
d="M32 0l112 705h155l-42 -262q28 12 70 18.5t82 6.5q93 0 155 -33t88 -99t10 -167l-27 -169h-155l26 163q14 93 -20 134t-116 41q-32 0 -67 -5.5t-67 -19.5l-49 -313h-155z" />
    <glyph glyph-name="uni04BB" unicode="&#x4bb;" horiz-adv-x="629" 
d="M30 0l117 736h151l-52 -324h-15q30 52 79 78.5t110 26.5q91 0 129 -54t20 -165l-47 -298h-151l47 298q9 55 -9 78.5t-58 23.5q-51 0 -84 -31t-41 -83l-45 -286h-151z" />
    <glyph glyph-name="uni04BC" unicode="&#x4bc;" horiz-adv-x="968" 
d="M590 -11q-91 0 -156.5 28t-106 75.5t-58 108.5t-12.5 127l23 -35h-57q-107 0 -149 51t-27 147l9 52h151l-9 -51q-6 -43 7 -62t55 -19h31l-28 -36q18 107 70.5 183t132.5 117t178 41q115 0 185 -47.5t95.5 -132.5t5.5 -200l-6 -44h-551l43 57q-10 -65 6 -116.5t60.5 -81.5
t122.5 -30q60 0 112 16.5t98 50.5l43 -118q-37 -25 -76.5 -43t-86 -28t-105.5 -10zM636 590q-83 0 -140.5 -54.5t-76.5 -167.5l-27 43h434l-46 -59q19 120 -13.5 179t-130.5 59z" />
    <glyph glyph-name="uni04BD" unicode="&#x4bd;" horiz-adv-x="693" 
d="M433 -11q-93 0 -152.5 35t-85 94.5t-17.5 131.5l5 -23h-25q-82 0 -110.5 35.5t-18.5 104.5l6 35h116l-5 -34q-7 -36 3.5 -51t41.5 -15h21l-32 -26q14 75 51 129t94.5 83t130.5 29q76 0 124.5 -33t69.5 -90t8 -131l-5 -33h-352l19 23q-10 -71 21.5 -110.5t111.5 -39.5
q37 0 71.5 10.5t69.5 33.5l40 -100q-42 -29 -93.5 -43.5t-107.5 -14.5zM451 416q-52 0 -83.5 -35.5t-40.5 -89.5l-15 13h243l-19 -16q10 64 -12.5 96t-72.5 32z" />
    <glyph glyph-name="uni04BE" unicode="&#x4be;" horiz-adv-x="968" 
d="M590 -11q-91 0 -156.5 28t-106 75.5t-58 108.5t-12.5 127l23 -35h-57q-107 0 -149 51t-27 147l9 52h151l-9 -51q-6 -43 7 -62t55 -19h31l-28 -36q18 107 70.5 183t132.5 117t178 41q115 0 185 -47.5t95.5 -132.5t5.5 -200l-6 -44h-551l43 57q-10 -65 6 -116.5t60.5 -81.5
t122.5 -30q60 0 112 16.5t98 50.5l43 -118q-37 -25 -76.5 -43t-86 -28t-105.5 -10zM636 590q-83 0 -140.5 -54.5t-76.5 -167.5l-27 43h434l-46 -59q19 120 -13.5 179t-130.5 59zM617 -197q-54 0 -82.5 26.5t-28.5 70.5q0 49 33 87.5t83 57.5l38 -45q-33 -13 -48 -34t-15 -41
t14 -32.5t36 -12.5q14 0 26.5 3t27.5 8l12 -71q-28 -8 -49.5 -12.5t-46.5 -4.5z" />
    <glyph glyph-name="uni04BF" unicode="&#x4bf;" horiz-adv-x="693" 
d="M433 -11q-93 0 -152.5 35t-85 94.5t-17.5 131.5l5 -23h-25q-82 0 -110.5 35.5t-18.5 104.5l6 35h116l-5 -34q-7 -36 3.5 -51t41.5 -15h21l-32 -26q14 75 51 129t94.5 83t130.5 29q76 0 124.5 -33t69.5 -90t8 -131l-5 -33h-352l19 23q-10 -71 21.5 -110.5t111.5 -39.5
q37 0 71.5 10.5t69.5 33.5l40 -100q-42 -29 -93.5 -43.5t-107.5 -14.5zM451 416q-52 0 -83.5 -35.5t-40.5 -89.5l-15 13h243l-19 -16q10 64 -12.5 96t-72.5 32zM453 -197q-54 0 -82.5 26.5t-28.5 70.5q0 49 33 87.5t83 57.5l38 -45q-33 -13 -48 -34t-15 -41t14 -32.5
t36 -12.5q14 0 26.5 3t27.5 8l12 -71q-28 -8 -49.5 -12.5t-46.5 -4.5z" />
    <glyph glyph-name="uni04C0" unicode="&#x4c0;" horiz-adv-x="299" 
d="M32 0l112 705h156l-112 -705h-156z" />
    <glyph glyph-name="uni04C1" unicode="&#x4c1;" horiz-adv-x="1066" 
d="M-43 0l167 254q44 68 98 105t127 49l-64 -42l-173 339h163l149 -309l-20 17h80l47 292h149l-47 -292h80l-32 -17l247 309h176l-281 -339l-57 42q66 -12 106 -49t64 -105l86 -254h-160l-64 200q-15 47 -45 67t-80 20h-60l-45 -287h-149l45 287h-60q-49 0 -82.5 -20
t-63.5 -67l-128 -200h-173zM610 760q-57 0 -97.5 18.5t-64 51.5t-32.5 75l76 24q15 -47 44.5 -68t79.5 -21q51 0 84 22.5t54 65.5l69 -23q-15 -45 -45.5 -77.5t-73 -50t-94.5 -17.5z" />
    <glyph glyph-name="uni04C2" unicode="&#x4c2;" horiz-adv-x="867" 
d="M-52 0l139 197q23 29 45.5 50t47.5 34t53 16l-32 -48l-147 258h156l107 -191h55l30 191h150l-31 -191h49l168 191h166l-225 -258l-24 48q26 -3 45.5 -16t34.5 -34t28 -50l76 -197h-155l-59 149q-7 20 -17.5 31.5t-24.5 16t-33 4.5h-47l-31 -201h-150l32 201h-47
q-20 0 -34 -4.5t-26 -16t-28 -31.5l-105 -149h-166zM488 552q-54 0 -91.5 19t-59 52t-28.5 73l73 24q13 -46 40 -67t72 -21q46 0 74 22.5t47 64.5l70 -23q-13 -45 -41.5 -77.5t-67.5 -49.5t-88 -17z" />
    <glyph glyph-name="uni04C3" unicode="&#x4c3;" horiz-adv-x="733" 
d="M379 -191q-31 0 -59 3.5t-48 9.5l12 121q18 -7 39.5 -10.5t43.5 -3.5q53 0 88 33.5t44 95.5l8 59q13 93 -26.5 135.5t-126.5 42.5h-121l-47 -295h-154l112 705h154l-45 -284h123l-42 -25l248 309h176l-282 -339l-19 49q116 -13 172 -84.5t34 -207.5l-9 -58
q-14 -90 -53 -146.5t-96 -83t-126 -26.5z" />
    <glyph glyph-name="uni04C4" unicode="&#x4c4;" horiz-adv-x="598" 
d="M279 -187l-30 109q46 11 71.5 27.5t38.5 43t20 67.5l4 26q10 61 -15 88t-81 27h-79l-33 -201h-149l80 507h150l-30 -191h61l167 191h166l-225 -258l-60 62q75 0 123 -26.5t68 -75.5t8 -116l-5 -32q-10 -62 -36 -110t-77.5 -82t-136.5 -56z" />
    <glyph glyph-name="uni04C5" unicode="&#x4c5;" horiz-adv-x="810" 
d="M517 -169l85 169h-82l19 122h255l-146 -291h-131zM54 -18l-74 112q48 23 85.5 52.5t65 71.5t47.5 103t34 147l37 237h530l-112 -705h-155l92 579h-233l-22 -143q-15 -98 -42 -172t-64.5 -127t-85 -91t-103.5 -64z" />
    <glyph glyph-name="uni04C6" unicode="&#x4c6;" horiz-adv-x="656" 
d="M380 -130l66 130h-70l18 112h233l-123 -242h-124zM24 -15l-31 118q33 10 57.5 27t42 44t29.5 66t21 92l28 175h425l-80 -507h-150l63 392h-140l-12 -78q-13 -75 -34 -132t-52 -97t-72.5 -64.5t-94.5 -35.5z" />
    <glyph glyph-name="uni04C7" unicode="&#x4c7;" horiz-adv-x="779" 
d="M424 -187q-17 0 -42 2t-50 7l19 122q19 -4 37 -6t30 -2q45 0 68.5 25.5t31.5 83.5l40 248h-324l-46 -293h-156l112 705h156l-45 -284h323l45 284h157l-106 -659q-11 -80 -41 -131.5t-81 -76.5t-128 -25z" />
    <glyph glyph-name="uni04C8" unicode="&#x4c8;" horiz-adv-x="631" 
d="M234 -193l7 108l50 4q37 4 57.5 23t26.5 56l32 203h-199l-33 -201h-149l80 507h150l-30 -191h199l31 191h149l-78 -489q-11 -70 -38.5 -114t-78 -66t-130.5 -28z" />
    <glyph glyph-name="uni04C9" unicode="&#x4c9;" horiz-adv-x="811" 
d="M533 -169l85 169h-82l19 122h255l-146 -291h-131zM32 0l112 705h156l-45 -283h323l45 283h157l-112 -705h-157l47 293h-324l-46 -293h-156z" />
    <glyph glyph-name="uni04CA" unicode="&#x4ca;" horiz-adv-x="660" 
d="M388 -130l66 130h-70l18 112h233l-123 -242h-124zM26 0l80 507h150l-30 -191h199l30 191h150l-81 -507h-149l32 201h-199l-33 -201h-149z" />
    <glyph glyph-name="uni04CB" unicode="&#x4cb;" horiz-adv-x="724" 
d="M471 -169h-137l46 291h195l-19 -122h-59zM458 0l41 263q-28 -11 -69.5 -18t-82.5 -7q-90 0 -152.5 32.5t-89 99t-11.5 166.5l28 169h155l-27 -163q-15 -94 20 -134t121 -40q33 0 65 6t64 19l50 312h155l-112 -705h-155z" />
    <glyph glyph-name="uni04CC" unicode="&#x4cc;" horiz-adv-x="631" 
d="M369 -130h-127l33 211h212l-12 -81h-85zM345 0l27 172q-28 -11 -57.5 -16.5t-58.5 -5.5q-68 0 -115 24.5t-68 72.5t-9 120l22 140h150l-20 -126q-9 -58 11.5 -84.5t76.5 -26.5q24 0 44.5 5t38.5 15l34 217h150l-80 -507h-146z" />
    <glyph glyph-name="uni04CD" unicode="&#x4cd;" horiz-adv-x="909" 
d="M645 -169l85 169h-83l19 122h255l-145 -291h-131zM33 0l112 705h137l157 -550h-32l333 550h136l-112 -705h-142l76 479h40l-295 -479h-89l-145 479h42l-76 -479h-142z" />
    <glyph glyph-name="uni04CE" unicode="&#x4ce;" horiz-adv-x="747" 
d="M478 -130l66 130h-69l18 112h233l-123 -242h-125zM26 0l80 507h125l121 -282l210 282h125l-80 -507h-133l54 337h28l-189 -255h-68l-108 255h21l-54 -337h-132z" />
    <glyph glyph-name="uni04CF" unicode="&#x4cf;" horiz-adv-x="290" 
d="M30 0l117 736h151l-117 -736h-151z" />
    <glyph glyph-name="uni04D0" unicode="&#x4d0;" horiz-adv-x="759" 
d="M-51 0l436 705h129l216 -705h-152l-55 196l55 -43h-419l69 43l-116 -196h-163zM429 541l-178 -306l-21 38h315l-29 -38l-83 306h-4zM460 760q-57 0 -97.5 18.5t-64 51.5t-32.5 75l76 24q15 -47 44.5 -68t79.5 -21q51 0 84 22.5t54 65.5l69 -23q-15 -45 -45.5 -77.5
t-73 -50t-94.5 -17.5z" />
    <glyph glyph-name="uni04D1" unicode="&#x4d1;" horiz-adv-x="647" 
d="M240 -11q-69 0 -117.5 35t-68.5 98.5t-7 147.5q20 123 91 185t169 62q61 0 104.5 -28.5t52.5 -76.5l-10 -4l27 99h145q-8 -33 -15.5 -66.5t-13.5 -65.5l-59 -375h-150l16 99h16q-24 -50 -69.5 -80t-110.5 -30zM293 103q51 0 87 35.5t48 108.5q13 82 -14 119t-81 37
q-51 0 -87 -35t-48 -108q-13 -82 14 -119.5t81 -37.5zM370 552q-54 0 -91.5 19t-59 52t-28.5 73l73 24q13 -46 40 -67t72 -21q46 0 74 22.5t47 64.5l70 -23q-13 -45 -41.5 -77.5t-67.5 -49.5t-88 -17z" />
    <glyph glyph-name="uni04D2" unicode="&#x4d2;" horiz-adv-x="759" 
d="M-51 0l436 705h129l216 -705h-152l-55 196l55 -43h-419l69 43l-116 -196h-163zM429 541l-178 -306l-21 38h315l-29 -38l-83 306h-4zM499 781l21 132h132l-22 -132h-131zM302 781l21 132h131l-21 -132h-131z" />
    <glyph glyph-name="uni04D3" unicode="&#x4d3;" horiz-adv-x="647" 
d="M240 -11q-69 0 -117.5 35t-68.5 98.5t-7 147.5q20 123 91 185t169 62q61 0 104.5 -28.5t52.5 -76.5l-10 -4l27 99h145q-8 -33 -15.5 -66.5t-13.5 -65.5l-59 -375h-150l16 99h16q-24 -50 -69.5 -80t-110.5 -30zM293 103q51 0 87 35.5t48 108.5q13 82 -14 119t-81 37
q-51 0 -87 -35t-48 -108q-13 -82 14 -119.5t81 -37.5zM406 590l19 132h132l-20 -132h-131zM208 590l20 132h132l-20 -132h-132z" />
    <glyph glyph-name="uni04D4" unicode="&#x4d4;" horiz-adv-x="1023" 
d="M-71 0l553 705h576l-20 -121h-364l28 20l-18 -228l-12 43h318l-19 -122h-317l24 10l-17 -216l-14 30h318l-19 -121h-433l15 192l24 -39h-359l55 41l-146 -194h-173zM542 584l-262 -347l-8 37h279l-18 -42l28 352h-19z" />
    <glyph glyph-name="uni04D5" unicode="&#x4d5;" horiz-adv-x="882" 
d="M215 -11q-70 0 -113.5 26.5t-60.5 68t-10 85.5q9 49 43 78.5t98.5 43t161.5 13.5h51l-11 -74h-59q-47 0 -80 -7t-50.5 -22t-21.5 -39q-6 -31 13 -51t60 -20q49 0 81 30t40 80l17 108q8 49 -16 72t-70 23q-45 0 -83 -9.5t-84 -32.5l-37 102q29 16 66.5 28t77.5 18.5
t76 6.5q81 0 124 -24t57 -72h-41q40 50 89.5 73t108.5 23q74 0 123 -33t69 -90t8 -131l-5 -33h-348l12 74h238l-19 -16q10 64 -12 96t-71 32q-35 0 -61.5 -16.5t-41.5 -46t-21 -65.5l-6 -39q-10 -70 22 -108t110 -38q36 0 70 10.5t69 33.5l39 -100q-41 -29 -92.5 -43.5
t-106.5 -14.5q-87 0 -144.5 34.5t-83.5 98.5h31q-29 -63 -81.5 -98t-124.5 -35z" />
    <glyph glyph-name="uni04D6" unicode="&#x4d6;" horiz-adv-x="599" 
d="M32 0l112 705h490l-19 -121h-341l-26 -165h317l-19 -122h-317l-28 -176h340l-19 -121h-490zM418 760q-57 0 -97.5 18.5t-64 51.5t-32.5 75l76 24q15 -47 44.5 -68t79.5 -21q51 0 84 22.5t54 65.5l69 -23q-15 -45 -45.5 -77.5t-73 -50t-94.5 -17.5z" />
    <glyph glyph-name="uni04D7" unicode="&#x4d7;" horiz-adv-x="566" 
d="M300 -11q-93 0 -154 36t-86 100t-12 148q12 76 49 130.5t94.5 84t132.5 29.5t124 -33t69.5 -90t8.5 -131l-6 -33h-354l11 74h246l-20 -16q10 64 -12 96t-72 32q-36 0 -62 -16.5t-42 -46t-21 -65.5l-6 -39q-10 -70 21.5 -108t111.5 -38q36 0 70.5 10.5t69.5 33.5l40 -100
q-41 -29 -93 -43.5t-108 -14.5zM349 552q-54 0 -91.5 19t-59 52t-28.5 73l73 24q13 -46 40 -67t72 -21q46 0 74 22.5t47 64.5l70 -23q-13 -45 -41.5 -77.5t-67.5 -49.5t-88 -17z" />
    <glyph glyph-name="uni04D8" unicode="&#x4d8;" horiz-adv-x="775" 
d="M364 -11q-117 0 -188 48.5t-97 132.5t-11 192l8 51h550l-19 -119h-433l49 59q-13 -79 -2.5 -132t46.5 -79.5t101 -26.5q87 0 140.5 55.5t71.5 170.5q18 117 -24 180t-156 63q-60 0 -114.5 -15t-109.5 -49l-45 118q60 38 132 58t160 20q121 0 197 -48.5t106 -133.5
t12 -197q-17 -108 -69 -186t-130.5 -120t-174.5 -42z" />
    <glyph glyph-name="uni04D9" unicode="&#x4d9;" horiz-adv-x="566" 
d="M252 -11q-79 0 -130.5 33t-71.5 90.5t-9 130.5l5 34h355l-11 -75h-245l20 17q-12 -63 10.5 -95.5t74.5 -32.5q35 0 60.5 17t41.5 46t22 65l5 38q11 71 -21.5 108.5t-111.5 37.5q-36 0 -70.5 -9t-70.5 -32l-37 100q44 28 96.5 41.5t110.5 13.5q89 0 148 -35.5t84.5 -99.5
t11.5 -149q-12 -73 -47.5 -128t-91 -85.5t-128.5 -30.5z" />
    <glyph glyph-name="uni04DA" unicode="&#x4da;" horiz-adv-x="775" 
d="M364 -11q-117 0 -188 48.5t-97 132.5t-11 192l8 51h550l-19 -119h-433l49 59q-13 -79 -2.5 -132t46.5 -79.5t101 -26.5q87 0 140.5 55.5t71.5 170.5q18 117 -24 180t-156 63q-60 0 -114.5 -15t-109.5 -49l-45 118q60 38 132 58t160 20q121 0 197 -48.5t106 -133.5
t12 -197q-17 -108 -69 -186t-130.5 -120t-174.5 -42zM506 781l21 132h132l-22 -132h-131zM309 781l21 132h131l-21 -132h-131z" />
    <glyph glyph-name="uni04DB" unicode="&#x4db;" horiz-adv-x="566" 
d="M252 -11q-79 0 -130.5 33t-71.5 90.5t-9 130.5l5 34h355l-11 -75h-245l20 17q-12 -63 10.5 -95.5t74.5 -32.5q35 0 60.5 17t41.5 46t22 65l5 38q11 71 -21.5 108.5t-111.5 37.5q-36 0 -70.5 -9t-70.5 -32l-37 100q44 28 96.5 41.5t110.5 13.5q89 0 148 -35.5t84.5 -99.5
t11.5 -149q-12 -73 -47.5 -128t-91 -85.5t-128.5 -30.5zM368 590l19 132h132l-20 -132h-131zM170 590l20 132h132l-20 -132h-132z" />
    <glyph glyph-name="uni04DC" unicode="&#x4dc;" horiz-adv-x="1066" 
d="M-43 0l167 254q44 68 98 105t127 49l-64 -42l-173 339h163l149 -309l-20 17h80l47 292h149l-47 -292h80l-32 -17l247 309h176l-281 -339l-57 42q66 -12 106 -49t64 -105l86 -254h-160l-64 200q-15 47 -45 67t-80 20h-60l-45 -287h-149l45 287h-60q-49 0 -82.5 -20
t-63.5 -67l-128 -200h-173zM649 781l21 132h132l-22 -132h-131zM452 781l21 132h131l-21 -132h-131z" />
    <glyph glyph-name="uni04DD" unicode="&#x4dd;" horiz-adv-x="867" 
d="M-52 0l139 197q23 29 45.5 50t47.5 34t53 16l-32 -48l-147 258h156l107 -191h55l30 191h150l-31 -191h49l168 191h166l-225 -258l-24 48q26 -3 45.5 -16t34.5 -34t28 -50l76 -197h-155l-59 149q-7 20 -17.5 31.5t-24.5 16t-33 4.5h-47l-31 -201h-150l32 201h-47
q-20 0 -34 -4.5t-26 -16t-28 -31.5l-105 -149h-166zM524 590l19 132h132l-20 -132h-131zM326 590l20 132h132l-20 -132h-132z" />
    <glyph glyph-name="uni04DE" unicode="&#x4de;" horiz-adv-x="638" 
d="M281 -11q-89 0 -156 21.5t-112 60.5l50 112q39 -31 92 -48.5t124 -17.5q75 0 116.5 23.5t48.5 69.5q7 45 -18.5 66.5t-83.5 21.5h-183l19 120h166q58 0 89 20t37 59q7 43 -22.5 67t-101.5 24q-57 0 -113.5 -16.5t-104.5 -48.5l-44 113q55 38 129.5 59t157.5 21
q96 0 155 -26.5t83 -72t15 -103.5q-9 -57 -50 -99.5t-115 -59.5l2 16q68 -12 105.5 -59t24.5 -124q-9 -58 -46.5 -103t-103.5 -70.5t-160 -25.5zM429 781l21 132h132l-22 -132h-131zM232 781l21 132h131l-21 -132h-131z" />
    <glyph glyph-name="uni04DF" unicode="&#x4df;" horiz-adv-x="543" 
d="M229 -11q-68 0 -126.5 15t-97.5 45l46 96q33 -24 83 -37.5t103 -13.5q57 0 86 14.5t34 43.5q5 26 -12.5 40t-57.5 14h-139l16 101h126q36 0 57 13t24 37q4 26 -17.5 41t-79.5 15q-52 0 -97.5 -11.5t-85.5 -32.5l-33 92q47 27 110.5 41.5t137.5 14.5q109 0 161.5 -39
t41.5 -108q-7 -45 -43 -77t-90 -41l2 15q63 -5 92 -40t21 -89q-11 -67 -77.5 -108t-184.5 -41zM355 596l19 132h132l-20 -132h-131zM157 596l20 132h132l-20 -132h-132z" />
    <glyph glyph-name="uni04E0" unicode="&#x4e0;" horiz-adv-x="639" 
d="M281 -11q-89 0 -156 21.5t-113 60.5l51 113q37 -32 90.5 -49.5t121.5 -17.5q80 0 121 24t48 69t-18.5 66.5t-83.5 21.5h-150l14 93l266 223l-6 -35h-372l20 126h526l-17 -107l-266 -224l-30 38h61q113 0 167 -56t37 -161q-10 -61 -48.5 -107.5t-104 -72.5t-158.5 -26z
" />
    <glyph glyph-name="uni04E1" unicode="&#x4e1;" horiz-adv-x="540" 
d="M185 -191q-73 0 -130.5 16t-95.5 46l43 103q32 -24 75.5 -37t99.5 -13q66 0 105 26t46 74q9 55 -18 81t-94 26h-110l12 71l253 224l-1 -31h-318l18 112h451l-16 -99l-235 -207l-48 29h57q73 0 120 -26t67 -71.5t11 -103.5q-11 -74 -50.5 -123t-101 -73t-140.5 -24z" />
    <glyph glyph-name="uni04E2" unicode="&#x4e2;" horiz-adv-x="760" 
d="M32 0l112 705h144l-78 -490l-25 -3l460 493h116l-112 -705h-145l77 490l25 3l-460 -493h-114zM290 801l13 85h356l-13 -85h-356z" />
    <glyph glyph-name="uni04E3" unicode="&#x4e3;" horiz-adv-x="626" 
d="M26 0l80 507h136l-56 -356l-36 1l328 355h123l-80 -507h-136l56 356l36 -1l-328 -355h-123zM209 611l13 85h326l-13 -85h-326z" />
    <glyph glyph-name="uni04E4" unicode="&#x4e4;" horiz-adv-x="760" 
d="M32 0l112 705h144l-78 -490l-25 -3l460 493h116l-112 -705h-145l77 490l25 3l-460 -493h-114zM497 781l21 132h132l-22 -132h-131zM300 781l21 132h131l-21 -132h-131z" />
    <glyph glyph-name="uni04E5" unicode="&#x4e5;" horiz-adv-x="626" 
d="M26 0l80 507h136l-56 -356l-36 1l328 355h123l-80 -507h-136l56 356l36 -1l-328 -355h-123zM402 590l19 132h132l-20 -132h-131zM204 590l20 132h132l-20 -132h-132z" />
    <glyph glyph-name="uni04E6" unicode="&#x4e6;" horiz-adv-x="795" 
d="M69 370q18 110 69.5 187.5t132.5 118t184 40.5q115 0 188.5 -49.5t103 -135t11.5 -195.5q-17 -110 -69.5 -187.5t-133 -118.5t-183.5 -41q-115 0 -188.5 49.5t-102.5 135.5t-12 196zM231 360q-12 -76 2 -129t52.5 -81.5t98.5 -28.5q89 0 142.5 61t69.5 164
q12 76 -2.5 129t-53 81t-99.5 28q-89 0 -141 -60t-69 -164zM522 781l21 132h132l-22 -132h-131zM325 781l21 132h131l-21 -132h-131z" />
    <glyph glyph-name="uni04E7" unicode="&#x4e7;" horiz-adv-x="620" 
d="M282 -11q-86 0 -143.5 34t-81 97t-10.5 150q13 82 53.5 137t102.5 82.5t137 27.5q87 0 143.5 -33.5t80 -96.5t9.5 -150q-13 -81 -53.5 -136t-101.5 -83.5t-136 -28.5zM290 103q50 0 85.5 35.5t47.5 108.5q13 82 -13.5 119t-79.5 37q-50 0 -85 -35t-47 -108
q-13 -82 13 -119.5t79 -37.5zM398 590l19 132h132l-20 -132h-131zM200 590l20 132h132l-20 -132h-132z" />
    <glyph glyph-name="uni04E8" unicode="&#x4e8;" horiz-adv-x="795" 
d="M145 302l17 113h537l-18 -113h-536zM69 370q18 110 69.5 187.5t132.5 118t184 40.5q115 0 188.5 -49.5t103 -135t11.5 -195.5q-17 -110 -69.5 -187.5t-133 -118.5t-183.5 -41q-115 0 -188.5 49.5t-102.5 135.5t-12 196zM231 360q-12 -76 2 -129t52.5 -81.5t98.5 -28.5
q89 0 142.5 61t69.5 164q12 76 -2.5 129t-53 81t-99.5 28q-89 0 -141 -60t-69 -164z" />
    <glyph glyph-name="uni04E9" unicode="&#x4e9;" horiz-adv-x="620" 
d="M282 -11q-86 0 -143.5 34t-81 97t-10.5 150q13 82 53.5 137t102 82.5t137.5 27.5q87 0 143.5 -33.5t80 -96.5t9.5 -150q-13 -81 -53.5 -136t-101.5 -83.5t-136 -28.5zM290 103q59 0 96.5 36t49.5 110q13 77 -16 115.5t-89 38.5t-98 -35.5t-48 -108.5q-12 -74 14 -115
t91 -41zM133 206l15 96h340l-14 -96h-341z" />
    <glyph glyph-name="uni04EA" unicode="&#x4ea;" horiz-adv-x="795" 
d="M145 302l17 113h537l-18 -113h-536zM69 370q18 110 69.5 187.5t132.5 118t184 40.5q115 0 188.5 -49.5t103 -135t11.5 -195.5q-17 -110 -69.5 -187.5t-133 -118.5t-183.5 -41q-115 0 -188.5 49.5t-102.5 135.5t-12 196zM231 360q-12 -76 2 -129t52.5 -81.5t98.5 -28.5
q89 0 142.5 61t69.5 164q12 76 -2.5 129t-53 81t-99.5 28q-89 0 -141 -60t-69 -164zM520 781l21 132h132l-22 -132h-131zM323 781l21 132h131l-21 -132h-131z" />
    <glyph glyph-name="uni04EB" unicode="&#x4eb;" horiz-adv-x="620" 
d="M282 -11q-86 0 -143.5 34t-81 97t-10.5 150q13 82 53.5 137t102 82.5t137.5 27.5q87 0 143.5 -33.5t80 -96.5t9.5 -150q-13 -81 -53.5 -136t-101.5 -83.5t-136 -28.5zM290 103q59 0 96.5 36t49.5 110q13 77 -16 115.5t-89 38.5t-98 -35.5t-48 -108.5q-12 -74 14 -115
t91 -41zM133 206l15 96h340l-14 -96h-341zM398 590l19 132h132l-20 -132h-131zM200 590l20 132h132l-20 -132h-132z" />
    <glyph glyph-name="uni04EC" unicode="&#x4ec;" horiz-adv-x="701" 
d="M243 -11q-69 1 -125.5 19t-94.5 50l53 123q43 -30 82.5 -43t97.5 -13q97 0 158.5 52.5t82.5 148.5l39 -27h-356l19 120h354l-50 -50q9 97 -35 154.5t-150 57.5q-54 0 -102 -16t-94 -52l-44 123q56 41 124.5 60.5t135.5 19.5q93 0 160.5 -29.5t108 -81t55 -121t1.5 -149.5
q-17 -109 -72.5 -187t-143.5 -119t-204 -40zM436 781l21 132h132l-22 -132h-131zM239 781l21 132h131l-21 -132h-131z" />
    <glyph glyph-name="uni04ED" unicode="&#x4ed;" horiz-adv-x="550" 
d="M193 -11q-56 0 -102.5 14t-73.5 39l42 95q26 -21 59.5 -31.5t70.5 -10.5q69 0 112 34t60 99l13 -21h-247l17 99h246l-26 -34q5 70 -29.5 104.5t-101.5 34.5q-38 0 -74 -10.5t-69 -34.5l-31 94q33 26 85.5 41.5t113.5 15.5q87 0 146.5 -35.5t86 -98t12.5 -146.5
q-13 -82 -55.5 -137t-108 -83t-146.5 -28zM337 590l19 132h132l-20 -132h-131zM139 590l20 132h132l-20 -132h-132z" />
    <glyph glyph-name="uni04EE" unicode="&#x4ee;" horiz-adv-x="689" 
d="M130 0l163 239v-45l-242 511h160l174 -377h-29l257 377h166l-482 -705h-167zM256 801l13 85h356l-13 -85h-356z" />
    <glyph glyph-name="uni04EF" unicode="&#x4ef;" horiz-adv-x="563" 
d="M-11 -227l-23 118q49 9 83 21t58 31.5t43 50.5l34 59l-7 -58l-140 512h155l86 -367h-31l205 367h156l-312 -527q-35 -57 -69.5 -94.5t-71 -59.5t-77.5 -34t-89 -19zM157 611l13 85h326l-13 -85h-326z" />
    <glyph glyph-name="uni04F0" unicode="&#x4f0;" horiz-adv-x="689" 
d="M130 0l163 239v-45l-242 511h160l174 -377h-29l257 377h166l-482 -705h-167zM463 781l21 132h132l-22 -132h-131zM266 781l21 132h131l-21 -132h-131z" />
    <glyph glyph-name="uni04F1" unicode="&#x4f1;" horiz-adv-x="563" 
d="M-11 -227l-23 118q49 9 83 21t58 31.5t43 50.5l34 59l-7 -58l-140 512h155l86 -367h-31l205 367h156l-312 -527q-35 -57 -69.5 -94.5t-71 -59.5t-77.5 -34t-89 -19zM350 590l19 132h132l-20 -132h-131zM152 590l20 132h132l-20 -132h-132z" />
    <glyph glyph-name="uni04F2" unicode="&#x4f2;" horiz-adv-x="689" 
d="M130 0l163 239v-45l-242 511h160l174 -377h-29l257 377h166l-482 -705h-167zM307 765l101 175h131l-147 -175h-85zM466 765l113 175h131l-159 -175h-85z" />
    <glyph glyph-name="uni04F3" unicode="&#x4f3;" horiz-adv-x="563" 
d="M-11 -227l-23 118q49 9 83 21t58 31.5t43 50.5l34 59l-7 -58l-140 512h155l86 -367h-31l205 367h156l-312 -527q-35 -57 -69.5 -94.5t-71 -59.5t-77.5 -34t-89 -19zM349 555l65 205h123l-110 -205h-78zM187 555l66 205h123l-110 -205h-79z" />
    <glyph glyph-name="uni04F4" unicode="&#x4f4;" horiz-adv-x="724" 
d="M458 0l41 263q-28 -11 -69.5 -18t-82.5 -7q-90 0 -152.5 32.5t-89 99t-11.5 166.5l28 169h155l-27 -163q-15 -94 20 -134t121 -40q33 0 65 6t64 19l50 312h155l-112 -705h-155zM462 781l21 132h132l-22 -132h-131zM265 781l21 132h131l-21 -132h-131z" />
    <glyph glyph-name="uni04F5" unicode="&#x4f5;" horiz-adv-x="597" 
d="M345 0l27 172q-28 -11 -57.5 -16.5t-58.5 -5.5q-68 0 -115 24.5t-68 72.5t-9 120l22 140h150l-20 -126q-9 -58 11.5 -84.5t76.5 -26.5q24 0 44.5 5t38.5 15l34 217h150l-80 -507h-146zM377 590l19 132h132l-20 -132h-131zM179 590l20 132h132l-20 -132h-132z" />
    <glyph glyph-name="uni04F6" unicode="&#x4f6;" horiz-adv-x="582" 
d="M130 -169l27 169h-114l19 122h248l-45 -291h-135zM32 0l112 705h493l-21 -126h-338l-91 -579h-155z" />
    <glyph glyph-name="uni04F7" unicode="&#x4f7;" horiz-adv-x="481" 
d="M112 -130l21 130h-97l18 112h224l-39 -242h-127zM26 0l80 507h396l-19 -118h-245l-61 -389h-151z" />
    <glyph glyph-name="uni04F8" unicode="&#x4f8;" horiz-adv-x="947" 
d="M32 0l112 705h155l-46 -285h144q123 0 184.5 -57t43.5 -170q-15 -99 -88.5 -146t-188.5 -47h-316zM205 118h138q63 0 96 22t39 68q8 48 -16.5 71t-87.5 23h-140zM680 0l112 705h155l-112 -705h-155zM589 781l21 132h132l-22 -132h-131zM392 781l21 132h131l-21 -132h-131
z" />
    <glyph glyph-name="uni04F9" unicode="&#x4f9;" horiz-adv-x="815" 
d="M26 0l80 507h150l-26 -163h113q110 0 156 -47t32 -132q-13 -84 -74.5 -124.5t-158.5 -40.5h-272zM191 96h100q45 0 71 18t32 54q7 42 -13.5 61t-67.5 19h-99zM560 0l80 507h150l-80 -507h-150zM496 590l19 132h132l-20 -132h-131zM298 590l20 132h132l-20 -132h-132z" />
    </font>
</defs>
</svg>
