<?xml version="1.0" standalone="no"?>
<!DOCTYPE svg PUBLIC "-//W3C//DTD SVG 1.1//EN" "http://www.w3.org/Graphics/SVG/1.1/DTD/svg11.dtd" >
<svg xmlns="http://www.w3.org/2000/svg" xmlns:xlink="http://www.w3.org/1999/xlink" version="1.1">
<metadata>
Created by FontForge 20201107 at Thu Sep 30 21:20:51 2021
 By 
Copyright 2016 The Mulish Project Authors (https://github.com/googlefonts/mulish)
</metadata>
<defs>
<font id="Mulish-SemiBold" horiz-adv-x="0" >
  <font-face 
    font-family="Mulish SemiBold"
    font-weight="600"
    font-stretch="normal"
    units-per-em="1000"
    panose-1="0 0 0 0 0 0 0 0 0 0"
    ascent="800"
    descent="-200"
    x-height="504"
    cap-height="705"
    bbox="-259 -273 1306 1047"
    underline-thickness="44"
    underline-position="-107"
    unicode-range="U+000D-FB02"
  />
<missing-glyph horiz-adv-x="500" 
 />
    <glyph glyph-name="fi" unicode="fi" horiz-adv-x="598" 
d="M104 0v426h-98v78h126l-28 -26v80q0 89 44.5 135.5t129.5 46.5q20 0 43 -3t39 -10v-82q-12 5 -30 8.5t-35 3.5q-44 0 -67.5 -25.5t-23.5 -79.5v-68l-15 20h335v-504h-101v426h-218v-426h-101zM415 609v105h117v-105h-117z" />
    <glyph glyph-name="fl" unicode="fl" horiz-adv-x="599" 
d="M104 0v426h-98v78h126l-28 -26v80q0 89 45 135.5t132 46.5q21 0 44 -3t38 -10v-82q-12 5 -29.5 8.5t-35.5 3.5q-29 0 -50 -11.5t-32.5 -34.5t-11.5 -59v-68l-15 20h152v-78h-136v-426h-101zM426 0v736h101v-736h-101z" />
    <glyph glyph-name=".notdef" horiz-adv-x="500" 
 />
    <glyph glyph-name="uni0000" 
 />
    <glyph glyph-name="uni0000" 
 />
    <glyph glyph-name="nonmarkingreturn" horiz-adv-x="333" 
 />
    <glyph glyph-name="CR" unicode="&#xd;" horiz-adv-x="267" 
 />
    <glyph glyph-name="space" unicode=" " horiz-adv-x="267" 
 />
    <glyph glyph-name="exclam" unicode="!" horiz-adv-x="237" 
d="M88 195l-32 510h125l-31 -510h-62zM59 0v119h119v-119h-119z" />
    <glyph glyph-name="quotedbl" unicode="&#x22;" horiz-adv-x="417" 
d="M82 422l-25 283h118l-25 -283h-68zM268 422l-25 283h118l-25 -283h-68z" />
    <glyph glyph-name="numbersign" unicode="#" horiz-adv-x="600" 
d="M82 0l36 177h-85v69h97l46 221h-122v69h135l35 169h74l-34 -169h145l34 169h74l-34 -169h84v-69h-98l-45 -221h122v-69h-135l-36 -177h-75l36 177h-144l-34 -177h-76zM205 246h145l44 221h-144z" />
    <glyph glyph-name="dollar" unicode="$" horiz-adv-x="600" 
d="M269 -115v129l20 -19q-73 1 -137 21.5t-112 60.5l34 82q48 -38 102.5 -57t123.5 -19q81 0 119.5 30.5t38.5 77.5q0 39 -27.5 62t-92.5 37l-103 22q-92 20 -136 66t-44 122q0 59 28.5 105t80 73t120.5 31l-15 -14v125h82v-125l-17 14q56 -2 111 -22.5t93 -60.5l-33 -79
q-39 38 -88 56.5t-108 18.5q-72 0 -113.5 -33t-41.5 -86q0 -40 26 -65t86 -38l103 -22q96 -20 143 -64t47 -117q0 -57 -29 -100.5t-79.5 -69t-116.5 -31.5l17 19v-130h-82z" />
    <glyph glyph-name="percent" unicode="%" horiz-adv-x="943" 
d="M307 0h-88l418 705h88zM224 283q-83 0 -130.5 57.5t-47.5 158.5q0 102 48 158.5t130 56.5q83 0 130 -57.5t47 -157.5q0 -101 -47 -158.5t-130 -57.5zM224 351q43 0 67.5 36.5t24.5 111.5q0 76 -24.5 111.5t-67.5 35.5t-67.5 -35.5t-24.5 -111.5t24.5 -112t67.5 -36z
M720 -9q-83 0 -130 57.5t-47 158.5q0 102 47.5 158.5t129.5 56.5q83 0 130 -57.5t47 -157.5q0 -101 -47 -158.5t-130 -57.5zM720 59q43 0 67.5 36t24.5 112t-24.5 111.5t-67.5 35.5t-67.5 -35.5t-24.5 -111.5t24.5 -112t67.5 -36z" />
    <glyph glyph-name="ampersand" unicode="&#x26;" horiz-adv-x="678" 
d="M655 -9q-46 18 -87 47t-72 59l23 -1q-44 -49 -105 -77t-131 -28q-75 0 -128.5 23t-82 64t-28.5 96q0 69 40 117t112 93l33 20l-15 -19q-45 47 -66 86.5t-21 82.5q0 48 23 84t64.5 56t98.5 20q73 0 119.5 -39.5t46.5 -108.5q0 -36 -14.5 -68.5t-48 -62.5t-90.5 -63l3 21
l185 -197h-21q26 42 40 99.5t17 122.5h86q-2 -83 -24 -155.5t-59 -127.5l-1 27q26 -28 62 -54t78 -44zM287 71q56 0 99.5 21.5t75.5 63.5l-2 -26l-214 223l40 -1l-30 -18q-38 -24 -63 -47.5t-37 -48.5t-12 -58q0 -51 36.5 -80t106.5 -29zM313 643q-42 0 -67.5 -24t-25.5 -64
q0 -20 7 -38t24 -39.5t46 -52.5l-26 -2q66 38 96 69t30 70q0 37 -23 59t-61 22z" />
    <glyph glyph-name="quotesingle" unicode="'" horiz-adv-x="231" 
d="M82 422l-25 283h118l-25 -283h-68z" />
    <glyph glyph-name="parenleft" unicode="(" horiz-adv-x="335" 
d="M228 -180q-44 74 -72 145.5t-41 145t-13 152.5q0 80 13 153t41 144t72 145h82q-52 -113 -77.5 -222.5t-25.5 -219.5t25.5 -219.5t77.5 -223.5h-82z" />
    <glyph glyph-name="parenright" unicode=")" horiz-adv-x="335" 
d="M107 -180h-82q52 113 78 223t26 220q0 109 -26 219t-78 223h82q45 -74 73 -145t40.5 -144.5t12.5 -152.5q0 -80 -12.5 -153.5t-40.5 -144.5t-73 -145z" />
    <glyph glyph-name="asterisk" unicode="*" horiz-adv-x="456" 
d="M142 357l-60 44l96 121l-150 43l24 71l144 -54l-6 154h75l-6 -154l146 54l22 -71l-148 -42l95 -122l-60 -44l-86 130z" />
    <glyph glyph-name="plus" unicode="+" horiz-adv-x="600" 
d="M262 38v212h-209v74h209v207h76v-207h209v-74h-209v-212h-76z" />
    <glyph glyph-name="comma" unicode="," horiz-adv-x="237" 
d="M110 -123l-44 34q29 31 39.5 57t10.5 54l22 -22h-79v119h119v-81q0 -45 -15 -83.5t-53 -77.5z" />
    <glyph glyph-name="hyphen" unicode="-" horiz-adv-x="433" 
d="M70 234v81h293v-81h-293z" />
    <glyph glyph-name="period" unicode="." horiz-adv-x="237" 
d="M59 0v119h119v-119h-119z" />
    <glyph glyph-name="slash" unicode="/" horiz-adv-x="300" 
d="M61 -57h-85l262 807h85z" />
    <glyph glyph-name="zero" unicode="0" horiz-adv-x="600" 
d="M300 -9q-122 0 -187.5 93.5t-65.5 268.5q0 178 65.5 269.5t187.5 91.5q123 0 188 -91.5t65 -268.5q0 -176 -65.5 -269.5t-187.5 -93.5zM300 78q77 0 114.5 67t37.5 209q0 143 -37.5 208.5t-114.5 65.5q-76 0 -114 -65.5t-38 -207.5q0 -143 38.5 -210t113.5 -67z" />
    <glyph glyph-name="one" unicode="1" horiz-adv-x="600" 
d="M120 0v87h164v530h52l-200 -122v100l177 110h75v-618h154v-87h-422z" />
    <glyph glyph-name="two" unicode="2" horiz-adv-x="600" 
d="M83 0v77l242 253q47 49 70 92t23 89q0 57 -35.5 86t-102.5 29q-53 0 -99.5 -19t-89.5 -58l-36 79q42 39 104.5 62.5t132.5 23.5q110 0 169.5 -50t59.5 -143q0 -66 -32 -126.5t-96 -124.5l-209 -211v28h366v-87h-467z" />
    <glyph glyph-name="three" unicode="3" horiz-adv-x="600" 
d="M293 -9q-72 0 -138 21.5t-110 61.5l36 79q49 -38 100 -56t109 -18q74 0 112.5 31t38.5 89q0 57 -38.5 86.5t-113.5 29.5h-109v84h101q64 0 102 32.5t38 88.5q0 51 -35 78.5t-100 27.5q-110 0 -193 -77l-35 79q41 41 104 63.5t132 22.5q106 0 167 -48.5t61 -134.5
q0 -65 -36.5 -111t-99.5 -61v11q75 -12 115.5 -59.5t40.5 -118.5q0 -94 -66.5 -147.5t-182.5 -53.5z" />
    <glyph glyph-name="four" unicode="4" horiz-adv-x="600" 
d="M372 0v146h-326v74l343 485h84v-478h105v-81h-105v-146h-101zM372 227v355h23l-268 -380v25h245z" />
    <glyph glyph-name="five" unicode="5" horiz-adv-x="600" 
d="M310 -9q-46 0 -91 10t-84 28.5t-68 44.5l36 79q48 -37 98.5 -55.5t106.5 -18.5q71 0 111.5 37t40.5 99q0 64 -38.5 103.5t-106.5 39.5q-47 0 -85.5 -19t-67.5 -58h-72v424h427v-87h-328v-254h-26q27 38 72.5 59t102.5 21q68 0 118 -28t77.5 -78t27.5 -118t-30.5 -119.5
t-87 -80.5t-133.5 -29z" />
    <glyph glyph-name="six" unicode="6" horiz-adv-x="600" 
d="M324 -9q-131 0 -201.5 91t-70.5 255q0 122 36 205.5t102.5 127.5t160.5 44q56 0 112 -21.5t94 -60.5l-37 -78q-37 36 -81 54t-89 18q-97 0 -148 -67.5t-51 -201.5v-85h-10q7 54 34 93.5t70 60.5t96 21q63 0 111.5 -29t76.5 -79.5t28 -115.5q0 -67 -30 -120t-82.5 -82.5
t-120.5 -29.5zM318 75q42 0 73.5 18t49.5 50.5t18 75.5t-18 75t-49.5 50.5t-73.5 18.5t-74 -18.5t-50 -50.5t-18 -75t18 -75.5t50 -50.5t74 -18z" />
    <glyph glyph-name="seven" unicode="7" horiz-adv-x="600" 
d="M100 0l346 657v-40h-386v88h480v-77l-326 -628h-114z" />
    <glyph glyph-name="eight" unicode="8" horiz-adv-x="600" 
d="M300 -9q-122 0 -190 52t-68 145q0 74 45 122.5t118 58.5v-18q-66 14 -105.5 61t-39.5 114q0 88 64 138t176 50q113 0 177 -50t64 -138q0 -67 -37.5 -114.5t-102.5 -59.5v17q72 -10 115 -58.5t43 -122.5q0 -93 -68 -145t-191 -52zM300 73q81 0 121 30.5t40 91.5t-40 91
t-121 30t-121 -30t-40 -91t40.5 -91.5t120.5 -30.5zM300 398q70 0 106.5 31.5t36.5 86.5q0 54 -36.5 85t-106.5 31q-69 0 -106 -31t-37 -85q0 -55 37 -86.5t106 -31.5z" />
    <glyph glyph-name="nine" unicode="9" horiz-adv-x="600" 
d="M250 -9q-56 0 -112 22.5t-94 59.5l37 79q37 -36 81 -54.5t89 -18.5q96 0 147.5 67.5t51.5 201.5v85h10q-6 -53 -34 -93t-70.5 -61t-95.5 -21q-62 0 -111.5 29t-77 80t-27.5 115q0 68 30 120.5t82 82t120 29.5q132 0 202.5 -90.5t70.5 -255.5q0 -121 -35.5 -205
t-102.5 -128t-161 -44zM283 343q42 0 74 18t50 50.5t18 74.5q0 43 -18 75.5t-50 51t-74 18.5t-73.5 -18.5t-49.5 -51t-18 -75.5q0 -42 18 -74.5t49.5 -50.5t73.5 -18z" />
    <glyph glyph-name="colon" unicode=":" horiz-adv-x="237" 
d="M59 385v119h119v-119h-119zM59 0v119h119v-119h-119z" />
    <glyph glyph-name="semicolon" unicode=";" horiz-adv-x="237" 
d="M110 -123l-44 34q29 31 39.5 57t10.5 54l28 -22h-85v119h119v-81q0 -45 -15 -83.5t-53 -77.5zM59 385v119h119v-119h-119z" />
    <glyph glyph-name="less" unicode="&#x3c;" horiz-adv-x="600" 
d="M546 33l-493 215v78l493 215v-82l-457 -197v50l457 -197v-82z" />
    <glyph glyph-name="equal" unicode="=" horiz-adv-x="600" 
d="M53 350v74h494v-74h-494zM53 151v73h494v-73h-494z" />
    <glyph glyph-name="greater" unicode="&#x3e;" horiz-adv-x="600" 
d="M54 33v82l457 197v-50l-457 197v82l493 -215v-78z" />
    <glyph glyph-name="question" unicode="?" horiz-adv-x="455" 
d="M172 195v35q0 48 18.5 91t65.5 94q37 40 52 69.5t15 60.5q0 39 -29 61t-79 22q-39 0 -76 -11t-70 -30v90q34 18 75.5 27.5t83.5 9.5q57 0 102 -17.5t70.5 -52.5t25.5 -88q0 -32 -11 -62t-32 -59t-53 -60q-49 -47 -68.5 -82t-23.5 -71l-4 -27h-62zM143 0v119h120v-119
h-120z" />
    <glyph glyph-name="at" unicode="@" horiz-adv-x="967" 
d="M494 -164q-98 0 -178 30.5t-137.5 88t-88.5 137t-31 178.5t32 181t92.5 141t143 90.5t183.5 31.5q120 0 209.5 -46t139.5 -129.5t50 -196.5q0 -86 -24.5 -149.5t-69 -98.5t-104.5 -35t-92.5 34t-30.5 94l24 1q-26 -63 -72.5 -96t-101.5 -33q-80 0 -123.5 49t-43.5 135
q0 74 28 131.5t78 90t113 32.5q56 0 91 -27t46 -77h-14l18 95h78l-45 -251q-2 -15 -3.5 -27.5t-1.5 -23.5q0 -32 14.5 -48t43.5 -16q37 0 65 27.5t44 77t16 115.5q0 95 -41 163.5t-115.5 105.5t-176.5 37q-113 0 -198 -46.5t-131.5 -132t-46.5 -199.5t44.5 -197t125.5 -127
t191 -44q81 0 146.5 23.5t110.5 67.5l36 -57q-49 -48 -125 -74t-168 -26zM451 126q43 0 76.5 25t53 69.5t19.5 101.5q0 54 -24 80.5t-74 26.5q-42 0 -76.5 -23.5t-53.5 -65.5t-19 -96q0 -57 25.5 -87.5t72.5 -30.5z" />
    <glyph glyph-name="A" unicode="A" horiz-adv-x="742" 
d="M10 0l314 705h89l319 -705h-107l-87 200l44 -28h-427l47 28l-87 -200h-105zM367 591l-152 -359l-24 23h355l-20 -23l-155 359h-4z" />
    <glyph glyph-name="B" unicode="B" horiz-adv-x="685" 
d="M83 0v705h294q114 0 175.5 -48t61.5 -135q0 -65 -39 -109t-107 -59v15q78 -10 121 -55t43 -119q0 -94 -63.5 -144.5t-178.5 -50.5h-307zM184 81h195q71 0 111.5 27t40.5 91t-40.5 91t-111.5 27h-195v-236zM184 397h177q76 0 114 29t38 85t-38 85t-114 29h-177v-228z" />
    <glyph glyph-name="C" unicode="C" horiz-adv-x="685" 
d="M400 -9q-108 0 -184 44t-116.5 125.5t-40.5 192.5t40.5 192t116.5 125t184 44q75 0 134 -22t103 -64l-36 -83q-48 41 -93.5 59t-105.5 18q-114 0 -174 -70t-60 -199t60 -199.5t174 -70.5q60 0 105.5 18t93.5 60l36 -83q-44 -42 -103 -64.5t-134 -22.5z" />
    <glyph glyph-name="D" unicode="D" horiz-adv-x="754" 
d="M83 0v705h244q119 0 201.5 -41t125 -119.5t42.5 -191.5q0 -112 -42.5 -191t-125 -120.5t-201.5 -41.5h-244zM187 87h134q136 0 202.5 66t66.5 200t-66.5 199.5t-202.5 65.5h-134v-531z" />
    <glyph glyph-name="E" unicode="E" horiz-adv-x="591" 
d="M83 0v705h462v-83h-361v-222h338v-84h-338v-232h361v-84h-462z" />
    <glyph glyph-name="F" unicode="F" horiz-adv-x="567" 
d="M83 0v705h452v-83h-348v-226h325v-83h-325v-313h-104z" />
    <glyph glyph-name="G" unicode="G" horiz-adv-x="735" 
d="M415 -9q-117 0 -196.5 43.5t-119.5 124.5t-40 193t42.5 193t122 125t191.5 44q77 0 134 -21.5t102 -62.5l-37 -81q-32 27 -62 43t-62 23.5t-75 7.5q-121 0 -184 -71t-63 -201q0 -132 60.5 -201t190.5 -69q45 0 89 8.5t85 25.5l-20 -49v231h-174v78h261v-333
q-46 -23 -112.5 -37t-132.5 -14z" />
    <glyph glyph-name="H" unicode="H" horiz-adv-x="770" 
d="M83 0v705h104v-304h396v304h104v-705h-104v314h-396v-314h-104z" />
    <glyph glyph-name="I" unicode="I" horiz-adv-x="270" 
d="M83 0v705h104v-705h-104z" />
    <glyph glyph-name="J" unicode="J" horiz-adv-x="344" 
d="M84 -187q-16 0 -38 2t-45 7v84q19 -4 36 -6.5t30 -2.5q46 0 68 28t22 89v691h104v-692q0 -66 -19 -110.5t-57.5 -67t-100.5 -22.5z" />
    <glyph glyph-name="K" unicode="K" horiz-adv-x="648" 
d="M83 0v705h104v-317h2l324 317h129l-380 -366l1 49l405 -388h-133l-346 329h-2v-329h-104z" />
    <glyph glyph-name="L" unicode="L" horiz-adv-x="552" 
d="M83 0v705h104v-616h346v-89h-450z" />
    <glyph glyph-name="M" unicode="M" horiz-adv-x="864" 
d="M84 0v705h91l272 -613h-30l272 613h90v-705h-94v564h33l-254 -564h-65l-254 564h34v-564h-95z" />
    <glyph glyph-name="N" unicode="N" horiz-adv-x="750" 
d="M83 0v705h80l433 -568h-25v568h97v-705h-79l-432 568h23v-568h-97z" />
    <glyph glyph-name="O" unicode="O" horiz-adv-x="779" 
d="M59 353q0 111 39 192t113.5 125t177.5 44q102 0 176 -44t114.5 -125t40.5 -191q0 -111 -40.5 -192.5t-115 -126t-175.5 -44.5q-103 0 -177 44.5t-113.5 126t-39.5 191.5zM168 353q0 -128 56 -200t165 -72q106 0 164 71.5t58 200.5t-57.5 200t-164.5 71q-109 0 -165 -71
t-56 -200z" />
    <glyph glyph-name="P" unicode="P" horiz-adv-x="658" 
d="M83 0v705h299q113 0 173.5 -54.5t60.5 -150.5t-60.5 -151t-173.5 -55h-195v-294h-104zM187 377h184q71 0 107 32t36 91q0 58 -36 90t-107 32h-184v-245z" />
    <glyph glyph-name="Q" unicode="Q" horiz-adv-x="779" 
d="M579 -192q-31 19 -62.5 49t-59 66.5t-47.5 74.5l86 35q26 -52 67.5 -94.5t85.5 -72.5zM59 353q0 111 39 192t113.5 125t177.5 44q102 0 176 -44t114.5 -125t40.5 -191q0 -111 -40.5 -192.5t-115 -126t-175.5 -44.5q-103 0 -177 44.5t-113.5 126t-39.5 191.5zM168 353
q0 -128 56 -200t165 -72q106 0 164 71.5t58 200.5t-57.5 200t-164.5 71q-109 0 -165 -71t-56 -200z" />
    <glyph glyph-name="R" unicode="R" horiz-adv-x="697" 
d="M83 0v705h298q113 0 175 -53.5t62 -149.5q0 -63 -28 -108t-79 -68.5t-120 -23.5l16 16h27q41 0 73.5 -21t53.5 -67l101 -230h-114l-100 231q-15 41 -46.5 53t-77.5 12h-137v-296h-104zM187 375h177q75 0 113.5 32t38.5 92q0 61 -38.5 92t-113.5 31h-177v-247z" />
    <glyph glyph-name="S" unicode="S" horiz-adv-x="633" 
d="M321 -9q-85 0 -154 21.5t-120 61.5l35 82q34 -26 70.5 -43t78 -25.5t90.5 -8.5q84 0 123.5 30t39.5 79q0 42 -27.5 65t-96.5 37l-109 22q-97 20 -144.5 65.5t-47.5 124.5q0 64 34 112t94.5 74t141.5 26q75 0 138 -21.5t106 -63.5l-34 -79q-45 39 -96 57.5t-116 18.5
q-77 0 -120.5 -32t-43.5 -87q0 -44 27.5 -69t91.5 -38l109 -21q101 -21 149 -64.5t48 -119.5q0 -61 -32.5 -107t-92.5 -71.5t-142 -25.5z" />
    <glyph glyph-name="T" unicode="T" horiz-adv-x="611" 
d="M252 0v618h-241v87h586v-87h-241v-618h-104z" />
    <glyph glyph-name="U" unicode="U" horiz-adv-x="735" 
d="M369 -9q-147 0 -218.5 74t-71.5 219v421h104v-419q0 -102 44.5 -153.5t141.5 -51.5q92 0 139 51.5t47 153.5v419h102v-421q0 -145 -73 -219t-215 -74z" />
    <glyph glyph-name="V" unicode="V" horiz-adv-x="708" 
d="M308 0l-310 705h112l264 -618h-36l265 618h107l-311 -705h-91z" />
    <glyph glyph-name="W" unicode="W" horiz-adv-x="1116" 
d="M277 0l-247 705h108l205 -609h-37l217 609h79l204 -609h-34l212 609h102l-249 -705h-89l-198 580h21l-206 -580h-88z" />
    <glyph glyph-name="X" unicode="X" horiz-adv-x="661" 
d="M1 0l286 381v-42l-274 366h122l212 -292h-32l210 292h123l-274 -366v42l286 -381h-123l-225 308h37l-226 -308h-122z" />
    <glyph glyph-name="Y" unicode="Y" horiz-adv-x="617" 
d="M256 0v331l23 -66l-297 440h120l221 -337h-25l221 337h116l-296 -440l21 66v-331h-104z" />
    <glyph glyph-name="Z" unicode="Z" horiz-adv-x="601" 
d="M44 0v76l412 577v-35h-412v87h511v-76l-413 -577v35h425v-87h-523z" />
    <glyph glyph-name="bracketleft" unicode="[" horiz-adv-x="334" 
d="M104 -180v885h219v-78h-119v-729h119v-78h-219z" />
    <glyph glyph-name="backslash" unicode="\" horiz-adv-x="300" 
d="M238 -57l-262 807h85l262 -807h-85z" />
    <glyph glyph-name="bracketright" unicode="]" horiz-adv-x="334" 
d="M11 -180v78h119v729h-119v78h218v-885h-218z" />
    <glyph glyph-name="asciicircum" unicode="^" horiz-adv-x="600" 
d="M45 141l216 487h77l217 -487h-81l-200 452h50l-199 -452h-80z" />
    <glyph glyph-name="underscore" unicode="_" horiz-adv-x="505" 
d="M10 -63v63h485v-63h-485z" />
    <glyph glyph-name="grave" unicode="`" horiz-adv-x="500" 
d="M215 553l-136 202h103l103 -202h-70z" />
    <glyph glyph-name="a" unicode="a" horiz-adv-x="609" 
d="M267 -9q-67 0 -117 31t-77.5 90t-27.5 140q0 82 27.5 140t77.5 89.5t117 31.5q66 0 115 -33t65 -90h-11l10 114h98q-3 -31 -5.5 -61.5t-2.5 -59.5v-383h-101v112h11q-16 -56 -65.5 -88.5t-113.5 -32.5zM292 70q65 0 104.5 46t39.5 136t-39.5 135.5t-104.5 45.5
q-66 0 -105.5 -45.5t-39.5 -135.5t39 -136t106 -46z" />
    <glyph glyph-name="b" unicode="b" horiz-adv-x="609" 
d="M343 -9q-66 0 -115 33t-65 90h11v-114h-100v736h101v-344h-12q17 56 65.5 88.5t114.5 32.5q67 0 117 -31.5t77.5 -90t27.5 -140.5q0 -81 -27.5 -139.5t-78 -89.5t-116.5 -31zM318 70q65 0 105 45.5t40 135.5q0 91 -40 136.5t-105 45.5q-66 0 -105.5 -45.5t-39.5 -135.5
t39.5 -136t105.5 -46z" />
    <glyph glyph-name="c" unicode="c" horiz-adv-x="499" 
d="M295 -9q-76 0 -132.5 31.5t-87 91t-30.5 141.5q0 81 31 139t87 88.5t132 30.5q49 0 95 -16.5t76 -46.5l-33 -71q-28 27 -63 40.5t-68 13.5q-72 0 -113 -46t-41 -133q0 -88 41 -135t113 -47q32 0 67 12.5t64 40.5l33 -71q-31 -30 -77.5 -46.5t-93.5 -16.5z" />
    <glyph glyph-name="d" unicode="d" horiz-adv-x="609" 
d="M267 -9q-66 0 -116.5 31t-78 90t-27.5 140q0 82 27.5 140t78 89.5t116.5 31.5q65 0 114.5 -32.5t65.5 -88.5h-12v344h101v-736h-100v114h12q-17 -57 -66 -90t-115 -33zM292 70q65 0 105 46t40 136t-40 135.5t-105 45.5q-66 0 -105.5 -45.5t-39.5 -135.5t39.5 -136
t105.5 -46z" />
    <glyph glyph-name="e" unicode="e" horiz-adv-x="546" 
d="M307 -9q-122 0 -192 69t-70 191q0 79 30.5 138t85 91.5t126.5 32.5q71 0 119 -30t73 -84.5t25 -128.5v-32h-380v58h311l-17 -13q0 75 -33.5 116.5t-96.5 41.5q-70 0 -108 -48.5t-38 -133.5v-10q0 -89 43.5 -134t123.5 -45q44 0 82.5 12.5t73.5 41.5l33 -69
q-35 -31 -85 -47.5t-106 -16.5z" />
    <glyph glyph-name="f" unicode="f" horiz-adv-x="352" 
d="M104 0v426h-98v78h126l-28 -26v80q0 89 45 135.5t132 46.5q21 0 44 -3t38 -10v-82q-12 5 -29.5 8.5t-35.5 3.5q-29 0 -50 -11.5t-32.5 -34.5t-11.5 -59v-68l-15 20h152v-78h-136v-426h-101z" />
    <glyph glyph-name="g" unicode="g" horiz-adv-x="612" 
d="M301 -224q-68 0 -123.5 16t-99.5 48l25 74q31 -21 61 -33.5t63 -18.5t68 -6q72 0 108.5 36.5t36.5 105.5v135h10q-16 -56 -65.5 -88.5t-114.5 -32.5q-69 0 -119.5 30.5t-78 87t-27.5 133.5t27.5 133t78 86.5t119.5 30.5q66 0 114.5 -32.5t64.5 -88.5l-9 8l9 104h98
q-4 -31 -6 -61.5t-2 -59.5v-373q0 -114 -60.5 -174t-177.5 -60zM294 91q66 0 105.5 45t39.5 127t-39.5 126t-105.5 44q-68 0 -107.5 -44t-39.5 -126t39.5 -127t107.5 -45z" />
    <glyph glyph-name="h" unicode="h" horiz-adv-x="593" 
d="M74 0v736h101v-339h-14q22 57 71 86.5t113 29.5q90 0 134 -49.5t44 -149.5v-314h-101v308q0 65 -25.5 94.5t-80.5 29.5q-64 0 -102.5 -39.5t-38.5 -104.5v-288h-101z" />
    <glyph glyph-name="i" unicode="i" horiz-adv-x="249" 
d="M74 0v504h101v-504h-101zM66 609v105h117v-105h-117z" />
    <glyph glyph-name="j" unicode="j" horiz-adv-x="249" 
d="M15 -221q-16 0 -37.5 3t-37.5 10v82q13 -4 28.5 -7.5t29.5 -3.5q39 0 59.5 24.5t20.5 80.5v536h101v-543q0 -90 -40 -136t-124 -46zM69 609v105h118v-105h-118z" />
    <glyph glyph-name="k" unicode="k" horiz-adv-x="532" 
d="M74 0v736h101v-452h2l220 220h125l-266 -265l1 45l287 -284h-128l-239 231h-2v-231h-101z" />
    <glyph glyph-name="l" unicode="l" horiz-adv-x="249" 
d="M74 0v736h101v-736h-101z" />
    <glyph glyph-name="m" unicode="m" horiz-adv-x="888" 
d="M74 0v383q0 29 -2.5 59.5t-5.5 61.5h98l9 -106h-12q21 55 64.5 85t104.5 30q62 0 101.5 -29.5t54.5 -90.5h-16q20 55 68 87.5t111 32.5q84 0 126 -49t42 -152v-312h-101v307q0 66 -22.5 95.5t-72.5 29.5q-58 0 -92 -40t-34 -108v-284h-101v307q0 66 -22.5 95.5
t-72.5 29.5q-58 0 -91 -40t-33 -108v-284h-101z" />
    <glyph glyph-name="n" unicode="n" horiz-adv-x="593" 
d="M74 0v383q0 29 -2.5 59.5t-5.5 61.5h98l9 -106h-12q23 56 71 85.5t111 29.5q89 0 134.5 -49t45.5 -152v-312h-101v306q0 67 -26.5 96.5t-80.5 29.5q-64 0 -102 -39.5t-38 -106.5v-286h-101z" />
    <glyph glyph-name="o" unicode="o" horiz-adv-x="581" 
d="M290 -9q-75 0 -130 31.5t-85 90t-30 139.5t30 139.5t85 90t130 31.5t130.5 -31.5t86 -90t30.5 -139.5t-30.5 -139.5t-86 -90t-130.5 -31.5zM290 70q66 0 105 46t39 136t-39 135.5t-105 45.5q-65 0 -104 -45.5t-39 -135.5t38.5 -136t104.5 -46z" />
    <glyph glyph-name="p" unicode="p" horiz-adv-x="609" 
d="M74 -216v599q0 29 -2.5 59.5t-5.5 61.5h98l10 -114h-11q16 57 64.5 90t115.5 33t117 -31.5t77.5 -89.5t27.5 -140q0 -81 -27.5 -140t-77.5 -90t-117 -31q-66 0 -114.5 32.5t-64.5 88.5h11v-328h-101zM318 70q66 0 105.5 46t39.5 136t-39.5 135.5t-105.5 45.5
t-105.5 -45.5t-39.5 -135.5t39.5 -136t105.5 -46z" />
    <glyph glyph-name="q" unicode="q" horiz-adv-x="609" 
d="M435 -216v328h11q-16 -56 -65.5 -88.5t-113.5 -32.5q-67 0 -117 31t-77.5 90t-27.5 140q0 82 27.5 140t77.5 89.5t117 31.5q66 0 115 -33t65 -90h-11l10 114h98q-3 -31 -5.5 -61.5t-2.5 -59.5v-599h-101zM292 70q65 0 104.5 46t39.5 136t-39.5 135.5t-104.5 45.5
q-66 0 -105.5 -45.5t-39.5 -135.5t39 -136t106 -46z" />
    <glyph glyph-name="r" unicode="r" horiz-adv-x="377" 
d="M72 0v379q0 31 -1.5 62.5t-4.5 62.5h98l11 -130h-16q10 47 34 78t58.5 46t72.5 15q16 0 27 -1.5t22 -4.5l-1 -90q-17 7 -29.5 8.5t-30.5 1.5q-44 0 -75 -19.5t-47 -52.5t-16 -71v-284h-102z" />
    <glyph glyph-name="s" unicode="s" horiz-adv-x="498" 
d="M247 -9q-63 0 -116 16t-88 45l31 69q37 -28 82 -42t92 -14q55 0 83 19.5t28 53.5q0 26 -17.5 42t-57.5 24l-96 19q-64 14 -97 48t-33 87q0 45 24.5 80t70 55t106.5 20q56 0 104 -16t80 -46l-32 -67q-31 26 -70 40.5t-79 14.5q-56 0 -83 -21t-27 -55q0 -26 16.5 -42.5
t52.5 -25.5l96 -19q68 -14 102 -46t34 -86q0 -47 -26 -82t-72 -53t-108 -18z" />
    <glyph glyph-name="t" unicode="t" horiz-adv-x="363" 
d="M270 -9q-82 0 -124 44.5t-42 133.5v257h-98v78h98v133l101 27v-160h140v-78h-140v-248q0 -56 20 -80t58 -24q19 0 33.5 3.5t26.5 8.5v-82q-15 -6 -35 -9.5t-38 -3.5z" />
    <glyph glyph-name="u" unicode="u" horiz-adv-x="586" 
d="M253 -9q-91 0 -136.5 49.5t-45.5 152.5v311h101v-309q0 -63 26 -93t79 -30q60 0 97 40t37 106v286h101v-504h-98v108h13q-21 -56 -67 -86.5t-107 -30.5z" />
    <glyph glyph-name="v" unicode="v" horiz-adv-x="537" 
d="M222 0l-216 504h108l170 -421h-29l173 421h103l-217 -504h-92z" />
    <glyph glyph-name="w" unicode="w" horiz-adv-x="875" 
d="M211 0l-191 504h105l149 -420h-26l153 420h78l152 -420h-25l149 420h101l-192 -504h-92l-158 428h47l-156 -428h-94z" />
    <glyph glyph-name="x" unicode="x" horiz-adv-x="541" 
d="M2 0l229 284v-48l-217 268h121l153 -197h-36l153 197h120l-215 -267v46l228 -283h-121l-165 211h36l-166 -211h-120z" />
    <glyph glyph-name="y" unicode="y" horiz-adv-x="536" 
d="M59 -227l-24 82q47 10 78.5 24t52.5 36.5t36 57.5l25 59l-2 -41l-219 513h108l170 -420h-27l170 420h104l-231 -540q-22 -50 -47 -84t-54 -55t-64 -33t-76 -19z" />
    <glyph glyph-name="z" unicode="z" horiz-adv-x="522" 
d="M49 0v67l328 384l1 -25h-329v78h421v-67l-331 -387l-1 27h343v-77h-432z" />
    <glyph glyph-name="braceleft" unicode="{" horiz-adv-x="372" 
d="M257 -180q-53 0 -81 29t-28 83v211q0 41 -16 59t-55 21l-33 2v75l33 3q39 2 55 20t16 59v211q0 55 28 83.5t81 28.5h105v-78h-71q-22 0 -33 -11t-11 -34v-211q0 -30 -13 -55.5t-34.5 -40.5t-48.5 -15v4q27 0 48.5 -14.5t34.5 -39t13 -56.5v-211q0 -22 11 -33.5t33 -11.5
h71v-78h-105z" />
    <glyph glyph-name="bar" unicode="|" horiz-adv-x="272" 
d="M86 -185v895h101v-895h-101z" />
    <glyph glyph-name="braceright" unicode="}" horiz-adv-x="372" 
d="M10 -180v78h71q23 0 33.5 11.5t10.5 33.5v211q0 31 12.5 56t34.5 40t49 15v-4q-27 0 -49 14.5t-34.5 40t-12.5 55.5v211q0 23 -10.5 34t-33.5 11h-71v78h105q53 0 81 -28.5t28 -83.5v-211q0 -40 16 -58.5t55 -20.5l33 -2v-76l-33 -3q-39 -2 -55 -19.5t-16 -59.5v-211
q0 -54 -28 -83t-81 -29h-105z" />
    <glyph glyph-name="asciitilde" unicode="~" horiz-adv-x="600" 
d="M414 213q-25 0 -53 9t-70 32q-40 21 -61.5 28.5t-37.5 7.5q-54 0 -81 -64l-58 34q20 48 54.5 74.5t78.5 26.5q25 0 53 -8.5t69 -29.5q38 -20 60 -29.5t40 -9.5q54 0 81 64l58 -34q-20 -49 -54 -75t-79 -26z" />
    <glyph glyph-name="uni00A0" unicode="&#xa0;" horiz-adv-x="267" 
 />
    <glyph glyph-name="exclamdown" unicode="&#xa1;" horiz-adv-x="237" 
d="M56 -180l32 489h62l31 -489h-125zM59 385v119h119v-119h-119z" />
    <glyph glyph-name="cent" unicode="&#xa2;" horiz-adv-x="600" 
d="M275 -115v135l20 -25q-63 8 -110 41t-72.5 87t-25.5 121q0 66 26 118.5t72.5 86.5t108.5 42l-19 -29v146h82v-141l-21 27q50 0 97.5 -16.5t75.5 -46.5l-30 -70q-29 25 -64.5 38.5t-73.5 13.5q-69 0 -110 -46t-41 -121q0 -77 40 -123.5t110 -46.5q38 0 74 13.5t65 38.5
l30 -70q-30 -29 -77 -46.5t-98 -19.5l23 24v-131h-82z" />
    <glyph glyph-name="sterling" unicode="&#xa3;" horiz-adv-x="600" 
d="M45 0v71q44 17 69 42t25 65v143h-95v65h95v118q0 66 25.5 113t76.5 72t128 25q60 0 113 -19.5t92 -56.5l-39 -77q-35 36 -75 52t-89 16q-65 0 -96.5 -30.5t-31.5 -90.5v-122h178v-65h-177v-116q0 -50 -21 -80t-57 -44v5h399v-86h-520z" />
    <glyph glyph-name="currency" unicode="&#xa4;" horiz-adv-x="600" 
d="M80 -28l-47 48l74 75q-23 31 -36 69.5t-13 80.5q0 43 13 81.5t36 69.5l-74 75l47 47l74 -76q30 25 67.5 38t78.5 13q40 0 77 -12.5t67 -36.5l73 75l48 -49l-73 -75q24 -31 36 -69.5t12 -80.5t-12.5 -80.5t-36.5 -70.5l74 -74l-47 -47l-73 75q-30 -24 -67 -37.5t-78 -13.5
t-78.5 13.5t-68.5 36.5zM299 81q43 0 78 22.5t55.5 59.5t20.5 82q0 46 -20.5 83t-55.5 59.5t-78 21.5q-42 0 -77.5 -22t-56 -59t-20.5 -83q0 -45 20.5 -82t55.5 -59.5t78 -22.5z" />
    <glyph glyph-name="yen" unicode="&#xa5;" horiz-adv-x="600" 
d="M248 0v173h-178v63h178v91h-178v63h152v-13l-232 328h114l208 -301h-24l209 301h113l-231 -328v13h151v-63h-178v-91h178v-63h-178v-173h-104z" />
    <glyph glyph-name="brokenbar" unicode="&#xa6;" horiz-adv-x="272" 
d="M86 372v338h101v-338h-101zM86 -185v339h101v-339h-101z" />
    <glyph glyph-name="section" unicode="&#xa7;" horiz-adv-x="555" 
d="M255 -189q-67 0 -122 16.5t-91 46.5l32 69q22 -17 51.5 -30.5t64 -21t67.5 -7.5q58 0 93 26.5t35 75.5q0 33 -19.5 58t-67.5 47l-121 54q-53 25 -84.5 50.5t-45.5 55.5t-14 67q0 44 22.5 83t61.5 65l-8 -28q-16 16 -25 39t-9 55q0 57 29 97.5t79.5 62.5t116.5 22
q63 0 115.5 -15.5t85.5 -45.5l-31 -68q-33 25 -80 40t-92 15q-55 0 -90 -26t-35 -75q0 -34 20 -58.5t68 -46.5l120 -54q53 -24 84.5 -50t45.5 -56t14 -67q0 -44 -22 -83t-61 -65l8 28q15 -16 24 -39.5t9 -55.5q0 -56 -28.5 -97t-80 -62.5t-119.5 -21.5zM125 334
q0 -34 22 -60.5t80 -53.5l103 -47q33 -15 56.5 -31.5t37.5 -32.5l-28 -2q38 35 38 83q0 35 -22.5 61.5t-79.5 53.5l-104 46q-33 16 -56 32.5t-37 32.5l27 2q-18 -17 -27.5 -38.5t-9.5 -45.5z" />
    <glyph glyph-name="dieresis" unicode="&#xa8;" horiz-adv-x="500" 
d="M291 604v99h99v-99h-99zM110 604v99h99v-99h-99z" />
    <glyph glyph-name="copyright" unicode="&#xa9;" horiz-adv-x="815" 
d="M408 -9q-76 0 -142.5 27.5t-115.5 76.5t-76.5 115.5t-27.5 142.5q0 77 27.5 143t76.5 114.5t115 76t143 27.5t143 -27.5t114.5 -76t76 -114.5t27.5 -143q0 -76 -27.5 -142.5t-76 -115.5t-114.5 -76.5t-143 -27.5zM423 137q-98 0 -155 59.5t-57 158.5t57 156t155 57
q40 0 79.5 -13.5t64.5 -37.5l-28 -62q-24 22 -53 32.5t-57 10.5q-61 0 -95.5 -38t-34.5 -106q0 -67 34.5 -106.5t95.5 -39.5q28 0 57 10.5t53 32.5l28 -63q-25 -23 -65 -37t-79 -14zM408 39q67 0 123.5 23.5t98.5 66.5t65.5 100t23.5 124t-23.5 124t-65.5 99.5t-98.5 66
t-123.5 23.5t-124 -23.5t-99 -66t-65.5 -99.5t-23.5 -124t23.5 -124t65.5 -100t99 -66.5t124 -23.5z" />
    <glyph glyph-name="ordfeminine" unicode="&#xaa;" horiz-adv-x="333" 
d="M133 409q-48 0 -79 26.5t-31 66.5q0 46 41.5 66t116.5 20h56v-40h-53q-48 0 -70.5 -11t-22.5 -34q0 -19 14 -32t45 -13q34 0 56.5 23t22.5 63v58q0 31 -17 45.5t-52 14.5q-26 0 -54 -6.5t-52 -21.5l-18 49q25 16 60 23.5t68 7.5q132 0 132 -115v-184h-65v55h-2
q-16 -31 -38.5 -46t-57.5 -15z" />
    <glyph glyph-name="guillemotleft" unicode="&#xab;" horiz-adv-x="469" 
d="M155 87l-130 181l130 181h85l-120 -181l120 -181h-85zM349 87l-130 181l130 181h85l-120 -181l120 -181h-85z" />
    <glyph glyph-name="logicalnot" unicode="&#xac;" horiz-adv-x="600" 
d="M470 145v207h-417v73h494v-280h-77z" />
    <glyph glyph-name="uni00AD" unicode="&#xad;" horiz-adv-x="433" 
d="M70 234v81h293v-81h-293z" />
    <glyph glyph-name="registered" unicode="&#xae;" horiz-adv-x="815" 
d="M408 -9q-76 0 -142.5 27.5t-115.5 76.5t-76.5 115.5t-27.5 142.5q0 77 27.5 143t76.5 114.5t115 76t143 27.5t143 -27.5t114.5 -76t76 -114.5t27.5 -143q0 -76 -27.5 -142.5t-76 -115.5t-114.5 -76.5t-143 -27.5zM408 39q67 0 123.5 23.5t98.5 66.5t65.5 100t23.5 124
t-23.5 124t-65.5 99.5t-98.5 66t-123.5 23.5t-124 -23.5t-99 -66t-65.5 -99.5t-23.5 -124t23.5 -124t65.5 -100t99 -66.5t124 -23.5zM259 142v422h177q69 0 106 -33.5t37 -89.5q0 -58 -36.5 -88.5t-103.5 -30.5l16 11q32 0 52.5 -14.5t32.5 -54.5l44 -122h-82l-44 128
q-9 23 -25.5 31t-40.5 8h-68l15 11v-178h-80zM338 371h87q39 0 58 16t19 50t-19 50t-58 16h-87v-132z" />
    <glyph glyph-name="macron" unicode="&#xaf;" horiz-adv-x="500" 
d="M97 621v64h306v-64h-306z" />
    <glyph glyph-name="degree" unicode="&#xb0;" horiz-adv-x="375" 
d="M188 413q-44 0 -78.5 20t-54.5 54t-20 77t20 76.5t54.5 53.5t78.5 20q43 0 77 -19.5t54 -53.5t20 -77t-20 -77.5t-54 -54t-77 -19.5zM188 475q38 0 61 25t23 64q0 38 -23 63t-61 25t-62 -25t-24 -63q0 -39 24 -64t62 -25z" />
    <glyph glyph-name="plusminus" unicode="&#xb1;" horiz-adv-x="600" 
d="M262 132v162h-209v74h209v162h76v-162h209v-74h-209v-162h-76zM53 0v74h494v-74h-494z" />
    <glyph glyph-name="uni00B2" unicode="&#xb2;" horiz-adv-x="380" 
d="M49 282v60l138 139q27 29 39.5 51.5t12.5 47.5q0 59 -69 59q-27 0 -57 -11t-53 -30l-23 63q27 22 66 35t84 13q65 0 103 -32t38 -87q0 -34 -16.5 -66.5t-53.5 -68.5l-114 -113v10h201v-70h-296z" />
    <glyph glyph-name="uni00B3" unicode="&#xb3;" horiz-adv-x="380" 
d="M187 278q-48 0 -88.5 11.5t-68.5 33.5l21 61q25 -19 58.5 -29.5t70.5 -10.5q36 0 58.5 15.5t22.5 47.5q0 30 -22 43.5t-59 13.5h-81v63h70q37 0 58 15.5t21 44.5q0 27 -19 41.5t-55 14.5q-31 0 -63 -11.5t-55 -30.5l-22 61q27 22 67 34.5t86 12.5q66 0 104.5 -30
t38.5 -80q0 -41 -25.5 -68.5t-62.5 -35.5v9q45 -6 72 -32.5t27 -73.5q0 -57 -43.5 -88.5t-110.5 -31.5z" />
    <glyph glyph-name="acute" unicode="&#xb4;" horiz-adv-x="500" 
d="M215 553l103 202h103l-136 -202h-70z" />
    <glyph glyph-name="uni00B5" unicode="&#xb5;" horiz-adv-x="575" 
d="M68 -203v707h101v-314q0 -60 25 -88t77 -28q60 0 97 38t37 103v289h101v-504h-99v107h6q-15 -56 -53.5 -86t-89.5 -30q-40 0 -70.5 14.5t-47.5 54.5h9l8 -263h-101z" />
    <glyph glyph-name="paragraph" unicode="&#xb6;" horiz-adv-x="614" 
d="M250 -180v477q-63 0 -110 26.5t-73 72t-26 106.5q0 60 26 105.5t74 71.5t112 26h278v-885h-77v811h-127v-811h-77z" />
    <glyph glyph-name="periodcentered" unicode="&#xb7;" horiz-adv-x="240" 
d="M60 215v119h120v-119h-120z" />
    <glyph glyph-name="cedilla" unicode="&#xb8;" horiz-adv-x="500" 
d="M252 -194q-28 0 -52.5 5.5t-43.5 15.5l16 49q18 -8 35 -12t38 -4q27 0 42.5 8.5t15.5 24.5q0 26 -38 26q-10 0 -20.5 -1.5t-24.5 -5.5l-18 16l15 92h58l-13 -76l-28 9q12 3 24 5t22 2q39 0 63 -18t24 -52q0 -37 -32 -60.5t-83 -23.5z" />
    <glyph glyph-name="uni00B9" unicode="&#xb9;" horiz-adv-x="380" 
d="M72 282v70h98v281h36l-125 -71v80l110 63h62v-353h86v-70h-267z" />
    <glyph glyph-name="ordmasculine" unicode="&#xba;" horiz-adv-x="348" 
d="M174 410q-44 0 -78 19t-53.5 53.5t-19.5 80.5q0 47 19.5 80.5t53.5 52t78 18.5t78 -18.5t54 -52t20 -80.5q0 -46 -20 -80.5t-54 -53.5t-78 -19zM174 464q38 0 60 25.5t22 73.5t-22 73t-60 25t-60 -24.5t-22 -73.5t22.5 -74t59.5 -25z" />
    <glyph glyph-name="guillemotright" unicode="&#xbb;" horiz-adv-x="469" 
d="M120 87h-86l121 181l-121 181h87l129 -181zM314 87h-86l121 181l-121 181h87l129 -181z" />
    <glyph glyph-name="onequarter" unicode="&#xbc;" horiz-adv-x="904" 
d="M72 282v70h98v281h36l-125 -71v80l110 63h62v-353h86v-70h-267zM309 -9h-89l428 723h88zM750 0v80h-198v59l206 284h69v-278h62v-65h-62v-80h-77zM752 145v192h10l-149 -207v15h139z" />
    <glyph glyph-name="onehalf" unicode="&#xbd;" horiz-adv-x="950" 
d="M72 282v70h98v281h36l-125 -71v80l110 63h62v-353h86v-70h-267zM309 -9h-89l428 723h88zM619 0v60l138 139q27 29 39.5 51.5t12.5 47.5q0 59 -69 59q-27 0 -57 -11t-53 -30l-23 63q27 22 66 35t84 13q65 0 103 -32t38 -87q0 -34 -16.5 -66.5t-53.5 -68.5l-114 -113v10
h201v-70h-296z" />
    <glyph glyph-name="threequarters" unicode="&#xbe;" horiz-adv-x="904" 
d="M187 278q-48 0 -88.5 11.5t-68.5 33.5l21 61q25 -19 58.5 -29.5t70.5 -10.5q36 0 58.5 15.5t22.5 47.5q0 30 -22 43.5t-59 13.5h-81v63h70q37 0 58 15.5t21 44.5q0 27 -19 41.5t-55 14.5q-31 0 -63 -11.5t-55 -30.5l-22 61q27 22 67 34.5t86 12.5q66 0 104.5 -30
t38.5 -80q0 -41 -25.5 -68.5t-62.5 -35.5v9q45 -6 72 -32.5t27 -73.5q0 -57 -43.5 -88.5t-110.5 -31.5zM309 -9h-89l428 723h88zM750 0v80h-198v59l206 284h69v-278h62v-65h-62v-80h-77zM752 145v192h10l-149 -207v15h139z" />
    <glyph glyph-name="questiondown" unicode="&#xbf;" horiz-adv-x="455" 
d="M228 -206q-58 0 -103 18.5t-70.5 54.5t-25.5 87q0 33 9 60.5t30.5 56.5t56.5 63q49 47 68.5 82t23.5 71l4 21h62v-29q0 -48 -18.5 -91t-65.5 -94q-37 -40 -52 -69.5t-15 -61.5q0 -39 29 -61t79 -22q39 0 76 11.5t70 30.5v-90q-33 -18 -74.5 -28t-83.5 -10zM312 503v-119
h-119v119h119z" />
    <glyph glyph-name="Agrave" unicode="&#xc0;" horiz-adv-x="742" 
d="M10 0l314 705h89l319 -705h-107l-87 200l44 -28h-427l47 28l-87 -200h-105zM367 591l-152 -359l-24 23h355l-20 -23l-155 359h-4zM332 765l-153 173h109l118 -173h-74z" />
    <glyph glyph-name="Aacute" unicode="&#xc1;" horiz-adv-x="742" 
d="M10 0l314 705h89l319 -705h-107l-87 200l44 -28h-427l47 28l-87 -200h-105zM367 591l-152 -359l-24 23h355l-20 -23l-155 359h-4zM332 765l118 173h109l-153 -173h-74z" />
    <glyph glyph-name="Acircumflex" unicode="&#xc2;" horiz-adv-x="742" 
d="M10 0l314 705h89l319 -705h-107l-87 200l44 -28h-427l47 28l-87 -200h-105zM367 591l-152 -359l-24 23h355l-20 -23l-155 359h-4zM201 765l123 173h90l123 -173h-72l-96 112l-96 -112h-72z" />
    <glyph glyph-name="Atilde" unicode="&#xc3;" horiz-adv-x="742" 
d="M10 0l314 705h89l319 -705h-107l-87 200l44 -28h-427l47 28l-87 -200h-105zM367 591l-152 -359l-24 23h355l-20 -23l-155 359h-4zM207 778l-53 3q5 67 39.5 103.5t86.5 36.5q23 0 46.5 -9t56.5 -29q30 -18 47 -25.5t31 -7.5q29 0 46.5 19.5t23.5 55.5l53 -4
q-5 -67 -39 -103.5t-86 -36.5q-23 0 -47.5 9.5t-59.5 31.5q-28 18 -44 24.5t-31 6.5q-29 0 -46.5 -19t-23.5 -56z" />
    <glyph glyph-name="Adieresis" unicode="&#xc4;" horiz-adv-x="742" 
d="M10 0l314 705h89l319 -705h-107l-87 200l44 -28h-427l47 28l-87 -200h-105zM367 591l-152 -359l-24 23h355l-20 -23l-155 359h-4zM410 799v99h99v-99h-99zM229 799v99h99v-99h-99z" />
    <glyph glyph-name="Aring" unicode="&#xc5;" horiz-adv-x="742" 
d="M10 0l314 705h89l319 -705h-107l-87 200l44 -28h-427l47 28l-87 -200h-105zM367 591l-152 -359l-24 23h355l-20 -23l-155 359h-4zM369 756q-34 0 -62 16.5t-44 43.5t-16 60q0 34 16 60.5t44 42t62 15.5q35 0 62.5 -15.5t43.5 -42.5t16 -60t-16 -60t-43.5 -43.5
t-62.5 -16.5zM369 806q31 0 50 20t19 50q0 29 -19 48.5t-50 19.5q-30 0 -49.5 -19.5t-19.5 -48.5q0 -30 19.5 -50t49.5 -20z" />
    <glyph glyph-name="AE" unicode="&#xc6;" horiz-adv-x="1011" 
d="M-10 0l435 705h540v-83h-390l23 22l23 -272l-17 28h339v-84h-334l16 10l24 -268l-14 26h330v-84h-407l-17 195l27 -23h-377l33 28l-121 -200h-113zM476 621l-234 -390l-9 25h315l-9 -27l-35 392h-28z" />
    <glyph glyph-name="Ccedilla" unicode="&#xc7;" horiz-adv-x="685" 
d="M400 -9q-108 0 -184 44t-116.5 125.5t-40.5 192.5t40.5 192t116.5 125t184 44q75 0 134 -22t103 -64l-36 -83q-48 41 -93.5 59t-105.5 18q-114 0 -174 -70t-60 -199t60 -199.5t174 -70.5q60 0 105.5 18t93.5 60l36 -83q-44 -42 -103 -64.5t-134 -22.5zM396 -194
q-28 0 -52.5 5.5t-43.5 15.5l16 49q18 -8 35 -12t38 -4q27 0 42.5 8.5t15.5 24.5q0 26 -38 26q-10 0 -20.5 -1.5t-24.5 -5.5l-18 16l15 92h58l-13 -76l-28 9q12 3 24 5t22 2q39 0 63 -18t24 -52q0 -37 -32 -60.5t-83 -23.5z" />
    <glyph glyph-name="Egrave" unicode="&#xc8;" horiz-adv-x="591" 
d="M83 0v705h462v-83h-361v-222h338v-84h-338v-232h361v-84h-462zM293 765l-153 173h109l118 -173h-74z" />
    <glyph glyph-name="Eacute" unicode="&#xc9;" horiz-adv-x="591" 
d="M83 0v705h462v-83h-361v-222h338v-84h-338v-232h361v-84h-462zM293 765l118 173h109l-153 -173h-74z" />
    <glyph glyph-name="Ecircumflex" unicode="&#xca;" horiz-adv-x="591" 
d="M83 0v705h462v-83h-361v-222h338v-84h-338v-232h361v-84h-462zM162 765l123 173h90l123 -173h-72l-96 112l-96 -112h-72z" />
    <glyph glyph-name="Edieresis" unicode="&#xcb;" horiz-adv-x="591" 
d="M83 0v705h462v-83h-361v-222h338v-84h-338v-232h361v-84h-462zM371 799v99h99v-99h-99zM190 799v99h99v-99h-99z" />
    <glyph glyph-name="Igrave" unicode="&#xcc;" horiz-adv-x="270" 
d="M83 0v705h104v-705h-104zM98 765l-153 173h109l118 -173h-74z" />
    <glyph glyph-name="Iacute" unicode="&#xcd;" horiz-adv-x="270" 
d="M83 0v705h104v-705h-104zM98 765l118 173h109l-153 -173h-74z" />
    <glyph glyph-name="Icircumflex" unicode="&#xce;" horiz-adv-x="270" 
d="M83 0v705h104v-705h-104zM-33 765l123 173h90l123 -173h-72l-96 112l-96 -112h-72z" />
    <glyph glyph-name="Idieresis" unicode="&#xcf;" horiz-adv-x="270" 
d="M83 0v705h104v-705h-104zM176 799v99h99v-99h-99zM-5 799v99h99v-99h-99z" />
    <glyph glyph-name="Eth" unicode="&#xd0;" horiz-adv-x="754" 
d="M83 0v705h244q119 0 201.5 -41t125 -119.5t42.5 -191.5q0 -112 -42.5 -191t-125 -120.5t-201.5 -41.5h-244zM187 87h134q136 0 202.5 66t66.5 200t-66.5 199.5t-202.5 65.5h-134v-531zM-2 319v77h385v-77h-385z" />
    <glyph glyph-name="Ntilde" unicode="&#xd1;" horiz-adv-x="750" 
d="M83 0v705h80l433 -568h-25v568h97v-705h-79l-432 568h23v-568h-97zM215 778l-53 3q5 67 39.5 103.5t86.5 36.5q23 0 46.5 -9t56.5 -29q30 -18 47 -25.5t31 -7.5q29 0 46.5 19.5t23.5 55.5l53 -4q-5 -67 -39 -103.5t-86 -36.5q-23 0 -47.5 9.5t-59.5 31.5q-28 18 -44 24.5
t-31 6.5q-29 0 -46.5 -19t-23.5 -56z" />
    <glyph glyph-name="Ograve" unicode="&#xd2;" horiz-adv-x="779" 
d="M59 353q0 111 39 192t113.5 125t177.5 44q102 0 176 -44t114.5 -125t40.5 -191q0 -111 -40.5 -192.5t-115 -126t-175.5 -44.5q-103 0 -177 44.5t-113.5 126t-39.5 191.5zM168 353q0 -128 56 -200t165 -72q106 0 164 71.5t58 200.5t-57.5 200t-164.5 71q-109 0 -165 -71
t-56 -200zM352 765l-153 173h109l118 -173h-74z" />
    <glyph glyph-name="Oacute" unicode="&#xd3;" horiz-adv-x="779" 
d="M59 353q0 111 39 192t113.5 125t177.5 44q102 0 176 -44t114.5 -125t40.5 -191q0 -111 -40.5 -192.5t-115 -126t-175.5 -44.5q-103 0 -177 44.5t-113.5 126t-39.5 191.5zM168 353q0 -128 56 -200t165 -72q106 0 164 71.5t58 200.5t-57.5 200t-164.5 71q-109 0 -165 -71
t-56 -200zM352 765l118 173h109l-153 -173h-74z" />
    <glyph glyph-name="Ocircumflex" unicode="&#xd4;" horiz-adv-x="779" 
d="M59 353q0 111 39 192t113.5 125t177.5 44q102 0 176 -44t114.5 -125t40.5 -191q0 -111 -40.5 -192.5t-115 -126t-175.5 -44.5q-103 0 -177 44.5t-113.5 126t-39.5 191.5zM168 353q0 -128 56 -200t165 -72q106 0 164 71.5t58 200.5t-57.5 200t-164.5 71q-109 0 -165 -71
t-56 -200zM221 765l123 173h90l123 -173h-72l-96 112l-96 -112h-72z" />
    <glyph glyph-name="Otilde" unicode="&#xd5;" horiz-adv-x="779" 
d="M59 353q0 111 39 192t113.5 125t177.5 44q102 0 176 -44t114.5 -125t40.5 -191q0 -111 -40.5 -192.5t-115 -126t-175.5 -44.5q-103 0 -177 44.5t-113.5 126t-39.5 191.5zM168 353q0 -128 56 -200t165 -72q106 0 164 71.5t58 200.5t-57.5 200t-164.5 71q-109 0 -165 -71
t-56 -200zM227 778l-53 3q5 67 39.5 103.5t86.5 36.5q23 0 46.5 -9t56.5 -29q30 -18 47 -25.5t31 -7.5q29 0 46.5 19.5t23.5 55.5l53 -4q-5 -67 -39 -103.5t-86 -36.5q-23 0 -47.5 9.5t-59.5 31.5q-28 18 -44 24.5t-31 6.5q-29 0 -46.5 -19t-23.5 -56z" />
    <glyph glyph-name="Odieresis" unicode="&#xd6;" horiz-adv-x="779" 
d="M59 353q0 111 39 192t113.5 125t177.5 44q102 0 176 -44t114.5 -125t40.5 -191q0 -111 -40.5 -192.5t-115 -126t-175.5 -44.5q-103 0 -177 44.5t-113.5 126t-39.5 191.5zM168 353q0 -128 56 -200t165 -72q106 0 164 71.5t58 200.5t-57.5 200t-164.5 71q-109 0 -165 -71
t-56 -200zM430 799v99h99v-99h-99zM249 799v99h99v-99h-99z" />
    <glyph glyph-name="multiply" unicode="&#xd7;" horiz-adv-x="600" 
d="M118 50l-52 52l182 183l-182 183l52 52l182 -182l183 182l52 -52l-183 -183l183 -183l-52 -52l-183 183z" />
    <glyph glyph-name="Oslash" unicode="&#xd8;" horiz-adv-x="779" 
d="M59 353q0 111 39 192t113.5 125t177.5 44q102 0 176 -44t114.5 -125t40.5 -191q0 -111 -40.5 -192.5t-115 -126t-175.5 -44.5q-103 0 -177 44.5t-113.5 126t-39.5 191.5zM168 353q0 -128 56 -200t165 -72q106 0 164 71.5t58 200.5t-57.5 200t-164.5 71q-109 0 -165 -71
t-56 -200zM261 47l-58 -100l-69 40l58 101l33 44l282 482l18 44l58 100l69 -40l-58 -101l-33 -44l-282 -482z" />
    <glyph glyph-name="Ugrave" unicode="&#xd9;" horiz-adv-x="735" 
d="M369 -9q-147 0 -218.5 74t-71.5 219v421h104v-419q0 -102 44.5 -153.5t141.5 -51.5q92 0 139 51.5t47 153.5v419h102v-421q0 -145 -73 -219t-215 -74zM332 765l-153 173h109l118 -173h-74z" />
    <glyph glyph-name="Uacute" unicode="&#xda;" horiz-adv-x="735" 
d="M369 -9q-147 0 -218.5 74t-71.5 219v421h104v-419q0 -102 44.5 -153.5t141.5 -51.5q92 0 139 51.5t47 153.5v419h102v-421q0 -145 -73 -219t-215 -74zM332 765l118 173h109l-153 -173h-74z" />
    <glyph glyph-name="Ucircumflex" unicode="&#xdb;" horiz-adv-x="735" 
d="M369 -9q-147 0 -218.5 74t-71.5 219v421h104v-419q0 -102 44.5 -153.5t141.5 -51.5q92 0 139 51.5t47 153.5v419h102v-421q0 -145 -73 -219t-215 -74zM201 765l123 173h90l123 -173h-72l-96 112l-96 -112h-72z" />
    <glyph glyph-name="Udieresis" unicode="&#xdc;" horiz-adv-x="735" 
d="M369 -9q-147 0 -218.5 74t-71.5 219v421h104v-419q0 -102 44.5 -153.5t141.5 -51.5q92 0 139 51.5t47 153.5v419h102v-421q0 -145 -73 -219t-215 -74zM410 799v99h99v-99h-99zM229 799v99h99v-99h-99z" />
    <glyph glyph-name="Yacute" unicode="&#xdd;" horiz-adv-x="617" 
d="M256 0v331l23 -66l-297 440h120l221 -337h-25l221 337h116l-296 -440l21 66v-331h-104zM272 765l118 173h109l-153 -173h-74z" />
    <glyph glyph-name="Thorn" unicode="&#xde;" horiz-adv-x="659" 
d="M83 0v705h104v-130h192q113 0 175 -54.5t62 -150.5q0 -95 -62 -150.5t-175 -55.5h-192v-164h-104zM187 248h185q70 0 106 32t36 90t-36 90t-106 32h-185v-244z" />
    <glyph glyph-name="germandbls" unicode="&#xdf;" horiz-adv-x="652" 
d="M74 0v484q0 127 63.5 193t188.5 66q66 0 112.5 -21t72.5 -60t26 -94q0 -64 -37.5 -115.5t-133.5 -90.5v19q89 -24 146 -54.5t84 -70.5t27 -94q0 -53 -25 -91.5t-70.5 -59t-107.5 -20.5q-40 0 -73 7t-60.5 20t-51.5 33l29 69q38 -27 74.5 -40t80.5 -13q51 0 79 23.5
t28 68.5q0 33 -21 62t-73 55t-146 50v79q59 21 93.5 45.5t48.5 53t14 62.5q0 45 -30.5 72t-84.5 27q-78 0 -115 -41.5t-37 -127.5v-496h-101z" />
    <glyph glyph-name="agrave" unicode="&#xe0;" horiz-adv-x="609" 
d="M267 -9q-67 0 -117 31t-77.5 90t-27.5 140q0 82 27.5 140t77.5 89.5t117 31.5q66 0 115 -33t65 -90h-11l10 114h98q-3 -31 -5.5 -61.5t-2.5 -59.5v-383h-101v112h11q-16 -56 -65.5 -88.5t-113.5 -32.5zM292 70q65 0 104.5 46t39.5 136t-39.5 135.5t-104.5 45.5
q-66 0 -105.5 -45.5t-39.5 -135.5t39 -136t106 -46zM264 553l-136 202h103l103 -202h-70z" />
    <glyph glyph-name="aacute" unicode="&#xe1;" horiz-adv-x="609" 
d="M267 -9q-67 0 -117 31t-77.5 90t-27.5 140q0 82 27.5 140t77.5 89.5t117 31.5q66 0 115 -33t65 -90h-11l10 114h98q-3 -31 -5.5 -61.5t-2.5 -59.5v-383h-101v112h11q-16 -56 -65.5 -88.5t-113.5 -32.5zM292 70q65 0 104.5 46t39.5 136t-39.5 135.5t-104.5 45.5
q-66 0 -105.5 -45.5t-39.5 -135.5t39 -136t106 -46zM264 553l103 202h103l-136 -202h-70z" />
    <glyph glyph-name="acircumflex" unicode="&#xe2;" horiz-adv-x="609" 
d="M267 -9q-67 0 -117 31t-77.5 90t-27.5 140q0 82 27.5 140t77.5 89.5t117 31.5q66 0 115 -33t65 -90h-11l10 114h98q-3 -31 -5.5 -61.5t-2.5 -59.5v-383h-101v112h11q-16 -56 -65.5 -88.5t-113.5 -32.5zM292 70q65 0 104.5 46t39.5 136t-39.5 135.5t-104.5 45.5
q-66 0 -105.5 -45.5t-39.5 -135.5t39 -136t106 -46zM143 553l110 202h92l110 -202h-67l-89 140l-89 -140h-67z" />
    <glyph glyph-name="atilde" unicode="&#xe3;" horiz-adv-x="609" 
d="M267 -9q-67 0 -117 31t-77.5 90t-27.5 140q0 82 27.5 140t77.5 89.5t117 31.5q66 0 115 -33t65 -90h-11l10 114h98q-3 -31 -5.5 -61.5t-2.5 -59.5v-383h-101v112h11q-16 -56 -65.5 -88.5t-113.5 -32.5zM292 70q65 0 104.5 46t39.5 136t-39.5 135.5t-104.5 45.5
q-66 0 -105.5 -45.5t-39.5 -135.5t39 -136t106 -46zM166 587l-53 4q5 67 35.5 103.5t77.5 36.5q21 0 40 -10t43 -29q21 -18 34.5 -25.5t26.5 -7.5q51 0 62 75l53 -3q-4 -67 -34.5 -103.5t-77.5 -36.5q-21 0 -40 9.5t-45 29.5q-20 18 -33 25t-27 7q-27 0 -42 -19.5t-20 -55.5
z" />
    <glyph glyph-name="adieresis" unicode="&#xe4;" horiz-adv-x="609" 
d="M267 -9q-67 0 -117 31t-77.5 90t-27.5 140q0 82 27.5 140t77.5 89.5t117 31.5q66 0 115 -33t65 -90h-11l10 114h98q-3 -31 -5.5 -61.5t-2.5 -59.5v-383h-101v112h11q-16 -56 -65.5 -88.5t-113.5 -32.5zM292 70q65 0 104.5 46t39.5 136t-39.5 135.5t-104.5 45.5
q-66 0 -105.5 -45.5t-39.5 -135.5t39 -136t106 -46zM340 604v99h99v-99h-99zM159 604v99h99v-99h-99z" />
    <glyph glyph-name="aring" unicode="&#xe5;" horiz-adv-x="609" 
d="M267 -9q-67 0 -117 31t-77.5 90t-27.5 140q0 82 27.5 140t77.5 89.5t117 31.5q66 0 115 -33t65 -90h-11l10 114h98q-3 -31 -5.5 -61.5t-2.5 -59.5v-383h-101v112h11q-16 -56 -65.5 -88.5t-113.5 -32.5zM292 70q65 0 104.5 46t39.5 136t-39.5 135.5t-104.5 45.5
q-66 0 -105.5 -45.5t-39.5 -135.5t39 -136t106 -46zM299 546q-34 0 -62 16t-44 43t-16 60q0 34 16 60.5t44 42.5t62 16q35 0 62.5 -16t43.5 -43t16 -60t-16 -60t-43.5 -43t-62.5 -16zM299 596q31 0 50 20t19 49q0 30 -19 49.5t-50 19.5q-30 0 -49.5 -19.5t-19.5 -49.5
t19.5 -49.5t49.5 -19.5z" />
    <glyph glyph-name="ae" unicode="&#xe6;" horiz-adv-x="877" 
d="M237 -9q-55 0 -96.5 21t-64.5 56.5t-23 78.5q0 58 26.5 91.5t90 47.5t172.5 14h51v-58h-51q-75 0 -118 -8t-60.5 -28t-17.5 -54q0 -39 28 -64t76 -25q39 0 68.5 17.5t46.5 49.5t17 75v120q0 58 -26.5 83.5t-82.5 25.5q-45 0 -85 -11.5t-83 -37.5l-31 71q39 27 92.5 42
t109.5 15q76 0 120.5 -29.5t60.5 -87.5h-28q31 57 79.5 87t114.5 30q98 0 155 -64t57 -177v-30h-368v58h299l-17 -15q0 74 -33 115t-95 41q-66 0 -104 -43.5t-38 -129.5v-7q0 -93 41 -142t121 -49q42 0 81 13t74 42l33 -70q-35 -31 -86 -47.5t-105 -16.5q-88 0 -146 38.5
t-82 111.5h23q-16 -71 -68 -110.5t-128 -39.5z" />
    <glyph glyph-name="ccedilla" unicode="&#xe7;" horiz-adv-x="499" 
d="M295 -9q-76 0 -132.5 31.5t-87 91t-30.5 141.5q0 81 31 139t87 88.5t132 30.5q49 0 95 -16.5t76 -46.5l-33 -71q-28 27 -63 40.5t-68 13.5q-72 0 -113 -46t-41 -133q0 -88 41 -135t113 -47q32 0 67 12.5t64 40.5l33 -71q-31 -30 -77.5 -46.5t-93.5 -16.5zM292 -194
q-28 0 -52.5 5.5t-43.5 15.5l16 49q18 -8 35 -12t38 -4q27 0 42.5 8.5t15.5 24.5q0 26 -38 26q-10 0 -20.5 -1.5t-24.5 -5.5l-18 16l15 92h58l-13 -76l-28 9q12 3 24 5t22 2q39 0 63 -18t24 -52q0 -37 -32 -60.5t-83 -23.5z" />
    <glyph glyph-name="egrave" unicode="&#xe8;" horiz-adv-x="546" 
d="M307 -9q-122 0 -192 69t-70 191q0 79 30.5 138t85 91.5t126.5 32.5q71 0 119 -30t73 -84.5t25 -128.5v-32h-380v58h311l-17 -13q0 75 -33.5 116.5t-96.5 41.5q-70 0 -108 -48.5t-38 -133.5v-10q0 -89 43.5 -134t123.5 -45q44 0 82.5 12.5t73.5 41.5l33 -69
q-35 -31 -85 -47.5t-106 -16.5zM252 553l-136 202h103l103 -202h-70z" />
    <glyph glyph-name="eacute" unicode="&#xe9;" horiz-adv-x="546" 
d="M307 -9q-122 0 -192 69t-70 191q0 79 30.5 138t85 91.5t126.5 32.5q71 0 119 -30t73 -84.5t25 -128.5v-32h-380v58h311l-17 -13q0 75 -33.5 116.5t-96.5 41.5q-70 0 -108 -48.5t-38 -133.5v-10q0 -89 43.5 -134t123.5 -45q44 0 82.5 12.5t73.5 41.5l33 -69
q-35 -31 -85 -47.5t-106 -16.5zM252 553l103 202h103l-136 -202h-70z" />
    <glyph glyph-name="ecircumflex" unicode="&#xea;" horiz-adv-x="546" 
d="M307 -9q-122 0 -192 69t-70 191q0 79 30.5 138t85 91.5t126.5 32.5q71 0 119 -30t73 -84.5t25 -128.5v-32h-380v58h311l-17 -13q0 75 -33.5 116.5t-96.5 41.5q-70 0 -108 -48.5t-38 -133.5v-10q0 -89 43.5 -134t123.5 -45q44 0 82.5 12.5t73.5 41.5l33 -69
q-35 -31 -85 -47.5t-106 -16.5zM131 553l110 202h92l110 -202h-67l-89 140l-89 -140h-67z" />
    <glyph glyph-name="edieresis" unicode="&#xeb;" horiz-adv-x="546" 
d="M307 -9q-122 0 -192 69t-70 191q0 79 30.5 138t85 91.5t126.5 32.5q71 0 119 -30t73 -84.5t25 -128.5v-32h-380v58h311l-17 -13q0 75 -33.5 116.5t-96.5 41.5q-70 0 -108 -48.5t-38 -133.5v-10q0 -89 43.5 -134t123.5 -45q44 0 82.5 12.5t73.5 41.5l33 -69
q-35 -31 -85 -47.5t-106 -16.5zM328 604v99h99v-99h-99zM147 604v99h99v-99h-99z" />
    <glyph glyph-name="igrave" unicode="&#xec;" horiz-adv-x="249" 
d="M74 0v504h101v-504h-101zM90 553l-136 202h103l103 -202h-70z" />
    <glyph glyph-name="iacute" unicode="&#xed;" horiz-adv-x="249" 
d="M74 0v504h101v-504h-101zM90 553l103 202h103l-136 -202h-70z" />
    <glyph glyph-name="icircumflex" unicode="&#xee;" horiz-adv-x="249" 
d="M74 0v504h101v-504h-101zM-31 553l110 202h92l110 -202h-67l-89 140l-89 -140h-67z" />
    <glyph glyph-name="idieresis" unicode="&#xef;" horiz-adv-x="249" 
d="M74 0v504h101v-504h-101zM166 604v99h99v-99h-99zM-15 604v99h99v-99h-99z" />
    <glyph glyph-name="eth" unicode="&#xf0;" horiz-adv-x="587" 
d="M289 -9q-73 0 -128.5 29t-85.5 82t-30 123q0 69 29.5 121.5t83 81.5t124.5 29q74 0 121.5 -35.5t68.5 -110.5h-26q1 83 -33 157.5t-100 127.5l21 -3l-197 -86l-23 51l169 72l-1 -13q-30 21 -66 36t-77 24l20 67q64 -12 116 -34.5t94 -53.5l-21 3l118 51l23 -50l-99 -43
l4 18q51 -44 83.5 -101t48.5 -121t16 -131q0 -93 -29.5 -158t-85.5 -99t-138 -34zM291 71q67 0 106 41t39 112q0 72 -38.5 113t-106.5 41q-66 0 -105 -41t-39 -113t38 -112.5t106 -40.5z" />
    <glyph glyph-name="ntilde" unicode="&#xf1;" horiz-adv-x="593" 
d="M74 0v383q0 29 -2.5 59.5t-5.5 61.5h98l9 -106h-12q23 56 71 85.5t111 29.5q89 0 134.5 -49t45.5 -152v-312h-101v306q0 67 -26.5 96.5t-80.5 29.5q-64 0 -102 -39.5t-38 -106.5v-286h-101zM164 587l-53 4q5 67 35.5 103.5t77.5 36.5q21 0 40 -10t43 -29
q21 -18 34.5 -25.5t26.5 -7.5q51 0 62 75l53 -3q-4 -67 -34.5 -103.5t-77.5 -36.5q-21 0 -40 9.5t-45 29.5q-20 18 -33 25t-27 7q-27 0 -42 -19.5t-20 -55.5z" />
    <glyph glyph-name="ograve" unicode="&#xf2;" horiz-adv-x="581" 
d="M290 -9q-75 0 -130 31.5t-85 90t-30 139.5t30 139.5t85 90t130 31.5t130.5 -31.5t86 -90t30.5 -139.5t-30.5 -139.5t-86 -90t-130.5 -31.5zM290 70q66 0 105 46t39 136t-39 135.5t-105 45.5q-65 0 -104 -45.5t-39 -135.5t38.5 -136t104.5 -46zM256 553l-136 202h103
l103 -202h-70z" />
    <glyph glyph-name="oacute" unicode="&#xf3;" horiz-adv-x="581" 
d="M290 -9q-75 0 -130 31.5t-85 90t-30 139.5t30 139.5t85 90t130 31.5t130.5 -31.5t86 -90t30.5 -139.5t-30.5 -139.5t-86 -90t-130.5 -31.5zM290 70q66 0 105 46t39 136t-39 135.5t-105 45.5q-65 0 -104 -45.5t-39 -135.5t38.5 -136t104.5 -46zM256 553l103 202h103
l-136 -202h-70z" />
    <glyph glyph-name="ocircumflex" unicode="&#xf4;" horiz-adv-x="581" 
d="M290 -9q-75 0 -130 31.5t-85 90t-30 139.5t30 139.5t85 90t130 31.5t130.5 -31.5t86 -90t30.5 -139.5t-30.5 -139.5t-86 -90t-130.5 -31.5zM290 70q66 0 105 46t39 136t-39 135.5t-105 45.5q-65 0 -104 -45.5t-39 -135.5t38.5 -136t104.5 -46zM135 553l110 202h92
l110 -202h-67l-89 140l-89 -140h-67z" />
    <glyph glyph-name="otilde" unicode="&#xf5;" horiz-adv-x="581" 
d="M290 -9q-75 0 -130 31.5t-85 90t-30 139.5t30 139.5t85 90t130 31.5t130.5 -31.5t86 -90t30.5 -139.5t-30.5 -139.5t-86 -90t-130.5 -31.5zM290 70q66 0 105 46t39 136t-39 135.5t-105 45.5q-65 0 -104 -45.5t-39 -135.5t38.5 -136t104.5 -46zM158 587l-53 4
q5 67 35.5 103.5t77.5 36.5q21 0 40 -10t43 -29q21 -18 34.5 -25.5t26.5 -7.5q51 0 62 75l53 -3q-4 -67 -34.5 -103.5t-77.5 -36.5q-21 0 -40 9.5t-45 29.5q-20 18 -33 25t-27 7q-27 0 -42 -19.5t-20 -55.5z" />
    <glyph glyph-name="odieresis" unicode="&#xf6;" horiz-adv-x="581" 
d="M290 -9q-75 0 -130 31.5t-85 90t-30 139.5t30 139.5t85 90t130 31.5t130.5 -31.5t86 -90t30.5 -139.5t-30.5 -139.5t-86 -90t-130.5 -31.5zM290 70q66 0 105 46t39 136t-39 135.5t-105 45.5q-65 0 -104 -45.5t-39 -135.5t38.5 -136t104.5 -46zM332 604v99h99v-99h-99z
M151 604v99h99v-99h-99z" />
    <glyph glyph-name="divide" unicode="&#xf7;" horiz-adv-x="600" 
d="M53 250v74h494v-74h-494zM248 42v94h94v-94h-94zM248 438v94h94v-94h-94z" />
    <glyph glyph-name="oslash" unicode="&#xf8;" horiz-adv-x="581" 
d="M290 -9q-75 0 -130 31.5t-85 90t-30 139.5t30 139.5t85 90t130 31.5t130.5 -31.5t86 -90t30.5 -139.5t-30.5 -139.5t-86 -90t-130.5 -31.5zM290 70q72 0 111.5 47.5t39.5 134.5q0 88 -39.5 134.5t-111.5 46.5q-71 0 -110.5 -46.5t-39.5 -134.5q0 -87 39.5 -134.5
t110.5 -47.5zM153 -44l-50 31l326 561l51 -31z" />
    <glyph glyph-name="ugrave" unicode="&#xf9;" horiz-adv-x="586" 
d="M253 -9q-91 0 -136.5 49.5t-45.5 152.5v311h101v-309q0 -63 26 -93t79 -30q60 0 97 40t37 106v286h101v-504h-98v108h13q-21 -56 -67 -86.5t-107 -30.5zM258 554l-136 202h103l103 -202h-70z" />
    <glyph glyph-name="uacute" unicode="&#xfa;" horiz-adv-x="586" 
d="M253 -9q-91 0 -136.5 49.5t-45.5 152.5v311h101v-309q0 -63 26 -93t79 -30q60 0 97 40t37 106v286h101v-504h-98v108h13q-21 -56 -67 -86.5t-107 -30.5zM258 554l103 202h103l-136 -202h-70z" />
    <glyph glyph-name="ucircumflex" unicode="&#xfb;" horiz-adv-x="586" 
d="M253 -9q-91 0 -136.5 49.5t-45.5 152.5v311h101v-309q0 -63 26 -93t79 -30q60 0 97 40t37 106v286h101v-504h-98v108h13q-21 -56 -67 -86.5t-107 -30.5zM137 554l110 202h92l110 -202h-67l-89 140l-89 -140h-67z" />
    <glyph glyph-name="udieresis" unicode="&#xfc;" horiz-adv-x="586" 
d="M253 -9q-91 0 -136.5 49.5t-45.5 152.5v311h101v-309q0 -63 26 -93t79 -30q60 0 97 40t37 106v286h101v-504h-98v108h13q-21 -56 -67 -86.5t-107 -30.5zM334 605v99h99v-99h-99zM153 605v99h99v-99h-99z" />
    <glyph glyph-name="yacute" unicode="&#xfd;" horiz-adv-x="536" 
d="M59 -227l-24 82q47 10 78.5 24t52.5 36.5t36 57.5l25 59l-2 -41l-219 513h108l170 -420h-27l170 420h104l-231 -540q-22 -50 -47 -84t-54 -55t-64 -33t-76 -19zM233 553l103 202h103l-136 -202h-70z" />
    <glyph glyph-name="thorn" unicode="&#xfe;" horiz-adv-x="609" 
d="M74 -216v952h101v-346h-12q16 57 65 90t115 33q67 0 117 -31.5t77.5 -89.5t27.5 -140q0 -81 -27.5 -140t-77 -90t-116.5 -31t-115.5 32.5t-64.5 88.5h11v-328h-101zM319 70q65 0 104.5 46t39.5 136t-39.5 135.5t-104.5 45.5q-66 0 -106 -45.5t-40 -135.5t40 -136t106 -46
z" />
    <glyph glyph-name="ydieresis" unicode="&#xff;" horiz-adv-x="536" 
d="M59 -227l-24 82q47 10 78.5 24t52.5 36.5t36 57.5l25 59l-2 -41l-219 513h108l170 -420h-27l170 420h104l-231 -540q-22 -50 -47 -84t-54 -55t-64 -33t-76 -19zM309 604v99h99v-99h-99zM128 604v99h99v-99h-99z" />
    <glyph glyph-name="Amacron" unicode="&#x100;" horiz-adv-x="742" 
d="M10 0l314 705h89l319 -705h-107l-87 200l44 -28h-427l47 28l-87 -200h-105zM367 591l-152 -359l-24 23h355l-20 -23l-155 359h-4zM201 811v63h336v-63h-336z" />
    <glyph glyph-name="amacron" unicode="&#x101;" horiz-adv-x="609" 
d="M267 -9q-67 0 -117 31t-77.5 90t-27.5 140q0 82 27.5 140t77.5 89.5t117 31.5q66 0 115 -33t65 -90h-11l10 114h98q-3 -31 -5.5 -61.5t-2.5 -59.5v-383h-101v112h11q-16 -56 -65.5 -88.5t-113.5 -32.5zM292 70q65 0 104.5 46t39.5 136t-39.5 135.5t-104.5 45.5
q-66 0 -105.5 -45.5t-39.5 -135.5t39 -136t106 -46zM146 621v64h306v-64h-306z" />
    <glyph glyph-name="Abreve" unicode="&#x102;" horiz-adv-x="742" 
d="M10 0l314 705h89l319 -705h-107l-87 200l44 -28h-427l47 28l-87 -200h-105zM367 591l-152 -359l-24 23h355l-20 -23l-155 359h-4zM369 760q-74 0 -121.5 45.5t-53.5 123.5l60 8q5 -54 35 -83.5t79 -29.5q50 0 81 29.5t35 83.5l60 -8q-6 -78 -53.5 -123.5t-121.5 -45.5z
" />
    <glyph glyph-name="abreve" unicode="&#x103;" horiz-adv-x="609" 
d="M267 -9q-67 0 -117 31t-77.5 90t-27.5 140q0 82 27.5 140t77.5 89.5t117 31.5q66 0 115 -33t65 -90h-11l10 114h98q-3 -31 -5.5 -61.5t-2.5 -59.5v-383h-101v112h11q-16 -56 -65.5 -88.5t-113.5 -32.5zM292 70q65 0 104.5 46t39.5 136t-39.5 135.5t-104.5 45.5
q-66 0 -105.5 -45.5t-39.5 -135.5t39 -136t106 -46zM299 550q-47 0 -82.5 23t-55 66t-22.5 102l60 6q4 -64 30 -98.5t70 -34.5t70 34.5t30 98.5l60 -6q-2 -59 -22 -102t-55.5 -66t-82.5 -23z" />
    <glyph glyph-name="Aogonek" unicode="&#x104;" horiz-adv-x="742" 
d="M10 0l314 705h89l319 -705h-107l-87 200l44 -28h-427l47 28l-87 -200h-105zM367 591l-152 -359l-24 23h355l-20 -23l-155 359h-4zM682 -194q-51 0 -81 27.5t-30 73.5q0 41 27 76.5t72 55.5l33 -39q-16 -7 -31 -19t-24 -28t-9 -35q0 -27 16.5 -40.5t40.5 -13.5q14 0 27 3
t27 9l15 -53q-17 -8 -37 -12.5t-46 -4.5z" />
    <glyph glyph-name="aogonek" unicode="&#x105;" horiz-adv-x="609" 
d="M267 -9q-67 0 -117 31t-77.5 90t-27.5 140q0 82 27.5 140t77.5 89.5t117 31.5q66 0 115 -33t65 -90h-11l10 114h98q-3 -31 -5.5 -61.5t-2.5 -59.5v-383h-101v112h11q-16 -56 -65.5 -88.5t-113.5 -32.5zM292 70q65 0 104.5 46t39.5 136t-39.5 135.5t-104.5 45.5
q-66 0 -105.5 -45.5t-39.5 -135.5t39 -136t106 -46zM500 -194q-51 0 -81 27.5t-30 73.5q0 41 27 76.5t72 55.5l33 -39q-16 -7 -31 -19t-24 -28t-9 -35q0 -27 16.5 -40.5t40.5 -13.5q14 0 27 3t27 9l15 -53q-17 -8 -37 -12.5t-46 -4.5z" />
    <glyph glyph-name="Cacute" unicode="&#x106;" horiz-adv-x="685" 
d="M400 -9q-108 0 -184 44t-116.5 125.5t-40.5 192.5t40.5 192t116.5 125t184 44q75 0 134 -22t103 -64l-36 -83q-48 41 -93.5 59t-105.5 18q-114 0 -174 -70t-60 -199t60 -199.5t174 -70.5q60 0 105.5 18t93.5 60l36 -83q-44 -42 -103 -64.5t-134 -22.5zM358 765l118 173
h109l-153 -173h-74z" />
    <glyph glyph-name="cacute" unicode="&#x107;" horiz-adv-x="499" 
d="M295 -9q-76 0 -132.5 31.5t-87 91t-30.5 141.5q0 81 31 139t87 88.5t132 30.5q49 0 95 -16.5t76 -46.5l-33 -71q-28 27 -63 40.5t-68 13.5q-72 0 -113 -46t-41 -133q0 -88 41 -135t113 -47q32 0 67 12.5t64 40.5l33 -71q-31 -30 -77.5 -46.5t-93.5 -16.5zM255 553
l103 202h103l-136 -202h-70z" />
    <glyph glyph-name="Ccircumflex" unicode="&#x108;" horiz-adv-x="685" 
d="M400 -9q-108 0 -184 44t-116.5 125.5t-40.5 192.5t40.5 192t116.5 125t184 44q75 0 134 -22t103 -64l-36 -83q-48 41 -93.5 59t-105.5 18q-114 0 -174 -70t-60 -199t60 -199.5t174 -70.5q60 0 105.5 18t93.5 60l36 -83q-44 -42 -103 -64.5t-134 -22.5zM227 765l123 173
h90l123 -173h-72l-96 112l-96 -112h-72z" />
    <glyph glyph-name="ccircumflex" unicode="&#x109;" horiz-adv-x="499" 
d="M295 -9q-76 0 -132.5 31.5t-87 91t-30.5 141.5q0 81 31 139t87 88.5t132 30.5q49 0 95 -16.5t76 -46.5l-33 -71q-28 27 -63 40.5t-68 13.5q-72 0 -113 -46t-41 -133q0 -88 41 -135t113 -47q32 0 67 12.5t64 40.5l33 -71q-31 -30 -77.5 -46.5t-93.5 -16.5zM134 553
l110 202h92l110 -202h-67l-89 140l-89 -140h-67z" />
    <glyph glyph-name="Cdotaccent" unicode="&#x10a;" horiz-adv-x="685" 
d="M400 -9q-108 0 -184 44t-116.5 125.5t-40.5 192.5t40.5 192t116.5 125t184 44q75 0 134 -22t103 -64l-36 -83q-48 41 -93.5 59t-105.5 18q-114 0 -174 -70t-60 -199t60 -199.5t174 -70.5q60 0 105.5 18t93.5 60l36 -83q-44 -42 -103 -64.5t-134 -22.5zM343 801v101h104
v-101h-104z" />
    <glyph glyph-name="cdotaccent" unicode="&#x10b;" horiz-adv-x="499" 
d="M295 -9q-76 0 -132.5 31.5t-87 91t-30.5 141.5q0 81 31 139t87 88.5t132 30.5q49 0 95 -16.5t76 -46.5l-33 -71q-28 27 -63 40.5t-68 13.5q-72 0 -113 -46t-41 -133q0 -88 41 -135t113 -47q32 0 67 12.5t64 40.5l33 -71q-31 -30 -77.5 -46.5t-93.5 -16.5zM237 603v101
h106v-101h-106z" />
    <glyph glyph-name="Ccaron" unicode="&#x10c;" horiz-adv-x="685" 
d="M400 -9q-108 0 -184 44t-116.5 125.5t-40.5 192.5t40.5 192t116.5 125t184 44q75 0 134 -22t103 -64l-36 -83q-48 41 -93.5 59t-105.5 18q-114 0 -174 -70t-60 -199t60 -199.5t174 -70.5q60 0 105.5 18t93.5 60l36 -83q-44 -42 -103 -64.5t-134 -22.5zM350 765l-123 173
h72l96 -112l96 112h72l-123 -173h-90z" />
    <glyph glyph-name="ccaron" unicode="&#x10d;" horiz-adv-x="499" 
d="M295 -9q-76 0 -132.5 31.5t-87 91t-30.5 141.5q0 81 31 139t87 88.5t132 30.5q49 0 95 -16.5t76 -46.5l-33 -71q-28 27 -63 40.5t-68 13.5q-72 0 -113 -46t-41 -133q0 -88 41 -135t113 -47q32 0 67 12.5t64 40.5l33 -71q-31 -30 -77.5 -46.5t-93.5 -16.5zM244 553
l-110 202h67l89 -141l89 141h67l-110 -202h-92z" />
    <glyph glyph-name="Dcaron" unicode="&#x10e;" horiz-adv-x="754" 
d="M83 0v705h244q119 0 201.5 -41t125 -119.5t42.5 -191.5q0 -112 -42.5 -191t-125 -120.5t-201.5 -41.5h-244zM187 87h134q136 0 202.5 66t66.5 200t-66.5 199.5t-202.5 65.5h-134v-531zM338 765l-123 173h72l96 -112l96 112h72l-123 -173h-90z" />
    <glyph glyph-name="dcaron" unicode="&#x10f;" horiz-adv-x="609" 
d="M267 -9q-66 0 -116.5 31t-78 90t-27.5 140q0 82 27.5 140t78 89.5t116.5 31.5q65 0 114.5 -32.5t65.5 -88.5h-12v344h101v-736h-100v114h12q-17 -57 -66 -90t-115 -33zM292 70q65 0 105 46t40 136t-40 135.5t-105 45.5q-66 0 -105.5 -45.5t-39.5 -135.5t39.5 -136
t105.5 -46zM581 545v191h74l-25 -191h-49z" />
    <glyph glyph-name="Dcroat" unicode="&#x110;" horiz-adv-x="754" 
d="M83 0v705h244q119 0 201.5 -41t125 -119.5t42.5 -191.5q0 -112 -42.5 -191t-125 -120.5t-201.5 -41.5h-244zM187 87h134q136 0 202.5 66t66.5 200t-66.5 199.5t-202.5 65.5h-134v-531zM-2 319v77h385v-77h-385z" />
    <glyph glyph-name="dcroat" unicode="&#x111;" horiz-adv-x="609" 
d="M266 -9q-66 0 -116 30.5t-77.5 88t-27.5 136.5q0 80 27.5 137t77.5 88t116 31q65 0 114 -32.5t65 -86.5h-11v193h-193v73h193v87h101v-87h93v-73h-93v-576h-100v113h11q-17 -56 -65.5 -89t-114.5 -33zM292 70q64 0 104 45t40 131q0 87 -40 131.5t-104 44.5
q-66 0 -105.5 -44.5t-39.5 -131.5q0 -86 39.5 -131t105.5 -45z" />
    <glyph glyph-name="Emacron" unicode="&#x112;" horiz-adv-x="591" 
d="M83 0v705h462v-83h-361v-222h338v-84h-338v-232h361v-84h-462zM162 811v63h336v-63h-336z" />
    <glyph glyph-name="emacron" unicode="&#x113;" horiz-adv-x="546" 
d="M307 -9q-122 0 -192 69t-70 191q0 79 30.5 138t85 91.5t126.5 32.5q71 0 119 -30t73 -84.5t25 -128.5v-32h-380v58h311l-17 -13q0 75 -33.5 116.5t-96.5 41.5q-70 0 -108 -48.5t-38 -133.5v-10q0 -89 43.5 -134t123.5 -45q44 0 82.5 12.5t73.5 41.5l33 -69
q-35 -31 -85 -47.5t-106 -16.5zM134 621v64h306v-64h-306z" />
    <glyph glyph-name="Ebreve" unicode="&#x114;" horiz-adv-x="591" 
d="M83 0v705h462v-83h-361v-222h338v-84h-338v-232h361v-84h-462zM330 760q-74 0 -121.5 45.5t-53.5 123.5l60 8q5 -54 35 -83.5t79 -29.5q50 0 81 29.5t35 83.5l60 -8q-6 -78 -53.5 -123.5t-121.5 -45.5z" />
    <glyph glyph-name="ebreve" unicode="&#x115;" horiz-adv-x="546" 
d="M307 -9q-122 0 -192 69t-70 191q0 79 30.5 138t85 91.5t126.5 32.5q71 0 119 -30t73 -84.5t25 -128.5v-32h-380v58h311l-17 -13q0 75 -33.5 116.5t-96.5 41.5q-70 0 -108 -48.5t-38 -133.5v-10q0 -89 43.5 -134t123.5 -45q44 0 82.5 12.5t73.5 41.5l33 -69
q-35 -31 -85 -47.5t-106 -16.5zM287 550q-47 0 -82.5 23t-55 66t-22.5 102l60 6q4 -64 30 -98.5t70 -34.5t70 34.5t30 98.5l60 -6q-2 -59 -22 -102t-55.5 -66t-82.5 -23z" />
    <glyph glyph-name="Edotaccent" unicode="&#x116;" horiz-adv-x="591" 
d="M83 0v705h462v-83h-361v-222h338v-84h-338v-232h361v-84h-462zM278 801v101h104v-101h-104z" />
    <glyph glyph-name="edotaccent" unicode="&#x117;" horiz-adv-x="546" 
d="M307 -9q-122 0 -192 69t-70 191q0 79 30.5 138t85 91.5t126.5 32.5q71 0 119 -30t73 -84.5t25 -128.5v-32h-380v58h311l-17 -13q0 75 -33.5 116.5t-96.5 41.5q-70 0 -108 -48.5t-38 -133.5v-10q0 -89 43.5 -134t123.5 -45q44 0 82.5 12.5t73.5 41.5l33 -69
q-35 -31 -85 -47.5t-106 -16.5zM234 603v101h106v-101h-106z" />
    <glyph glyph-name="Eogonek" unicode="&#x118;" horiz-adv-x="591" 
d="M83 0v705h462v-83h-361v-222h338v-84h-338v-232h361v-84h-462zM487 -194q-51 0 -81 27.5t-30 73.5q0 41 27 76.5t72 55.5l33 -39q-16 -7 -31 -19t-24 -28t-9 -35q0 -27 16.5 -40.5t40.5 -13.5q14 0 27 3t27 9l15 -53q-17 -8 -37 -12.5t-46 -4.5z" />
    <glyph glyph-name="eogonek" unicode="&#x119;" horiz-adv-x="546" 
d="M307 -9q-122 0 -192 69t-70 191q0 79 30.5 138t85 91.5t126.5 32.5q71 0 119 -30t73 -84.5t25 -128.5v-32h-380v58h311l-17 -13q0 75 -33.5 116.5t-96.5 41.5q-70 0 -108 -48.5t-38 -133.5v-10q0 -89 43.5 -134t123.5 -45q44 0 82.5 12.5t73.5 41.5l33 -69
q-35 -31 -85 -47.5t-106 -16.5zM356 -194q-51 0 -81 27.5t-30 73.5q0 41 27 76.5t72 55.5l33 -39q-16 -7 -31 -19t-24 -28t-9 -35q0 -27 16.5 -40.5t40.5 -13.5q14 0 27 3t27 9l15 -53q-17 -8 -37 -12.5t-46 -4.5z" />
    <glyph glyph-name="Ecaron" unicode="&#x11a;" horiz-adv-x="591" 
d="M83 0v705h462v-83h-361v-222h338v-84h-338v-232h361v-84h-462zM285 765l-123 173h72l96 -112l96 112h72l-123 -173h-90z" />
    <glyph glyph-name="ecaron" unicode="&#x11b;" horiz-adv-x="546" 
d="M307 -9q-122 0 -192 69t-70 191q0 79 30.5 138t85 91.5t126.5 32.5q71 0 119 -30t73 -84.5t25 -128.5v-32h-380v58h311l-17 -13q0 75 -33.5 116.5t-96.5 41.5q-70 0 -108 -48.5t-38 -133.5v-10q0 -89 43.5 -134t123.5 -45q44 0 82.5 12.5t73.5 41.5l33 -69
q-35 -31 -85 -47.5t-106 -16.5zM241 553l-110 202h67l89 -141l89 141h67l-110 -202h-92z" />
    <glyph glyph-name="Gcircumflex" unicode="&#x11c;" horiz-adv-x="735" 
d="M415 -9q-117 0 -196.5 43.5t-119.5 124.5t-40 193t42.5 193t122 125t191.5 44q77 0 134 -21.5t102 -62.5l-37 -81q-32 27 -62 43t-62 23.5t-75 7.5q-121 0 -184 -71t-63 -201q0 -132 60.5 -201t190.5 -69q45 0 89 8.5t85 25.5l-20 -49v231h-174v78h261v-333
q-46 -23 -112.5 -37t-132.5 -14zM237 765l123 173h90l123 -173h-72l-96 112l-96 -112h-72z" />
    <glyph glyph-name="gcircumflex" unicode="&#x11d;" horiz-adv-x="612" 
d="M301 -224q-68 0 -123.5 16t-99.5 48l25 74q31 -21 61 -33.5t63 -18.5t68 -6q72 0 108.5 36.5t36.5 105.5v135h10q-16 -56 -65.5 -88.5t-114.5 -32.5q-69 0 -119.5 30.5t-78 87t-27.5 133.5t27.5 133t78 86.5t119.5 30.5q66 0 114.5 -32.5t64.5 -88.5l-9 8l9 104h98
q-4 -31 -6 -61.5t-2 -59.5v-373q0 -114 -60.5 -174t-177.5 -60zM294 91q66 0 105.5 45t39.5 127t-39.5 126t-105.5 44q-68 0 -107.5 -44t-39.5 -126t39.5 -127t107.5 -45zM154 553l110 202h92l110 -202h-67l-89 140l-89 -140h-67z" />
    <glyph glyph-name="Gbreve" unicode="&#x11e;" horiz-adv-x="735" 
d="M415 -9q-117 0 -196.5 43.5t-119.5 124.5t-40 193t42.5 193t122 125t191.5 44q77 0 134 -21.5t102 -62.5l-37 -81q-32 27 -62 43t-62 23.5t-75 7.5q-121 0 -184 -71t-63 -201q0 -132 60.5 -201t190.5 -69q45 0 89 8.5t85 25.5l-20 -49v231h-174v78h261v-333
q-46 -23 -112.5 -37t-132.5 -14zM405 760q-74 0 -121.5 45.5t-53.5 123.5l60 8q5 -54 35 -83.5t79 -29.5q50 0 81 29.5t35 83.5l60 -8q-6 -78 -53.5 -123.5t-121.5 -45.5z" />
    <glyph glyph-name="gbreve" unicode="&#x11f;" horiz-adv-x="612" 
d="M301 -224q-68 0 -123.5 16t-99.5 48l25 74q31 -21 61 -33.5t63 -18.5t68 -6q72 0 108.5 36.5t36.5 105.5v135h10q-16 -56 -65.5 -88.5t-114.5 -32.5q-69 0 -119.5 30.5t-78 87t-27.5 133.5t27.5 133t78 86.5t119.5 30.5q66 0 114.5 -32.5t64.5 -88.5l-9 8l9 104h98
q-4 -31 -6 -61.5t-2 -59.5v-373q0 -114 -60.5 -174t-177.5 -60zM294 91q66 0 105.5 45t39.5 127t-39.5 126t-105.5 44q-68 0 -107.5 -44t-39.5 -126t39.5 -127t107.5 -45zM310 550q-47 0 -82.5 23t-55 66t-22.5 102l60 6q4 -64 30 -98.5t70 -34.5t70 34.5t30 98.5l60 -6
q-2 -59 -22 -102t-55.5 -66t-82.5 -23z" />
    <glyph glyph-name="Gdotaccent" unicode="&#x120;" horiz-adv-x="735" 
d="M415 -9q-117 0 -196.5 43.5t-119.5 124.5t-40 193t42.5 193t122 125t191.5 44q77 0 134 -21.5t102 -62.5l-37 -81q-32 27 -62 43t-62 23.5t-75 7.5q-121 0 -184 -71t-63 -201q0 -132 60.5 -201t190.5 -69q45 0 89 8.5t85 25.5l-20 -49v231h-174v78h261v-333
q-46 -23 -112.5 -37t-132.5 -14zM353 801v101h104v-101h-104z" />
    <glyph glyph-name="gdotaccent" unicode="&#x121;" horiz-adv-x="612" 
d="M301 -224q-68 0 -123.5 16t-99.5 48l25 74q31 -21 61 -33.5t63 -18.5t68 -6q72 0 108.5 36.5t36.5 105.5v135h10q-16 -56 -65.5 -88.5t-114.5 -32.5q-69 0 -119.5 30.5t-78 87t-27.5 133.5t27.5 133t78 86.5t119.5 30.5q66 0 114.5 -32.5t64.5 -88.5l-9 8l9 104h98
q-4 -31 -6 -61.5t-2 -59.5v-373q0 -114 -60.5 -174t-177.5 -60zM294 91q66 0 105.5 45t39.5 127t-39.5 126t-105.5 44q-68 0 -107.5 -44t-39.5 -126t39.5 -127t107.5 -45zM257 603v101h106v-101h-106z" />
    <glyph glyph-name="uni0122" unicode="&#x122;" horiz-adv-x="735" 
d="M415 -9q-117 0 -196.5 43.5t-119.5 124.5t-40 193t42.5 193t122 125t191.5 44q77 0 134 -21.5t102 -62.5l-37 -81q-32 27 -62 43t-62 23.5t-75 7.5q-121 0 -184 -71t-63 -201q0 -132 60.5 -201t190.5 -69q45 0 89 8.5t85 25.5l-20 -49v231h-174v78h261v-333
q-46 -23 -112.5 -37t-132.5 -14zM419 -273l-41 29q23 23 30.5 44t7.5 45l24 -13h-80v91h113v-63q0 -39 -12.5 -72.5t-41.5 -60.5z" />
    <glyph glyph-name="uni0123" unicode="&#x123;" horiz-adv-x="612" 
d="M301 -224q-68 0 -123.5 16t-99.5 48l25 74q31 -21 61 -33.5t63 -18.5t68 -6q72 0 108.5 36.5t36.5 105.5v135h10q-16 -56 -65.5 -88.5t-114.5 -32.5q-69 0 -119.5 30.5t-78 87t-27.5 133.5t27.5 133t78 86.5t119.5 30.5q66 0 114.5 -32.5t64.5 -88.5l-9 8l9 104h98
q-4 -31 -6 -61.5t-2 -59.5v-373q0 -114 -60.5 -174t-177.5 -60zM294 91q66 0 105.5 45t39.5 127t-39.5 126t-105.5 44q-68 0 -107.5 -44t-39.5 -126t39.5 -127t107.5 -45zM253 566v63q0 39 13 72.5t42 59.5l41 -28q-23 -23 -30.5 -44t-7.5 -45l-25 13h80v-91h-113z" />
    <glyph glyph-name="Hcircumflex" unicode="&#x124;" horiz-adv-x="770" 
d="M83 0v705h104v-304h396v304h104v-705h-104v314h-396v-314h-104zM218 765l123 173h90l123 -173h-72l-96 112l-96 -112h-72z" />
    <glyph glyph-name="hcircumflex" unicode="&#x125;" horiz-adv-x="593" 
d="M74 0v736h101v-339h-14q22 57 71 86.5t113 29.5q90 0 134 -49.5t44 -149.5v-314h-101v308q0 65 -25.5 94.5t-80.5 29.5q-64 0 -102.5 -39.5t-38.5 -104.5v-288h-101zM133 776l123 173h90l123 -173h-72l-96 112l-96 -112h-72z" />
    <glyph glyph-name="Hbar" unicode="&#x126;" horiz-adv-x="805" 
d="M102 0v516h-90v77h90v112h104v-112h394v112h104v-112h90v-77h-90v-516h-104v305h-394v-305h-104zM206 393h394v123h-394v-123z" />
    <glyph glyph-name="hbar" unicode="&#x127;" horiz-adv-x="593" 
d="M74 0v576h-94v73h94v87h101v-87h197v-73h-197v-186h-14q22 56 71 85.5t113 29.5q89 0 133.5 -49.5t44.5 -149.5v-306h-101v300q0 65 -26 94.5t-80 29.5q-64 0 -102.5 -39t-38.5 -104v-281h-101z" />
    <glyph glyph-name="Itilde" unicode="&#x128;" horiz-adv-x="270" 
d="M83 0v705h104v-705h-104zM-27 778l-53 3q5 67 39.5 103.5t86.5 36.5q23 0 46.5 -9t56.5 -29q30 -18 47 -25.5t31 -7.5q29 0 46.5 19.5t23.5 55.5l53 -4q-5 -67 -39 -103.5t-86 -36.5q-23 0 -47.5 9.5t-59.5 31.5q-28 18 -44 24.5t-31 6.5q-29 0 -46.5 -19t-23.5 -56z" />
    <glyph glyph-name="itilde" unicode="&#x129;" horiz-adv-x="249" 
d="M74 0v504h101v-504h-101zM-8 587l-53 4q5 67 35.5 103.5t77.5 36.5q21 0 40 -10t43 -29q21 -18 34.5 -25.5t26.5 -7.5q51 0 62 75l53 -3q-4 -67 -34.5 -103.5t-77.5 -36.5q-21 0 -40 9.5t-45 29.5q-20 18 -33 25t-27 7q-27 0 -42 -19.5t-20 -55.5z" />
    <glyph glyph-name="Imacron" unicode="&#x12a;" horiz-adv-x="270" 
d="M83 0v705h104v-705h-104zM-33 811v63h336v-63h-336z" />
    <glyph glyph-name="imacron" unicode="&#x12b;" horiz-adv-x="249" 
d="M74 0v504h101v-504h-101zM-28 621v64h306v-64h-306z" />
    <glyph glyph-name="Ibreve" unicode="&#x12c;" horiz-adv-x="270" 
d="M83 0v705h104v-705h-104zM135 760q-74 0 -121.5 45.5t-53.5 123.5l60 8q5 -54 35 -83.5t79 -29.5q50 0 81 29.5t35 83.5l60 -8q-6 -78 -53.5 -123.5t-121.5 -45.5z" />
    <glyph glyph-name="ibreve" unicode="&#x12d;" horiz-adv-x="249" 
d="M74 0v504h101v-504h-101zM125 550q-47 0 -82.5 23t-55 66t-22.5 102l60 6q4 -64 30 -98.5t70 -34.5t70 34.5t30 98.5l60 -6q-2 -59 -22 -102t-55.5 -66t-82.5 -23z" />
    <glyph glyph-name="Iogonek" unicode="&#x12e;" horiz-adv-x="270" 
d="M83 0v705h104v-705h-104zM146 -194q-51 0 -81 27.5t-30 73.5q0 41 27 76.5t72 55.5l33 -39q-16 -7 -31 -19t-24 -28t-9 -35q0 -27 16.5 -40.5t40.5 -13.5q14 0 27 3t27 9l15 -53q-17 -8 -37 -12.5t-46 -4.5z" />
    <glyph glyph-name="iogonek" unicode="&#x12f;" horiz-adv-x="249" 
d="M74 0v504h101v-504h-101zM66 601v105h118v-105h-118zM136 -194q-51 0 -81 27.5t-30 73.5q0 41 27 76.5t72 55.5l33 -39q-16 -7 -31 -19t-24 -28t-9 -35q0 -27 16.5 -40.5t40.5 -13.5q14 0 27 3t27 9l15 -53q-17 -8 -37 -12.5t-46 -4.5z" />
    <glyph glyph-name="Idotaccent" unicode="&#x130;" horiz-adv-x="270" 
d="M83 0v705h104v-705h-104zM83 801v101h104v-101h-104z" />
    <glyph glyph-name="dotlessi" unicode="&#x131;" horiz-adv-x="249" 
d="M74 0v504h101v-504h-101z" />
    <glyph glyph-name="IJ" unicode="&#x132;" horiz-adv-x="614" 
d="M83 0v705h104v-705h-104zM354 -187q-16 0 -38 2t-45 7v84q19 -4 36 -6.5t30 -2.5q46 0 68 28t22 89v691h104v-692q0 -66 -19 -110.5t-57.5 -67t-100.5 -22.5z" />
    <glyph glyph-name="Jcircumflex" unicode="&#x134;" horiz-adv-x="344" 
d="M84 -187q-16 0 -38 2t-45 7v84q19 -4 36 -6.5t30 -2.5q46 0 68 28t22 89v691h104v-692q0 -66 -19 -110.5t-57.5 -67t-100.5 -22.5zM41 765l123 173h90l123 -173h-72l-96 112l-96 -112h-72z" />
    <glyph glyph-name="jcircumflex" unicode="&#x135;" horiz-adv-x="249" 
d="M16 -221q-16 0 -38 3t-37 10v82q13 -4 28.5 -7.5t28.5 -3.5q40 0 60.5 24.5t20.5 80.5v536h101v-543q0 -90 -40 -136t-124 -46zM-27 553l110 202h92l110 -202h-67l-89 140l-89 -140h-67z" />
    <glyph glyph-name="uni0136" unicode="&#x136;" horiz-adv-x="648" 
d="M83 0v705h104v-317h2l324 317h129l-380 -366l1 49l405 -388h-133l-346 329h-2v-329h-104zM332 -273l-41 29q23 23 30.5 44t7.5 45l24 -13h-80v91h113v-63q0 -39 -12.5 -72.5t-41.5 -60.5z" />
    <glyph glyph-name="uni0137" unicode="&#x137;" horiz-adv-x="532" 
d="M74 0v736h101v-452h2l220 220h125l-266 -265l1 45l287 -284h-128l-239 231h-2v-231h-101zM267 -273l-41 29q23 23 30.5 44t7.5 45l24 -13h-80v91h113v-63q0 -39 -12.5 -72.5t-41.5 -60.5z" />
    <glyph glyph-name="kgreenlandic" unicode="&#x138;" horiz-adv-x="532" 
d="M74 0v504h101v-220h2l220 220h125l-266 -265l1 45l287 -284h-128l-239 231h-2v-231h-101z" />
    <glyph glyph-name="Lacute" unicode="&#x139;" horiz-adv-x="552" 
d="M83 0v705h104v-616h346v-89h-450zM98 765l118 173h109l-153 -173h-74z" />
    <glyph glyph-name="lacute" unicode="&#x13a;" horiz-adv-x="249" 
d="M74 0v736h101v-736h-101zM88 776l118 173h109l-153 -173h-74z" />
    <glyph glyph-name="uni013B" unicode="&#x13b;" horiz-adv-x="552" 
d="M83 0v705h104v-616h346v-89h-450zM312 -273l-41 29q23 23 30.5 44t7.5 45l24 -13h-80v91h113v-63q0 -39 -12.5 -72.5t-41.5 -60.5z" />
    <glyph glyph-name="uni013C" unicode="&#x13c;" horiz-adv-x="249" 
d="M74 0v736h101v-736h-101zM127 -273l-41 29q23 23 30.5 44t7.5 45l24 -13h-80v91h113v-63q0 -39 -12.5 -72.5t-41.5 -60.5z" />
    <glyph glyph-name="Lcaron" unicode="&#x13d;" horiz-adv-x="552" 
d="M83 0v705h104v-616h346v-89h-450zM296 475v230h83l-22 -230h-61z" />
    <glyph glyph-name="lcaron" unicode="&#x13e;" horiz-adv-x="249" 
d="M74 0v736h101v-736h-101zM220 545v191h74l-25 -191h-49z" />
    <glyph glyph-name="Ldot" unicode="&#x13f;" horiz-adv-x="552" 
d="M83 0v705h104v-616h346v-89h-450zM356 337v107h120v-107h-120z" />
    <glyph glyph-name="ldot" unicode="&#x140;" horiz-adv-x="249" 
d="M74 0v736h101v-736h-101zM227 301v107h120v-107h-120z" />
    <glyph glyph-name="Lslash" unicode="&#x141;" horiz-adv-x="552" 
d="M83 0v705h104v-616h346v-89h-450zM12 243l-39 70l378 218l40 -70z" />
    <glyph glyph-name="lslash" unicode="&#x142;" horiz-adv-x="249" 
d="M74 0v736h101v-736h-101zM4 248l-40 70l282 163l40 -69z" />
    <glyph glyph-name="Nacute" unicode="&#x143;" horiz-adv-x="750" 
d="M83 0v705h80l433 -568h-25v568h97v-705h-79l-432 568h23v-568h-97zM340 765l118 173h109l-153 -173h-74z" />
    <glyph glyph-name="nacute" unicode="&#x144;" horiz-adv-x="593" 
d="M74 0v383q0 29 -2.5 59.5t-5.5 61.5h98l9 -106h-12q23 56 71 85.5t111 29.5q89 0 134.5 -49t45.5 -152v-312h-101v306q0 67 -26.5 96.5t-80.5 29.5q-64 0 -102 -39.5t-38 -106.5v-286h-101zM262 553l103 202h103l-136 -202h-70z" />
    <glyph glyph-name="uni0145" unicode="&#x145;" horiz-adv-x="750" 
d="M83 0v705h80l433 -568h-25v568h97v-705h-79l-432 568h23v-568h-97zM380 -273l-41 29q23 23 30.5 44t7.5 45l24 -13h-80v91h113v-63q0 -39 -12.5 -72.5t-41.5 -60.5z" />
    <glyph glyph-name="uni0146" unicode="&#x146;" horiz-adv-x="593" 
d="M74 0v383q0 29 -2.5 59.5t-5.5 61.5h98l9 -106h-12q23 56 71 85.5t111 29.5q89 0 134.5 -49t45.5 -152v-312h-101v306q0 67 -26.5 96.5t-80.5 29.5q-64 0 -102 -39.5t-38 -106.5v-286h-101zM299 -273l-41 29q23 23 30.5 44t7.5 45l24 -13h-80v91h113v-63
q0 -39 -12.5 -72.5t-41.5 -60.5z" />
    <glyph glyph-name="Ncaron" unicode="&#x147;" horiz-adv-x="750" 
d="M83 0v705h80l433 -568h-25v568h97v-705h-79l-432 568h23v-568h-97zM332 765l-123 173h72l96 -112l96 112h72l-123 -173h-90z" />
    <glyph glyph-name="ncaron" unicode="&#x148;" horiz-adv-x="593" 
d="M74 0v383q0 29 -2.5 59.5t-5.5 61.5h98l9 -106h-12q23 56 71 85.5t111 29.5q89 0 134.5 -49t45.5 -152v-312h-101v306q0 67 -26.5 96.5t-80.5 29.5q-64 0 -102 -39.5t-38 -106.5v-286h-101zM251 553l-110 202h67l89 -141l89 141h67l-110 -202h-92z" />
    <glyph glyph-name="napostrophe" unicode="&#x149;" horiz-adv-x="681" 
d="M124 569l-41 29q22 21 28.5 41t6.5 40l26 -12h-80v94h112v-63q0 -37 -11 -69t-41 -60zM162 0v383q0 29 -2.5 59.5t-5.5 61.5h98l9 -106h-12q23 56 71 85.5t111 29.5q89 0 134.5 -49t45.5 -152v-312h-101v306q0 67 -26.5 96.5t-80.5 29.5q-64 0 -102 -39.5t-38 -106.5
v-286h-101z" />
    <glyph glyph-name="Eng" unicode="&#x14a;" horiz-adv-x="750" 
d="M439 -193l-7 76l48 4q44 3 67.5 28.5t23.5 73.5v55l18 -44l-432 568h23v-568h-97v705h80l433 -568h-25v568h97v-704q0 -61 -19.5 -102t-60 -63t-104.5 -26z" />
    <glyph glyph-name="eng" unicode="&#x14b;" horiz-adv-x="593" 
d="M74 0v383q0 29 -2.5 59.5t-5.5 61.5h98l9 -106h-12q23 56 71.5 85.5t111.5 29.5q89 0 134 -49t45 -152v-348q0 -89 -43 -137t-130 -48q-20 0 -39.5 3t-35.5 10v82q13 -4 26 -7.5t31 -3.5q43 0 66.5 26.5t23.5 82.5v334q0 67 -26 96.5t-80 29.5q-64 0 -102.5 -39.5
t-38.5 -106.5v-286h-101z" />
    <glyph glyph-name="Omacron" unicode="&#x14c;" horiz-adv-x="779" 
d="M59 353q0 111 39 192t113.5 125t177.5 44q102 0 176 -44t114.5 -125t40.5 -191q0 -111 -40.5 -192.5t-115 -126t-175.5 -44.5q-103 0 -177 44.5t-113.5 126t-39.5 191.5zM168 353q0 -128 56 -200t165 -72q106 0 164 71.5t58 200.5t-57.5 200t-164.5 71q-109 0 -165 -71
t-56 -200zM221 811v63h336v-63h-336z" />
    <glyph glyph-name="omacron" unicode="&#x14d;" horiz-adv-x="581" 
d="M290 -9q-75 0 -130 31.5t-85 90t-30 139.5t30 139.5t85 90t130 31.5t130.5 -31.5t86 -90t30.5 -139.5t-30.5 -139.5t-86 -90t-130.5 -31.5zM290 70q66 0 105 46t39 136t-39 135.5t-105 45.5q-65 0 -104 -45.5t-39 -135.5t38.5 -136t104.5 -46zM138 621v64h306v-64h-306z
" />
    <glyph glyph-name="Obreve" unicode="&#x14e;" horiz-adv-x="779" 
d="M59 353q0 111 39 192t113.5 125t177.5 44q102 0 176 -44t114.5 -125t40.5 -191q0 -111 -40.5 -192.5t-115 -126t-175.5 -44.5q-103 0 -177 44.5t-113.5 126t-39.5 191.5zM168 353q0 -128 56 -200t165 -72q106 0 164 71.5t58 200.5t-57.5 200t-164.5 71q-109 0 -165 -71
t-56 -200zM389 760q-74 0 -121.5 45.5t-53.5 123.5l60 8q5 -54 35 -83.5t79 -29.5q50 0 81 29.5t35 83.5l60 -8q-6 -78 -53.5 -123.5t-121.5 -45.5z" />
    <glyph glyph-name="obreve" unicode="&#x14f;" horiz-adv-x="581" 
d="M290 -9q-75 0 -130 31.5t-85 90t-30 139.5t30 139.5t85 90t130 31.5t130.5 -31.5t86 -90t30.5 -139.5t-30.5 -139.5t-86 -90t-130.5 -31.5zM290 70q66 0 105 46t39 136t-39 135.5t-105 45.5q-65 0 -104 -45.5t-39 -135.5t38.5 -136t104.5 -46zM291 550q-47 0 -82.5 23
t-55 66t-22.5 102l60 6q4 -64 30 -98.5t70 -34.5t70 34.5t30 98.5l60 -6q-2 -59 -22 -102t-55.5 -66t-82.5 -23z" />
    <glyph glyph-name="Ohungarumlaut" unicode="&#x150;" horiz-adv-x="779" 
d="M59 353q0 111 39 192t113.5 125t177.5 44q102 0 176 -44t114.5 -125t40.5 -191q0 -111 -40.5 -192.5t-115 -126t-175.5 -44.5q-103 0 -177 44.5t-113.5 126t-39.5 191.5zM168 353q0 -128 56 -200t165 -72q106 0 164 71.5t58 200.5t-57.5 200t-164.5 71q-109 0 -165 -71
t-56 -200zM292 765l85 173h96l-123 -173h-58zM428 765l92 173h95l-129 -173h-58z" />
    <glyph glyph-name="ohungarumlaut" unicode="&#x151;" horiz-adv-x="581" 
d="M290 -9q-75 0 -130 31.5t-85 90t-30 139.5t30 139.5t85 90t130 31.5t130.5 -31.5t86 -90t30.5 -139.5t-30.5 -139.5t-86 -90t-130.5 -31.5zM290 70q66 0 105 46t39 136t-39 135.5t-105 45.5q-65 0 -104 -45.5t-39 -135.5t38.5 -136t104.5 -46zM331 553l52 202h88
l-85 -202h-55zM194 553l51 202h90l-86 -202h-55z" />
    <glyph glyph-name="OE" unicode="&#x152;" horiz-adv-x="1056" 
d="M553 0v705h456v-83h-356v-222h335v-84h-335v-232h356v-84h-456zM382 -9q-101 0 -173.5 44.5t-111 126t-38.5 191.5q0 111 38 192t110.5 125t174.5 44q53 0 101.5 -12t83.5 -43v-113q-28 42 -72.5 60t-105.5 18q-109 0 -165 -71t-56 -200q0 -128 56 -200t165 -72
q62 0 108 20.5t74 64.5v-110q-23 -22 -53.5 -36.5t-65 -21.5t-70.5 -7z" />
    <glyph glyph-name="oe" unicode="&#x153;" horiz-adv-x="932" 
d="M290 -9q-75 0 -130 31.5t-85 90.5t-30 140t30 139t85 89.5t130 31.5q76 0 129.5 -37t78.5 -106h-26q26 69 79 106t127 37q99 0 156 -64.5t57 -176.5v-32h-374v58h305l-18 -13q0 74 -33 115t-95 41q-68 0 -105 -48.5t-37 -132.5v-6q0 -93 42.5 -138.5t123.5 -45.5
q42 0 79.5 13t72.5 41l32 -69q-23 -21 -53.5 -35.5t-63.5 -21.5t-64 -7q-89 0 -147 37t-85 107h27q-26 -69 -79 -106.5t-129 -37.5zM291 70q66 0 105 46t39 136t-39 135.5t-105 45.5t-105 -45.5t-39 -135.5t39.5 -136t104.5 -46z" />
    <glyph glyph-name="Racute" unicode="&#x154;" horiz-adv-x="697" 
d="M83 0v705h298q113 0 175 -53.5t62 -149.5q0 -63 -28 -108t-79 -68.5t-120 -23.5l16 16h27q41 0 73.5 -21t53.5 -67l101 -230h-114l-100 231q-15 41 -46.5 53t-77.5 12h-137v-296h-104zM187 375h177q75 0 113.5 32t38.5 92q0 61 -38.5 92t-113.5 31h-177v-247zM312 765
l118 173h109l-153 -173h-74z" />
    <glyph glyph-name="racute" unicode="&#x155;" horiz-adv-x="377" 
d="M72 0v379q0 31 -1.5 62.5t-4.5 62.5h98l11 -130h-16q10 47 34 78t58.5 46t72.5 15q16 0 27 -1.5t22 -4.5l-1 -90q-17 7 -29.5 8.5t-30.5 1.5q-44 0 -75 -19.5t-47 -52.5t-16 -71v-284h-102zM195 553l103 202h103l-136 -202h-70z" />
    <glyph glyph-name="uni0156" unicode="&#x156;" horiz-adv-x="697" 
d="M83 0v705h298q113 0 175 -53.5t62 -149.5q0 -63 -28 -108t-79 -68.5t-120 -23.5l16 16h27q41 0 73.5 -21t53.5 -67l101 -230h-114l-100 231q-15 41 -46.5 53t-77.5 12h-137v-296h-104zM187 375h177q75 0 113.5 32t38.5 92q0 61 -38.5 92t-113.5 31h-177v-247zM352 -273
l-41 29q23 23 30.5 44t7.5 45l24 -13h-80v91h113v-63q0 -39 -12.5 -72.5t-41.5 -60.5z" />
    <glyph glyph-name="uni0157" unicode="&#x157;" horiz-adv-x="377" 
d="M72 0v379q0 31 -1.5 62.5t-4.5 62.5h98l11 -130h-16q10 47 34 78t58.5 46t72.5 15q16 0 27 -1.5t22 -4.5l-1 -90q-17 7 -29.5 8.5t-30.5 1.5q-44 0 -75 -19.5t-47 -52.5t-16 -71v-284h-102zM125 -273l-41 29q23 23 30.5 44t7.5 45l24 -13h-80v91h113v-63
q0 -39 -12.5 -72.5t-41.5 -60.5z" />
    <glyph glyph-name="Rcaron" unicode="&#x158;" horiz-adv-x="697" 
d="M83 0v705h298q113 0 175 -53.5t62 -149.5q0 -63 -28 -108t-79 -68.5t-120 -23.5l16 16h27q41 0 73.5 -21t53.5 -67l101 -230h-114l-100 231q-15 41 -46.5 53t-77.5 12h-137v-296h-104zM187 375h177q75 0 113.5 32t38.5 92q0 61 -38.5 92t-113.5 31h-177v-247zM304 765
l-123 173h72l96 -112l96 112h72l-123 -173h-90z" />
    <glyph glyph-name="rcaron" unicode="&#x159;" horiz-adv-x="377" 
d="M72 0v379q0 31 -1.5 62.5t-4.5 62.5h98l11 -130h-16q10 47 34 78t58.5 46t72.5 15q16 0 27 -1.5t22 -4.5l-1 -90q-17 7 -29.5 8.5t-30.5 1.5q-44 0 -75 -19.5t-47 -52.5t-16 -71v-284h-102zM184 553l-110 202h67l89 -141l89 141h67l-110 -202h-92z" />
    <glyph glyph-name="Sacute" unicode="&#x15a;" horiz-adv-x="633" 
d="M321 -9q-85 0 -154 21.5t-120 61.5l35 82q34 -26 70.5 -43t78 -25.5t90.5 -8.5q84 0 123.5 30t39.5 79q0 42 -27.5 65t-96.5 37l-109 22q-97 20 -144.5 65.5t-47.5 124.5q0 64 34 112t94.5 74t141.5 26q75 0 138 -21.5t106 -63.5l-34 -79q-45 39 -96 57.5t-116 18.5
q-77 0 -120.5 -32t-43.5 -87q0 -44 27.5 -69t91.5 -38l109 -21q101 -21 149 -64.5t48 -119.5q0 -61 -32.5 -107t-92.5 -71.5t-142 -25.5zM289 765l118 173h109l-153 -173h-74z" />
    <glyph glyph-name="sacute" unicode="&#x15b;" horiz-adv-x="498" 
d="M247 -9q-63 0 -116 16t-88 45l31 69q37 -28 82 -42t92 -14q55 0 83 19.5t28 53.5q0 26 -17.5 42t-57.5 24l-96 19q-64 14 -97 48t-33 87q0 45 24.5 80t70 55t106.5 20q56 0 104 -16t80 -46l-32 -67q-31 26 -70 40.5t-79 14.5q-56 0 -83 -21t-27 -55q0 -26 16.5 -42.5
t52.5 -25.5l96 -19q68 -14 102 -46t34 -86q0 -47 -26 -82t-72 -53t-108 -18zM220 553l103 202h103l-136 -202h-70z" />
    <glyph glyph-name="Scircumflex" unicode="&#x15c;" horiz-adv-x="633" 
d="M321 -9q-85 0 -154 21.5t-120 61.5l35 82q34 -26 70.5 -43t78 -25.5t90.5 -8.5q84 0 123.5 30t39.5 79q0 42 -27.5 65t-96.5 37l-109 22q-97 20 -144.5 65.5t-47.5 124.5q0 64 34 112t94.5 74t141.5 26q75 0 138 -21.5t106 -63.5l-34 -79q-45 39 -96 57.5t-116 18.5
q-77 0 -120.5 -32t-43.5 -87q0 -44 27.5 -69t91.5 -38l109 -21q101 -21 149 -64.5t48 -119.5q0 -61 -32.5 -107t-92.5 -71.5t-142 -25.5zM158 765l123 173h90l123 -173h-72l-96 112l-96 -112h-72z" />
    <glyph glyph-name="scircumflex" unicode="&#x15d;" horiz-adv-x="498" 
d="M247 -9q-63 0 -116 16t-88 45l31 69q37 -28 82 -42t92 -14q55 0 83 19.5t28 53.5q0 26 -17.5 42t-57.5 24l-96 19q-64 14 -97 48t-33 87q0 45 24.5 80t70 55t106.5 20q56 0 104 -16t80 -46l-32 -67q-31 26 -70 40.5t-79 14.5q-56 0 -83 -21t-27 -55q0 -26 16.5 -42.5
t52.5 -25.5l96 -19q68 -14 102 -46t34 -86q0 -47 -26 -82t-72 -53t-108 -18zM99 553l110 202h92l110 -202h-67l-89 140l-89 -140h-67z" />
    <glyph glyph-name="Scedilla" unicode="&#x15e;" horiz-adv-x="633" 
d="M321 -9q-85 0 -154 21.5t-120 61.5l35 82q34 -26 70.5 -43t78 -25.5t90.5 -8.5q84 0 123.5 30t39.5 79q0 42 -27.5 65t-96.5 37l-109 22q-97 20 -144.5 65.5t-47.5 124.5q0 64 34 112t94.5 74t141.5 26q75 0 138 -21.5t106 -63.5l-34 -79q-45 39 -96 57.5t-116 18.5
q-77 0 -120.5 -32t-43.5 -87q0 -44 27.5 -69t91.5 -38l109 -21q101 -21 149 -64.5t48 -119.5q0 -61 -32.5 -107t-92.5 -71.5t-142 -25.5zM329 -194q-28 0 -52.5 5.5t-43.5 15.5l16 49q18 -8 35 -12t38 -4q27 0 42.5 8.5t15.5 24.5q0 26 -38 26q-10 0 -20.5 -1.5t-24.5 -5.5
l-18 16l15 92h58l-13 -76l-28 9q12 3 24 5t22 2q39 0 63 -18t24 -52q0 -37 -32 -60.5t-83 -23.5z" />
    <glyph glyph-name="scedilla" unicode="&#x15f;" horiz-adv-x="498" 
d="M247 -9q-63 0 -116 16t-88 45l31 69q37 -28 82 -42t92 -14q55 0 83 19.5t28 53.5q0 26 -17.5 42t-57.5 24l-96 19q-64 14 -97 48t-33 87q0 45 24.5 80t70 55t106.5 20q56 0 104 -16t80 -46l-32 -67q-31 26 -70 40.5t-79 14.5q-56 0 -83 -21t-27 -55q0 -26 16.5 -42.5
t52.5 -25.5l96 -19q68 -14 102 -46t34 -86q0 -47 -26 -82t-72 -53t-108 -18zM249 -194q-28 0 -52.5 5.5t-43.5 15.5l16 49q18 -8 35 -12t38 -4q27 0 42.5 8.5t15.5 24.5q0 26 -38 26q-10 0 -20.5 -1.5t-24.5 -5.5l-18 16l15 92h58l-13 -76l-28 9q12 3 24 5t22 2q39 0 63 -18
t24 -52q0 -37 -32 -60.5t-83 -23.5z" />
    <glyph glyph-name="Scaron" unicode="&#x160;" horiz-adv-x="633" 
d="M321 -9q-85 0 -154 21.5t-120 61.5l35 82q34 -26 70.5 -43t78 -25.5t90.5 -8.5q84 0 123.5 30t39.5 79q0 42 -27.5 65t-96.5 37l-109 22q-97 20 -144.5 65.5t-47.5 124.5q0 64 34 112t94.5 74t141.5 26q75 0 138 -21.5t106 -63.5l-34 -79q-45 39 -96 57.5t-116 18.5
q-77 0 -120.5 -32t-43.5 -87q0 -44 27.5 -69t91.5 -38l109 -21q101 -21 149 -64.5t48 -119.5q0 -61 -32.5 -107t-92.5 -71.5t-142 -25.5zM281 765l-123 173h72l96 -112l96 112h72l-123 -173h-90z" />
    <glyph glyph-name="scaron" unicode="&#x161;" horiz-adv-x="498" 
d="M247 -9q-63 0 -116 16t-88 45l31 69q37 -28 82 -42t92 -14q55 0 83 19.5t28 53.5q0 26 -17.5 42t-57.5 24l-96 19q-64 14 -97 48t-33 87q0 45 24.5 80t70 55t106.5 20q56 0 104 -16t80 -46l-32 -67q-31 26 -70 40.5t-79 14.5q-56 0 -83 -21t-27 -55q0 -26 16.5 -42.5
t52.5 -25.5l96 -19q68 -14 102 -46t34 -86q0 -47 -26 -82t-72 -53t-108 -18zM209 553l-110 202h67l89 -141l89 141h67l-110 -202h-92z" />
    <glyph glyph-name="uni0162" unicode="&#x162;" horiz-adv-x="611" 
d="M252 0v618h-241v87h586v-87h-241v-618h-104zM308 -194q-28 0 -52.5 5.5t-43.5 15.5l16 49q18 -8 35 -12t38 -4q27 0 42.5 8.5t15.5 24.5q0 26 -38 26q-10 0 -20.5 -1.5t-24.5 -5.5l-18 16l15 92h58l-13 -76l-28 9q12 3 24 5t22 2q39 0 63 -18t24 -52q0 -37 -32 -60.5
t-83 -23.5z" />
    <glyph glyph-name="uni0163" unicode="&#x163;" horiz-adv-x="363" 
d="M270 -9q-82 0 -124 44.5t-42 133.5v257h-98v78h98v133l101 27v-160h140v-78h-140v-248q0 -56 20 -80t58 -24q19 0 33.5 3.5t26.5 8.5v-82q-15 -6 -35 -9.5t-38 -3.5zM234 -194q-28 0 -52.5 5.5t-43.5 15.5l16 49q18 -8 35 -12t38 -4q27 0 42.5 8.5t15.5 24.5q0 26 -38 26
q-10 0 -20.5 -1.5t-24.5 -5.5l-18 16l15 92h58l-13 -76l-28 9q12 3 24 5t22 2q39 0 63 -18t24 -52q0 -37 -32 -60.5t-83 -23.5z" />
    <glyph glyph-name="Tcaron" unicode="&#x164;" horiz-adv-x="611" 
d="M252 0v618h-241v87h586v-87h-241v-618h-104zM261 765l-123 173h72l96 -112l96 112h72l-123 -173h-90z" />
    <glyph glyph-name="tcaron" unicode="&#x165;" horiz-adv-x="363" 
d="M270 -9q-82 0 -124 44.5t-42 133.5v257h-98v78h98v133l101 27v-160h140v-78h-140v-248q0 -56 20 -80t58 -24q19 0 33.5 3.5t26.5 8.5v-82q-15 -6 -35 -9.5t-38 -3.5zM270 543v173h74l-25 -173h-49z" />
    <glyph glyph-name="Tbar" unicode="&#x166;" horiz-adv-x="611" 
d="M252 0v618h-241v87h586v-87h-241v-618h-104zM113 319v77h385v-77h-385z" />
    <glyph glyph-name="tbar" unicode="&#x167;" horiz-adv-x="363" 
d="M270 -9q-82 0 -124 44.5t-42 133.5v257h-98v78h98v133l101 27v-160h140v-78h-140v-248q0 -56 20 -80t58 -24q19 0 33.5 3.5t26.5 8.5v-82q-15 -6 -35 -9.5t-38 -3.5zM34 241v64h289v-64h-289z" />
    <glyph glyph-name="Utilde" unicode="&#x168;" horiz-adv-x="735" 
d="M369 -9q-147 0 -218.5 74t-71.5 219v421h104v-419q0 -102 44.5 -153.5t141.5 -51.5q92 0 139 51.5t47 153.5v419h102v-421q0 -145 -73 -219t-215 -74zM207 778l-53 3q5 67 39.5 103.5t86.5 36.5q23 0 46.5 -9t56.5 -29q30 -18 47 -25.5t31 -7.5q29 0 46.5 19.5t23.5 55.5
l53 -4q-5 -67 -39 -103.5t-86 -36.5q-23 0 -47.5 9.5t-59.5 31.5q-28 18 -44 24.5t-31 6.5q-29 0 -46.5 -19t-23.5 -56z" />
    <glyph glyph-name="utilde" unicode="&#x169;" horiz-adv-x="586" 
d="M253 -9q-91 0 -136.5 49.5t-45.5 152.5v311h101v-309q0 -63 26 -93t79 -30q60 0 97 40t37 106v286h101v-504h-98v108h13q-21 -56 -67 -86.5t-107 -30.5zM160 588l-53 4q5 67 35.5 103.5t77.5 36.5q21 0 40 -10t43 -29q21 -18 34.5 -25.5t26.5 -7.5q51 0 62 75l53 -3
q-4 -67 -34.5 -103.5t-77.5 -36.5q-21 0 -40 9.5t-45 29.5q-20 18 -33 25t-27 7q-27 0 -42 -19.5t-20 -55.5z" />
    <glyph glyph-name="Umacron" unicode="&#x16a;" horiz-adv-x="735" 
d="M369 -9q-147 0 -218.5 74t-71.5 219v421h104v-419q0 -102 44.5 -153.5t141.5 -51.5q92 0 139 51.5t47 153.5v419h102v-421q0 -145 -73 -219t-215 -74zM201 811v63h336v-63h-336z" />
    <glyph glyph-name="umacron" unicode="&#x16b;" horiz-adv-x="586" 
d="M253 -9q-91 0 -136.5 49.5t-45.5 152.5v311h101v-309q0 -63 26 -93t79 -30q60 0 97 40t37 106v286h101v-504h-98v108h13q-21 -56 -67 -86.5t-107 -30.5zM140 622v64h306v-64h-306z" />
    <glyph glyph-name="Ubreve" unicode="&#x16c;" horiz-adv-x="735" 
d="M369 -9q-147 0 -218.5 74t-71.5 219v421h104v-419q0 -102 44.5 -153.5t141.5 -51.5q92 0 139 51.5t47 153.5v419h102v-421q0 -145 -73 -219t-215 -74zM369 760q-74 0 -121.5 45.5t-53.5 123.5l60 8q5 -54 35 -83.5t79 -29.5q50 0 81 29.5t35 83.5l60 -8
q-6 -78 -53.5 -123.5t-121.5 -45.5z" />
    <glyph glyph-name="ubreve" unicode="&#x16d;" horiz-adv-x="586" 
d="M253 -9q-91 0 -136.5 49.5t-45.5 152.5v311h101v-309q0 -63 26 -93t79 -30q60 0 97 40t37 106v286h101v-504h-98v108h13q-21 -56 -67 -86.5t-107 -30.5zM293 551q-47 0 -82.5 23t-55 66t-22.5 102l60 6q4 -64 30 -98.5t70 -34.5t70 34.5t30 98.5l60 -6q-2 -59 -22 -102
t-55.5 -66t-82.5 -23z" />
    <glyph glyph-name="Uring" unicode="&#x16e;" horiz-adv-x="735" 
d="M369 -9q-147 0 -218.5 74t-71.5 219v421h104v-419q0 -102 44.5 -153.5t141.5 -51.5q92 0 139 51.5t47 153.5v419h102v-421q0 -145 -73 -219t-215 -74zM369 756q-34 0 -62 16.5t-44 43.5t-16 60q0 34 16 60.5t44 42t62 15.5q35 0 62.5 -15.5t43.5 -42.5t16 -60t-16 -60
t-43.5 -43.5t-62.5 -16.5zM369 806q31 0 50 20t19 50q0 29 -19 48.5t-50 19.5q-30 0 -49.5 -19.5t-19.5 -48.5q0 -30 19.5 -50t49.5 -20z" />
    <glyph glyph-name="uring" unicode="&#x16f;" horiz-adv-x="586" 
d="M253 -9q-91 0 -136.5 49.5t-45.5 152.5v311h101v-309q0 -63 26 -93t79 -30q60 0 97 40t37 106v286h101v-504h-98v108h13q-21 -56 -67 -86.5t-107 -30.5zM293 547q-34 0 -62 16t-44 43t-16 60q0 34 16 60.5t44 42.5t62 16q35 0 62.5 -16t43.5 -43t16 -60t-16 -60
t-43.5 -43t-62.5 -16zM293 597q31 0 50 20t19 49q0 30 -19 49.5t-50 19.5q-30 0 -49.5 -19.5t-19.5 -49.5t19.5 -49.5t49.5 -19.5z" />
    <glyph glyph-name="Uhungarumlaut" unicode="&#x170;" horiz-adv-x="735" 
d="M369 -9q-147 0 -218.5 74t-71.5 219v421h104v-419q0 -102 44.5 -153.5t141.5 -51.5q92 0 139 51.5t47 153.5v419h102v-421q0 -145 -73 -219t-215 -74zM272 765l85 173h96l-123 -173h-58zM408 765l92 173h95l-129 -173h-58z" />
    <glyph glyph-name="uhungarumlaut" unicode="&#x171;" horiz-adv-x="586" 
d="M253 -9q-91 0 -136.5 49.5t-45.5 152.5v311h101v-309q0 -63 26 -93t79 -30q60 0 97 40t37 106v286h101v-504h-98v108h13q-21 -56 -67 -86.5t-107 -30.5zM333 554l52 202h88l-85 -202h-55zM196 554l51 202h90l-86 -202h-55z" />
    <glyph glyph-name="Uogonek" unicode="&#x172;" horiz-adv-x="735" 
d="M369 -9q-147 0 -218.5 74t-71.5 219v421h104v-419q0 -102 44.5 -153.5t141.5 -51.5q92 0 139 51.5t47 153.5v419h102v-421q0 -145 -73 -219t-215 -74zM431 -194q-51 0 -81 27.5t-30 73.5q0 41 27 76.5t72 55.5l33 -39q-16 -7 -31 -19t-24 -28t-9 -35q0 -27 16.5 -40.5
t40.5 -13.5q14 0 27 3t27 9l15 -53q-17 -8 -37 -12.5t-46 -4.5z" />
    <glyph glyph-name="uogonek" unicode="&#x173;" horiz-adv-x="586" 
d="M253 -9q-91 0 -136.5 49.5t-45.5 152.5v311h101v-309q0 -63 26 -93t79 -30q60 0 97 40t37 106v286h101v-504h-98v108h13q-21 -56 -67 -86.5t-107 -30.5zM470 -194q-51 0 -81 27.5t-30 73.5q0 41 27 76.5t72 55.5l33 -39q-16 -7 -31 -19t-24 -28t-9 -35q0 -27 16.5 -40.5
t40.5 -13.5q14 0 27 3t27 9l15 -53q-17 -8 -37 -12.5t-46 -4.5z" />
    <glyph glyph-name="Wcircumflex" unicode="&#x174;" horiz-adv-x="1116" 
d="M277 0l-247 705h108l205 -609h-37l217 609h79l204 -609h-34l212 609h102l-249 -705h-89l-198 580h21l-206 -580h-88zM390 765l123 173h90l123 -173h-72l-96 112l-96 -112h-72z" />
    <glyph glyph-name="wcircumflex" unicode="&#x175;" horiz-adv-x="875" 
d="M211 0l-191 504h105l149 -420h-26l153 420h78l152 -420h-25l149 420h101l-192 -504h-92l-158 428h47l-156 -428h-94zM282 553l110 202h92l110 -202h-67l-89 140l-89 -140h-67z" />
    <glyph glyph-name="Ycircumflex" unicode="&#x176;" horiz-adv-x="617" 
d="M256 0v331l23 -66l-297 440h120l221 -337h-25l221 337h116l-296 -440l21 66v-331h-104zM141 765l123 173h90l123 -173h-72l-96 112l-96 -112h-72z" />
    <glyph glyph-name="ycircumflex" unicode="&#x177;" horiz-adv-x="536" 
d="M59 -227l-24 82q47 10 78.5 24t52.5 36.5t36 57.5l25 59l-2 -41l-219 513h108l170 -420h-27l170 420h104l-231 -540q-22 -50 -47 -84t-54 -55t-64 -33t-76 -19zM112 553l110 202h92l110 -202h-67l-89 140l-89 -140h-67z" />
    <glyph glyph-name="Ydieresis" unicode="&#x178;" horiz-adv-x="617" 
d="M256 0v331l23 -66l-297 440h120l221 -337h-25l221 337h116l-296 -440l21 66v-331h-104zM350 799v99h99v-99h-99zM169 799v99h99v-99h-99z" />
    <glyph glyph-name="Zacute" unicode="&#x179;" horiz-adv-x="601" 
d="M44 0v76l412 577v-35h-412v87h511v-76l-413 -577v35h425v-87h-523zM269 765l118 173h109l-153 -173h-74z" />
    <glyph glyph-name="zacute" unicode="&#x17a;" horiz-adv-x="522" 
d="M49 0v67l328 384l1 -25h-329v78h421v-67l-331 -387l-1 27h343v-77h-432zM227 553l103 202h103l-136 -202h-70z" />
    <glyph glyph-name="Zdotaccent" unicode="&#x17b;" horiz-adv-x="601" 
d="M44 0v76l412 577v-35h-412v87h511v-76l-413 -577v35h425v-87h-523zM254 801v101h104v-101h-104z" />
    <glyph glyph-name="zdotaccent" unicode="&#x17c;" horiz-adv-x="522" 
d="M49 0v67l328 384l1 -25h-329v78h421v-67l-331 -387l-1 27h343v-77h-432zM209 603v101h106v-101h-106z" />
    <glyph glyph-name="Zcaron" unicode="&#x17d;" horiz-adv-x="601" 
d="M44 0v76l412 577v-35h-412v87h511v-76l-413 -577v35h425v-87h-523zM261 765l-123 173h72l96 -112l96 112h72l-123 -173h-90z" />
    <glyph glyph-name="zcaron" unicode="&#x17e;" horiz-adv-x="522" 
d="M49 0v67l328 384l1 -25h-329v78h421v-67l-331 -387l-1 27h343v-77h-432zM216 553l-110 202h67l89 -141l89 141h67l-110 -202h-92z" />
    <glyph glyph-name="uni0181" unicode="&#x181;" horiz-adv-x="826" 
d="M224 0v629h-31q-55 0 -81 -25t-26 -78v-46h-87v50q0 88 50 131.5t153 43.5h316q113 0 174.5 -48t61.5 -135q0 -65 -39 -109t-106 -59v15q77 -10 120 -55.5t43 -118.5q0 -94 -63.5 -144.5t-178.5 -50.5h-306zM324 81h195q76 0 114.5 29t38.5 89q0 59 -38 88.5t-115 29.5
h-195v-236zM324 397h178q75 0 112.5 29t37.5 85t-37.5 85t-112.5 29h-178v-228z" />
    <glyph glyph-name="uni018A" unicode="&#x18a;" horiz-adv-x="894" 
d="M224 0v629h-31q-55 0 -81 -25t-26 -78v-46h-87v50q0 88 49.5 131.5t147.5 43.5h272q177 0 272.5 -90.5t95.5 -261.5t-95.5 -262t-272.5 -91h-244zM327 87h134q136 0 203 66t67 200t-67 199.5t-203 65.5h-134v-531z" />
    <glyph glyph-name="uni018F" unicode="&#x18f;" horiz-adv-x="757" 
d="M377 -9q-112 0 -182.5 45.5t-103 127.5t-32.5 192v40h554v-82h-476l26 39q0 -90 20 -151.5t66.5 -92.5t123.5 -31q106 0 163 71t57 205q0 131 -61.5 200.5t-185.5 69.5q-46 0 -83 -7.5t-70 -25t-67 -44.5l-38 80q50 43 115 65t155 22q108 0 184 -43t116.5 -124t40.5 -194
q0 -111 -39.5 -192.5t-111.5 -125.5t-171 -44z" />
    <glyph glyph-name="florin" unicode="&#x192;" horiz-adv-x="600" 
d="M37 -189v81h52q40 0 65.5 22t37.5 76l92 432l19 -12h-137v78h149l-20 -16l14 66q16 85 66.5 130.5t132.5 45.5h54v-82h-45q-45 0 -71 -21.5t-38 -76.5l-13 -62l-15 16h138v-78h-153l20 13l-94 -437q-18 -84 -66.5 -129.5t-129.5 -45.5h-58z" />
    <glyph glyph-name="Ohorn" unicode="&#x1a0;" horiz-adv-x="779" 
d="M59 353q0 111 39 192t113.5 125t177.5 44q102 0 176 -44t114.5 -125t40.5 -191q0 -111 -40.5 -192.5t-115 -126t-175.5 -44.5q-103 0 -177 44.5t-113.5 126t-39.5 191.5zM168 353q0 -128 56 -200t165 -72q106 0 164 71.5t58 200.5t-57.5 200t-164.5 71q-109 0 -165 -71
t-56 -200zM499 649l-47 60q24 -1 42 -2.5t35 -1.5q40 0 62.5 10.5t32.5 35t10 64.5v18h89v-32q0 -44 -18 -78.5t-50 -54t-75 -19.5h-81z" />
    <glyph glyph-name="ohorn" unicode="&#x1a1;" horiz-adv-x="581" 
d="M290 -9q-75 0 -130 31.5t-85 90t-30 139.5t30 139.5t85 90t130 31.5t130.5 -31.5t86 -90t30.5 -139.5t-30.5 -139.5t-86 -90t-130.5 -31.5zM290 70q66 0 105 46t39 136t-39 135.5t-105 45.5q-65 0 -104 -45.5t-39 -135.5t38.5 -136t104.5 -46zM399 447l-56 36v21
q39 1 62 11.5t33 34.5t10 64v18h88v-32q0 -44 -16.5 -77t-47 -53t-73.5 -23z" />
    <glyph glyph-name="Uhorn" unicode="&#x1af;" horiz-adv-x="735" 
d="M369 -9q-147 0 -218.5 74t-71.5 219v421h104v-419q0 -102 44.5 -153.5t141.5 -51.5q92 0 139 51.5t47 153.5v419h102v-421q0 -145 -73 -219t-215 -74zM644 649l-55 35v21q40 1 62.5 11.5t32 35t9.5 63.5v18h89v-32q0 -44 -16.5 -77t-47.5 -52.5t-74 -22.5z" />
    <glyph glyph-name="uhorn" unicode="&#x1b0;" horiz-adv-x="586" 
d="M253 -9q-91 0 -136.5 49.5t-45.5 152.5v311h101v-309q0 -63 26 -93t79 -30q60 0 97 40t37 106v286h101v-504h-98v108h13q-21 -56 -67 -86.5t-107 -30.5zM489 447l-56 36v21q39 1 62 11.5t33 34.5t10 64v18h88v-32q0 -44 -16.5 -77t-47 -53t-73.5 -23z" />
    <glyph glyph-name="uni01B3" unicode="&#x1b3;" horiz-adv-x="617" 
d="M256 0v364l23 -66l-297 407h120l221 -304h-24l160 227q31 44 70 65t90 21q19 0 35.5 -2.5t29.5 -8.5v-74q-10 4 -22 6t-27 2q-26 0 -48.5 -11.5t-41.5 -38.5l-206 -289l21 66v-364h-104z" />
    <glyph glyph-name="uni01B4" unicode="&#x1b4;" horiz-adv-x="579" 
d="M59 -227l-24 82q47 10 78.5 24t52.5 36.5t36 57.5l25 59l-2 -41l-219 513h108l170 -420h-27l127 313q24 58 61.5 87t100.5 29q20 0 37 -2.5t30 -7.5l-13 -77q-10 4 -20 5t-19 1q-32 0 -54 -16.5t-42 -62.5l-165 -389q-22 -50 -47 -84t-54 -55t-64 -33t-76 -19z" />
    <glyph glyph-name="uni01C4" unicode="&#x1c4;" horiz-adv-x="1340" 
d="M83 0v705h244q119 0 201.5 -41t125 -119.5t42.5 -191.5q0 -112 -42.5 -191t-125 -120.5t-201.5 -41.5h-244zM187 87h134q136 0 202.5 66t66.5 200t-66.5 199.5t-202.5 65.5h-134v-531zM783 0v76l412 577v-35h-412v87h511v-76l-413 -577v35h425v-87h-523zM1000 765
l-123 173h72l96 -112l96 112h72l-123 -173h-90z" />
    <glyph glyph-name="uni01C5" unicode="&#x1c5;" horiz-adv-x="1276" 
d="M83 0v705h244q119 0 201.5 -41t125 -119.5t42.5 -191.5q0 -112 -42.5 -191t-125 -120.5t-201.5 -41.5h-244zM187 87h134q136 0 202.5 66t66.5 200t-66.5 199.5t-202.5 65.5h-134v-531zM803 0v67l328 384l1 -25h-329v78h421v-67l-331 -387l-1 27h343v-77h-432zM970 553
l-110 202h67l89 -141l89 141h67l-110 -202h-92z" />
    <glyph glyph-name="uni01C6" unicode="&#x1c6;" horiz-adv-x="1131" 
d="M267 -9q-66 0 -116.5 31t-78 90t-27.5 140q0 82 27.5 140t78 89.5t116.5 31.5q65 0 114.5 -32.5t65.5 -88.5h-12v344h101v-736h-100v114h12q-17 -57 -66 -90t-115 -33zM292 70q65 0 105 46t40 136t-40 135.5t-105 45.5q-66 0 -105.5 -45.5t-39.5 -135.5t39.5 -136
t105.5 -46zM658 0v67l328 384l1 -25h-329v78h421v-67l-331 -387l-1 27h343v-77h-432zM826 553l-110 202h67l89 -141l89 141h67l-110 -202h-92z" />
    <glyph glyph-name="uni01C7" unicode="&#x1c7;" horiz-adv-x="936" 
d="M83 0v705h104v-616h346v-89h-450zM676 -187q-16 0 -38 2t-45 7v84q19 -4 36 -6.5t30 -2.5q46 0 68 28t22 89v691h104v-692q0 -66 -19 -110.5t-57.5 -67t-100.5 -22.5z" />
    <glyph glyph-name="uni01C8" unicode="&#x1c8;" horiz-adv-x="800" 
d="M83 0v705h104v-616h346v-89h-450zM567 -221q-16 0 -37.5 3t-37.5 10v82q13 -4 28.5 -7.5t29.5 -3.5q39 0 59.5 24.5t20.5 80.5v536h101v-543q0 -90 -40 -136t-124 -46zM621 609v105h118v-105h-118z" />
    <glyph glyph-name="uni01C9" unicode="&#x1c9;" horiz-adv-x="496" 
d="M74 0v736h101v-736h-101zM264 -221q-16 0 -37.5 3t-37.5 10v82q13 -4 28.5 -7.5t29.5 -3.5q39 0 59.5 24.5t20.5 80.5v536h101v-543q0 -90 -40 -136t-124 -46zM318 609v105h118v-105h-118z" />
    <glyph glyph-name="uni01CA" unicode="&#x1ca;" horiz-adv-x="1094" 
d="M83 0v705h80l433 -568h-25v568h97v-705h-79l-432 568h23v-568h-97zM834 -187q-16 0 -38 2t-45 7v84q19 -4 36 -6.5t30 -2.5q46 0 68 28t22 89v691h104v-692q0 -66 -19 -110.5t-57.5 -67t-100.5 -22.5z" />
    <glyph glyph-name="uni01CB" unicode="&#x1cb;" horiz-adv-x="999" 
d="M83 0v705h80l433 -568h-25v568h97v-705h-79l-432 568h23v-568h-97zM765 -221q-16 0 -37.5 3t-37.5 10v82q13 -4 28.5 -7.5t29.5 -3.5q39 0 59.5 24.5t20.5 80.5v536h101v-543q0 -90 -40 -136t-124 -46zM819 609v105h118v-105h-118z" />
    <glyph glyph-name="uni01CC" unicode="&#x1cc;" horiz-adv-x="841" 
d="M74 0v383q0 29 -2.5 59.5t-5.5 61.5h98l9 -106h-12q23 56 71 85.5t111 29.5q89 0 134.5 -49t45.5 -152v-312h-101v306q0 67 -26.5 96.5t-80.5 29.5q-64 0 -102 -39.5t-38 -106.5v-286h-101zM608 -221q-16 0 -37.5 3t-37.5 10v82q13 -4 28.5 -7.5t29.5 -3.5
q39 0 59.5 24.5t20.5 80.5v536h101v-543q0 -90 -40 -136t-124 -46zM662 609v105h118v-105h-118z" />
    <glyph glyph-name="uni01CD" unicode="&#x1cd;" horiz-adv-x="742" 
d="M10 0l314 705h89l319 -705h-107l-87 200l44 -28h-427l47 28l-87 -200h-105zM367 591l-152 -359l-24 23h355l-20 -23l-155 359h-4zM324 765l-123 173h72l96 -112l96 112h72l-123 -173h-90z" />
    <glyph glyph-name="uni01CE" unicode="&#x1ce;" horiz-adv-x="609" 
d="M267 -9q-67 0 -117 31t-77.5 90t-27.5 140q0 82 27.5 140t77.5 89.5t117 31.5q66 0 115 -33t65 -90h-11l10 114h98q-3 -31 -5.5 -61.5t-2.5 -59.5v-383h-101v112h11q-16 -56 -65.5 -88.5t-113.5 -32.5zM292 70q65 0 104.5 46t39.5 136t-39.5 135.5t-104.5 45.5
q-66 0 -105.5 -45.5t-39.5 -135.5t39 -136t106 -46zM253 553l-110 202h67l89 -141l89 141h67l-110 -202h-92z" />
    <glyph glyph-name="uni01D4" unicode="&#x1d4;" horiz-adv-x="586" 
d="M253 -9q-91 0 -136.5 49.5t-45.5 152.5v311h101v-309q0 -63 26 -93t79 -30q60 0 97 40t37 106v286h101v-504h-98v108h13q-21 -56 -67 -86.5t-107 -30.5zM247 554l-110 202h67l89 -141l89 141h67l-110 -202h-92z" />
    <glyph glyph-name="uni01E5" unicode="&#x1e5;" horiz-adv-x="613" 
d="M300 -223q-67 0 -122.5 15.5t-99.5 47.5l25 75q29 -21 60 -35t64 -21t67 -7q113 0 138 87l8 -10h-131v51h142l-13 -18q1 8 1.5 15t0.5 15v155h10q-16 -55 -66 -86.5t-114 -31.5q-69 0 -119.5 29.5t-78 84t-27.5 128.5t27.5 128.5t78 84t119.5 29.5q64 0 113.5 -31.5
t65.5 -88.5l-13 -1l10 112h98q-3 -31 -5.5 -61.5t-2.5 -59.5l2 -372v-21t-2 -21l-11 11h80v-51h-87l14 11q-17 -80 -75.5 -121.5t-156.5 -41.5zM293 107q67 0 106 42.5t39 120.5t-39 120.5t-106 42.5t-106.5 -42.5t-39.5 -120.5t39.5 -120.5t106.5 -42.5z" />
    <glyph glyph-name="Gcaron" unicode="&#x1e6;" horiz-adv-x="735" 
d="M415 -9q-117 0 -196.5 43.5t-119.5 124.5t-40 193t42.5 193t122 125t191.5 44q77 0 134 -21.5t102 -62.5l-37 -81q-32 27 -62 43t-62 23.5t-75 7.5q-121 0 -184 -71t-63 -201q0 -132 60.5 -201t190.5 -69q45 0 89 8.5t85 25.5l-20 -49v231h-174v78h261v-333
q-46 -23 -112.5 -37t-132.5 -14zM360 765l-123 173h72l96 -112l96 112h72l-123 -173h-90z" />
    <glyph glyph-name="gcaron" unicode="&#x1e7;" horiz-adv-x="612" 
d="M301 -224q-68 0 -123.5 16t-99.5 48l25 74q31 -21 61 -33.5t63 -18.5t68 -6q72 0 108.5 36.5t36.5 105.5v135h10q-16 -56 -65.5 -88.5t-114.5 -32.5q-69 0 -119.5 30.5t-78 87t-27.5 133.5t27.5 133t78 86.5t119.5 30.5q66 0 114.5 -32.5t64.5 -88.5l-9 8l9 104h98
q-4 -31 -6 -61.5t-2 -59.5v-373q0 -114 -60.5 -174t-177.5 -60zM294 91q66 0 105.5 45t39.5 127t-39.5 126t-105.5 44q-68 0 -107.5 -44t-39.5 -126t39.5 -127t107.5 -45zM264 553l-110 202h67l89 -141l89 141h67l-110 -202h-92z" />
    <glyph glyph-name="uni01E9" unicode="&#x1e9;" horiz-adv-x="532" 
d="M74 0v736h101v-452h2l220 220h125l-266 -265l1 45l287 -284h-128l-239 231h-2v-231h-101zM226 776l-123 173h72l96 -112l96 112h72l-123 -173h-90z" />
    <glyph glyph-name="uni01EA" unicode="&#x1ea;" horiz-adv-x="779" 
d="M59 353q0 111 39 192t113.5 125t177.5 44q102 0 176 -44t114.5 -125t40.5 -191q0 -111 -40.5 -192.5t-115 -126t-175.5 -44.5q-103 0 -177 44.5t-113.5 126t-39.5 191.5zM168 353q0 -128 56 -200t165 -72q106 0 164 71.5t58 200.5t-57.5 200t-164.5 71q-109 0 -165 -71
t-56 -200zM432 -194q-51 0 -81 27.5t-30 73.5q0 41 27 76.5t72 55.5l33 -39q-16 -7 -31 -19t-24 -28t-9 -35q0 -27 16.5 -40.5t40.5 -13.5q14 0 27 3t27 9l15 -53q-17 -8 -37 -12.5t-46 -4.5z" />
    <glyph glyph-name="uni01EB" unicode="&#x1eb;" horiz-adv-x="581" 
d="M290 -9q-75 0 -130 31.5t-85 90t-30 139.5t30 139.5t85 90t130 31.5t130.5 -31.5t86 -90t30.5 -139.5t-30.5 -139.5t-86 -90t-130.5 -31.5zM290 70q66 0 105 46t39 136t-39 135.5t-105 45.5q-65 0 -104 -45.5t-39 -135.5t38.5 -136t104.5 -46zM326 -194q-51 0 -81 27.5
t-30 73.5q0 41 27 76.5t72 55.5l33 -39q-16 -7 -31 -19t-24 -28t-9 -35q0 -27 16.5 -40.5t40.5 -13.5q14 0 27 3t27 9l15 -53q-17 -8 -37 -12.5t-46 -4.5z" />
    <glyph glyph-name="Aringacute" unicode="&#x1fa;" horiz-adv-x="742" 
d="M10 0l314 705h89l319 -705h-107l-87 200l44 -28h-427l47 28l-87 -200h-105zM367 591l-152 -359l-24 23h355l-20 -23l-155 359h-4zM369 756q-33 0 -60 15.5t-42.5 42t-15.5 58.5q0 33 15.5 58.5t42.5 41t60 15.5q19 0 35 -4.5t30 -13.5l68 63h89l-119 -102q15 -26 15 -58
t-15.5 -58.5t-42.5 -42t-60 -15.5zM369 803q31 0 50 20t19 49q0 30 -19 49.5t-50 19.5q-30 0 -49.5 -20t-19.5 -49t19.5 -49t49.5 -20z" />
    <glyph glyph-name="aringacute" unicode="&#x1fb;" horiz-adv-x="609" 
d="M267 -9q-67 0 -117 31t-77.5 90t-27.5 140q0 82 27.5 140t77.5 89.5t117 31.5q66 0 115 -33t65 -90h-11l10 114h98q-3 -31 -5.5 -61.5t-2.5 -59.5v-383h-101v112h11q-16 -56 -65.5 -88.5t-113.5 -32.5zM292 70q65 0 104.5 46t39.5 136t-39.5 135.5t-104.5 45.5
q-66 0 -105.5 -45.5t-39.5 -135.5t39 -136t106 -46zM299 543q-33 0 -60 15t-42.5 41.5t-15.5 58.5t15.5 58.5t42.5 41.5t60 15q19 0 35 -5t30 -14l68 63h89l-119 -101q15 -27 15 -58q0 -32 -15.5 -58.5t-42.5 -41.5t-60 -15zM299 589q31 0 50 19.5t19 49.5t-19 49t-50 19
q-30 0 -49.5 -19t-19.5 -49t19.5 -49.5t49.5 -19.5z" />
    <glyph glyph-name="AEacute" unicode="&#x1fc;" horiz-adv-x="1011" 
d="M-10 0l435 705h540v-83h-390l23 22l23 -272l-17 28h339v-84h-334l16 10l24 -268l-14 26h330v-84h-407l-17 195l27 -23h-377l33 28l-121 -200h-113zM476 621l-234 -390l-9 25h315l-9 -27l-35 392h-28zM481 765l118 173h109l-153 -173h-74z" />
    <glyph glyph-name="aeacute" unicode="&#x1fd;" horiz-adv-x="877" 
d="M237 -9q-55 0 -96.5 21t-64.5 56.5t-23 78.5q0 58 26.5 91.5t90 47.5t172.5 14h51v-58h-51q-75 0 -118 -8t-60.5 -28t-17.5 -54q0 -39 28 -64t76 -25q39 0 68.5 17.5t46.5 49.5t17 75v120q0 58 -26.5 83.5t-82.5 25.5q-45 0 -85 -11.5t-83 -37.5l-31 71q39 27 92.5 42
t109.5 15q76 0 120.5 -29.5t60.5 -87.5h-28q31 57 79.5 87t114.5 30q98 0 155 -64t57 -177v-30h-368v58h299l-17 -15q0 74 -33 115t-95 41q-66 0 -104 -43.5t-38 -129.5v-7q0 -93 41 -142t121 -49q42 0 81 13t74 42l33 -70q-35 -31 -86 -47.5t-105 -16.5q-88 0 -146 38.5
t-82 111.5h23q-16 -71 -68 -110.5t-128 -39.5zM400 553l103 202h103l-136 -202h-70z" />
    <glyph glyph-name="Oslashacute" unicode="&#x1fe;" horiz-adv-x="779" 
d="M59 353q0 111 39 192t113.5 125t177.5 44q102 0 176 -44t114.5 -125t40.5 -191q0 -111 -40.5 -192.5t-115 -126t-175.5 -44.5q-103 0 -177 44.5t-113.5 126t-39.5 191.5zM168 353q0 -128 56 -200t165 -72q106 0 164 71.5t58 200.5t-57.5 200t-164.5 71q-109 0 -165 -71
t-56 -200zM261 47l-58 -100l-69 40l58 101l33 44l282 482l18 44l58 100l69 -40l-58 -101l-33 -44l-282 -482zM352 765l118 173h109l-153 -173h-74z" />
    <glyph glyph-name="oslashacute" unicode="&#x1ff;" horiz-adv-x="581" 
d="M290 -9q-75 0 -130 31.5t-85 90t-30 139.5t30 139.5t85 90t130 31.5t130.5 -31.5t86 -90t30.5 -139.5t-30.5 -139.5t-86 -90t-130.5 -31.5zM290 70q72 0 111.5 47.5t39.5 134.5q0 88 -39.5 134.5t-111.5 46.5q-71 0 -110.5 -46.5t-39.5 -134.5q0 -87 39.5 -134.5
t110.5 -47.5zM153 -44l-50 31l326 561l51 -31zM256 553l103 202h103l-136 -202h-70z" />
    <glyph glyph-name="uni0200" unicode="&#x200;" horiz-adv-x="742" 
d="M10 0l314 705h89l319 -705h-107l-87 200l44 -28h-427l47 28l-87 -200h-105zM367 591l-152 -359l-24 23h355l-20 -23l-155 359h-4zM408 765l-123 173h96l85 -173h-58zM272 765l-129 173h95l92 -173h-58z" />
    <glyph glyph-name="uni0201" unicode="&#x201;" horiz-adv-x="609" 
d="M267 -9q-67 0 -117 31t-77.5 90t-27.5 140q0 82 27.5 140t77.5 89.5t117 31.5q66 0 115 -33t65 -90h-11l10 114h98q-3 -31 -5.5 -61.5t-2.5 -59.5v-383h-101v112h11q-16 -56 -65.5 -88.5t-113.5 -32.5zM292 70q65 0 104.5 46t39.5 136t-39.5 135.5t-104.5 45.5
q-66 0 -105.5 -45.5t-39.5 -135.5t39 -136t106 -46zM341 553l-86 202h90l51 -202h-55zM204 553l-85 202h88l52 -202h-55z" />
    <glyph glyph-name="uni0202" unicode="&#x202;" horiz-adv-x="742" 
d="M10 0l314 705h89l319 -705h-107l-87 200l44 -28h-427l47 28l-87 -200h-105zM367 591l-152 -359l-24 23h355l-20 -23l-155 359h-4zM254 760l-60 8q6 78 53.5 123.5t121.5 45.5t121.5 -45.5t53.5 -123.5l-60 -8q-4 54 -35 84t-81 30q-49 0 -79 -30t-35 -84z" />
    <glyph glyph-name="uni0203" unicode="&#x203;" horiz-adv-x="609" 
d="M267 -9q-67 0 -117 31t-77.5 90t-27.5 140q0 82 27.5 140t77.5 89.5t117 31.5q66 0 115 -33t65 -90h-11l10 114h98q-3 -31 -5.5 -61.5t-2.5 -59.5v-383h-101v112h11q-16 -56 -65.5 -88.5t-113.5 -32.5zM292 70q65 0 104.5 46t39.5 136t-39.5 135.5t-104.5 45.5
q-66 0 -105.5 -45.5t-39.5 -135.5t39 -136t106 -46zM199 546l-60 5q3 60 22.5 103t55 66t82.5 23t82.5 -23t55.5 -66t22 -103l-60 -5q-4 63 -30 98t-70 35t-70 -35t-30 -98z" />
    <glyph glyph-name="uni0204" unicode="&#x204;" horiz-adv-x="591" 
d="M83 0v705h462v-83h-361v-222h338v-84h-338v-232h361v-84h-462zM369 765l-123 173h96l85 -173h-58zM233 765l-129 173h95l92 -173h-58z" />
    <glyph glyph-name="uni0205" unicode="&#x205;" horiz-adv-x="546" 
d="M307 -9q-122 0 -192 69t-70 191q0 79 30.5 138t85 91.5t126.5 32.5q71 0 119 -30t73 -84.5t25 -128.5v-32h-380v58h311l-17 -13q0 75 -33.5 116.5t-96.5 41.5q-70 0 -108 -48.5t-38 -133.5v-10q0 -89 43.5 -134t123.5 -45q44 0 82.5 12.5t73.5 41.5l33 -69
q-35 -31 -85 -47.5t-106 -16.5zM329 553l-86 202h90l51 -202h-55zM192 553l-85 202h88l52 -202h-55z" />
    <glyph glyph-name="uni0206" unicode="&#x206;" horiz-adv-x="591" 
d="M83 0v705h462v-83h-361v-222h338v-84h-338v-232h361v-84h-462zM215 760l-60 8q6 78 53.5 123.5t121.5 45.5t121.5 -45.5t53.5 -123.5l-60 -8q-4 54 -35 84t-81 30q-49 0 -79 -30t-35 -84z" />
    <glyph glyph-name="uni0207" unicode="&#x207;" horiz-adv-x="546" 
d="M307 -9q-122 0 -192 69t-70 191q0 79 30.5 138t85 91.5t126.5 32.5q71 0 119 -30t73 -84.5t25 -128.5v-32h-380v58h311l-17 -13q0 75 -33.5 116.5t-96.5 41.5q-70 0 -108 -48.5t-38 -133.5v-10q0 -89 43.5 -134t123.5 -45q44 0 82.5 12.5t73.5 41.5l33 -69
q-35 -31 -85 -47.5t-106 -16.5zM187 546l-60 5q3 60 22.5 103t55 66t82.5 23t82.5 -23t55.5 -66t22 -103l-60 -5q-4 63 -30 98t-70 35t-70 -35t-30 -98z" />
    <glyph glyph-name="uni0208" unicode="&#x208;" horiz-adv-x="270" 
d="M83 0v705h104v-705h-104zM174 765l-123 173h96l85 -173h-58zM38 765l-129 173h95l92 -173h-58z" />
    <glyph glyph-name="uni0209" unicode="&#x209;" horiz-adv-x="249" 
d="M74 0v504h101v-504h-101zM167 553l-86 202h90l51 -202h-55zM30 553l-85 202h88l52 -202h-55z" />
    <glyph glyph-name="uni020A" unicode="&#x20a;" horiz-adv-x="270" 
d="M83 0v705h104v-705h-104zM20 760l-60 8q6 78 53.5 123.5t121.5 45.5t121.5 -45.5t53.5 -123.5l-60 -8q-4 54 -35 84t-81 30q-49 0 -79 -30t-35 -84z" />
    <glyph glyph-name="uni020B" unicode="&#x20b;" horiz-adv-x="249" 
d="M74 0v504h101v-504h-101zM25 546l-60 5q3 60 22.5 103t55 66t82.5 23t82.5 -23t55.5 -66t22 -103l-60 -5q-4 63 -30 98t-70 35t-70 -35t-30 -98z" />
    <glyph glyph-name="uni020C" unicode="&#x20c;" horiz-adv-x="779" 
d="M59 353q0 111 39 192t113.5 125t177.5 44q102 0 176 -44t114.5 -125t40.5 -191q0 -111 -40.5 -192.5t-115 -126t-175.5 -44.5q-103 0 -177 44.5t-113.5 126t-39.5 191.5zM168 353q0 -128 56 -200t165 -72q106 0 164 71.5t58 200.5t-57.5 200t-164.5 71q-109 0 -165 -71
t-56 -200zM428 765l-123 173h96l85 -173h-58zM292 765l-129 173h95l92 -173h-58z" />
    <glyph glyph-name="uni020D" unicode="&#x20d;" horiz-adv-x="581" 
d="M290 -9q-75 0 -130 31.5t-85 90t-30 139.5t30 139.5t85 90t130 31.5t130.5 -31.5t86 -90t30.5 -139.5t-30.5 -139.5t-86 -90t-130.5 -31.5zM290 70q66 0 105 46t39 136t-39 135.5t-105 45.5q-65 0 -104 -45.5t-39 -135.5t38.5 -136t104.5 -46zM333 553l-86 202h90
l51 -202h-55zM196 553l-85 202h88l52 -202h-55z" />
    <glyph glyph-name="uni020E" unicode="&#x20e;" horiz-adv-x="779" 
d="M59 353q0 111 39 192t113.5 125t177.5 44q102 0 176 -44t114.5 -125t40.5 -191q0 -111 -40.5 -192.5t-115 -126t-175.5 -44.5q-103 0 -177 44.5t-113.5 126t-39.5 191.5zM168 353q0 -128 56 -200t165 -72q106 0 164 71.5t58 200.5t-57.5 200t-164.5 71q-109 0 -165 -71
t-56 -200zM274 760l-60 8q6 78 53.5 123.5t121.5 45.5t121.5 -45.5t53.5 -123.5l-60 -8q-4 54 -35 84t-81 30q-49 0 -79 -30t-35 -84z" />
    <glyph glyph-name="uni020F" unicode="&#x20f;" horiz-adv-x="581" 
d="M290 -9q-75 0 -130 31.5t-85 90t-30 139.5t30 139.5t85 90t130 31.5t130.5 -31.5t86 -90t30.5 -139.5t-30.5 -139.5t-86 -90t-130.5 -31.5zM290 70q66 0 105 46t39 136t-39 135.5t-105 45.5q-65 0 -104 -45.5t-39 -135.5t38.5 -136t104.5 -46zM191 546l-60 5
q3 60 22.5 103t55 66t82.5 23t82.5 -23t55.5 -66t22 -103l-60 -5q-4 63 -30 98t-70 35t-70 -35t-30 -98z" />
    <glyph glyph-name="uni0210" unicode="&#x210;" horiz-adv-x="697" 
d="M83 0v705h298q113 0 175 -53.5t62 -149.5q0 -63 -28 -108t-79 -68.5t-120 -23.5l16 16h27q41 0 73.5 -21t53.5 -67l101 -230h-114l-100 231q-15 41 -46.5 53t-77.5 12h-137v-296h-104zM187 375h177q75 0 113.5 32t38.5 92q0 61 -38.5 92t-113.5 31h-177v-247zM388 765
l-123 173h96l85 -173h-58zM252 765l-129 173h95l92 -173h-58z" />
    <glyph glyph-name="uni0211" unicode="&#x211;" horiz-adv-x="377" 
d="M72 0v379q0 31 -1.5 62.5t-4.5 62.5h98l11 -130h-16q10 47 34 78t58.5 46t72.5 15q16 0 27 -1.5t22 -4.5l-1 -90q-17 7 -29.5 8.5t-30.5 1.5q-44 0 -75 -19.5t-47 -52.5t-16 -71v-284h-102zM272 553l-86 202h90l51 -202h-55zM135 553l-85 202h88l52 -202h-55z" />
    <glyph glyph-name="uni0212" unicode="&#x212;" horiz-adv-x="697" 
d="M83 0v705h298q113 0 175 -53.5t62 -149.5q0 -63 -28 -108t-79 -68.5t-120 -23.5l16 16h27q41 0 73.5 -21t53.5 -67l101 -230h-114l-100 231q-15 41 -46.5 53t-77.5 12h-137v-296h-104zM187 375h177q75 0 113.5 32t38.5 92q0 61 -38.5 92t-113.5 31h-177v-247zM234 760
l-60 8q6 78 53.5 123.5t121.5 45.5t121.5 -45.5t53.5 -123.5l-60 -8q-4 54 -35 84t-81 30q-49 0 -79 -30t-35 -84z" />
    <glyph glyph-name="uni0213" unicode="&#x213;" horiz-adv-x="377" 
d="M72 0v379q0 31 -1.5 62.5t-4.5 62.5h98l11 -130h-16q10 47 34 78t58.5 46t72.5 15q16 0 27 -1.5t22 -4.5l-1 -90q-17 7 -29.5 8.5t-30.5 1.5q-44 0 -75 -19.5t-47 -52.5t-16 -71v-284h-102zM130 546l-60 5q3 60 22.5 103t55 66t82.5 23t82.5 -23t55.5 -66t22 -103l-60 -5
q-4 63 -30 98t-70 35t-70 -35t-30 -98z" />
    <glyph glyph-name="uni0214" unicode="&#x214;" horiz-adv-x="735" 
d="M369 -9q-147 0 -218.5 74t-71.5 219v421h104v-419q0 -102 44.5 -153.5t141.5 -51.5q92 0 139 51.5t47 153.5v419h102v-421q0 -145 -73 -219t-215 -74zM408 765l-123 173h96l85 -173h-58zM272 765l-129 173h95l92 -173h-58z" />
    <glyph glyph-name="uni0215" unicode="&#x215;" horiz-adv-x="586" 
d="M253 -9q-91 0 -136.5 49.5t-45.5 152.5v311h101v-309q0 -63 26 -93t79 -30q60 0 97 40t37 106v286h101v-504h-98v108h13q-21 -56 -67 -86.5t-107 -30.5zM335 554l-86 202h90l51 -202h-55zM198 554l-85 202h88l52 -202h-55z" />
    <glyph glyph-name="uni0216" unicode="&#x216;" horiz-adv-x="735" 
d="M369 -9q-147 0 -218.5 74t-71.5 219v421h104v-419q0 -102 44.5 -153.5t141.5 -51.5q92 0 139 51.5t47 153.5v419h102v-421q0 -145 -73 -219t-215 -74zM254 760l-60 8q6 78 53.5 123.5t121.5 45.5t121.5 -45.5t53.5 -123.5l-60 -8q-4 54 -35 84t-81 30q-49 0 -79 -30
t-35 -84z" />
    <glyph glyph-name="uni0217" unicode="&#x217;" horiz-adv-x="586" 
d="M253 -9q-91 0 -136.5 49.5t-45.5 152.5v311h101v-309q0 -63 26 -93t79 -30q60 0 97 40t37 106v286h101v-504h-98v108h13q-21 -56 -67 -86.5t-107 -30.5zM193 547l-60 5q3 60 22.5 103t55 66t82.5 23t82.5 -23t55.5 -66t22 -103l-60 -5q-4 63 -30 98t-70 35t-70 -35
t-30 -98z" />
    <glyph glyph-name="uni0218" unicode="&#x218;" horiz-adv-x="633" 
d="M321 -9q-85 0 -154 21.5t-120 61.5l35 82q34 -26 70.5 -43t78 -25.5t90.5 -8.5q84 0 123.5 30t39.5 79q0 42 -27.5 65t-96.5 37l-109 22q-97 20 -144.5 65.5t-47.5 124.5q0 64 34 112t94.5 74t141.5 26q75 0 138 -21.5t106 -63.5l-34 -79q-45 39 -96 57.5t-116 18.5
q-77 0 -120.5 -32t-43.5 -87q0 -44 27.5 -69t91.5 -38l109 -21q101 -21 149 -64.5t48 -119.5q0 -61 -32.5 -107t-92.5 -71.5t-142 -25.5zM329 -273l-41 29q23 23 30.5 44t7.5 45l24 -13h-80v91h113v-63q0 -39 -12.5 -72.5t-41.5 -60.5z" />
    <glyph glyph-name="uni0219" unicode="&#x219;" horiz-adv-x="498" 
d="M247 -9q-63 0 -116 16t-88 45l31 69q37 -28 82 -42t92 -14q55 0 83 19.5t28 53.5q0 26 -17.5 42t-57.5 24l-96 19q-64 14 -97 48t-33 87q0 45 24.5 80t70 55t106.5 20q56 0 104 -16t80 -46l-32 -67q-31 26 -70 40.5t-79 14.5q-56 0 -83 -21t-27 -55q0 -26 16.5 -42.5
t52.5 -25.5l96 -19q68 -14 102 -46t34 -86q0 -47 -26 -82t-72 -53t-108 -18zM249 -273l-41 29q23 23 30.5 44t7.5 45l24 -13h-80v91h113v-63q0 -39 -12.5 -72.5t-41.5 -60.5z" />
    <glyph glyph-name="uni021A" unicode="&#x21a;" horiz-adv-x="611" 
d="M252 0v618h-241v87h586v-87h-241v-618h-104zM308 -273l-41 29q23 23 30.5 44t7.5 45l24 -13h-80v91h113v-63q0 -39 -12.5 -72.5t-41.5 -60.5z" />
    <glyph glyph-name="uni021B" unicode="&#x21b;" horiz-adv-x="363" 
d="M270 -9q-82 0 -124 44.5t-42 133.5v257h-98v78h98v133l101 27v-160h140v-78h-140v-248q0 -56 20 -80t58 -24q19 0 33.5 3.5t26.5 8.5v-82q-15 -6 -35 -9.5t-38 -3.5zM234 -273l-41 29q23 23 30.5 44t7.5 45l24 -13h-80v91h113v-63q0 -39 -12.5 -72.5t-41.5 -60.5z" />
    <glyph glyph-name="uni021F" unicode="&#x21f;" horiz-adv-x="593" 
d="M74 0v736h101v-339h-14q22 57 71 86.5t113 29.5q90 0 134 -49.5t44 -149.5v-314h-101v308q0 65 -25.5 94.5t-80.5 29.5q-64 0 -102.5 -39.5t-38.5 -104.5v-288h-101zM256 776l-123 173h72l96 -112l96 112h72l-123 -173h-90z" />
    <glyph glyph-name="uni0226" unicode="&#x226;" horiz-adv-x="742" 
d="M10 0l314 705h89l319 -705h-107l-87 200l44 -28h-427l47 28l-87 -200h-105zM367 591l-152 -359l-24 23h355l-20 -23l-155 359h-4zM317 801v101h104v-101h-104z" />
    <glyph glyph-name="uni0227" unicode="&#x227;" horiz-adv-x="609" 
d="M267 -9q-67 0 -117 31t-77.5 90t-27.5 140q0 82 27.5 140t77.5 89.5t117 31.5q66 0 115 -33t65 -90h-11l10 114h98q-3 -31 -5.5 -61.5t-2.5 -59.5v-383h-101v112h11q-16 -56 -65.5 -88.5t-113.5 -32.5zM292 70q65 0 104.5 46t39.5 136t-39.5 135.5t-104.5 45.5
q-66 0 -105.5 -45.5t-39.5 -135.5t39 -136t106 -46zM246 603v101h106v-101h-106z" />
    <glyph glyph-name="uni0228" unicode="&#x228;" horiz-adv-x="591" 
d="M83 0v705h462v-83h-361v-222h338v-84h-338v-232h361v-84h-462zM332 -194q-28 0 -52.5 5.5t-43.5 15.5l16 49q18 -8 35 -12t38 -4q27 0 42.5 8.5t15.5 24.5q0 26 -38 26q-10 0 -20.5 -1.5t-24.5 -5.5l-18 16l15 92h58l-13 -76l-28 9q12 3 24 5t22 2q39 0 63 -18t24 -52
q0 -37 -32 -60.5t-83 -23.5z" />
    <glyph glyph-name="uni022A" unicode="&#x22a;" horiz-adv-x="779" 
d="M59 353q0 111 39 192t113.5 125t177.5 44q102 0 176 -44t114.5 -125t40.5 -191q0 -111 -40.5 -192.5t-115 -126t-175.5 -44.5q-103 0 -177 44.5t-113.5 126t-39.5 191.5zM168 353q0 -128 56 -200t165 -72q106 0 164 71.5t58 200.5t-57.5 200t-164.5 71q-109 0 -165 -71
t-56 -200zM236 925v63h306v-63h-306zM249 793v79h99v-79h-99zM430 793v79h99v-79h-99z" />
    <glyph glyph-name="uni022B" unicode="&#x22b;" horiz-adv-x="581" 
d="M290 -9q-75 0 -130 31.5t-85 90t-30 139.5t30 139.5t85 90t130 31.5t130.5 -31.5t86 -90t30.5 -139.5t-30.5 -139.5t-86 -90t-130.5 -31.5zM290 70q66 0 105 46t39 136t-39 135.5t-105 45.5q-65 0 -104 -45.5t-39 -135.5t38.5 -136t104.5 -46zM138 707v64h306v-64h-306z
M151 576v79h99v-79h-99zM332 576v79h99v-79h-99z" />
    <glyph glyph-name="uni022C" unicode="&#x22c;" horiz-adv-x="779" 
d="M59 353q0 111 39 192t113.5 125t177.5 44q102 0 176 -44t114.5 -125t40.5 -191q0 -111 -40.5 -192.5t-115 -126t-175.5 -44.5q-103 0 -177 44.5t-113.5 126t-39.5 191.5zM168 353q0 -128 56 -200t165 -72q106 0 164 71.5t58 200.5t-57.5 200t-164.5 71q-109 0 -165 -71
t-56 -200zM236 925v63h306v-63h-306zM455 767q-19 0 -37 7t-40 21q-19 13 -30.5 17t-21.5 4q-22 0 -34 -12t-17 -38l-50 3q4 52 31 78t68 26q17 0 33 -5.5t39 -19.5q21 -14 33.5 -18.5t22.5 -4.5q23 0 34.5 12t16.5 38l50 -3q-4 -52 -30.5 -78.5t-67.5 -26.5z" />
    <glyph glyph-name="uni022D" unicode="&#x22d;" horiz-adv-x="581" 
d="M290 -9q-75 0 -130 31.5t-85 90t-30 139.5t30 139.5t85 90t130 31.5t130.5 -31.5t86 -90t30.5 -139.5t-30.5 -139.5t-86 -90t-130.5 -31.5zM290 70q66 0 105 46t39 136t-39 135.5t-105 45.5q-65 0 -104 -45.5t-39 -135.5t38.5 -136t104.5 -46zM138 707v64h306v-64h-306z
M177 549l-50 2q4 53 31 79t68 26q18 0 35.5 -6.5t37.5 -20.5q19 -11 31 -16.5t24 -5.5q23 0 34.5 12t16.5 38l50 -3q-4 -52 -30.5 -78t-67.5 -26q-19 0 -37.5 7t-38.5 20q-17 11 -29.5 16t-23.5 5q-22 0 -34 -12t-17 -37z" />
    <glyph glyph-name="uni0230" unicode="&#x230;" horiz-adv-x="779" 
d="M59 353q0 111 39 192t113.5 125t177.5 44q102 0 176 -44t114.5 -125t40.5 -191q0 -111 -40.5 -192.5t-115 -126t-175.5 -44.5q-103 0 -177 44.5t-113.5 126t-39.5 191.5zM168 353q0 -128 56 -200t165 -72q106 0 164 71.5t58 200.5t-57.5 200t-164.5 71q-109 0 -165 -71
t-56 -200zM236 925v63h306v-63h-306zM340 793v79h99v-79h-99z" />
    <glyph glyph-name="uni0231" unicode="&#x231;" horiz-adv-x="581" 
d="M290 -9q-75 0 -130 31.5t-85 90t-30 139.5t30 139.5t85 90t130 31.5t130.5 -31.5t86 -90t30.5 -139.5t-30.5 -139.5t-86 -90t-130.5 -31.5zM290 70q66 0 105 46t39 136t-39 135.5t-105 45.5q-65 0 -104 -45.5t-39 -135.5t38.5 -136t104.5 -46zM138 707v64h306v-64h-306z
M242 576v79h99v-79h-99z" />
    <glyph glyph-name="uni0232" unicode="&#x232;" horiz-adv-x="617" 
d="M256 0v331l23 -66l-297 440h120l221 -337h-25l221 337h116l-296 -440l21 66v-331h-104zM141 811v63h336v-63h-336z" />
    <glyph glyph-name="uni0233" unicode="&#x233;" horiz-adv-x="536" 
d="M59 -227l-24 82q47 10 78.5 24t52.5 36.5t36 57.5l25 59l-2 -41l-219 513h108l170 -420h-27l170 420h104l-231 -540q-22 -50 -47 -84t-54 -55t-64 -33t-76 -19zM115 621v64h306v-64h-306z" />
    <glyph glyph-name="uni0237" unicode="&#x237;" horiz-adv-x="249" 
d="M16 -221q-16 0 -38 3t-37 10v82q13 -4 28.5 -7.5t28.5 -3.5q40 0 60.5 24.5t20.5 80.5v536h101v-543q0 -90 -40 -136t-124 -46z" />
    <glyph glyph-name="uni0253" unicode="&#x253;" horiz-adv-x="609" 
d="M344 -9q-66 0 -115.5 33t-65.5 90h11v-114h-100v565q0 86 47 133t137 47q16 0 32.5 -2t29.5 -7l-13 -77q-12 4 -20.5 5t-19.5 1q-45 0 -68.5 -26t-23.5 -74v-173h-12q17 56 66 88.5t115 32.5t116 -31.5t77.5 -89.5t27.5 -140q0 -81 -27.5 -140t-77.5 -90t-116 -31z
M319 70q65 0 104.5 46t39.5 136t-39.5 135.5t-104.5 45.5q-66 0 -106 -45.5t-40 -135.5t40 -136t106 -46z" />
    <glyph glyph-name="uni0257" unicode="&#x257;" horiz-adv-x="609" 
d="M266 -9q-66 0 -116 31t-77.5 90t-27.5 140q0 82 27.5 140t77.5 89.5t116 31.5t115 -32.5t65 -88.5h-11v175q0 56 20.5 96t61.5 61t102 21q16 0 32.5 -2t28.5 -7l-11 -77q-14 4 -22 5t-18 1q-44 0 -68.5 -24.5t-24.5 -75.5v-565h-100v114h11q-16 -57 -65 -90t-116 -33z
M291 70q66 0 105.5 46t39.5 136t-39.5 135.5t-105.5 45.5q-65 0 -104.5 -45.5t-39.5 -135.5t39.5 -136t104.5 -46z" />
    <glyph glyph-name="uni0259" unicode="&#x259;" horiz-adv-x="546" 
d="M259 -9q-102 0 -159.5 63t-57.5 173v37h380v-58h-311l17 15q0 -75 34 -116.5t97 -41.5q70 0 107.5 48t37.5 126v14q0 92 -43.5 137t-127.5 45q-40 0 -78 -12t-74 -41l-28 71q34 31 84.5 46.5t109.5 15.5q78 0 135 -31t88.5 -89.5t31.5 -139.5q0 -79 -30.5 -137.5
t-85 -91.5t-127.5 -33z" />
    <glyph glyph-name="uni02B9" unicode="&#x2b9;" horiz-adv-x="231" 
d="M82 422l-25 283h118l-25 -283h-68z" />
    <glyph glyph-name="uni02BA" unicode="&#x2ba;" horiz-adv-x="417" 
d="M82 422l-25 283h118l-25 -283h-68zM268 422l-25 283h118l-25 -283h-68z" />
    <glyph glyph-name="uni02BB" unicode="&#x2bb;" horiz-adv-x="500" 
d="M194 566v64q0 38 11 69.5t41 59.5l41 -30q-22 -21 -28.5 -41t-6.5 -40l-26 13h80v-95h-112z" />
    <glyph glyph-name="uni02BC" unicode="&#x2bc;" horiz-adv-x="336" 
d="M172 569l-41 29q22 21 28.5 41t6.5 40l26 -12h-80v94h112v-63q0 -37 -11 -69t-41 -60z" />
    <glyph glyph-name="uni02BE" unicode="&#x2be;" horiz-adv-x="500" 
d="M250 553v49q23 0 37 15.5t14 36.5q0 22 -14 37.5t-37 15.5v49q45 0 74.5 -29.5t29.5 -72.5t-29.5 -72t-74.5 -29z" />
    <glyph glyph-name="uni02BF" unicode="&#x2bf;" horiz-adv-x="500" 
d="M250 553q-44 0 -73.5 29t-29.5 72t29.5 72.5t73.5 29.5v-49q-22 0 -36.5 -15t-14.5 -38q0 -21 14.5 -36.5t36.5 -15.5v-49z" />
    <glyph glyph-name="circumflex" unicode="&#x2c6;" horiz-adv-x="500" 
d="M94 553l110 202h92l110 -202h-67l-89 140l-89 -140h-67z" />
    <glyph glyph-name="caron" unicode="&#x2c7;" horiz-adv-x="500" 
d="M204 553l-110 202h67l89 -141l89 141h67l-110 -202h-92z" />
    <glyph glyph-name="uni02C8" unicode="&#x2c8;" horiz-adv-x="500" 
d="M215 595v201h70v-201h-70z" />
    <glyph glyph-name="uni02C9" unicode="&#x2c9;" horiz-adv-x="500" 
d="M98 621v64h305v-64h-305z" />
    <glyph glyph-name="uni02CA" unicode="&#x2ca;" horiz-adv-x="500" 
d="M215 553l103 202h103l-136 -202h-70z" />
    <glyph glyph-name="uni02CB" unicode="&#x2cb;" horiz-adv-x="500" 
d="M215 553l-136 202h103l103 -202h-70z" />
    <glyph glyph-name="uni02CC" unicode="&#x2cc;" horiz-adv-x="500" 
d="M215 -270v202h70v-202h-70z" />
    <glyph glyph-name="breve" unicode="&#x2d8;" horiz-adv-x="500" 
d="M250 550q-47 0 -82.5 23t-55 66t-22.5 102l60 6q4 -64 30 -98.5t70 -34.5t70 34.5t30 98.5l60 -6q-2 -59 -22 -102t-55.5 -66t-82.5 -23z" />
    <glyph glyph-name="dotaccent" unicode="&#x2d9;" horiz-adv-x="500" 
d="M197 603v101h106v-101h-106z" />
    <glyph glyph-name="ring" unicode="&#x2da;" horiz-adv-x="500" 
d="M250 546q-34 0 -62 16t-44 43t-16 60q0 34 16 60.5t44 42.5t62 16q35 0 62.5 -16t43.5 -43t16 -60t-16 -60t-43.5 -43t-62.5 -16zM250 596q31 0 50 20t19 49q0 30 -19 49.5t-50 19.5q-30 0 -49.5 -19.5t-19.5 -49.5t19.5 -49.5t49.5 -19.5z" />
    <glyph glyph-name="ogonek" unicode="&#x2db;" horiz-adv-x="500" 
d="M229 -194q-51 0 -81 27.5t-30 73.5q0 41 27 76.5t72 55.5l33 -39q-16 -7 -31 -19t-24 -28t-9 -35q0 -27 16.5 -40.5t40.5 -13.5q14 0 27 3t27 9l15 -53q-17 -8 -37 -12.5t-46 -4.5z" />
    <glyph glyph-name="tilde" unicode="&#x2dc;" horiz-adv-x="500" 
d="M117 587l-53 4q5 67 35.5 103.5t77.5 36.5q21 0 40 -10t43 -29q21 -18 34.5 -25.5t26.5 -7.5q51 0 62 75l53 -3q-4 -67 -34.5 -103.5t-77.5 -36.5q-21 0 -40 9.5t-45 29.5q-20 18 -33 25t-27 7q-27 0 -42 -19.5t-20 -55.5z" />
    <glyph glyph-name="hungarumlaut" unicode="&#x2dd;" horiz-adv-x="500" 
d="M290 553l52 202h88l-85 -202h-55zM153 553l51 202h90l-86 -202h-55z" />
    <glyph glyph-name="gravecomb" unicode="&#x300;" 
d="M-35 553l-136 202h103l103 -202h-70z" />
    <glyph glyph-name="acutecomb" unicode="&#x301;" 
d="M-35 553l103 202h103l-136 -202h-70z" />
    <glyph glyph-name="uni0302" unicode="&#x302;" 
d="M-156 553l110 202h92l110 -202h-67l-89 140l-89 -140h-67z" />
    <glyph glyph-name="tildecomb" unicode="&#x303;" 
d="M-133 587l-53 4q5 67 35.5 103.5t77.5 36.5q21 0 40 -10t43 -29q21 -18 34.5 -25.5t26.5 -7.5q51 0 62 75l53 -3q-4 -67 -34.5 -103.5t-77.5 -36.5q-21 0 -40 9.5t-45 29.5q-20 18 -33 25t-27 7q-27 0 -42 -19.5t-20 -55.5z" />
    <glyph glyph-name="uni0304" unicode="&#x304;" 
d="M-153 621v64h306v-64h-306z" />
    <glyph glyph-name="uni0306" unicode="&#x306;" 
d="M0 550q-47 0 -82.5 23t-55 66t-22.5 102l60 6q4 -64 30 -98.5t70 -34.5t70 34.5t30 98.5l60 -6q-2 -59 -22 -102t-55.5 -66t-82.5 -23z" />
    <glyph glyph-name="uni0307" unicode="&#x307;" 
d="M-53 603v101h106v-101h-106z" />
    <glyph glyph-name="uni0308" unicode="&#x308;" 
d="M41 604v99h99v-99h-99zM-140 604v99h99v-99h-99z" />
    <glyph glyph-name="hookabovecomb" unicode="&#x309;" 
d="M-32 553v20q0 22 9 36.5t20.5 25t20.5 21t9 24.5q0 13 -10.5 20t-32.5 7q-16 0 -30.5 -3.5t-31.5 -12.5l-16 48q19 12 44.5 17.5t54.5 5.5q48 0 75 -18t27 -52q0 -25 -11.5 -40.5t-26 -26.5t-26 -23.5t-11.5 -33.5v-15h-64z" />
    <glyph glyph-name="uni030A" unicode="&#x30a;" 
d="M0 546q-34 0 -62 16t-44 43t-16 60q0 34 16 60.5t44 42.5t62 16q35 0 62.5 -16t43.5 -43t16 -60t-16 -60t-43.5 -43t-62.5 -16zM0 596q31 0 50 20t19 49q0 30 -19 49.5t-50 19.5q-30 0 -49.5 -19.5t-19.5 -49.5t19.5 -49.5t49.5 -19.5z" />
    <glyph glyph-name="uni030B" unicode="&#x30b;" 
d="M40 553l52 202h88l-85 -202h-55zM-97 553l51 202h90l-86 -202h-55z" />
    <glyph glyph-name="uni030C" unicode="&#x30c;" 
d="M-46 553l-110 202h67l89 -141l89 141h67l-110 -202h-92z" />
    <glyph glyph-name="uni030F" unicode="&#x30f;" 
d="M42 553l-86 202h90l51 -202h-55zM-95 553l-85 202h88l52 -202h-55z" />
    <glyph glyph-name="uni0311" unicode="&#x311;" 
d="M-100 550l-60 5q3 60 22.5 103t55 66t82.5 23t82.5 -23t55.5 -66t22 -103l-60 -5q-4 63 -30 98t-70 35t-70 -35t-30 -98z" />
    <glyph glyph-name="uni0312" unicode="&#x312;" 
d="M-57 566v63q0 39 13 72.5t42 59.5l41 -28q-23 -23 -30.5 -44t-7.5 -45l-25 13h80v-91h-113z" />
    <glyph glyph-name="uni031B" unicode="&#x31b;" 
d="M55 431l-56 36v21q39 1 62 11.5t33 34.5t10 64v18h88v-32q0 -44 -16.5 -77t-47 -53t-73.5 -23z" />
    <glyph glyph-name="dotbelowcomb" unicode="&#x323;" 
d="M-53 -195v101h106v-101h-106z" />
    <glyph glyph-name="uni0324" unicode="&#x324;" 
d="M41 -186v98h99v-98h-99zM-140 -186v98h99v-98h-99z" />
    <glyph glyph-name="uni0326" unicode="&#x326;" 
d="M2 -273l-41 29q23 23 30.5 44t7.5 45l24 -13h-80v91h113v-63q0 -39 -12.5 -72.5t-41.5 -60.5z" />
    <glyph glyph-name="uni0327" unicode="&#x327;" 
d="M2 -194q-28 0 -52.5 5.5t-43.5 15.5l16 49q18 -8 35 -12t38 -4q27 0 42.5 8.5t15.5 24.5q0 26 -38 26q-10 0 -20.5 -1.5t-24.5 -5.5l-18 16l15 92h58l-13 -76l-28 9q12 3 24 5t22 2q39 0 63 -18t24 -52q0 -37 -32 -60.5t-83 -23.5z" />
    <glyph glyph-name="uni0328" unicode="&#x328;" 
d="M-21 -194q-51 0 -81 27.5t-30 73.5q0 41 27 76.5t72 55.5l33 -39q-16 -7 -31 -19t-24 -28t-9 -35q0 -27 16.5 -40.5t40.5 -13.5q14 0 27 3t27 9l15 -53q-17 -8 -37 -12.5t-46 -4.5z" />
    <glyph glyph-name="uni032E" unicode="&#x32e;" 
d="M0 -215q-70 0 -113.5 41t-46.5 110l60 6q4 -44 30 -69t70 -25t70 25t30 69l60 -6q-3 -69 -46 -110t-114 -41z" />
    <glyph glyph-name="uni0331" unicode="&#x331;" 
d="M-153 -160v64h306v-64h-306z" />
    <glyph glyph-name="uni0335" unicode="&#x335;" 
d="M-191 528v73h382v-73h-382z" />
    <glyph glyph-name="uni0337" unicode="&#x337;" 
d="M-121 241l-40 70l282 163l40 -69z" />
    <glyph glyph-name="uni0338" unicode="&#x338;" 
d="M134 -50l-50 31l326 561l51 -31z" />
    <glyph glyph-name="uni0394" unicode="&#x394;" horiz-adv-x="736" 
d="M34 0v60l291 645h86l292 -645v-60h-669zM367 592l-239 -544v36h481v-36l-240 544h-2z" />
    <glyph glyph-name="Sigma" unicode="&#x3a3;" horiz-adv-x="611" 
d="M51 -180v74l274 386v-34l-274 385v74h513v-87h-402v25l248 -351v-59l-248 -351v25h402v-87h-513z" />
    <glyph glyph-name="uni03A9" unicode="&#x3a9;" horiz-adv-x="796" 
d="M39 0v85h242v-24q-118 62 -173 146t-55 193q0 98 42.5 168t120.5 108t182 38q77 0 140 -21.5t109 -62t71 -99t25 -131.5q0 -109 -55 -193t-173 -146v24h243v-85h-305v82q95 64 138.5 140t43.5 166q0 113 -63.5 174.5t-173.5 61.5q-114 0 -175.5 -61.5t-61.5 -174.5
q0 -90 43.5 -166t137.5 -140v-82h-303z" />
    <glyph glyph-name="uni03BC" unicode="&#x3bc;" horiz-adv-x="586" 
d="M71 -216v720h101v-309q0 -63 26 -93t79 -30q60 0 97 40t37 106v286h101v-504h-98v108h6q-15 -56 -54.5 -86.5t-90.5 -30.5q-42 0 -71 14.5t-47 54.5h9l6 -276h-101z" />
    <glyph glyph-name="pi" unicode="&#x3c0;" horiz-adv-x="605" 
d="M35 0q23 68 38.5 135.5t23.5 139.5t9 151h-101v78h564v-78h-112v-242q0 -51 24.5 -78t76.5 -32l42 -3l-8 -78l-47 3q-51 3 -87.5 16t-58.5 37t-32.5 60.5t-10.5 84.5v232h-149q-1 -89 -9 -164t-22.5 -139.5t-35.5 -122.5h-105z" />
    <glyph glyph-name="uni0400" unicode="&#x400;" horiz-adv-x="591" 
d="M83 0v705h462v-83h-361v-222h338v-84h-338v-232h361v-84h-462zM299 765l-153 173h109l118 -173h-74z" />
    <glyph glyph-name="uni0401" unicode="&#x401;" horiz-adv-x="591" 
d="M83 0v705h462v-83h-361v-222h338v-84h-338v-232h361v-84h-462zM377 799v99h99v-99h-99zM196 799v99h99v-99h-99z" />
    <glyph glyph-name="uni0402" unicode="&#x402;" horiz-adv-x="868" 
d="M590 -189q-36 0 -67.5 5.5t-54.5 15.5l19 77q19 -8 42.5 -11.5t50.5 -3.5q62 0 95.5 39.5t33.5 116.5v92q0 107 -50 157t-150 50q-45 0 -83 -8.5t-70 -26.5v-314h-104v618h-241v87h586v-87h-241v-213q28 16 72 24.5t91 8.5q144 0 218.5 -72t74.5 -218v-94
q0 -79 -27 -133.5t-76.5 -82t-118.5 -27.5z" />
    <glyph glyph-name="uni0403" unicode="&#x403;" horiz-adv-x="563" 
d="M83 0v705h465v-86h-361v-619h-104zM248 765l118 173h109l-153 -173h-74z" />
    <glyph glyph-name="uni0404" unicode="&#x404;" horiz-adv-x="693" 
d="M403 -9q-109 0 -186 44t-117.5 125.5t-40.5 192.5t40.5 192t117.5 125t186 44q75 0 137 -23t105 -65l-36 -82q-47 41 -95 59.5t-109 18.5q-113 0 -173.5 -66t-64.5 -185l-29 29h382v-83h-384l30 24q4 -124 65 -191t174 -67q61 0 109 19t95 60l36 -83q-43 -42 -105 -65
t-137 -23z" />
    <glyph glyph-name="uni0405" unicode="&#x405;" horiz-adv-x="633" 
d="M321 -9q-85 0 -154 21.5t-120 61.5l35 82q34 -26 70.5 -43t78 -25.5t90.5 -8.5q84 0 123.5 30t39.5 79q0 42 -27.5 65t-96.5 37l-109 22q-97 20 -144.5 65.5t-47.5 124.5q0 64 34 112t94.5 74t141.5 26q75 0 138 -21.5t106 -63.5l-34 -79q-45 39 -96 57.5t-116 18.5
q-77 0 -120.5 -32t-43.5 -87q0 -44 27.5 -69t91.5 -38l109 -21q101 -21 149 -64.5t48 -119.5q0 -61 -32.5 -107t-92.5 -71.5t-142 -25.5z" />
    <glyph glyph-name="uni0406" unicode="&#x406;" horiz-adv-x="270" 
d="M83 0v705h104v-705h-104z" />
    <glyph glyph-name="uni0407" unicode="&#x407;" horiz-adv-x="270" 
d="M83 0v705h104v-705h-104zM176 799v99h99v-99h-99zM-5 799v99h99v-99h-99z" />
    <glyph glyph-name="uni0408" unicode="&#x408;" horiz-adv-x="344" 
d="M84 -187q-16 0 -38 2t-45 7v84q19 -4 36 -6.5t30 -2.5q46 0 68 28t22 89v691h104v-692q0 -66 -19 -110.5t-57.5 -67t-100.5 -22.5z" />
    <glyph glyph-name="uni0409" unicode="&#x409;" horiz-adv-x="1166" 
d="M65 -16l-49 79q42 22 74.5 53t54 78.5t32.5 120t11 176.5v214h482v-304h211q115 0 179 -50t64 -149t-64 -150.5t-179 -51.5h-314v619h-282v-153q0 -106 -14.5 -185t-42.5 -136.5t-68.5 -96t-94.5 -64.5zM670 82h200q78 0 115.5 29.5t37.5 89.5t-37.5 89.5t-115.5 29.5
h-200v-238z" />
    <glyph glyph-name="uni040A" unicode="&#x40a;" horiz-adv-x="1180" 
d="M83 0v705h103v-304h395v304h103v-304h212q115 0 178.5 -50t63.5 -149t-63.5 -150.5t-178.5 -51.5h-315v315h-395v-315h-103zM684 82h201q78 0 115 29.5t37 89.5t-37 89.5t-115 29.5h-201v-238z" />
    <glyph glyph-name="uni040B" unicode="&#x40b;" horiz-adv-x="870" 
d="M252 0v618h-241v87h586v-87h-241v-213q31 17 77.5 25t93.5 8q141 0 214.5 -72t73.5 -218v-148h-103v142q0 109 -50 158.5t-146 49.5q-42 0 -82.5 -8t-77.5 -27v-315h-104z" />
    <glyph glyph-name="uni040C" unicode="&#x40c;" horiz-adv-x="672" 
d="M83 0v705h103v-308h132l-25 -16l218 324h115l-236 -342l-38 30q65 -8 110 -44t78 -101l124 -248h-112l-99 205q-28 58 -65 82t-93 24h-109v-311h-103zM302 765l118 173h109l-153 -173h-74z" />
    <glyph glyph-name="uni040D" unicode="&#x40d;" horiz-adv-x="750" 
d="M83 0v705h96v-570h-23l432 570h80v-705h-97v570h23l-433 -570h-78zM340 765l-153 173h109l118 -173h-74z" />
    <glyph glyph-name="uni040E" unicode="&#x40e;" horiz-adv-x="670" 
d="M196 0l123 232l1 -36l-327 509h112l266 -418h-21l220 418h108l-374 -705h-108zM336 760q-49 0 -89.5 15.5t-68 46t-41.5 73.5l56 20q19 -50 54 -73t89 -23q55 0 89.5 22t58.5 73l53 -19q-25 -70 -78 -102.5t-123 -32.5z" />
    <glyph glyph-name="uni040F" unicode="&#x40f;" horiz-adv-x="768" 
d="M338 -161v161h-255v705h104v-618h395v618h103v-705h-254v-161h-93z" />
    <glyph glyph-name="uni0410" unicode="&#x410;" horiz-adv-x="742" 
d="M10 0l314 705h89l319 -705h-107l-87 200l44 -28h-427l47 28l-87 -200h-105zM367 591l-152 -359l-24 23h355l-20 -23l-155 359h-4z" />
    <glyph glyph-name="uni0411" unicode="&#x411;" horiz-adv-x="682" 
d="M83 0v705h488v-82h-388v-222h215q115 0 178.5 -50t63.5 -149t-63.5 -150.5t-178.5 -51.5h-315zM183 82h204q78 0 115 29.5t37 89.5t-37 89t-115 29h-204v-237z" />
    <glyph glyph-name="uni0412" unicode="&#x412;" horiz-adv-x="685" 
d="M83 0v705h294q114 0 175.5 -48t61.5 -135q0 -65 -39 -109t-107 -59v15q78 -10 121 -55t43 -119q0 -94 -63.5 -144.5t-178.5 -50.5h-307zM184 81h195q71 0 111.5 27t40.5 91t-40.5 91t-111.5 27h-195v-236zM184 397h177q76 0 114 29t38 85t-38 85t-114 29h-177v-228z" />
    <glyph glyph-name="uni0413" unicode="&#x413;" horiz-adv-x="563" 
d="M83 0v705h465v-86h-361v-619h-104z" />
    <glyph glyph-name="uni0414" unicode="&#x414;" horiz-adv-x="811" 
d="M15 -161v244h73q52 63 77 171.5t25 267.5v183h495v-622h103v-244h-91v161h-589v-161h-93zM193 83h389v540h-296v-109q0 -155 -22.5 -258.5t-70.5 -172.5z" />
    <glyph glyph-name="uni0415" unicode="&#x415;" horiz-adv-x="591" 
d="M83 0v705h462v-83h-361v-222h338v-84h-338v-232h361v-84h-462z" />
    <glyph glyph-name="uni0416" unicode="&#x416;" horiz-adv-x="1016" 
d="M8 0l123 248q33 65 78.5 101t111.5 44l-39 -30l-235 342h114l218 -324l-24 16h104v308h99v-308h105l-26 -16l218 324h115l-235 -342l-39 30q66 -8 110.5 -44t77.5 -101l124 -248h-111l-100 205q-27 57 -64.5 81.5t-92.5 24.5h-82v-311h-99v311h-82q-57 0 -94 -24.5
t-64 -81.5l-99 -205h-112z" />
    <glyph glyph-name="uni0417" unicode="&#x417;" horiz-adv-x="648" 
d="M316 -9q-91 0 -162.5 23.5t-118.5 64.5l35 78q48 -39 106 -59t134 -20q95 0 139.5 31t44.5 93q0 58 -38 86t-116 28h-178v83h163q75 0 113.5 28.5t38.5 83.5q0 54 -41 85t-125 31q-64 0 -121 -19t-103 -57l-36 78q47 41 118.5 63t149.5 22q129 0 194.5 -52t65.5 -139
q0 -65 -39 -109.5t-106 -59.5v15q75 -11 118.5 -56t43.5 -118q0 -63 -31 -109t-93 -70.5t-156 -24.5z" />
    <glyph glyph-name="uni0418" unicode="&#x418;" horiz-adv-x="750" 
d="M83 0v705h96v-570h-23l432 570h80v-705h-97v570h23l-433 -570h-78z" />
    <glyph glyph-name="uni0419" unicode="&#x419;" horiz-adv-x="750" 
d="M83 0v705h96v-570h-23l432 570h80v-705h-97v570h23l-433 -570h-78zM376 760q-49 0 -89.5 15.5t-68 46t-41.5 73.5l56 20q19 -50 54 -73t89 -23q55 0 89.5 22t58.5 73l53 -19q-25 -70 -78 -102.5t-123 -32.5z" />
    <glyph glyph-name="uni041A" unicode="&#x41a;" horiz-adv-x="672" 
d="M83 0v705h103v-308h132l-25 -16l218 324h115l-236 -342l-38 30q65 -8 110 -44t78 -101l124 -248h-112l-99 205q-28 58 -65 82t-93 24h-109v-311h-103z" />
    <glyph glyph-name="uni041B" unicode="&#x41b;" horiz-adv-x="767" 
d="M65 -16l-49 79q42 22 74.5 53t54 78.5t32.5 120t11 176.5v214h496v-705h-103v619h-296v-153q0 -106 -14.5 -185t-42.5 -136.5t-68.5 -96t-94.5 -64.5z" />
    <glyph glyph-name="uni041C" unicode="&#x41c;" horiz-adv-x="864" 
d="M84 0v705h91l272 -613h-30l272 613h90v-705h-94v564h33l-254 -564h-65l-254 564h34v-564h-95z" />
    <glyph glyph-name="uni041D" unicode="&#x41d;" horiz-adv-x="770" 
d="M83 0v705h104v-304h396v304h104v-705h-104v314h-396v-314h-104z" />
    <glyph glyph-name="uni041E" unicode="&#x41e;" horiz-adv-x="779" 
d="M59 353q0 111 39 192t113.5 125t177.5 44q102 0 176 -44t114.5 -125t40.5 -191q0 -111 -40.5 -192.5t-115 -126t-175.5 -44.5q-103 0 -177 44.5t-113.5 126t-39.5 191.5zM168 353q0 -128 56 -200t165 -72q106 0 164 71.5t58 200.5t-57.5 200t-164.5 71q-109 0 -165 -71
t-56 -200z" />
    <glyph glyph-name="uni041F" unicode="&#x41f;" horiz-adv-x="768" 
d="M83 0v705h602v-705h-103v619h-396v-619h-103z" />
    <glyph glyph-name="uni0420" unicode="&#x420;" horiz-adv-x="658" 
d="M83 0v705h299q113 0 173.5 -54.5t60.5 -150.5t-60.5 -151t-173.5 -55h-195v-294h-104zM187 377h184q71 0 107 32t36 91q0 58 -36 90t-107 32h-184v-245z" />
    <glyph glyph-name="uni0421" unicode="&#x421;" horiz-adv-x="685" 
d="M400 -9q-108 0 -184 44t-116.5 125.5t-40.5 192.5t40.5 192t116.5 125t184 44q75 0 134 -22t103 -64l-36 -83q-48 41 -93.5 59t-105.5 18q-114 0 -174 -70t-60 -199t60 -199.5t174 -70.5q60 0 105.5 18t93.5 60l36 -83q-44 -42 -103 -64.5t-134 -22.5z" />
    <glyph glyph-name="uni0422" unicode="&#x422;" horiz-adv-x="611" 
d="M252 0v618h-241v87h586v-87h-241v-618h-104z" />
    <glyph glyph-name="uni0423" unicode="&#x423;" horiz-adv-x="670" 
d="M196 0l123 232l1 -36l-327 509h112l266 -418h-21l220 418h108l-374 -705h-108z" />
    <glyph glyph-name="uni0424" unicode="&#x424;" horiz-adv-x="886" 
d="M391 -24v101l27 -21h-28q-103 0 -177.5 36t-114 103.5t-39.5 162.5q0 144 86.5 223t244.5 79h28l-27 -21v95h103v-95l-27 21h28q158 0 245 -79t87 -223q0 -95 -40 -162.5t-114 -103.5t-178 -36h-28l27 21v-101h-103zM392 116v484l23 -20h-37q-98 0 -156 -56.5t-58 -165.5
q0 -70 27 -120t75 -76t112 -26h37zM494 116l-24 20h38q64 0 112 26t74.5 76t26.5 120q0 109 -57.5 165.5t-155.5 56.5h-38l24 20v-484z" />
    <glyph glyph-name="uni0425" unicode="&#x425;" horiz-adv-x="661" 
d="M1 0l286 381v-42l-274 366h122l212 -292h-32l210 292h123l-274 -366v42l286 -381h-123l-225 308h37l-226 -308h-122z" />
    <glyph glyph-name="uni0426" unicode="&#x426;" horiz-adv-x="811" 
d="M696 -161v161h-613v705h103v-618h396v618h103v-618h103v-248h-92z" />
    <glyph glyph-name="uni0427" unicode="&#x427;" horiz-adv-x="701" 
d="M515 0v288q-31 -15 -78 -24t-94 -9q-140 0 -213.5 72.5t-73.5 218.5v159h103v-153q0 -108 48.5 -157.5t146.5 -49.5q42 0 83 8t78 27v325h103v-705h-103z" />
    <glyph glyph-name="uni0428" unicode="&#x428;" horiz-adv-x="1089" 
d="M83 0v705h102v-618h309v618h102v-618h308v618h102v-705h-923z" />
    <glyph glyph-name="uni0429" unicode="&#x429;" horiz-adv-x="1132" 
d="M1017 -161v161h-934v705h102v-618h309v618h102v-618h308v618h102v-618h103v-248h-92z" />
    <glyph glyph-name="uni042A" unicode="&#x42a;" horiz-adv-x="828" 
d="M229 0v619h-218v86h321v-304h212q115 0 178.5 -50t63.5 -149t-63.5 -150.5t-178.5 -51.5h-315zM332 82h201q78 0 115 29.5t37 89.5t-37 89.5t-115 29.5h-201v-238z" />
    <glyph glyph-name="uni042B" unicode="&#x42b;" horiz-adv-x="894" 
d="M83 0v705h104v-304h180q115 0 178.5 -50t63.5 -149t-63.5 -150.5t-178.5 -51.5h-284zM187 82h169q78 0 115 29.5t37 89.5t-37 89.5t-115 29.5h-169v-238zM708 0v705h103v-705h-103z" />
    <glyph glyph-name="uni042C" unicode="&#x42c;" horiz-adv-x="682" 
d="M83 0v705h104v-304h211q115 0 178.5 -50t63.5 -149t-63.5 -150.5t-178.5 -51.5h-315zM187 82h200q78 0 115 29.5t37 89.5t-37 89t-115 29h-200v-237z" />
    <glyph glyph-name="uni042D" unicode="&#x42d;" horiz-adv-x="693" 
d="M290 -9q-74 0 -136.5 23t-105.5 65l36 83q48 -41 95.5 -60t108.5 -19q113 0 174.5 67t64.5 191l30 -24h-384v83h383l-30 -29q-4 119 -64 185t-171 66q-61 0 -109 -18t-98 -60l-36 82q46 42 108.5 65t136.5 23q108 0 184.5 -44t116.5 -125t40 -192t-40 -192.5t-117 -125.5
t-187 -44z" />
    <glyph glyph-name="uni042E" unicode="&#x42e;" horiz-adv-x="1056" 
d="M666 -9q-94 0 -165.5 39.5t-113 112t-49.5 172.5h-151v-315h-104v705h104v-305h151q10 98 52 168t112.5 108t163.5 38q102 0 176 -44t114.5 -125t40.5 -192t-40.5 -192.5t-115 -125.5t-175.5 -44zM666 80q106 0 164.5 72t58.5 201t-58.5 200.5t-164.5 71.5t-164.5 -71.5
t-58.5 -200.5t58.5 -201t164.5 -72z" />
    <glyph glyph-name="uni042F" unicode="&#x42f;" horiz-adv-x="696" 
d="M35 0l126 224q25 44 55.5 64t71.5 20h30l-4 -14q-117 0 -181.5 54t-64.5 151q0 99 63.5 152.5t180.5 53.5h301v-705h-103v291h-112q-46 0 -74 -13.5t-50 -52.5l-126 -225h-113zM329 369h181v254h-181q-160 0 -160 -127t160 -127z" />
    <glyph glyph-name="uni0430" unicode="&#x430;" horiz-adv-x="621" 
d="M273 -9q-67 0 -117 31t-77.5 90t-27.5 140q0 82 27.5 140t77.5 89.5t117 31.5q66 0 115 -33t65 -90h-11l10 114h98q-3 -31 -5.5 -61.5t-2.5 -59.5v-383h-101v112h11q-16 -56 -65.5 -88.5t-113.5 -32.5zM298 70q65 0 104.5 46t39.5 136t-39.5 135.5t-104.5 45.5
q-66 0 -105.5 -45.5t-39.5 -135.5t39 -136t106 -46z" />
    <glyph glyph-name="uni0431" unicode="&#x431;" horiz-adv-x="593" 
d="M300 -9q-114 0 -181.5 71t-67.5 209v87q0 141 60.5 227t187.5 116l184 44l29 -81l-206 -48q-54 -12 -89 -45t-52.5 -78t-17.5 -96v-46h-15q12 46 38.5 78.5t66 51t88.5 18.5q65 0 114 -30t76.5 -86.5t27.5 -133.5q0 -80 -30 -138t-84.5 -89t-128.5 -31zM297 69
q68 0 106.5 44.5t38.5 131.5q0 86 -39 131t-106 45t-106 -44.5t-39 -126.5q0 -90 38.5 -135.5t106.5 -45.5z" />
    <glyph glyph-name="uni0432" unicode="&#x432;" horiz-adv-x="568" 
d="M76 0v504h254q91 0 134.5 -34.5t43.5 -97.5q0 -49 -32.5 -81t-85.5 -39v13q63 -3 99 -37t36 -88q0 -65 -48.5 -102.5t-137.5 -37.5h-263zM171 65h160q49 0 75 20.5t26 59.5t-26 59t-75 20h-160v-159zM171 289h149q45 0 70 20t25 55q0 36 -25 55.5t-70 19.5h-149v-150z
" />
    <glyph glyph-name="uni0433" unicode="&#x433;" horiz-adv-x="455" 
d="M76 0v504h363v-81h-262v-423h-101z" />
    <glyph glyph-name="uni0434" unicode="&#x434;" horiz-adv-x="619" 
d="M26 -130v208h56q33 50 48 117t15 162v147h369v-426h81v-208h-87v130h-395v-130h-87zM175 77h244v349h-187v-89q0 -73 -14.5 -142.5t-42.5 -117.5z" />
    <glyph glyph-name="uni0435" unicode="&#x435;" horiz-adv-x="558" 
d="M313 -9q-122 0 -192 69t-70 191q0 79 30.5 138t85 91.5t126.5 32.5q71 0 119 -30t73 -84.5t25 -128.5v-32h-380v58h311l-17 -13q0 75 -33.5 116.5t-96.5 41.5q-70 0 -108 -48.5t-38 -133.5v-10q0 -89 43.5 -134t123.5 -45q44 0 82.5 12.5t73.5 41.5l33 -69
q-35 -31 -85 -47.5t-106 -16.5z" />
    <glyph glyph-name="uni0436" unicode="&#x436;" horiz-adv-x="826" 
d="M-2 0l105 182q22 36 41 58t40.5 33.5t50.5 14.5l-23 -32l-190 248h110l159 -206h73v206h100v-206h72l158 206h110l-190 -248l-23 32q28 -3 50 -14.5t41.5 -33.5t40.5 -58l105 -182h-108l-89 154q-15 26 -29.5 40.5t-32.5 20t-44 5.5h-61v-220h-100v220h-63
q-26 0 -43.5 -5.5t-31.5 -20t-30 -40.5l-89 -154h-109z" />
    <glyph glyph-name="uni0437" unicode="&#x437;" horiz-adv-x="518" 
d="M251 -9q-66 0 -124 16.5t-95 47.5l31 68q37 -29 85 -43.5t103 -14.5q69 0 100.5 20.5t31.5 58.5q0 37 -26 56t-76 19h-124v72h114q45 0 70 19t25 53q0 36 -29 56t-90 20q-52 0 -95 -13t-82 -39l-30 65q41 31 97 46t121 15q98 0 149 -36.5t51 -104.5q0 -47 -31.5 -80
t-84.5 -40v13q61 -3 97.5 -36.5t36.5 -88.5q0 -68 -57.5 -108.5t-167.5 -40.5z" />
    <glyph glyph-name="uni0438" unicode="&#x438;" horiz-adv-x="604" 
d="M76 0v504h92v-407h-28l304 407h84v-504h-91v408h29l-306 -408h-84z" />
    <glyph glyph-name="uni0439" unicode="&#x439;" horiz-adv-x="604" 
d="M76 0v504h92v-407h-28l304 407h84v-504h-91v408h29l-306 -408h-84zM302 550q-46 0 -82 15t-61.5 44.5t-38.5 71.5l56 20q17 -47 48 -69.5t78 -22.5q48 0 78.5 21t52.5 70l52 -19q-24 -68 -71.5 -99.5t-111.5 -31.5z" />
    <glyph glyph-name="uni043A" unicode="&#x43a;" horiz-adv-x="552" 
d="M76 0v504h100v-206h87l157 206h110l-188 -248l-25 32q29 -3 50 -14.5t41 -33.5t41 -58l105 -182h-108l-90 154q-15 26 -29 40.5t-32 20t-44 5.5h-75v-220h-100z" />
    <glyph glyph-name="uni043B" unicode="&#x43b;" horiz-adv-x="597" 
d="M55 -13l-34 80q34 14 57.5 35.5t37 55.5t19.5 84t6 121v141h380v-504h-100v425h-187v-65q0 -114 -18 -189t-57.5 -118.5t-103.5 -65.5z" />
    <glyph glyph-name="uni043C" unicode="&#x43c;" horiz-adv-x="684" 
d="M76 0v504h84l182 -322l182 322h84v-504h-89v391h22l-175 -310h-48l-175 310h22v-391h-89z" />
    <glyph glyph-name="uni043D" unicode="&#x43d;" horiz-adv-x="607" 
d="M76 0v504h100v-205h255v205h100v-504h-100v220h-255v-220h-100z" />
    <glyph glyph-name="uni043E" unicode="&#x43e;" horiz-adv-x="592" 
d="M296 -9q-75 0 -130 31.5t-85 90t-30 139.5t30 139.5t85 90t130 31.5t130.5 -31.5t86 -90t30.5 -139.5t-30.5 -139.5t-86 -90t-130.5 -31.5zM296 70q66 0 105 46t39 136t-39 135.5t-105 45.5q-65 0 -104 -45.5t-39 -135.5t38.5 -136t104.5 -46z" />
    <glyph glyph-name="uni043F" unicode="&#x43f;" horiz-adv-x="604" 
d="M76 0v504h452v-504h-100v425h-252v-425h-100z" />
    <glyph glyph-name="uni0440" unicode="&#x440;" horiz-adv-x="621" 
d="M80 -216v599q0 29 -2.5 59.5t-5.5 61.5h98l10 -114h-11q16 57 64.5 90t115.5 33t117 -31.5t77.5 -89.5t27.5 -140q0 -81 -27.5 -140t-77.5 -90t-117 -31q-66 0 -114.5 32.5t-64.5 88.5h11v-328h-101zM324 70q66 0 105.5 46t39.5 136t-39.5 135.5t-105.5 45.5
t-105.5 -45.5t-39.5 -135.5t39.5 -136t105.5 -46z" />
    <glyph glyph-name="uni0441" unicode="&#x441;" horiz-adv-x="511" 
d="M301 -9q-76 0 -132.5 31.5t-87 91t-30.5 141.5q0 81 31 139t87 88.5t132 30.5q49 0 95 -16.5t76 -46.5l-33 -71q-28 27 -63 40.5t-68 13.5q-72 0 -113 -46t-41 -133q0 -88 41 -135t113 -47q32 0 67 12.5t64 40.5l33 -71q-31 -30 -77.5 -46.5t-93.5 -16.5z" />
    <glyph glyph-name="uni0442" unicode="&#x442;" horiz-adv-x="468" 
d="M184 0v423h-178v81h457v-81h-179v-423h-100z" />
    <glyph glyph-name="uni0443" unicode="&#x443;" horiz-adv-x="548" 
d="M65 -227l-24 82q47 10 78.5 24t52.5 36.5t36 57.5l25 59l-2 -41l-219 513h108l170 -420h-27l170 420h104l-231 -540q-22 -50 -47 -84t-54 -55t-64 -33t-76 -19z" />
    <glyph glyph-name="uni0444" unicode="&#x444;" horiz-adv-x="836" 
d="M368 -216v322h10q-15 -56 -52.5 -85.5t-91.5 -29.5t-96 32t-65 90.5t-23 138.5q0 81 23 139t64.5 90t96.5 32q54 0 91.5 -30t52.5 -84h-10v337h100v-337h-10q16 54 53 84t91 30q55 0 97 -32t64.5 -90t22.5 -139q0 -80 -22.5 -138.5t-64 -90.5t-97.5 -32q-53 0 -90.5 29.5
t-53.5 85.5h10v-322h-100zM260 68q51 0 80.5 46.5t29.5 137.5q0 90 -29.5 137t-80.5 47t-80.5 -47t-29.5 -137q0 -91 29.5 -137.5t80.5 -46.5zM576 68q51 0 80.5 46.5t29.5 137.5q0 90 -30 137t-80 47q-51 0 -80 -47t-29 -137q0 -91 29 -137.5t80 -46.5z" />
    <glyph glyph-name="uni0445" unicode="&#x445;" horiz-adv-x="553" 
d="M8 0l229 284v-48l-217 268h121l153 -197h-36l153 197h120l-215 -267v46l228 -283h-121l-165 211h36l-166 -211h-120z" />
    <glyph glyph-name="uni0446" unicode="&#x446;" horiz-adv-x="622" 
d="M512 -130v130h-436v504h100v-425h241v425h99v-425h81v-209h-85z" />
    <glyph glyph-name="uni0447" unicode="&#x447;" horiz-adv-x="572" 
d="M398 0v195q-28 -15 -60 -23.5t-68 -8.5q-109 0 -161.5 51.5t-52.5 154.5v135h100v-127q0 -69 31 -100t98 -31q34 0 60 7.5t51 23.5v227h101v-504h-99z" />
    <glyph glyph-name="uni0448" unicode="&#x448;" horiz-adv-x="831" 
d="M76 0v504h95v-425h197v425h95v-425h196v425h96v-504h-679z" />
    <glyph glyph-name="uni0449" unicode="&#x449;" horiz-adv-x="860" 
d="M750 -130v130h-674v504h95v-425h197v425h95v-425h196v425h96v-425h80v-209h-85z" />
    <glyph glyph-name="uni044A" unicode="&#x44a;" horiz-adv-x="640" 
d="M160 0v423h-154v81h254v-176h143q99 0 149.5 -41.5t50.5 -120.5q0 -51 -23.5 -88.5t-68 -57.5t-108.5 -20h-243zM260 69h132q56 0 86 23.5t30 72.5t-30 71.5t-86 22.5h-132v-190z" />
    <glyph glyph-name="uni044B" unicode="&#x44b;" horiz-adv-x="764" 
d="M76 0v504h100v-176h143q99 0 149 -41.5t50 -120.5q0 -51 -23 -88.5t-67.5 -57.5t-108.5 -20h-243zM176 69h132q57 0 86.5 23.5t29.5 72.5t-29.5 71.5t-86.5 22.5h-132v-190zM589 0v504h100v-504h-100z" />
    <glyph glyph-name="uni044C" unicode="&#x44c;" horiz-adv-x="556" 
d="M76 0v504h100v-176h143q99 0 149 -41.5t50 -120.5q0 -51 -23 -88.5t-67.5 -57.5t-108.5 -20h-243zM176 69h132q56 0 86 23.5t30 72.5t-29.5 71.5t-86.5 22.5h-132v-190z" />
    <glyph glyph-name="uni044D" unicode="&#x44d;" horiz-adv-x="529" 
d="M225 -9q-56 0 -107 17t-80 48l33 65q29 -27 68 -41t79 -14q75 0 119 45t47 130l12 -21h-262v72h262l-12 -20q-3 50 -22 87.5t-54.5 58t-89.5 20.5q-39 0 -78 -13.5t-69 -41.5l-33 66q33 30 83.5 47t104.5 17q78 0 134.5 -30.5t87.5 -89t31 -140.5q0 -81 -31.5 -140.5
t-88.5 -90.5t-134 -31z" />
    <glyph glyph-name="uni044E" unicode="&#x44e;" horiz-adv-x="809" 
d="M512 -9q-103 0 -168 60.5t-75 168.5h-95v-220h-98v504h98v-205h96q14 101 78 157.5t164 56.5q75 0 130.5 -31.5t86 -89.5t30.5 -140q0 -81 -30.5 -139.5t-86 -90t-130.5 -31.5zM512 69q66 0 105.5 46t39.5 137q0 90 -39.5 136t-105.5 46t-105.5 -46t-39.5 -136
q0 -91 39.5 -137t105.5 -46z" />
    <glyph glyph-name="uni044F" unicode="&#x44f;" horiz-adv-x="559" 
d="M35 0l79 136q19 33 48.5 53.5t60.5 20.5h18l-1 -10q-86 0 -134 39t-48 112t48 113t141 40h236v-504h-93v187h-67q-38 0 -64.5 -19t-43.5 -50l-68 -118h-112zM265 255h125v181h-125q-56 0 -83.5 -24t-27.5 -66q0 -44 27.5 -67.5t83.5 -23.5z" />
    <glyph glyph-name="uni0450" unicode="&#x450;" horiz-adv-x="558" 
d="M313 -9q-122 0 -192 69t-70 191q0 79 30.5 138t85 91.5t126.5 32.5q71 0 119 -30t73 -84.5t25 -128.5v-32h-380v58h311l-17 -13q0 75 -33.5 116.5t-96.5 41.5q-70 0 -108 -48.5t-38 -133.5v-10q0 -89 43.5 -134t123.5 -45q44 0 82.5 12.5t73.5 41.5l33 -69
q-35 -31 -85 -47.5t-106 -16.5zM258 553l-136 202h103l103 -202h-70z" />
    <glyph glyph-name="uni0451" unicode="&#x451;" horiz-adv-x="558" 
d="M313 -9q-122 0 -192 69t-70 191q0 79 30.5 138t85 91.5t126.5 32.5q71 0 119 -30t73 -84.5t25 -128.5v-32h-380v58h311l-17 -13q0 75 -33.5 116.5t-96.5 41.5q-70 0 -108 -48.5t-38 -133.5v-10q0 -89 43.5 -134t123.5 -45q44 0 82.5 12.5t73.5 41.5l33 -69
q-35 -31 -85 -47.5t-106 -16.5zM334 604v99h99v-99h-99zM153 604v99h99v-99h-99z" />
    <glyph glyph-name="uni0452" unicode="&#x452;" horiz-adv-x="602" 
d="M331 -186l-29 76q51 12 78 32t37.5 53t10.5 81v240q0 67 -27 95.5t-80 28.5q-64 0 -102 -38.5t-38 -104.5v-277h-101v576h-94v73h94v87h101v-87h198v-73h-198v-187h-12q21 54 69 83.5t111 29.5q90 0 135 -49t45 -152v-242q0 -66 -18 -114t-61 -80.5t-119 -50.5z" />
    <glyph glyph-name="uni0453" unicode="&#x453;" horiz-adv-x="455" 
d="M76 0v504h363v-81h-262v-423h-101zM207 553l103 202h103l-136 -202h-70z" />
    <glyph glyph-name="uni0454" unicode="&#x454;" horiz-adv-x="534" 
d="M305 -9q-78 0 -135 31.5t-88 91t-31 141.5q0 81 31.5 139t89 88.5t136.5 30.5q55 0 105 -17t78 -47l-32 -66q-30 28 -69 41.5t-79 13.5q-53 0 -89 -20.5t-55 -58t-22 -87.5l-12 20h262v-72h-262l12 22q4 -86 47 -131t119 -45q39 0 78.5 14t69.5 41l32 -65
q-29 -31 -80.5 -48t-105.5 -17z" />
    <glyph glyph-name="uni0455" unicode="&#x455;" horiz-adv-x="510" 
d="M253 -9q-63 0 -116 16t-88 45l31 69q37 -28 82 -42t92 -14q55 0 83 19.5t28 53.5q0 26 -17.5 42t-57.5 24l-96 19q-64 14 -97 48t-33 87q0 45 24.5 80t70 55t106.5 20q56 0 104 -16t80 -46l-32 -67q-31 26 -70 40.5t-79 14.5q-56 0 -83 -21t-27 -55q0 -26 16.5 -42.5
t52.5 -25.5l96 -19q68 -14 102 -46t34 -86q0 -47 -26 -82t-72 -53t-108 -18z" />
    <glyph glyph-name="uni0456" unicode="&#x456;" horiz-adv-x="260" 
d="M80 0v504h101v-504h-101zM72 609v105h117v-105h-117z" />
    <glyph glyph-name="uni0457" unicode="&#x457;" horiz-adv-x="260" 
d="M80 0v504h101v-504h-101zM171 604v99h99v-99h-99zM-10 604v99h99v-99h-99z" />
    <glyph glyph-name="uni0458" unicode="&#x458;" horiz-adv-x="260" 
d="M21 -221q-16 0 -37.5 3t-37.5 10v82q13 -4 28.5 -7.5t29.5 -3.5q39 0 59.5 24.5t20.5 80.5v536h101v-543q0 -90 -40 -136t-124 -46zM75 609v105h118v-105h-118z" />
    <glyph glyph-name="uni0459" unicode="&#x459;" horiz-adv-x="899" 
d="M55 -13l-34 80q34 14 57.5 35.5t37 55.5t19.5 84t6 121v141h378v-176h143q99 0 149.5 -41.5t50.5 -120.5q0 -51 -23.5 -88.5t-68 -57.5t-108.5 -20h-241v425h-187v-65q0 -114 -18 -189t-57.5 -118.5t-103.5 -65.5zM519 69h132q56 0 86 23.5t30 72.5t-29.5 71.5
t-86.5 22.5h-132v-190z" />
    <glyph glyph-name="uni045A" unicode="&#x45a;" horiz-adv-x="911" 
d="M76 0v504h100v-205h256v205h99v-176h143q99 0 149 -41.5t50 -120.5q0 -51 -23 -88.5t-67.5 -57.5t-108.5 -20h-242v220h-256v-220h-100zM531 69h132q56 0 86 23.5t30 72.5t-29.5 71.5t-86.5 22.5h-132v-190z" />
    <glyph glyph-name="uni045B" unicode="&#x45b;" horiz-adv-x="605" 
d="M80 0v576h-94v73h94v87h101v-87h197v-73h-197v-186h-14q22 56 71 85.5t113 29.5q89 0 133.5 -49.5t44.5 -149.5v-306h-101v300q0 65 -26 94.5t-80 29.5q-64 0 -102.5 -39t-38.5 -104v-281h-101z" />
    <glyph glyph-name="uni045C" unicode="&#x45c;" horiz-adv-x="552" 
d="M76 0v504h100v-206h87l157 206h110l-188 -248l-25 32q29 -3 50 -14.5t41 -33.5t41 -58l105 -182h-108l-90 154q-15 26 -29 40.5t-32 20t-44 5.5h-75v-220h-100zM268 553l103 202h103l-136 -202h-70z" />
    <glyph glyph-name="uni045D" unicode="&#x45d;" horiz-adv-x="604" 
d="M76 0v504h92v-407h-28l304 407h84v-504h-91v408h29l-306 -408h-84zM268 553l-136 202h103l103 -202h-70z" />
    <glyph glyph-name="uni045E" unicode="&#x45e;" horiz-adv-x="548" 
d="M65 -227l-24 82q47 10 78.5 24t52.5 36.5t36 57.5l25 59l-2 -41l-219 513h108l170 -420h-27l170 420h104l-231 -540q-22 -50 -47 -84t-54 -55t-64 -33t-76 -19zM272 550q-46 0 -82 15t-61.5 44.5t-38.5 71.5l56 20q17 -47 48 -69.5t78 -22.5q48 0 78.5 21t52.5 70l52 -19
q-24 -68 -71.5 -99.5t-111.5 -31.5z" />
    <glyph glyph-name="uni045F" unicode="&#x45f;" horiz-adv-x="604" 
d="M258 -130v130h-182v504h100v-425h252v425h100v-504h-183v-130h-87z" />
    <glyph glyph-name="uni0462" unicode="&#x462;" horiz-adv-x="754" 
d="M159 0v530h-179v78h179v97h99v-97h245v-78h-245v-129h211q116 0 179.5 -50t63.5 -149t-63.5 -150.5t-179.5 -51.5h-310zM258 82h201q78 0 115.5 29.5t37.5 89.5t-37.5 89.5t-115.5 29.5h-201v-238z" />
    <glyph glyph-name="uni0463" unicode="&#x463;" horiz-adv-x="640" 
d="M160 0v434h-154v70h154v232h101v-232h168v-70h-168v-119h148q94 0 144 -40t50 -117q0 -76 -50.5 -117t-143.5 -41h-249zM261 64h134q55 0 84 23t29 72q0 48 -29 70t-84 22h-134v-187z" />
    <glyph glyph-name="uni046A" unicode="&#x46a;" horiz-adv-x="1003" 
d="M8 0l125 250q23 45 55 77.5t78 50.5t108 18h54l-6 -24l-296 333h752l-296 -333l-6 24h54q62 0 107.5 -18t78 -50.5t54.5 -77.5l125 -250h-111l-100 205q-28 56 -63 81t-93 25h-75v-311h-103v311h-74q-57 0 -93 -25t-63 -81l-101 -205h-111zM501 397h2l234 266v-32h-471
v32z" />
    <glyph glyph-name="uni046B" unicode="&#x46b;" horiz-adv-x="825" 
d="M-2 0l105 173q27 44 50 69.5t53 36.5t75 11h69l-14 -26l-208 240h570l-207 -240l-16 26h71q46 0 75.5 -11t53 -36.5t48.5 -69.5l104 -173h-108l-89 145q-15 27 -29.5 41t-32 19.5t-43.5 5.5h-62v-211h-100v211h-62q-26 0 -43.5 -5.5t-31.5 -19.5t-31 -41l-89 -145h-108z
M413 282h2l153 183v-29h-310v29z" />
    <glyph glyph-name="uni0472" unicode="&#x472;" horiz-adv-x="779" 
d="M114 319v79h563v-79h-563zM59 353q0 111 39 192t113.5 125t177.5 44q102 0 176 -44t114.5 -125t40.5 -191q0 -111 -40.5 -192.5t-115 -126t-175.5 -44.5q-103 0 -177 44.5t-113.5 126t-39.5 191.5zM168 353q0 -128 56 -200t165 -72q106 0 164 71.5t58 200.5t-57.5 200
t-164.5 71q-109 0 -165 -71t-56 -200z" />
    <glyph glyph-name="uni0473" unicode="&#x473;" horiz-adv-x="592" 
d="M296 -9q-75 0 -130 31.5t-85 90t-30 139.5t30 139.5t85 90t130 31.5t130.5 -31.5t86 -90t30.5 -139.5t-30.5 -139.5t-86 -90t-130.5 -31.5zM296 70q71 0 111 47.5t40 134.5q0 88 -40 134.5t-111 46.5t-111 -46.5t-40 -134.5q0 -87 40 -134.5t111 -47.5zM112 218v68h370
v-68h-370z" />
    <glyph glyph-name="uni0474" unicode="&#x474;" horiz-adv-x="778" 
d="M305 0l-307 705h112l260 -618h-36l190 433q23 55 48 92t54.5 59.5t69 32.5t92.5 10l9 -84q-49 0 -80 -13t-55 -44.5t-50 -87.5l-216 -485h-91z" />
    <glyph glyph-name="uni0475" unicode="&#x475;" horiz-adv-x="577" 
d="M227 0l-216 504h108l170 -422h-29l126 305q20 48 43.5 75.5t60 39t90.5 11.5l9 -81q-49 0 -75.5 -19t-47.5 -68l-148 -345h-91z" />
    <glyph glyph-name="uni048A" unicode="&#x48a;" horiz-adv-x="774" 
d="M603 -161l55 161h-87v84h204l-84 -245h-88zM83 0v705h96v-570h-23l432 570h80v-705h-97v570h23l-433 -570h-78zM376 760q-49 0 -89.5 15.5t-68 46t-41.5 73.5l56 20q19 -50 54 -73t89 -23q55 0 89.5 22t58.5 73l53 -19q-25 -70 -78 -102.5t-123 -32.5z" />
    <glyph glyph-name="uni048B" unicode="&#x48b;" horiz-adv-x="632" 
d="M459 -130l47 130h-69v78h181l-74 -208h-85zM76 0v504h92v-407h-28l304 407h84v-504h-91v408h29l-306 -408h-84zM302 550q-45 0 -81.5 15t-62 44.5t-37.5 71.5l55 20q17 -47 48 -69.5t79 -22.5q47 0 77.5 21t52.5 70l52 -19q-23 -68 -70.5 -99.5t-112.5 -31.5z" />
    <glyph glyph-name="uni048C" unicode="&#x48c;" horiz-adv-x="742" 
d="M148 0v531h-148v77h148v97h98v-97h148v-77h-148v-130h210q116 0 180 -50t64 -149t-64 -150.5t-180 -51.5h-308zM246 82h199q79 0 117.5 29.5t38.5 89.5t-38.5 89.5t-117.5 29.5h-199v-238z" />
    <glyph glyph-name="uni048D" unicode="&#x48d;" horiz-adv-x="640" 
d="M160 0v434h-154v70h154v232h101v-232h168v-70h-168v-119h148q94 0 144 -40t50 -117q0 -76 -50.5 -117t-143.5 -41h-249zM261 64h134q55 0 84 23t29 72q0 48 -29 70t-84 22h-134v-187z" />
    <glyph glyph-name="uni048E" unicode="&#x48e;" horiz-adv-x="658" 
d="M83 0v705h294q118 0 178.5 -56t60.5 -159q0 -73 -33 -124t-95 -73l5 16l57 -83l-50 -35l-69 101l20 -11q-16 -3 -34 -5t-40 -2h-191v-274h-103zM186 357h177q12 0 26.5 1t24.5 3l-20 -14l-55 81l50 32l68 -97l-20 6q79 28 79 121q0 133 -157 133h-173v-266z" />
    <glyph glyph-name="uni048F" unicode="&#x48f;" horiz-adv-x="620" 
d="M80 -216v599q0 29 -2.5 59.5t-5.5 61.5h97l10 -114h-11q16 57 65 90t115 33q68 0 117.5 -31.5t77 -89.5t27.5 -140q0 -75 -24 -131.5t-67 -88.5l4 15l51 -64l-44 -33l-53 68l16 -1q-43 -26 -105 -26q-66 0 -114.5 32.5t-64.5 88.5h12v-328h-101zM324 433
q-66 0 -105.5 -45.5t-39.5 -135.5t39.5 -136.5t105.5 -45.5q42 2 72 20l-4 -14l-58 75l42 32l62 -78l-16 5q46 45 46 142q0 90 -39.5 135.5t-104.5 45.5z" />
    <glyph glyph-name="uni0490" unicode="&#x490;" horiz-adv-x="563" 
d="M83 0v705h373v157h92v-243h-361v-619h-104z" />
    <glyph glyph-name="uni0491" unicode="&#x491;" horiz-adv-x="455" 
d="M76 0v504h277v114h86v-195h-263v-423h-100z" />
    <glyph glyph-name="uni0492" unicode="&#x492;" horiz-adv-x="604" 
d="M124 0v312h-99v77h99v316h465v-86h-362v-230h189v-77h-189v-312h-103z" />
    <glyph glyph-name="uni0493" unicode="&#x493;" horiz-adv-x="480" 
d="M101 0v203h-96v72h96v229h363v-80h-263v-149h149v-72h-149v-203h-100z" />
    <glyph glyph-name="uni0494" unicode="&#x494;" horiz-adv-x="698" 
d="M424 -189q-29 0 -57.5 3.5t-47.5 9.5v85q19 -8 42.5 -12t49.5 -4q62 0 95.5 40.5t33.5 117.5v91q0 108 -50 157.5t-150 49.5q-44 0 -83 -8.5t-71 -26.5v-314h-103v705h467v-86h-364v-214q27 16 72 24.5t93 8.5q143 0 217.5 -72t74.5 -218v-93q0 -78 -26.5 -133t-75.5 -83
t-117 -28z" />
    <glyph glyph-name="uni0495" unicode="&#x495;" horiz-adv-x="574" 
d="M334 -186l-29 76q51 12 78 32t37 53t10 81v67q0 68 -25 98.5t-84 30.5q-66 0 -105.5 -39.5t-39.5 -105.5v-107h-100v504h363v-74h-263v-215l-16 -1q23 56 72.5 87.5t116.5 31.5q91 0 136 -50.5t45 -154.5v-69q0 -66 -17.5 -114t-60 -80.5t-118.5 -50.5z" />
    <glyph glyph-name="uni0496" unicode="&#x496;" horiz-adv-x="1029" 
d="M969 -161v161h-50v84h143v-245h-93zM8 0l123 248q33 65 78.5 101t111.5 44l-39 -30l-235 342h114l218 -324l-24 16h104v308h99v-308h105l-26 -16l218 324h115l-235 -342l-39 30q66 -8 110.5 -44t77.5 -101l124 -248h-111l-100 205q-27 57 -64.5 81.5t-92.5 24.5h-82v-311
h-99v311h-82q-57 0 -94 -24.5t-64 -81.5l-99 -205h-112z" />
    <glyph glyph-name="uni0497" unicode="&#x497;" horiz-adv-x="871" 
d="M766 -130v130h-39v78h127v-208h-88zM-2 0l105 182q22 36 41 58t40.5 33.5t50.5 14.5l-23 -32l-190 248h110l159 -206h73v206h100v-206h72l158 206h110l-190 -248l-23 32q28 -3 50 -14.5t41.5 -33.5t40.5 -58l105 -182h-108l-89 154q-15 26 -29.5 40.5t-32.5 20t-44 5.5
h-61v-220h-100v220h-63q-26 0 -43.5 -5.5t-31.5 -20t-30 -40.5l-89 -154h-109z" />
    <glyph glyph-name="uni0498" unicode="&#x498;" horiz-adv-x="648" 
d="M279 -161v207h89v-207h-89zM316 -9q-91 0 -162.5 23.5t-118.5 64.5l35 78q48 -39 106 -59t134 -20q95 0 139.5 31t44.5 93q0 58 -38 86t-116 28h-178v83h163q75 0 113.5 28.5t38.5 83.5q0 54 -41 85t-125 31q-64 0 -121 -19t-103 -57l-36 78q47 41 118.5 63t149.5 22
q129 0 194.5 -52t65.5 -139q0 -65 -39 -109.5t-106 -59.5v15q75 -11 118.5 -56t43.5 -118q0 -63 -31 -109t-93 -70.5t-156 -24.5z" />
    <glyph glyph-name="uni0499" unicode="&#x499;" horiz-adv-x="518" 
d="M217 -130v175h83v-175h-83zM251 -9q-66 0 -124 16.5t-95 47.5l31 68q37 -29 85 -43.5t103 -14.5q69 0 100.5 20.5t31.5 58.5q0 37 -26 56t-76 19h-124v72h114q45 0 70 19t25 53q0 36 -29 56t-90 20q-52 0 -95 -13t-82 -39l-30 65q41 31 97 46t121 15q98 0 149 -36.5
t51 -104.5q0 -47 -31.5 -80t-84.5 -40v13q61 -3 97.5 -36.5t36.5 -88.5q0 -68 -57.5 -108.5t-167.5 -40.5z" />
    <glyph glyph-name="uni049A" unicode="&#x49a;" horiz-adv-x="704" 
d="M622 -161v161h-50v84h143v-245h-93zM83 0v705h103v-308h132l-25 -16l218 324h115l-236 -342l-38 30q65 -8 110 -44t78 -101l124 -248h-112l-99 205q-28 58 -65 82t-93 24h-109v-311h-103z" />
    <glyph glyph-name="uni049B" unicode="&#x49b;" horiz-adv-x="598" 
d="M492 -130v130h-39v78h127v-208h-88zM76 0v504h100v-206h87l157 206h110l-188 -248l-25 32q29 -3 50 -14.5t41 -33.5t41 -58l105 -182h-108l-90 154q-15 26 -29 40.5t-32 20t-44 5.5h-75v-220h-100z" />
    <glyph glyph-name="uni049C" unicode="&#x49c;" horiz-adv-x="712" 
d="M83 0v705h104v-308h69v166h63v-166h24l207 308h115l-235 -342l-39 30q65 -8 110.5 -44t78.5 -101l124 -248h-113l-99 205q-27 58 -64 82.5t-93 24.5h-29l13 10v-174h-63v164h-69v-312h-104z" />
    <glyph glyph-name="uni049D" unicode="&#x49d;" horiz-adv-x="598" 
d="M76 0v504h100v-206h55v115h63v-115h14l157 206h110l-187 -248l-26 32q28 -3 50 -14.5t41.5 -33.5t41.5 -58l104 -182h-108l-89 154q-15 26 -29.5 40.5t-32.5 20t-44 5.5h-16l14 13v-138h-63v125h-55v-220h-100z" />
    <glyph glyph-name="uni049E" unicode="&#x49e;" horiz-adv-x="726" 
d="M133 0v536h-145v72h145v97h103v-97h138v-72h-138v-139h146l-30 -24l226 332h114l-243 -350l-28 32q52 -7 93.5 -40.5t74.5 -98.5l125 -248h-112l-99 205q-28 58 -65 82t-93 24h-109v-311h-103z" />
    <glyph glyph-name="uni049F" unicode="&#x49f;" horiz-adv-x="556" 
d="M80 0v576h-94v73h94v87h101v-87h198v-73h-198v-281h87l155 198h109l-187 -242l-20 31q28 -3 48 -13.5t38.5 -32.5t41.5 -59l105 -177h-109l-89 152q-15 26 -29.5 40.5t-32 20t-43.5 5.5h-74v-218h-101z" />
    <glyph glyph-name="uni04A0" unicode="&#x4a0;" horiz-adv-x="816" 
d="M11 619v86h319v-86h-319zM228 0v705h102v-308h133l-25 -16l217 324h116l-236 -342l-39 30q66 -8 110.5 -44t78.5 -101l124 -248h-113l-99 205q-27 58 -64 82t-93 24h-110v-311h-102z" />
    <glyph glyph-name="uni04A1" unicode="&#x4a1;" horiz-adv-x="637" 
d="M160 0v423h-154v81h255v-206h86l158 206h109l-187 -248l-25 32q29 -3 50 -14.5t40.5 -33.5t41.5 -58l104 -182h-108l-89 154q-16 26 -30.5 40.5t-32 20t-43.5 5.5h-74v-220h-101z" />
    <glyph glyph-name="uni04A2" unicode="&#x4a2;" horiz-adv-x="814" 
d="M715 -161v161h-110v84h201v-245h-91zM83 0v705h104v-304h396v304h104v-705h-104v314h-396v-314h-104z" />
    <glyph glyph-name="uni04A3" unicode="&#x4a3;" horiz-adv-x="608" 
d="M526 -130v130h-89v78h175v-208h-86zM76 0v504h100v-205h255v205h100v-504h-100v220h-255v-220h-100z" />
    <glyph glyph-name="uni04A4" unicode="&#x4a4;" horiz-adv-x="956" 
d="M83 0v705h103v-304h397v304h360v-86h-258v-619h-102v315h-397v-315h-103z" />
    <glyph glyph-name="uni04A5" unicode="&#x4a5;" horiz-adv-x="767" 
d="M76 0v504h100v-205h251v205h324v-81h-224v-423h-100v220h-251v-220h-100z" />
    <glyph glyph-name="uni04A8" unicode="&#x4a8;" horiz-adv-x="848" 
d="M401 -9q-107 0 -183.5 43t-117.5 123.5t-41 192.5q0 115 40.5 196.5t116.5 124.5t183 43q21 0 39 -1.5t31 -4.5l-12 -84q-17 2 -31 3.5t-26 1.5q-112 0 -173 -71.5t-61 -204.5q0 -136 61.5 -209t178.5 -73q84 0 141.5 30t87 86.5t29.5 136.5q0 70 -29.5 109t-80.5 39
t-80 -39t-29 -109q0 -80 29 -137t86.5 -86.5t141.5 -29.5q37 0 70.5 8.5t66.5 23.5l24 -76q-29 -19 -70 -27.5t-92 -8.5q-76 0 -140 24.5t-111.5 70t-73.5 107t-26 133.5q0 71 25 121.5t71 78.5t108 28q63 0 108.5 -28t70.5 -78.5t25 -121.5q0 -72 -26.5 -133t-74.5 -106.5
t-113 -70.5t-143 -25z" />
    <glyph glyph-name="uni04A9" unicode="&#x4a9;" horiz-adv-x="684" 
d="M326 -9q-130 0 -202.5 70.5t-72.5 193.5q0 80 31 137.5t87 89t131 31.5q30 0 56.5 -5t44.5 -14l-20 -71q-14 7 -35 11t-44 4q-70 0 -111.5 -49t-41.5 -134q0 -93 48.5 -143t134.5 -50q92 0 139.5 42t47.5 116q0 46 -20 72t-55 26t-55.5 -26t-20.5 -72q0 -52 21.5 -87.5
t63.5 -53t103 -17.5q33 0 63.5 7.5t56.5 22.5l18 -71q-57 -30 -132 -30q-59 0 -109 17t-87.5 48.5t-58 74t-20.5 92.5q0 75 43 120t114 45t113.5 -44.5t42.5 -120.5q0 -51 -21 -93.5t-59 -73.5t-87.5 -48t-106.5 -17z" />
    <glyph glyph-name="uni04AA" unicode="&#x4aa;" horiz-adv-x="685" 
d="M356 -161v207h90v-207h-90zM400 -9q-108 0 -184 44t-116.5 125.5t-40.5 192.5t40.5 192t116.5 125t184 44q75 0 134 -22t103 -64l-36 -83q-48 41 -93.5 59t-105.5 18q-114 0 -174 -70t-60 -199t60 -199.5t174 -70.5q60 0 105.5 18t93.5 60l36 -83q-44 -42 -103 -64.5
t-134 -22.5z" />
    <glyph glyph-name="uni04AB" unicode="&#x4ab;" horiz-adv-x="510" 
d="M252 -130v175h83v-175h-83zM300 -9q-75 0 -131.5 31.5t-87 91t-30.5 141.5q0 81 31 139t87 88.5t131 30.5q49 0 95.5 -16.5t76.5 -46.5l-33 -71q-29 27 -63.5 40.5t-67.5 13.5q-72 0 -113 -46t-41 -133q0 -88 41 -135t113 -47q32 0 66.5 12.5t64.5 40.5l33 -71
q-31 -30 -77.5 -46.5t-94.5 -16.5z" />
    <glyph glyph-name="uni04AC" unicode="&#x4ac;" horiz-adv-x="611" 
d="M367 -161v161h-115v618h-241v87h586v-87h-241v-534h102v-245h-91z" />
    <glyph glyph-name="uni04AD" unicode="&#x4ad;" horiz-adv-x="470" 
d="M279 -130v130h-90v78h176v-208h-86zM184 0v423h-178v81h457v-81h-179v-423h-100z" />
    <glyph glyph-name="uni04AE" unicode="&#x4ae;" horiz-adv-x="617" 
d="M256 0v331l23 -66l-297 440h120l221 -337h-25l221 337h116l-296 -440l21 66v-331h-104z" />
    <glyph glyph-name="uni04AF" unicode="&#x4af;" horiz-adv-x="542" 
d="M219 -216v224l-213 496h108l171 -422h-29l173 422h102l-212 -492v-228h-100z" />
    <glyph glyph-name="uni04B0" unicode="&#x4b0;" horiz-adv-x="617" 
d="M256 0v331l23 -66l-297 440h120l221 -337h-25l221 337h116l-296 -440l21 66v-331h-104zM94 283v63h432v-63h-432z" />
    <glyph glyph-name="uni04B1" unicode="&#x4b1;" horiz-adv-x="542" 
d="M219 -193v146h-128v73h130v-25l-215 503h108l171 -422h-29l173 422h102l-214 -498l-1 20h131v-73h-128v-146h-100z" />
    <glyph glyph-name="uni04B2" unicode="&#x4b2;" horiz-adv-x="693" 
d="M614 -161v161h-51v84h143v-245h-92zM1 0l286 381v-42l-274 366h122l212 -292h-32l210 292h123l-274 -366v42l286 -381h-123l-225 308h37l-226 -308h-122z" />
    <glyph glyph-name="uni04B3" unicode="&#x4b3;" horiz-adv-x="584" 
d="M493 -130v130h-39v78h126v-208h-87zM7 0l230 284v-48l-217 268h120l154 -197h-36l153 197h120l-215 -267v46l228 -283h-121l-166 211h37l-166 -211h-121z" />
    <glyph glyph-name="uni04B4" unicode="&#x4b4;" horiz-adv-x="957" 
d="M842 -161v161h-613v619h-218v86h525v-86h-205v-532h397v618h103v-618h103v-248h-92z" />
    <glyph glyph-name="uni04B5" unicode="&#x4b5;" horiz-adv-x="727" 
d="M616 -130v130h-456v423h-154v81h405v-81h-151v-344h262v425h100v-425h80v-209h-86z" />
    <glyph glyph-name="uni04B6" unicode="&#x4b6;" horiz-adv-x="745" 
d="M628 -161v161h-109v84h201v-245h-92zM515 0v288q-31 -15 -78 -24t-94 -9q-140 0 -213.5 72.5t-73.5 218.5v159h103v-153q0 -108 48.5 -157.5t146.5 -49.5q42 0 83 8t78 27v325h103v-705h-103z" />
    <glyph glyph-name="uni04B7" unicode="&#x4b7;" horiz-adv-x="574" 
d="M491 -130v130h-89v78h176v-208h-87zM398 0v195q-28 -15 -60 -23.5t-68 -8.5q-109 0 -161.5 51.5t-52.5 154.5v135h100v-127q0 -69 31 -100t98 -31q34 0 60 7.5t51 23.5v227h101v-504h-99z" />
    <glyph glyph-name="uni04B8" unicode="&#x4b8;" horiz-adv-x="701" 
d="M515 0v288q-30 -15 -72 -23.5t-84 -8.5l18 15v-162h-66v162l14 -16q-129 7 -199 76.5t-70 214.5v159h103v-153q0 -102 43.5 -152t128.5 -55l-20 -10v179h66v-179l-21 10q41 0 83.5 8.5t75.5 26.5v325h103v-705h-103z" />
    <glyph glyph-name="uni04B9" unicode="&#x4b9;" horiz-adv-x="596" 
d="M420 0v196q-26 -13 -56 -21.5t-57 -9.5l18 18v-116h-64v116l21 -18q-115 0 -170.5 51.5t-55.5 152.5v135h100v-129q0 -67 32 -97.5t95 -31.5l-22 -13v140h64v-140l-18 12q30 0 58 7.5t55 22.5v229h100v-504h-100z" />
    <glyph glyph-name="uni04BA" unicode="&#x4ba;" horiz-adv-x="701" 
d="M83 0v705h104v-287q31 16 77.5 24t92.5 8q141 0 215 -72t74 -219v-159h-103v153q0 109 -49 158.5t-147 49.5q-42 0 -83 -7.5t-77 -26.5v-327h-104z" />
    <glyph glyph-name="uni04BB" unicode="&#x4bb;" horiz-adv-x="605" 
d="M80 0v736h101v-339h-14q22 57 71 86.5t113 29.5q90 0 134 -49.5t44 -149.5v-314h-101v308q0 65 -25.5 94.5t-80.5 29.5q-64 0 -102.5 -39.5t-38.5 -104.5v-288h-101z" />
    <glyph glyph-name="uni04BC" unicode="&#x4bc;" horiz-adv-x="926" 
d="M575 -9q-161 0 -251 90.5t-96 249.5l23 -22h-45q-95 0 -142 45.5t-47 132.5v56h101v-53q0 -52 23 -75t73 -23h29l-15 -21q4 107 44 183.5t111 118t166 41.5q113 0 183 -45t103 -127.5t33 -192.5v-40h-555l20 36q2 -128 64 -196t189 -68q48 0 83.5 8t66 25.5t65.5 44.5
l38 -81q-36 -28 -74 -47.5t-84 -29.5t-106 -10zM552 628q-103 0 -160 -69.5t-59 -198.5l-20 31h477l-27 -39q0 90 -20.5 151.5t-66.5 93t-124 31.5z" />
    <glyph glyph-name="uni04BD" unicode="&#x4bd;" horiz-adv-x="668" 
d="M427 -9q-122 0 -192.5 69.5t-69.5 196.5l7 -19h-19q-72 1 -104.5 34.5t-32.5 97.5v37h82v-37q0 -38 14.5 -56t51.5 -18h26l-25 -26q4 73 35.5 128t84.5 85t122 30q71 0 119 -30t73 -84.5t25 -128.5v-32h-374l12 21q-1 -96 41.5 -142.5t125.5 -46.5q44 0 82.5 12.5
t73.5 41.5l33 -69q-35 -31 -85 -47.5t-106 -16.5zM408 441q-46 0 -78 -21.5t-48.5 -59.5t-18.5 -88l-13 24h305l-17 -13q0 75 -33 116.5t-97 41.5z" />
    <glyph glyph-name="uni04BE" unicode="&#x4be;" horiz-adv-x="926" 
d="M575 -9q-161 0 -251 90.5t-96 249.5l23 -22h-45q-95 0 -142 45.5t-47 132.5v56h101v-53q0 -52 23 -75t73 -23h29l-15 -21q4 107 44 183.5t111 118t166 41.5q113 0 183 -45t103 -127.5t33 -192.5v-40h-555l20 36q2 -128 64 -196t189 -68q48 0 83.5 8t66 25.5t65.5 44.5
l38 -81q-36 -28 -74 -47.5t-84 -29.5t-106 -10zM552 628q-103 0 -160 -69.5t-59 -198.5l-20 31h477l-27 -39q0 90 -20.5 151.5t-66.5 93t-124 31.5zM621 -194q-51 0 -81 27.5t-30 73.5q0 41 27 76.5t72 55.5l33 -39q-16 -7 -31 -19t-24 -28t-9 -35q0 -27 16.5 -40.5
t40.5 -13.5q14 0 27 3t27 9l15 -53q-17 -8 -37 -12.5t-46 -4.5z" />
    <glyph glyph-name="uni04BF" unicode="&#x4bf;" horiz-adv-x="668" 
d="M427 -9q-122 0 -192.5 69.5t-69.5 196.5l7 -19h-19q-72 1 -104.5 34.5t-32.5 97.5v37h82v-37q0 -38 14.5 -56t51.5 -18h26l-25 -26q4 73 35.5 128t84.5 85t122 30q71 0 119 -30t73 -84.5t25 -128.5v-32h-374l12 21q-1 -96 41.5 -142.5t125.5 -46.5q44 0 82.5 12.5
t73.5 41.5l33 -69q-35 -31 -85 -47.5t-106 -16.5zM408 441q-46 0 -78 -21.5t-48.5 -59.5t-18.5 -88l-13 24h305l-17 -13q0 75 -33 116.5t-97 41.5zM476 -194q-51 0 -81 27.5t-30 73.5q0 41 27 76.5t72 55.5l33 -39q-16 -7 -31 -19t-24 -28t-9 -35q0 -27 16.5 -40.5
t40.5 -13.5q14 0 27 3t27 9l15 -53q-17 -8 -37 -12.5t-46 -4.5z" />
    <glyph glyph-name="uni04C0" unicode="&#x4c0;" horiz-adv-x="270" 
d="M83 0v705h104v-705h-104z" />
    <glyph glyph-name="uni04C1" unicode="&#x4c1;" horiz-adv-x="1016" 
d="M8 0l123 248q33 65 78.5 101t111.5 44l-39 -30l-235 342h114l218 -324l-24 16h104v308h99v-308h105l-26 -16l218 324h115l-235 -342l-39 30q66 -8 110.5 -44t77.5 -101l124 -248h-111l-100 205q-27 57 -64.5 81.5t-92.5 24.5h-82v-311h-99v311h-82q-57 0 -94 -24.5
t-64 -81.5l-99 -205h-112zM507 760q-49 0 -89.5 15.5t-68 46t-41.5 73.5l56 20q19 -50 54 -73t89 -23q55 0 89.5 22t58.5 73l53 -19q-25 -70 -78 -102.5t-123 -32.5z" />
    <glyph glyph-name="uni04C2" unicode="&#x4c2;" horiz-adv-x="826" 
d="M-2 0l105 182q22 36 41 58t40.5 33.5t50.5 14.5l-23 -32l-190 248h110l159 -206h73v206h100v-206h72l158 206h110l-190 -248l-23 32q28 -3 50 -14.5t41.5 -33.5t40.5 -58l105 -182h-108l-89 154q-15 26 -29.5 40.5t-32.5 20t-44 5.5h-61v-220h-100v220h-63
q-26 0 -43.5 -5.5t-31.5 -20t-30 -40.5l-89 -154h-109zM412 550q-46 0 -82 15t-61.5 44.5t-38.5 71.5l56 20q17 -47 48 -69.5t78 -22.5q48 0 78.5 21t52.5 70l52 -19q-24 -68 -71.5 -99.5t-111.5 -31.5z" />
    <glyph glyph-name="uni04C3" unicode="&#x4c3;" horiz-adv-x="698" 
d="M424 -189q-29 0 -57.5 3.5t-47.5 9.5v85q19 -8 42.5 -12t49.5 -4q62 0 95.5 40t33.5 117v56q0 109 -52.5 159.5t-158.5 50.5h-143v-316h-103v705h103v-304h141l-29 -20l218 324h115l-236 -342l-14 35q129 -8 195.5 -78.5t66.5 -207.5v-58q0 -79 -26.5 -133.5t-75.5 -82
t-117 -27.5z" />
    <glyph glyph-name="uni04C4" unicode="&#x4c4;" horiz-adv-x="565" 
d="M324 -186l-30 76q52 12 78.5 32t37 52t10.5 79v29q0 73 -34.5 105.5t-101.5 32.5h-108v-220h-100v504h100v-206h87l157 206h110l-190 -248l-41 40q104 0 162.5 -52t58.5 -156v-33q0 -64 -17.5 -111t-60 -79.5t-118.5 -50.5z" />
    <glyph glyph-name="uni04C5" unicode="&#x4c5;" horiz-adv-x="790" 
d="M617 -161l55 161h-87v84h204l-84 -245h-88zM65 -16l-49 79q42 22 74.5 53t54 78.5t32.5 120t11 176.5v214h496v-705h-103v619h-296v-153q0 -106 -14.5 -185t-42.5 -136.5t-68.5 -96t-94.5 -64.5z" />
    <glyph glyph-name="uni04C6" unicode="&#x4c6;" horiz-adv-x="625" 
d="M448 -130l47 130h-68v78h181l-74 -208h-86zM55 -13l-34 80q34 14 57.5 35.5t37 55.5t19.5 84t6 121v141h380v-504h-100v425h-187v-65q0 -114 -18 -189t-57.5 -118.5t-103.5 -65.5z" />
    <glyph glyph-name="uni04C7" unicode="&#x4c7;" horiz-adv-x="770" 
d="M510 -187q-17 0 -38.5 2t-44.5 7v84q20 -4 36.5 -6.5t29.5 -2.5q45 0 67.5 27.5t22.5 87.5v302h-396v-314h-104v705h104v-304h396v304h104v-692q0 -66 -18.5 -110.5t-57.5 -67t-101 -22.5z" />
    <glyph glyph-name="uni04C8" unicode="&#x4c8;" horiz-adv-x="607" 
d="M303 -193l-6 76l46 3q44 4 66.5 29.5t22.5 73.5v231h-256v-220h-100v504h100v-205h256v205h99v-504q0 -60 -18.5 -100.5t-59 -63t-105.5 -26.5z" />
    <glyph glyph-name="uni04C9" unicode="&#x4c9;" horiz-adv-x="793" 
d="M637 -161l55 161h-87v84h204l-84 -245h-88zM83 0v705h104v-304h396v304h104v-705h-104v314h-396v-314h-104z" />
    <glyph glyph-name="uni04CA" unicode="&#x4ca;" horiz-adv-x="631" 
d="M458 -130l47 130h-68v78h181l-74 -208h-86zM76 0v504h100v-205h255v205h100v-504h-100v220h-255v-220h-100z" />
    <glyph glyph-name="uni04CB" unicode="&#x4cb;" horiz-adv-x="701" 
d="M512 -161h-93v245h154v-84h-61v-161zM515 0v288q-31 -15 -78 -24t-94 -9q-140 0 -213.5 72.5t-73.5 218.5v159h103v-153q0 -108 48.5 -157.5t146.5 -49.5q42 0 83 8t78 27v325h103v-705h-103z" />
    <glyph glyph-name="uni04CC" unicode="&#x4cc;" horiz-adv-x="598" 
d="M404 -130h-86v190h160v-60h-74v-130zM398 0v195q-28 -15 -60 -23.5t-68 -8.5q-109 0 -161.5 51.5t-52.5 154.5v135h100v-127q0 -69 31 -100t98 -31q34 0 60 7.5t51 23.5v227h101v-504h-99z" />
    <glyph glyph-name="uni04CD" unicode="&#x4cd;" horiz-adv-x="887" 
d="M740 -161l55 161h-87v84h204l-84 -245h-88zM84 0v705h91l272 -613h-30l272 613h90v-705h-94v564h33l-254 -564h-65l-254 564h34v-564h-95z" />
    <glyph glyph-name="uni04CE" unicode="&#x4ce;" horiz-adv-x="712" 
d="M541 -130l46 130h-68v78h181l-74 -208h-85zM76 0v504h84l182 -322l182 322h84v-504h-89v391h22l-175 -310h-48l-175 310h22v-391h-89z" />
    <glyph glyph-name="uni04CF" unicode="&#x4cf;" horiz-adv-x="260" 
d="M80 0v736h101v-736h-101z" />
    <glyph glyph-name="uni04D0" unicode="&#x4d0;" horiz-adv-x="742" 
d="M10 0l314 705h89l319 -705h-107l-87 200l44 -28h-427l47 28l-87 -200h-105zM367 591l-152 -359l-24 23h355l-20 -23l-155 359h-4zM370 760q-49 0 -89.5 15.5t-68 46t-41.5 73.5l56 20q19 -50 54 -73t89 -23q55 0 89.5 22t58.5 73l53 -19q-25 -70 -78 -102.5t-123 -32.5z
" />
    <glyph glyph-name="uni04D1" unicode="&#x4d1;" horiz-adv-x="621" 
d="M273 -9q-67 0 -117 31t-77.5 90t-27.5 140q0 82 27.5 140t77.5 89.5t117 31.5q66 0 115 -33t65 -90h-11l10 114h98q-3 -31 -5.5 -61.5t-2.5 -59.5v-383h-101v112h11q-16 -56 -65.5 -88.5t-113.5 -32.5zM298 70q65 0 104.5 46t39.5 136t-39.5 135.5t-104.5 45.5
q-66 0 -105.5 -45.5t-39.5 -135.5t39 -136t106 -46zM304 550q-46 0 -82 15t-61.5 44.5t-38.5 71.5l56 20q17 -47 48 -69.5t78 -22.5q48 0 78.5 21t52.5 70l52 -19q-24 -68 -71.5 -99.5t-111.5 -31.5z" />
    <glyph glyph-name="uni04D2" unicode="&#x4d2;" horiz-adv-x="742" 
d="M10 0l314 705h89l319 -705h-107l-87 200l44 -28h-427l47 28l-87 -200h-105zM367 591l-152 -359l-24 23h355l-20 -23l-155 359h-4zM412 799v99h99v-99h-99zM231 799v99h99v-99h-99z" />
    <glyph glyph-name="uni04D3" unicode="&#x4d3;" horiz-adv-x="621" 
d="M273 -9q-67 0 -117 31t-77.5 90t-27.5 140q0 82 27.5 140t77.5 89.5t117 31.5q66 0 115 -33t65 -90h-11l10 114h98q-3 -31 -5.5 -61.5t-2.5 -59.5v-383h-101v112h11q-16 -56 -65.5 -88.5t-113.5 -32.5zM298 70q65 0 104.5 46t39.5 136t-39.5 135.5t-104.5 45.5
q-66 0 -105.5 -45.5t-39.5 -135.5t39 -136t106 -46zM345 604v99h99v-99h-99zM164 604v99h99v-99h-99z" />
    <glyph glyph-name="uni04D4" unicode="&#x4d4;" horiz-adv-x="1011" 
d="M-10 0l435 705h540v-83h-390l23 22l23 -272l-17 28h339v-84h-334l16 10l24 -268l-14 26h330v-84h-407l-17 195l27 -23h-377l33 28l-121 -200h-113zM476 621l-234 -390l-9 25h315l-9 -27l-35 392h-28z" />
    <glyph glyph-name="uni04D5" unicode="&#x4d5;" horiz-adv-x="889" 
d="M243 -9q-55 0 -96.5 21t-64.5 56.5t-23 78.5q0 58 26.5 91.5t90 47.5t172.5 14h51v-58h-51q-75 0 -118 -8t-60.5 -28t-17.5 -54q0 -39 28 -64t76 -25q39 0 68.5 17.5t46.5 49.5t17 75v120q0 58 -26.5 83.5t-82.5 25.5q-45 0 -85 -11.5t-83 -37.5l-31 71q39 27 92.5 42
t109.5 15q76 0 120.5 -29.5t60.5 -87.5h-28q31 57 79.5 87t114.5 30q98 0 155 -64t57 -177v-30h-368v58h299l-17 -15q0 74 -33 115t-95 41q-66 0 -104 -43.5t-38 -129.5v-7q0 -93 41 -142t121 -49q42 0 81 13t74 42l33 -70q-35 -31 -86 -47.5t-105 -16.5q-88 0 -146 38.5
t-82 111.5h23q-16 -71 -68 -110.5t-128 -39.5z" />
    <glyph glyph-name="uni04D6" unicode="&#x4d6;" horiz-adv-x="591" 
d="M83 0v705h462v-83h-361v-222h338v-84h-338v-232h361v-84h-462zM335 760q-49 0 -89.5 15.5t-68 46t-41.5 73.5l56 20q19 -50 54 -73t89 -23q55 0 89.5 22t58.5 73l53 -19q-25 -70 -78 -102.5t-123 -32.5z" />
    <glyph glyph-name="uni04D7" unicode="&#x4d7;" horiz-adv-x="558" 
d="M313 -9q-122 0 -192 69t-70 191q0 79 30.5 138t85 91.5t126.5 32.5q71 0 119 -30t73 -84.5t25 -128.5v-32h-380v58h311l-17 -13q0 75 -33.5 116.5t-96.5 41.5q-70 0 -108 -48.5t-38 -133.5v-10q0 -89 43.5 -134t123.5 -45q44 0 82.5 12.5t73.5 41.5l33 -69
q-35 -31 -85 -47.5t-106 -16.5zM293 550q-46 0 -82 15t-61.5 44.5t-38.5 71.5l56 20q17 -47 48 -69.5t78 -22.5q48 0 78.5 21t52.5 70l52 -19q-24 -68 -71.5 -99.5t-111.5 -31.5z" />
    <glyph glyph-name="uni04D8" unicode="&#x4d8;" horiz-adv-x="757" 
d="M377 -9q-112 0 -182.5 45.5t-103 127.5t-32.5 192v40h554v-82h-476l26 39q0 -90 20 -151.5t66.5 -92.5t123.5 -31q106 0 163 71t57 205q0 131 -61.5 200.5t-185.5 69.5q-46 0 -83 -7.5t-70 -25t-67 -44.5l-38 80q50 43 115 65t155 22q108 0 184 -43t116.5 -124t40.5 -194
q0 -111 -39.5 -192.5t-111.5 -125.5t-171 -44z" />
    <glyph glyph-name="uni04D9" unicode="&#x4d9;" horiz-adv-x="558" 
d="M265 -9q-102 0 -159.5 63t-57.5 173v37h380v-58h-311l17 15q0 -75 34 -116.5t97 -41.5q70 0 107.5 48t37.5 126v14q0 92 -43.5 137t-127.5 45q-40 0 -78 -12t-74 -41l-28 71q34 31 84.5 46.5t109.5 15.5q78 0 135 -31t88.5 -89.5t31.5 -139.5q0 -79 -30.5 -137.5
t-85 -91.5t-127.5 -33z" />
    <glyph glyph-name="uni04DA" unicode="&#x4da;" horiz-adv-x="757" 
d="M377 -9q-112 0 -182.5 45.5t-103 127.5t-32.5 192v40h554v-82h-476l26 39q0 -90 20 -151.5t66.5 -92.5t123.5 -31q106 0 163 71t57 205q0 131 -61.5 200.5t-185.5 69.5q-46 0 -83 -7.5t-70 -25t-67 -44.5l-38 80q50 43 115 65t155 22q108 0 184 -43t116.5 -124t40.5 -194
q0 -111 -39.5 -192.5t-111.5 -125.5t-171 -44zM421 799v99h99v-99h-99zM240 799v99h99v-99h-99z" />
    <glyph glyph-name="uni04DB" unicode="&#x4db;" horiz-adv-x="558" 
d="M265 -9q-102 0 -159.5 63t-57.5 173v37h380v-58h-311l17 15q0 -75 34 -116.5t97 -41.5q70 0 107.5 48t37.5 126v14q0 92 -43.5 137t-127.5 45q-40 0 -78 -12t-74 -41l-28 71q34 31 84.5 46.5t109.5 15.5q78 0 135 -31t88.5 -89.5t31.5 -139.5q0 -79 -30.5 -137.5
t-85 -91.5t-127.5 -33zM313 604v99h99v-99h-99zM132 604v99h99v-99h-99z" />
    <glyph glyph-name="uni04DC" unicode="&#x4dc;" horiz-adv-x="1016" 
d="M8 0l123 248q33 65 78.5 101t111.5 44l-39 -30l-235 342h114l218 -324l-24 16h104v308h99v-308h105l-26 -16l218 324h115l-235 -342l-39 30q66 -8 110.5 -44t77.5 -101l124 -248h-111l-100 205q-27 57 -64.5 81.5t-92.5 24.5h-82v-311h-99v311h-82q-57 0 -94 -24.5
t-64 -81.5l-99 -205h-112zM549 799v99h99v-99h-99zM368 799v99h99v-99h-99z" />
    <glyph glyph-name="uni04DD" unicode="&#x4dd;" horiz-adv-x="826" 
d="M-2 0l105 182q22 36 41 58t40.5 33.5t50.5 14.5l-23 -32l-190 248h110l159 -206h73v206h100v-206h72l158 206h110l-190 -248l-23 32q28 -3 50 -14.5t41.5 -33.5t40.5 -58l105 -182h-108l-89 154q-15 26 -29.5 40.5t-32.5 20t-44 5.5h-61v-220h-100v220h-63
q-26 0 -43.5 -5.5t-31.5 -20t-30 -40.5l-89 -154h-109zM454 604v99h99v-99h-99zM273 604v99h99v-99h-99z" />
    <glyph glyph-name="uni04DE" unicode="&#x4de;" horiz-adv-x="648" 
d="M316 -9q-91 0 -162.5 23.5t-118.5 64.5l35 78q48 -39 106 -59t134 -20q95 0 139.5 31t44.5 93q0 58 -38 86t-116 28h-178v83h163q75 0 113.5 28.5t38.5 83.5q0 54 -41 85t-125 31q-64 0 -121 -19t-103 -57l-36 78q47 41 118.5 63t149.5 22q129 0 194.5 -52t65.5 -139
q0 -65 -39 -109.5t-106 -59.5v15q75 -11 118.5 -56t43.5 -118q0 -63 -31 -109t-93 -70.5t-156 -24.5zM361 799v99h99v-99h-99zM180 799v99h99v-99h-99z" />
    <glyph glyph-name="uni04DF" unicode="&#x4df;" horiz-adv-x="518" 
d="M251 -9q-66 0 -124 16.5t-95 47.5l31 68q37 -29 85 -43.5t103 -14.5q69 0 100.5 20.5t31.5 58.5q0 37 -26 56t-76 19h-124v72h114q45 0 70 19t25 53q0 36 -29 56t-90 20q-52 0 -95 -13t-82 -39l-30 65q41 31 97 46t121 15q98 0 149 -36.5t51 -104.5q0 -47 -31.5 -80
t-84.5 -40v13q61 -3 97.5 -36.5t36.5 -88.5q0 -68 -57.5 -108.5t-167.5 -40.5zM297 608v99h99v-99h-99zM116 608v99h99v-99h-99z" />
    <glyph glyph-name="uni04E0" unicode="&#x4e0;" horiz-adv-x="648" 
d="M316 -9q-91 0 -162.5 23.5t-118.5 64.5l37 78q47 -39 106.5 -59t131.5 -20q95 0 139.5 31t44.5 91t-40 88t-131 28h-114v67l259 265v-29h-417v86h514v-72l-258 -265l-16 28h60q116 0 180.5 -49.5t64.5 -143.5q0 -100 -69.5 -156t-210.5 -56z" />
    <glyph glyph-name="uni04E1" unicode="&#x4e1;" horiz-adv-x="517" 
d="M235 -189q-69 0 -126 16t-96 46l32 72q37 -28 82 -41.5t98 -13.5q81 0 121 35t40 101q0 61 -40 93.5t-115 32.5h-103v48l233 249v-24h-327v79h420v-67l-226 -240l-26 26h60q106 0 165 -50t59 -142q0 -68 -30 -117.5t-86.5 -76t-134.5 -26.5z" />
    <glyph glyph-name="uni04E2" unicode="&#x4e2;" horiz-adv-x="750" 
d="M83 0v705h96v-570h-23l432 570h80v-705h-97v570h23l-433 -570h-78zM209 811v63h336v-63h-336z" />
    <glyph glyph-name="uni04E3" unicode="&#x4e3;" horiz-adv-x="604" 
d="M76 0v504h92v-407h-28l304 407h84v-504h-91v408h29l-306 -408h-84zM150 621v64h306v-64h-306z" />
    <glyph glyph-name="uni04E4" unicode="&#x4e4;" horiz-adv-x="750" 
d="M83 0v705h96v-570h-23l432 570h80v-705h-97v570h23l-433 -570h-78zM418 799v99h99v-99h-99zM237 799v99h99v-99h-99z" />
    <glyph glyph-name="uni04E5" unicode="&#x4e5;" horiz-adv-x="604" 
d="M76 0v504h92v-407h-28l304 407h84v-504h-91v408h29l-306 -408h-84zM344 604v99h99v-99h-99zM163 604v99h99v-99h-99z" />
    <glyph glyph-name="uni04E6" unicode="&#x4e6;" horiz-adv-x="779" 
d="M59 353q0 111 39 192t113.5 125t177.5 44q102 0 176 -44t114.5 -125t40.5 -191q0 -111 -40.5 -192.5t-115 -126t-175.5 -44.5q-103 0 -177 44.5t-113.5 126t-39.5 191.5zM168 353q0 -128 56 -200t165 -72q106 0 164 71.5t58 200.5t-57.5 200t-164.5 71q-109 0 -165 -71
t-56 -200zM439 799v99h99v-99h-99zM258 799v99h99v-99h-99z" />
    <glyph glyph-name="uni04E7" unicode="&#x4e7;" horiz-adv-x="592" 
d="M296 -9q-75 0 -130 31.5t-85 90t-30 139.5t30 139.5t85 90t130 31.5t130.5 -31.5t86 -90t30.5 -139.5t-30.5 -139.5t-86 -90t-130.5 -31.5zM296 70q66 0 105 46t39 136t-39 135.5t-105 45.5q-65 0 -104 -45.5t-39 -135.5t38.5 -136t104.5 -46zM337 604v99h99v-99h-99z
M156 604v99h99v-99h-99z" />
    <glyph glyph-name="uni04E8" unicode="&#x4e8;" horiz-adv-x="779" 
d="M114 319v79h563v-79h-563zM59 353q0 111 39 192t113.5 125t177.5 44q102 0 176 -44t114.5 -125t40.5 -191q0 -111 -40.5 -192.5t-115 -126t-175.5 -44.5q-103 0 -177 44.5t-113.5 126t-39.5 191.5zM168 353q0 -128 56 -200t165 -72q106 0 164 71.5t58 200.5t-57.5 200
t-164.5 71q-109 0 -165 -71t-56 -200z" />
    <glyph glyph-name="uni04E9" unicode="&#x4e9;" horiz-adv-x="592" 
d="M296 -9q-75 0 -130 31.5t-85 90t-30 139.5t30 139.5t85 90t130 31.5t130.5 -31.5t86 -90t30.5 -139.5t-30.5 -139.5t-86 -90t-130.5 -31.5zM296 70q71 0 111 47.5t40 134.5q0 88 -40 134.5t-111 46.5t-111 -46.5t-40 -134.5q0 -87 40 -134.5t111 -47.5zM112 218v68h370
v-68h-370z" />
    <glyph glyph-name="uni04EA" unicode="&#x4ea;" horiz-adv-x="779" 
d="M114 319v79h563v-79h-563zM59 353q0 111 39 192t113.5 125t177.5 44q102 0 176 -44t114.5 -125t40.5 -191q0 -111 -40.5 -192.5t-115 -126t-175.5 -44.5q-103 0 -177 44.5t-113.5 126t-39.5 191.5zM168 353q0 -128 56 -200t165 -72q106 0 164 71.5t58 200.5t-57.5 200
t-164.5 71q-109 0 -165 -71t-56 -200zM434 799v99h99v-99h-99zM253 799v99h99v-99h-99z" />
    <glyph glyph-name="uni04EB" unicode="&#x4eb;" horiz-adv-x="592" 
d="M296 -9q-75 0 -130 31.5t-85 90t-30 139.5t30 139.5t85 90t130 31.5t130.5 -31.5t86 -90t30.5 -139.5t-30.5 -139.5t-86 -90t-130.5 -31.5zM296 70q71 0 111 47.5t40 134.5q0 88 -40 134.5t-111 46.5t-111 -46.5t-40 -134.5q0 -87 40 -134.5t111 -47.5zM112 218v68h370
v-68h-370zM337 604v99h99v-99h-99zM156 604v99h99v-99h-99z" />
    <glyph glyph-name="uni04EC" unicode="&#x4ec;" horiz-adv-x="693" 
d="M290 -9q-74 0 -136.5 23t-105.5 65l36 83q48 -41 95.5 -60t108.5 -19q113 0 174.5 67t64.5 191l30 -24h-384v83h383l-30 -29q-4 119 -64 185t-171 66q-61 0 -109 -18t-98 -60l-36 82q46 42 108.5 65t136.5 23q108 0 184.5 -44t116.5 -125t40 -192t-40 -192.5t-117 -125.5
t-187 -44zM357 799v99h99v-99h-99zM176 799v99h99v-99h-99z" />
    <glyph glyph-name="uni04ED" unicode="&#x4ed;" horiz-adv-x="529" 
d="M225 -9q-56 0 -107 17t-80 48l33 65q29 -27 68 -41t79 -14q75 0 119 45t47 130l12 -21h-262v72h262l-12 -20q-3 50 -22 87.5t-54.5 58t-89.5 20.5q-39 0 -78 -13.5t-69 -41.5l-33 66q33 30 83.5 47t104.5 17q78 0 134.5 -30.5t87.5 -89t31 -140.5q0 -81 -31.5 -140.5
t-88.5 -90.5t-134 -31zM282 604v99h99v-99h-99zM101 604v99h99v-99h-99z" />
    <glyph glyph-name="uni04EE" unicode="&#x4ee;" horiz-adv-x="670" 
d="M196 0l123 232l1 -36l-327 509h112l266 -418h-21l220 418h108l-374 -705h-108zM169 811v63h336v-63h-336z" />
    <glyph glyph-name="uni04EF" unicode="&#x4ef;" horiz-adv-x="546" 
d="M64 -227l-24 82q47 10 78.5 24t52.5 36.5t36 57.5l25 59l-2 -41l-219 513h108l170 -420h-27l170 420h104l-231 -540q-22 -50 -47 -84t-54 -55t-64 -33t-76 -19zM109 621v64h306v-64h-306z" />
    <glyph glyph-name="uni04F0" unicode="&#x4f0;" horiz-adv-x="670" 
d="M196 0l123 232l1 -36l-327 509h112l266 -418h-21l220 418h108l-374 -705h-108zM378 799v99h99v-99h-99zM197 799v99h99v-99h-99z" />
    <glyph glyph-name="uni04F1" unicode="&#x4f1;" horiz-adv-x="546" 
d="M64 -227l-24 82q47 10 78.5 24t52.5 36.5t36 57.5l25 59l-2 -41l-219 513h108l170 -420h-27l170 420h104l-231 -540q-22 -50 -47 -84t-54 -55t-64 -33t-76 -19zM303 604v99h99v-99h-99zM122 604v99h99v-99h-99z" />
    <glyph glyph-name="uni04F2" unicode="&#x4f2;" horiz-adv-x="670" 
d="M196 0l123 232l1 -36l-327 509h112l266 -418h-21l220 418h108l-374 -705h-108zM240 765l85 173h96l-123 -173h-58zM376 765l92 173h95l-129 -173h-58z" />
    <glyph glyph-name="uni04F3" unicode="&#x4f3;" horiz-adv-x="546" 
d="M64 -227l-24 82q47 10 78.5 24t52.5 36.5t36 57.5l25 59l-2 -41l-219 513h108l170 -420h-27l170 420h104l-231 -540q-22 -50 -47 -84t-54 -55t-64 -33t-76 -19zM302 553l52 202h88l-85 -202h-55zM165 553l51 202h90l-86 -202h-55z" />
    <glyph glyph-name="uni04F4" unicode="&#x4f4;" horiz-adv-x="701" 
d="M515 0v288q-31 -15 -78 -24t-94 -9q-140 0 -213.5 72.5t-73.5 218.5v159h103v-153q0 -108 48.5 -157.5t146.5 -49.5q42 0 83 8t78 27v325h103v-705h-103zM372 799v99h99v-99h-99zM191 799v99h99v-99h-99z" />
    <glyph glyph-name="uni04F5" unicode="&#x4f5;" horiz-adv-x="572" 
d="M398 0v195q-28 -15 -60 -23.5t-68 -8.5q-109 0 -161.5 51.5t-52.5 154.5v135h100v-127q0 -69 31 -100t98 -31q34 0 60 7.5t51 23.5v227h101v-504h-99zM318 604v99h99v-99h-99zM137 604v99h99v-99h-99z" />
    <glyph glyph-name="uni04F6" unicode="&#x4f6;" horiz-adv-x="563" 
d="M200 -161v161h-110v84h202v-245h-92zM83 0v705h465v-86h-361v-619h-104z" />
    <glyph glyph-name="uni04F7" unicode="&#x4f7;" horiz-adv-x="456" 
d="M171 -130v130h-89v78h175v-208h-86zM76 0v504h363v-81h-262v-423h-101z" />
    <glyph glyph-name="uni04F8" unicode="&#x4f8;" horiz-adv-x="894" 
d="M83 0v705h104v-304h180q115 0 178.5 -50t63.5 -149t-63.5 -150.5t-178.5 -51.5h-284zM187 82h169q78 0 115 29.5t37 89.5t-37 89.5t-115 29.5h-169v-238zM708 0v705h103v-705h-103zM489 799v99h99v-99h-99zM308 799v99h99v-99h-99z" />
    <glyph glyph-name="uni04F9" unicode="&#x4f9;" horiz-adv-x="764" 
d="M76 0v504h100v-176h143q99 0 149 -41.5t50 -120.5q0 -51 -23 -88.5t-67.5 -57.5t-108.5 -20h-243zM176 69h132q57 0 86.5 23.5t29.5 72.5t-29.5 71.5t-86.5 22.5h-132v-190zM589 0v504h100v-504h-100zM424 604v99h99v-99h-99zM243 604v99h99v-99h-99z" />
    <glyph glyph-name="uni04FA" unicode="&#x4fa;" horiz-adv-x="604" 
d="M93 -184l-7 72l48 4q55 5 78.5 31.5t23.5 76.5h-112v312h-99v77h99v316h465v-86h-362v-230h189v-77h-189v-228h103v-68q0 -94 -44 -142t-138 -54z" />
    <glyph glyph-name="uni04FB" unicode="&#x4fb;" horiz-adv-x="480" 
d="M76 -184l-6 72l50 5q41 4 57.5 30.5t16.5 76.5h-93v210h-96v69h96v225h363v-80h-262v-145h148v-69h-148v-148h82v-46q0 -94 -40.5 -142t-112.5 -53z" />
    <glyph glyph-name="uni04FC" unicode="&#x4fc;" horiz-adv-x="661" 
d="M408 -186l-5 82q57 7 84 28.5t27 64.5q0 24 -16 55.5t-45 70.5l-141 193h37l-226 -308h-122l286 381v-42l-274 366h122l212 -292h-32l210 292h123l-274 -366v42l171 -228q39 -51 56.5 -92t17.5 -78q0 -73 -51.5 -115.5t-159.5 -53.5z" />
    <glyph glyph-name="uni04FD" unicode="&#x4fd;" horiz-adv-x="553" 
d="M336 -186l-16 73q53 6 78.5 23.5t25.5 51.5q0 24 -15 49.5t-50 69.5l-102 131h35l-167 -212h-118l229 284v-48l-216 268h119l154 -197h-35l153 197h118l-214 -267v45l126 -156q30 -37 48.5 -64.5t26.5 -51t8 -50.5q0 -41 -20.5 -71.5t-62 -49.5t-105.5 -25z" />
    <glyph glyph-name="uni04FE" unicode="&#x4fe;" horiz-adv-x="661" 
d="M1 0l286 381v-42l-274 366h122l212 -292h-32l210 292h123l-274 -366v42l286 -381h-123l-225 308h37l-226 -308h-122zM115 332v63h432v-63h-432z" />
    <glyph glyph-name="uni04FF" unicode="&#x4ff;" horiz-adv-x="553" 
d="M8 0l229 284v-48l-217 268h121l153 -197h-36l153 197h120l-215 -267v46l228 -283h-121l-165 211h36l-166 -211h-120zM59 225v63h432v-63h-432z" />
    <glyph glyph-name="uni0510" unicode="&#x510;" horiz-adv-x="649" 
d="M332 -9q-94 0 -156 24.5t-92.5 70.5t-30.5 109q0 73 43 118t119 56v-15q-66 15 -105.5 59.5t-39.5 109.5q0 58 30.5 101t89.5 66.5t144 23.5q79 0 147.5 -22t115.5 -63l-36 -78q-45 38 -102 57t-121 19q-83 0 -124 -31t-41 -85q0 -55 38 -83.5t113 -28.5h162v-83h-178
q-77 0 -115.5 -28t-38.5 -86q0 -62 44.5 -93t139.5 -31q76 0 134.5 20t105.5 59l36 -78q-47 -41 -119 -64.5t-163 -23.5z" />
    <glyph glyph-name="uni0511" unicode="&#x511;" horiz-adv-x="517" 
d="M267 -9q-110 0 -167.5 40.5t-57.5 108.5q0 55 37 88.5t98 36.5l-1 -13q-52 7 -84 40t-32 80q0 68 57 104.5t152 36.5q59 0 113.5 -15t96.5 -46l-31 -66q-38 27 -80.5 40t-90.5 13q-61 0 -92 -20.5t-31 -56.5q0 -33 24.5 -52t68.5 -19h114v-72h-124q-50 0 -75.5 -18.5
t-25.5 -55.5q0 -38 31 -59t101 -21q54 0 102.5 14.5t84.5 42.5l31 -67q-36 -31 -94 -47.5t-125 -16.5z" />
    <glyph glyph-name="uni0512" unicode="&#x512;" horiz-adv-x="767" 
d="M507 -187q-17 0 -39 2t-44 7v84q20 -4 36.5 -6.5t29.5 -2.5q45 0 68 27t23 88v607h-296v-153q0 -106 -14.5 -185t-42.5 -136.5t-68.5 -96t-94.5 -64.5l-49 79q42 22 74.5 53t54 78.5t32.5 120t11 176.5v214h496v-692q0 -66 -18.5 -110.5t-58 -67t-100.5 -22.5z" />
    <glyph glyph-name="uni0513" unicode="&#x513;" horiz-adv-x="597" 
d="M294 -193l-7 76l46 3q44 4 66 29.5t22 73.5v436h-187v-65q0 -114 -18 -189t-57.5 -118.5t-103.5 -65.5l-34 80q34 14 57.5 35.5t37 55.5t19.5 84t6 121v141h380v-504q0 -60 -18.5 -100.5t-59 -63t-105.5 -26.5z" />
    <glyph glyph-name="uni051A" unicode="&#x51a;" horiz-adv-x="779" 
d="M579 -192q-31 19 -62.5 49t-59 66.5t-47.5 74.5l86 35q26 -52 67.5 -94.5t85.5 -72.5zM59 353q0 111 39 192t113.5 125t177.5 44q102 0 176 -44t114.5 -125t40.5 -191q0 -111 -40.5 -192.5t-115 -126t-175.5 -44.5q-103 0 -177 44.5t-113.5 126t-39.5 191.5zM168 353
q0 -128 56 -200t165 -72q106 0 164 71.5t58 200.5t-57.5 200t-164.5 71q-109 0 -165 -71t-56 -200z" />
    <glyph glyph-name="uni051B" unicode="&#x51b;" horiz-adv-x="621" 
d="M441 -216v328h11q-16 -56 -65.5 -88.5t-113.5 -32.5q-67 0 -117 31t-77.5 90t-27.5 140q0 82 27.5 140t77.5 89.5t117 31.5q66 0 115 -33t65 -90h-11l10 114h98q-3 -31 -5.5 -61.5t-2.5 -59.5v-599h-101zM298 70q65 0 104.5 46t39.5 136t-39.5 135.5t-104.5 45.5
q-66 0 -105.5 -45.5t-39.5 -135.5t39 -136t106 -46z" />
    <glyph glyph-name="uni051C" unicode="&#x51c;" horiz-adv-x="1116" 
d="M277 0l-247 705h108l205 -609h-37l217 609h79l204 -609h-34l212 609h102l-249 -705h-89l-198 580h21l-206 -580h-88z" />
    <glyph glyph-name="uni051D" unicode="&#x51d;" horiz-adv-x="887" 
d="M217 0l-191 504h105l149 -420h-26l153 420h78l152 -420h-25l149 420h101l-192 -504h-92l-158 428h47l-156 -428h-94z" />
    <glyph glyph-name="uni0524" unicode="&#x524;" horiz-adv-x="812" 
d="M697 -161v161h-110v84h201v-245h-91zM83 0v705h602v-705h-103v619h-396v-619h-103z" />
    <glyph glyph-name="uni0525" unicode="&#x525;" horiz-adv-x="605" 
d="M522 -130v130h-89v78h176v-208h-87zM76 0v504h452v-504h-100v425h-252v-425h-100z" />
    <glyph glyph-name="uni0526" unicode="&#x526;" horiz-adv-x="745" 
d="M657 -161v161h-110v84h201v-245h-91zM83 0v705h104v-287q31 16 77.5 24t92.5 8q141 0 215 -72t74 -219v-159h-103v153q0 109 -49 158.5t-147 49.5q-42 0 -83 -7.5t-77 -26.5v-327h-104z" />
    <glyph glyph-name="uni0527" unicode="&#x527;" horiz-adv-x="619" 
d="M522 -130v130h-89v78h175v-208h-86zM80 0v736h101v-339h-14q22 57 71 86.5t113 29.5q90 0 134 -49.5t44 -149.5v-314h-101v308q0 65 -25.5 94.5t-81.5 29.5q-63 0 -101.5 -39.5t-38.5 -104.5v-288h-101z" />
    <glyph glyph-name="uni0528" unicode="&#x528;" horiz-adv-x="770" 
d="M11 -187q-17 0 -39 2t-44 7v84q19 -4 36 -6.5t29 -2.5q46 0 68.5 27.5t22.5 87.5v693h104v-304h396v304h103v-705h-103v315h-396v-302q0 -66 -18.5 -110.5t-58 -67t-100.5 -22.5z" />
    <glyph glyph-name="uni0529" unicode="&#x529;" horiz-adv-x="607" 
d="M-51 -193l-8 76l47 3q44 4 66 29.5t22 73.5v515h100v-205h256v205h99v-504h-99v220h-256v-220q0 -60 -18.5 -100.5t-59 -63t-105.5 -26.5z" />
    <glyph glyph-name="uni052E" unicode="&#x52e;" horiz-adv-x="811" 
d="M695 -161v161h-110v84h201v-245h-91zM65 -16l-49 79q42 22 74.5 53t54 78.5t32.5 120t11 176.5v214h496v-705h-103v619h-296v-153q0 -106 -14.5 -185t-42.5 -136.5t-68.5 -96t-94.5 -64.5z" />
    <glyph glyph-name="uni052F" unicode="&#x52f;" horiz-adv-x="598" 
d="M516 -130v130h-89v78h175v-208h-86zM55 -13l-34 80q34 14 57.5 35.5t37 55.5t19.5 84t6 121v141h380v-504h-100v425h-187v-65q0 -114 -18 -189t-57.5 -118.5t-103.5 -65.5z" />
    <glyph glyph-name="uni1E08" unicode="&#x1e08;" horiz-adv-x="685" 
d="M400 -9q-108 0 -184 44t-116.5 125.5t-40.5 192.5t40.5 192t116.5 125t184 44q75 0 134 -22t103 -64l-36 -83q-48 41 -93.5 59t-105.5 18q-114 0 -174 -70t-60 -199t60 -199.5t174 -70.5q60 0 105.5 18t93.5 60l36 -83q-44 -42 -103 -64.5t-134 -22.5zM396 -194
q-28 0 -52.5 5.5t-43.5 15.5l16 49q18 -8 35 -12t38 -4q27 0 42.5 8.5t15.5 24.5q0 26 -38 26q-10 0 -20.5 -1.5t-24.5 -5.5l-18 16l15 92h58l-13 -76l-28 9q12 3 24 5t22 2q39 0 63 -18t24 -52q0 -37 -32 -60.5t-83 -23.5zM358 765l118 173h109l-153 -173h-74z" />
    <glyph glyph-name="uni1E09" unicode="&#x1e09;" horiz-adv-x="499" 
d="M295 -9q-76 0 -132.5 31.5t-87 91t-30.5 141.5q0 81 31 139t87 88.5t132 30.5q49 0 95 -16.5t76 -46.5l-33 -71q-28 27 -63 40.5t-68 13.5q-72 0 -113 -46t-41 -133q0 -88 41 -135t113 -47q32 0 67 12.5t64 40.5l33 -71q-31 -30 -77.5 -46.5t-93.5 -16.5zM292 -194
q-28 0 -52.5 5.5t-43.5 15.5l16 49q18 -8 35 -12t38 -4q27 0 42.5 8.5t15.5 24.5q0 26 -38 26q-10 0 -20.5 -1.5t-24.5 -5.5l-18 16l15 92h58l-13 -76l-28 9q12 3 24 5t22 2q39 0 63 -18t24 -52q0 -37 -32 -60.5t-83 -23.5zM255 553l103 202h103l-136 -202h-70z" />
    <glyph glyph-name="uni1E0C" unicode="&#x1e0c;" horiz-adv-x="754" 
d="M83 0v705h244q119 0 201.5 -41t125 -119.5t42.5 -191.5q0 -112 -42.5 -191t-125 -120.5t-201.5 -41.5h-244zM187 87h134q136 0 202.5 66t66.5 200t-66.5 199.5t-202.5 65.5h-134v-531zM330 -195v101h106v-101h-106z" />
    <glyph glyph-name="uni1E0D" unicode="&#x1e0d;" horiz-adv-x="609" 
d="M267 -9q-66 0 -116.5 31t-78 90t-27.5 140q0 82 27.5 140t78 89.5t116.5 31.5q65 0 114.5 -32.5t65.5 -88.5h-12v344h101v-736h-100v114h12q-17 -57 -66 -90t-115 -33zM292 70q65 0 105 46t40 136t-40 135.5t-105 45.5q-66 0 -105.5 -45.5t-39.5 -135.5t39.5 -136
t105.5 -46zM254 -195v101h106v-101h-106z" />
    <glyph glyph-name="uni1E0E" unicode="&#x1e0e;" horiz-adv-x="754" 
d="M83 0v705h244q119 0 201.5 -41t125 -119.5t42.5 -191.5q0 -112 -42.5 -191t-125 -120.5t-201.5 -41.5h-244zM187 87h134q136 0 202.5 66t66.5 200t-66.5 199.5t-202.5 65.5h-134v-531zM230 -160v64h306v-64h-306z" />
    <glyph glyph-name="uni1E0F" unicode="&#x1e0f;" horiz-adv-x="609" 
d="M267 -9q-66 0 -116.5 31t-78 90t-27.5 140q0 82 27.5 140t78 89.5t116.5 31.5q65 0 114.5 -32.5t65.5 -88.5h-12v344h101v-736h-100v114h12q-17 -57 -66 -90t-115 -33zM292 70q65 0 105 46t40 136t-40 135.5t-105 45.5q-66 0 -105.5 -45.5t-39.5 -135.5t39.5 -136
t105.5 -46zM154 -160v64h306v-64h-306z" />
    <glyph glyph-name="uni1E14" unicode="&#x1e14;" horiz-adv-x="591" 
d="M83 0v705h462v-83h-361v-222h338v-84h-338v-232h361v-84h-462zM297 887l-115 138h101l80 -138h-66zM177 787v63h306v-63h-306z" />
    <glyph glyph-name="uni1E15" unicode="&#x1e15;" horiz-adv-x="546" 
d="M307 -9q-122 0 -192 69t-70 191q0 79 30.5 138t85 91.5t126.5 32.5q71 0 119 -30t73 -84.5t25 -128.5v-32h-380v58h311l-17 -13q0 75 -33.5 116.5t-96.5 41.5q-70 0 -108 -48.5t-38 -133.5v-10q0 -89 43.5 -134t123.5 -45q44 0 82.5 12.5t73.5 41.5l33 -69
q-35 -31 -85 -47.5t-106 -16.5zM134 569v64h306v-64h-306zM254 670l-115 137h101l80 -137h-66z" />
    <glyph glyph-name="uni1E16" unicode="&#x1e16;" horiz-adv-x="591" 
d="M83 0v705h462v-83h-361v-222h338v-84h-338v-232h361v-84h-462zM177 787v63h306v-63h-306zM297 887l80 138h101l-115 -138h-66z" />
    <glyph glyph-name="uni1E17" unicode="&#x1e17;" horiz-adv-x="546" 
d="M307 -9q-122 0 -192 69t-70 191q0 79 30.5 138t85 91.5t126.5 32.5q71 0 119 -30t73 -84.5t25 -128.5v-32h-380v58h311l-17 -13q0 75 -33.5 116.5t-96.5 41.5q-70 0 -108 -48.5t-38 -133.5v-10q0 -89 43.5 -134t123.5 -45q44 0 82.5 12.5t73.5 41.5l33 -69
q-35 -31 -85 -47.5t-106 -16.5zM134 569v64h306v-64h-306zM254 670l80 137h101l-115 -137h-66z" />
    <glyph glyph-name="uni1E1C" unicode="&#x1e1c;" horiz-adv-x="591" 
d="M83 0v705h462v-83h-361v-222h338v-84h-338v-232h361v-84h-462zM332 -194q-28 0 -52.5 5.5t-43.5 15.5l16 49q18 -8 35 -12t38 -4q27 0 42.5 8.5t15.5 24.5q0 26 -38 26q-10 0 -20.5 -1.5t-24.5 -5.5l-18 16l15 92h58l-13 -76l-28 9q12 3 24 5t22 2q39 0 63 -18t24 -52
q0 -37 -32 -60.5t-83 -23.5zM330 760q-74 0 -121.5 45.5t-53.5 123.5l60 8q5 -54 35 -83.5t79 -29.5q50 0 81 29.5t35 83.5l60 -8q-6 -78 -53.5 -123.5t-121.5 -45.5z" />
    <glyph glyph-name="uni1E1D" unicode="&#x1e1d;" horiz-adv-x="546" 
d="M307 -9q-122 0 -192 69t-70 191q0 79 30.5 138t85 91.5t126.5 32.5q71 0 119 -30t73 -84.5t25 -128.5v-32h-380v58h311l-17 -13q0 75 -33.5 116.5t-96.5 41.5q-70 0 -108 -48.5t-38 -133.5v-10q0 -89 43.5 -134t123.5 -45q44 0 82.5 12.5t73.5 41.5l33 -69
q-35 -31 -85 -47.5t-106 -16.5zM293 -194q-28 0 -52.5 5.5t-43.5 15.5l16 49q18 -8 35 -12t38 -4q27 0 42.5 8.5t15.5 24.5q0 26 -38 26q-10 0 -20.5 -1.5t-24.5 -5.5l-18 16l15 92h58l-13 -76l-28 9q12 3 24 5t22 2q39 0 63 -18t24 -52q0 -37 -32 -60.5t-83 -23.5zM287 550
q-47 0 -82.5 23t-55 66t-22.5 102l60 6q4 -64 30 -98.5t70 -34.5t70 34.5t30 98.5l60 -6q-2 -59 -22 -102t-55.5 -66t-82.5 -23z" />
    <glyph glyph-name="uni1E20" unicode="&#x1e20;" horiz-adv-x="735" 
d="M415 -9q-117 0 -196.5 43.5t-119.5 124.5t-40 193t42.5 193t122 125t191.5 44q77 0 134 -21.5t102 -62.5l-37 -81q-32 27 -62 43t-62 23.5t-75 7.5q-121 0 -184 -71t-63 -201q0 -132 60.5 -201t190.5 -69q45 0 89 8.5t85 25.5l-20 -49v231h-174v78h261v-333
q-46 -23 -112.5 -37t-132.5 -14zM237 811v63h336v-63h-336z" />
    <glyph glyph-name="uni1E21" unicode="&#x1e21;" horiz-adv-x="612" 
d="M301 -224q-68 0 -123.5 16t-99.5 48l25 74q31 -21 61 -33.5t63 -18.5t68 -6q72 0 108.5 36.5t36.5 105.5v135h10q-16 -56 -65.5 -88.5t-114.5 -32.5q-69 0 -119.5 30.5t-78 87t-27.5 133.5t27.5 133t78 86.5t119.5 30.5q66 0 114.5 -32.5t64.5 -88.5l-9 8l9 104h98
q-4 -31 -6 -61.5t-2 -59.5v-373q0 -114 -60.5 -174t-177.5 -60zM294 91q66 0 105.5 45t39.5 127t-39.5 126t-105.5 44q-68 0 -107.5 -44t-39.5 -126t39.5 -127t107.5 -45zM157 621v64h306v-64h-306z" />
    <glyph glyph-name="uni1E24" unicode="&#x1e24;" horiz-adv-x="770" 
d="M83 0v705h104v-304h396v304h104v-705h-104v314h-396v-314h-104zM333 -195v101h106v-101h-106z" />
    <glyph glyph-name="uni1E25" unicode="&#x1e25;" horiz-adv-x="593" 
d="M74 0v736h101v-339h-14q22 57 71 86.5t113 29.5q90 0 134 -49.5t44 -149.5v-314h-101v308q0 65 -25.5 94.5t-80.5 29.5q-64 0 -102.5 -39.5t-38.5 -104.5v-288h-101zM245 -195v101h106v-101h-106z" />
    <glyph glyph-name="uni1E2A" unicode="&#x1e2a;" horiz-adv-x="770" 
d="M83 0v705h104v-304h396v304h104v-705h-104v314h-396v-314h-104zM386 -215q-70 0 -113.5 41t-46.5 110l60 6q4 -44 30 -69t70 -25t70 25t30 69l60 -6q-3 -69 -46 -110t-114 -41z" />
    <glyph glyph-name="uni1E2B" unicode="&#x1e2b;" horiz-adv-x="593" 
d="M74 0v736h101v-339h-14q22 57 71 86.5t113 29.5q90 0 134 -49.5t44 -149.5v-314h-101v308q0 65 -25.5 94.5t-80.5 29.5q-64 0 -102.5 -39.5t-38.5 -104.5v-288h-101zM298 -215q-70 0 -113.5 41t-46.5 110l60 6q4 -44 30 -69t70 -25t70 25t30 69l60 -6q-3 -69 -46 -110
t-114 -41z" />
    <glyph glyph-name="uni1E2E" unicode="&#x1e2e;" horiz-adv-x="270" 
d="M83 0v705h104v-705h-104zM102 887l80 138h101l-115 -138h-66zM-5 770v80h99v-80h-99zM176 770v80h99v-80h-99z" />
    <glyph glyph-name="uni1E2F" unicode="&#x1e2f;" horiz-adv-x="249" 
d="M74 0v504h101v-504h-101zM92 670l80 137h101l-115 -137h-66zM-15 553v80h99v-80h-99zM166 553v80h99v-80h-99z" />
    <glyph glyph-name="uni1E36" unicode="&#x1e36;" horiz-adv-x="552" 
d="M83 0v705h104v-616h346v-89h-450zM257 -195v101h106v-101h-106z" />
    <glyph glyph-name="uni1E37" unicode="&#x1e37;" horiz-adv-x="249" 
d="M74 0v736h101v-736h-101zM72 -195v101h106v-101h-106z" />
    <glyph glyph-name="uni1E3A" unicode="&#x1e3a;" horiz-adv-x="552" 
d="M83 0v705h104v-616h346v-89h-450zM157 -160v64h306v-64h-306z" />
    </font>
</defs>
</svg>
