<?xml version="1.0" standalone="no"?>
<!DOCTYPE svg PUBLIC "-//W3C//DTD SVG 1.1//EN" "http://www.w3.org/Graphics/SVG/1.1/DTD/svg11.dtd" >
<svg xmlns="http://www.w3.org/2000/svg" xmlns:xlink="http://www.w3.org/1999/xlink" version="1.1">
<metadata>
Created by FontForge 20201107 at Thu Sep 30 21:20:51 2021
 By 
Copyright 2016 The Mulish Project Authors (https://github.com/googlefonts/mulish)
</metadata>
<defs>
<font id="Mulish-SemiBoldItalic" horiz-adv-x="0" >
  <font-face 
    font-family="Mulish SemiBold"
    font-weight="600"
    font-style="italic"
    font-stretch="normal"
    units-per-em="1000"
    panose-1="0 0 0 0 0 0 0 0 0 0"
    ascent="800"
    descent="-200"
    x-height="504"
    cap-height="705"
    bbox="-300 -273 1366 1047"
    underline-thickness="44"
    underline-position="-107"
    slope="-9"
    unicode-range="U+000D-FB02"
  />
<missing-glyph horiz-adv-x="500" 
 />
    <glyph glyph-name="fi" unicode="fi" horiz-adv-x="598" 
d="M64 0l67 426h-98l13 78h125l-32 -26l14 87q15 86 66 130.5t136 44.5q20 0 43 -3t37 -10l-13 -82q-12 5 -29 8.5t-35 3.5q-43 0 -70.5 -25.5t-36.5 -79.5l-10 -68l-12 20h335l-80 -504h-101l68 426h-219l-67 -426h-101zM471 609l17 105h118l-17 -105h-118z" />
    <glyph glyph-name="fl" unicode="fl" horiz-adv-x="599" 
d="M64 0l67 426h-98l13 78h125l-32 -26l14 87q14 86 66.5 130.5t142.5 44.5q20 0 41 -3.5t35 -9.5l-13 -82q-11 5 -26.5 8.5t-32.5 3.5q-29 0 -53 -11.5t-40 -34.5t-22 -59l-10 -68l-12 20h152l-13 -78h-136l-67 -426h-101zM386 0l117 736h101l-117 -736h-101z" />
    <glyph glyph-name=".notdef" horiz-adv-x="500" 
 />
    <glyph glyph-name="uni0000" 
 />
    <glyph glyph-name="uni0000" 
 />
    <glyph glyph-name="nonmarkingreturn" horiz-adv-x="333" 
 />
    <glyph glyph-name="CR" unicode="&#xd;" horiz-adv-x="267" 
 />
    <glyph glyph-name="space" unicode=" " horiz-adv-x="267" 
 />
    <glyph glyph-name="exclam" unicode="!" horiz-adv-x="237" 
d="M79 195l49 510h125l-112 -510h-62zM19 0l19 119h119l-19 -119h-119z" />
    <glyph glyph-name="quotedbl" unicode="&#x22;" horiz-adv-x="417" 
d="M109 422l20 283h118l-70 -283h-68zM295 422l20 283h118l-70 -283h-68z" />
    <glyph glyph-name="numbersign" unicode="#" horiz-adv-x="600" 
d="M42 0l64 177h-85l11 69h98l80 221h-121l11 69h135l61 169h74l-61 -169h144l61 169h74l-61 -169h84l-10 -69h-99l-80 -221h122l-11 -69h-136l-63 -177h-75l64 177h-143l-62 -177h-76zM205 246h143l79 221h-143z" />
    <glyph glyph-name="dollar" unicode="$" horiz-adv-x="600" 
d="M211 -115l19 129l21 -19q-42 2 -86.5 10.5t-83 24.5t-66.5 39l43 80q42 -31 95 -48.5t127 -17.5q76 0 118 29.5t49 74.5q7 41 -17 67t-87 37l-93 18q-56 12 -93.5 38.5t-53.5 67.5t-8 94q10 61 45 104t90 67.5t126 28.5l-18 -14l21 125h82l-20 -125l-14 14q52 -2 102 -21
t83 -53l-41 -77q-32 31 -77.5 47.5t-102.5 16.5q-75 0 -121.5 -31t-55.5 -84q-7 -43 15 -70t80 -39l93 -18q97 -19 137.5 -68t28.5 -127q-13 -82 -81.5 -131.5t-173.5 -57.5l21 19l-21 -130h-82z" />
    <glyph glyph-name="percent" unicode="%" horiz-adv-x="943" 
d="M272 0h-93l524 705h94zM238 283q-85 0 -126.5 59.5t-25.5 166.5q16 97 69.5 151t132.5 54q86 0 126.5 -59t23.5 -166q-15 -96 -67.5 -151t-132.5 -55zM241 351q44 0 73 36t41 109q11 77 -8.5 113.5t-63.5 36.5q-43 0 -71 -35t-40 -108q-12 -77 7 -114.5t62 -37.5zM688 -9
q-86 0 -127 59.5t-24 166.5q16 97 68.5 151t131.5 54q86 0 127.5 -59.5t24.5 -165.5q-16 -96 -68.5 -151t-132.5 -55zM692 59q44 0 72.5 36t39.5 109q13 76 -7 113t-64 37q-43 0 -71.5 -35t-40.5 -108q-11 -78 8.5 -115t62.5 -37z" />
    <glyph glyph-name="ampersand" unicode="&#x26;" horiz-adv-x="678" 
d="M614 -9q-44 18 -81 47t-63 59l29 -1q-49 -49 -114 -77t-137 -28q-75 0 -126.5 24.5t-74.5 68.5t-14 102q10 62 55.5 106.5t118.5 85.5l47 26l-21 -19q-37 47 -51.5 89.5t-7.5 91.5q7 42 31.5 75.5t67 53t101.5 19.5q51 0 88 -18t55.5 -52.5t11.5 -82.5q-5 -34 -25 -66
t-58 -62.5t-99 -63.5l1 24l154 -197h-19q32 42 56.5 99.5t36.5 122.5h89q-16 -83 -48 -155.5t-76 -127.5l-6 27q22 -28 54 -54t70 -44zM262 71q56 0 101.5 21.5t85.5 63.5l-10 -26l-179 223l43 -3l-42 -24q-57 -33 -88.5 -62.5t-38.5 -73.5q-8 -54 24.5 -86.5t103.5 -32.5z
M371 643q-42 0 -69.5 -23t-32.5 -57q-4 -25 -1 -44.5t15.5 -41t36.5 -52.5l-22 -2q73 38 107.5 69t39.5 69q7 38 -14 60t-60 22z" />
    <glyph glyph-name="quotesingle" unicode="'" horiz-adv-x="231" 
d="M109 422l20 283h118l-70 -283h-68z" />
    <glyph glyph-name="parenleft" unicode="(" horiz-adv-x="335" 
d="M152 -180q-29 76 -43.5 154.5t-14.5 153.5q0 110 26 214.5t71 196.5t101 166h87q-78 -132 -129.5 -284t-51.5 -322q0 -63 10 -134.5t26 -144.5h-82z" />
    <glyph glyph-name="parenright" unicode=")" horiz-adv-x="335" 
d="M46 -180h-87q78 132 129.5 284.5t51.5 321.5q0 64 -9.5 135t-26.5 144h82q29 -76 43.5 -154t14.5 -154q0 -109 -25.5 -213.5t-70 -197t-102.5 -166.5z" />
    <glyph glyph-name="asterisk" unicode="*" horiz-adv-x="456" 
d="M177 360l-57 41l108 123l-149 44l26 66l144 -54l6 156h71l-18 -156l151 54l18 -66l-155 -45l88 -122l-57 -41l-76 130z" />
    <glyph glyph-name="plus" unicode="+" horiz-adv-x="600" 
d="M229 40l33 210h-209l11 74h209l33 204h76l-32 -204h207l-11 -74h-208l-33 -210h-76z" />
    <glyph glyph-name="comma" unicode="," horiz-adv-x="237" 
d="M55 -123l-38 41q32 29 44.5 52t17.5 52l24 -22h-84l18 119h119l-14 -91q-4 -30 -13.5 -55.5t-26.5 -48.5t-47 -47z" />
    <glyph glyph-name="hyphen" unicode="-" horiz-adv-x="433" 
d="M67 234l13 81h293l-13 -81h-293z" />
    <glyph glyph-name="period" unicode="." horiz-adv-x="237" 
d="M19 0l19 119h119l-19 -119h-119z" />
    <glyph glyph-name="slash" unicode="/" horiz-adv-x="300" 
d="M16 -57h-89l394 807h88z" />
    <glyph glyph-name="zero" unicode="0" horiz-adv-x="600" 
d="M269 -9q-130 0 -181 98t-23 278q29 179 104.5 263t193.5 84q128 0 180.5 -95t23.5 -278q-28 -178 -105.5 -264t-192.5 -86zM275 78q74 0 122 64t71 209q15 99 8 160t-37 89t-82 28q-75 0 -122 -63t-70 -207q-16 -98 -8.5 -160t37.5 -91t81 -29z" />
    <glyph glyph-name="one" unicode="1" horiz-adv-x="600" 
d="M80 0l14 87h164l84 530l51 -2l-219 -122l16 102l195 110h75l-98 -618h154l-14 -87h-422z" />
    <glyph glyph-name="two" unicode="2" horiz-adv-x="600" 
d="M43 0l12 77l290 264q52 47 79 85t35 83q9 58 -22 87.5t-96 29.5q-54 0 -104 -17.5t-99 -55.5l-34 78q48 39 115.5 61t133.5 22q76 0 126.5 -24.5t72 -70t11.5 -109.5t-48.5 -117.5t-105.5 -111.5l-250 -222l-1 28h365l-13 -87h-467z" />
    <glyph glyph-name="three" unicode="3" horiz-adv-x="600" 
d="M263 -9q-72 0 -134.5 21.5t-100.5 61.5l40 79q42 -38 91.5 -56t106.5 -18q71 0 114 27.5t52 88.5q18 120 -130 120h-112l13 84h101q64 0 107.5 30.5t51.5 86.5q9 53 -22.5 81.5t-96.5 28.5q-58 0 -108 -18t-98 -57l-34 79q49 41 115.5 62.5t136.5 21.5q112 0 167.5 -51
t41.5 -142q-9 -59 -52.5 -104t-109.5 -61l1 12q70 -12 104.5 -61.5t22.5 -124.5q-15 -94 -86.5 -142.5t-181.5 -48.5z" />
    <glyph glyph-name="four" unicode="4" horiz-adv-x="600" 
d="M332 0l24 146h-328l12 74l419 485h86l-77 -478h105l-13 -81h-105l-22 -146h-101zM368 227l57 355h27l-328 -380l-2 25h246z" />
    <glyph glyph-name="five" unicode="5" horiz-adv-x="600" 
d="M279 -9q-46 0 -89.5 10t-79.5 28.5t-60 44.5l38 79q42 -37 90.5 -55.5t103.5 -18.5q69 0 115 34.5t57 100.5q10 65 -23 104.5t-100 39.5q-48 0 -88.5 -19t-75.5 -58h-72l67 424h427l-15 -87h-327l-40 -255h-28q33 40 80.5 60.5t102.5 20.5q66 0 113 -28.5t68.5 -81.5
t9.5 -127q-10 -67 -46.5 -115.5t-94.5 -74.5t-133 -26z" />
    <glyph glyph-name="six" unicode="6" horiz-adv-x="600" 
d="M291 -9q-85 0 -142 40.5t-78 122t-2 203.5q20 122 67 200.5t118 117.5t160 39q58 0 109.5 -18.5t84.5 -56.5l-42 -77q-33 34 -72.5 49t-85.5 15q-96 0 -156.5 -65t-84.5 -204l-14 -85h-10q23 81 79 128t140 47q65 0 111 -30t67.5 -83.5t9.5 -127.5q-11 -66 -45.5 -114.5
t-88.5 -74.5t-125 -26zM293 75q72 0 111 37.5t49 99.5q11 70 -22.5 110.5t-97.5 40.5q-65 0 -108 -39.5t-54 -102.5q-11 -66 23 -106t99 -40z" />
    <glyph glyph-name="seven" unicode="7" horiz-adv-x="600" 
d="M56 0l449 657l-2 -40h-385l14 88h480l-12 -77l-426 -628h-118z" />
    <glyph glyph-name="eight" unicode="8" horiz-adv-x="600" 
d="M269 -9q-129 0 -190 57.5t-46 153.5q12 73 64 116t126 53l-2 -18q-65 14 -96 65t-21 118q14 84 82 131t184 47q75 0 126 -24.5t74 -69.5t14 -104q-11 -67 -56 -110.5t-112 -55.5l2 17q48 -9 79.5 -34t45 -63.5t4.5 -89.5q-14 -92 -87 -140.5t-191 -48.5zM274 73
q79 0 123.5 30.5t54.5 90.5q10 61 -25.5 91.5t-117.5 30.5q-80 0 -124.5 -29t-53.5 -87q-10 -59 25.5 -93t117.5 -34zM324 398q69 0 111 28.5t50 84.5q9 57 -23 89t-102 32q-71 0 -111 -30t-49 -80q-8 -54 23 -89t101 -35z" />
    <glyph glyph-name="nine" unicode="9" horiz-adv-x="600" 
d="M219 -9q-58 0 -109.5 19t-84.5 57l41 76q34 -33 73.5 -48.5t85.5 -15.5q95 0 156.5 65.5t83.5 203.5l14 85h11q-22 -81 -78.5 -128t-140.5 -47q-64 0 -110.5 30t-67.5 84t-10 128q10 66 44.5 114t89.5 74t126 26q86 0 142 -40.5t77 -122t2 -203.5q-19 -121 -67 -200
t-119 -118t-159 -39zM299 343q67 0 109.5 39.5t53.5 102.5q10 65 -23 105.5t-98 40.5q-71 0 -111.5 -37.5t-49.5 -100.5q-11 -69 22.5 -109.5t96.5 -40.5z" />
    <glyph glyph-name="colon" unicode=":" horiz-adv-x="237" 
d="M80 385l19 119h119l-19 -119h-119zM19 0l19 119h118l-19 -119h-118z" />
    <glyph glyph-name="semicolon" unicode=";" horiz-adv-x="237" 
d="M53 -123l-39 34q34 31 49 57t18 54l19 -22h-79l19 119h119l-14 -89q-6 -45 -27 -82t-65 -71zM80 385l19 119h119l-19 -119h-119z" />
    <glyph glyph-name="less" unicode="&#x3c;" horiz-adv-x="600" 
d="M511 34l-458 214l12 78l526 215l-13 -86l-489 -198l9 50l425 -196z" />
    <glyph glyph-name="equal" unicode="=" horiz-adv-x="600" 
d="M69 350l11 74h492l-11 -74h-492zM38 151l11 73h492l-11 -73h-492z" />
    <glyph glyph-name="greater" unicode="&#x3e;" horiz-adv-x="600" 
d="M20 34l13 85l488 197l-8 -50l-426 197l13 78l458 -215l-12 -78z" />
    <glyph glyph-name="question" unicode="?" horiz-adv-x="455" 
d="M163 195l5 35q6 32 17.5 60.5t35 58.5t62.5 66q21 20 41 43t33 48.5t13 52.5q0 33 -25.5 51t-70.5 18q-40 0 -78.5 -11t-73.5 -30l14 90q36 18 80 27.5t85 9.5q52 0 91 -16.5t60.5 -47t21.5 -72.5q0 -43 -17.5 -80t-46.5 -67.5t-61 -56.5q-57 -48 -82 -82.5t-34 -69.5
l-8 -27h-62zM103 0l19 119h119l-18 -119h-120z" />
    <glyph glyph-name="at" unicode="@" horiz-adv-x="967" 
d="M504 -164q-96 0 -175.5 30.5t-138 88t-90 137t-31.5 179.5q0 99 33 180.5t93 140.5t142.5 90.5t181.5 31.5q88 0 160.5 -26.5t126 -75.5t83 -117t29.5 -152q0 -87 -26.5 -150.5t-72 -98.5t-103.5 -35q-60 0 -92 34t-30 94l24 1q-25 -63 -71 -96t-98 -33q-79 0 -122 49
t-43 135q0 73 27.5 130.5t76.5 90.5t111 33q54 0 88.5 -27t45.5 -77h-14l16 95h79l-44 -251q-3 -15 -4 -27.5t-1 -23.5q0 -32 14 -48t42 -16q36 0 65 27.5t47 77.5t18 116q0 70 -24 126.5t-68.5 96.5t-105.5 61t-135 21q-83 0 -151.5 -26.5t-118.5 -76.5t-77.5 -119.5
t-27.5 -154.5q0 -115 45 -198t126.5 -127t189.5 -44q78 0 142 23.5t107 66.5l36 -56q-48 -48 -121.5 -74t-163.5 -26zM462 126q41 0 73.5 25.5t51 70t18.5 101.5q0 53 -23 79.5t-72 26.5q-41 0 -74 -24t-51.5 -65.5t-18.5 -95.5q0 -57 25 -87.5t71 -30.5z" />
    <glyph glyph-name="A" unicode="A" horiz-adv-x="742" 
d="M-30 0l426 705h89l207 -705h-102l-56 200l40 -28h-427l50 28l-117 -200h-110zM426 591l-209 -359l-21 23h355l-24 -23l-98 359h-3z" />
    <glyph glyph-name="B" unicode="B" horiz-adv-x="685" 
d="M43 0l112 705h297q112 0 165 -49t39 -141q-10 -65 -56 -106.5t-116 -56.5l2 15q76 -10 111 -59t24 -123q-14 -91 -83 -138t-184 -47h-311zM156 81h197q71 0 115.5 26t53.5 84q7 47 -7 74.5t-45 39.5t-76 12h-201zM207 397h179q75 0 116.5 28t49.5 78q10 63 -20.5 92.5
t-99.5 29.5h-190z" />
    <glyph glyph-name="C" unicode="C" horiz-adv-x="685" 
d="M377 -9q-117 0 -190 47.5t-100.5 132.5t-10.5 196q18 111 69.5 188.5t132.5 118.5t186 40q71 0 126 -20t94 -58l-39 -83q-43 38 -85.5 53.5t-101.5 15.5q-111 0 -182 -69t-92 -195q-12 -83 5 -145t67 -96t132 -34q53 0 104.5 18t98.5 59l33 -82q-48 -42 -113 -64.5
t-134 -22.5z" />
    <glyph glyph-name="D" unicode="D" horiz-adv-x="754" 
d="M43 0l112 705h234q126 0 202.5 -44t106 -125.5t11.5 -196.5q-27 -170 -134.5 -254.5t-283.5 -84.5h-248zM161 87h133q137 0 214 64.5t97 196.5q22 138 -34.5 204t-193.5 66h-132z" />
    <glyph glyph-name="E" unicode="E" horiz-adv-x="591" 
d="M43 0l112 705h462l-13 -83h-362l-35 -222h339l-13 -84h-339l-37 -232h361l-13 -84h-462z" />
    <glyph glyph-name="F" unicode="F" horiz-adv-x="567" 
d="M43 0l112 705h452l-14 -83h-348l-35 -226h325l-13 -83h-325l-50 -313h-104z" />
    <glyph glyph-name="G" unicode="G" horiz-adv-x="735" 
d="M386 -9q-124 0 -198.5 46t-101.5 130.5t-9 197.5q18 112 71.5 189.5t137.5 118.5t192 41q77 0 131 -19t92 -53l-41 -83q-40 34 -81 49t-106 15q-120 0 -194.5 -70t-94.5 -199t29.5 -201t180.5 -72q50 0 93.5 8.5t87.5 26.5l-32 -50l36 231h-173l13 78h261l-53 -330
q-31 -17 -72 -29t-85 -18.5t-84 -6.5z" />
    <glyph glyph-name="H" unicode="H" horiz-adv-x="770" 
d="M43 0l112 705h104l-48 -304h396l48 304h104l-112 -705h-104l50 314h-396l-50 -314h-104z" />
    <glyph glyph-name="I" unicode="I" horiz-adv-x="270" 
d="M43 0l112 705h104l-112 -705h-104z" />
    <glyph glyph-name="J" unicode="J" horiz-adv-x="344" 
d="M15 -187q-17 0 -39 2.5t-43 9.5l13 84q19 -7 35.5 -9.5t29.5 -2.5q46 0 72.5 28t35.5 89l110 691h104l-111 -699q-11 -66 -36.5 -108.5t-67.5 -63.5t-103 -21z" />
    <glyph glyph-name="K" unicode="K" horiz-adv-x="648" 
d="M43 0l112 705h104l-50 -317h2l370 317h133l-432 -366l-2 49l348 -388h-128l-298 329h-2l-53 -329h-104z" />
    <glyph glyph-name="L" unicode="L" horiz-adv-x="552" 
d="M43 0l112 705h104l-98 -616h345l-13 -89h-450z" />
    <glyph glyph-name="M" unicode="M" horiz-adv-x="864" 
d="M44 0l112 705h91l175 -613h-31l370 613h90l-112 -705h-94l89 564h34l-344 -564h-63l-166 564h33l-89 -564h-95z" />
    <glyph glyph-name="N" unicode="N" horiz-adv-x="750" 
d="M43 0l112 705h80l339 -573l-21 5l90 568h97l-112 -705h-79l-340 573l21 -5l-90 -568h-97z" />
    <glyph glyph-name="O" unicode="O" horiz-adv-x="779" 
d="M77 367q18 111 68 188.5t128.5 118t177.5 40.5q109 0 177.5 -47.5t95.5 -132.5t9 -195q-17 -111 -67.5 -188.5t-128.5 -118.5t-178 -41q-108 0 -177 47.5t-95.5 132.5t-9.5 196zM184 357q-13 -87 3.5 -148.5t62 -94.5t117.5 -33q108 0 174 71.5t85 196.5
q14 86 -3.5 147.5t-62.5 94.5t-117 33q-108 0 -173 -70.5t-86 -196.5z" />
    <glyph glyph-name="P" unicode="P" horiz-adv-x="658" 
d="M43 0l112 705h289q118 0 172 -58.5t37 -159.5q-9 -61 -42.5 -104t-87.5 -66t-128 -23h-201l-47 -294h-104zM207 377h183q72 0 112.5 29.5t49.5 87.5q10 63 -21.5 95.5t-102.5 32.5h-183z" />
    <glyph glyph-name="Q" unicode="Q" horiz-adv-x="779" 
d="M509 -192q-28 19 -55 49t-49 66.5t-36 74.5l93 35q17 -52 52.5 -94.5t73.5 -72.5zM77 367q18 111 68 188.5t128.5 118t177.5 40.5q109 0 177.5 -47.5t95.5 -132.5t9 -195q-17 -111 -67.5 -188.5t-128.5 -118.5t-178 -41q-108 0 -177 47.5t-95.5 132.5t-9.5 196zM184 357
q-13 -87 3.5 -148.5t62 -94.5t117.5 -33q108 0 174 71.5t85 196.5q14 86 -3.5 147.5t-62.5 94.5t-117 33q-108 0 -173 -70.5t-86 -196.5z" />
    <glyph glyph-name="R" unicode="R" horiz-adv-x="697" 
d="M43 0l112 705h288q120 0 175 -56t38 -157q-9 -60 -43.5 -102.5t-88.5 -65t-121 -22.5l6 16h24q41 0 69.5 -21.5t43.5 -66.5l74 -230h-109l-73 231q-12 41 -41 53t-75 12h-128l-47 -296h-104zM206 375h186q71 0 112.5 31.5t50.5 88.5q9 63 -24.5 95t-107.5 32h-178z" />
    <glyph glyph-name="S" unicode="S" horiz-adv-x="633" 
d="M288 -9q-83 0 -150 20t-112 51l39 82q48 -30 102.5 -47.5t127.5 -17.5q83 0 127 30t51 77q7 44 -16 70.5t-88 35.5l-98 16q-96 14 -139.5 67t-30.5 136q9 61 48 106.5t102 71t146 25.5q72 0 131 -19.5t96 -51.5l-38 -81q-39 30 -87.5 47t-112.5 17q-78 0 -126 -31
t-57 -85q-8 -46 16 -75t89 -39l100 -15q97 -14 139.5 -63.5t29.5 -132.5q-9 -56 -47 -100t-99 -69t-143 -25z" />
    <glyph glyph-name="T" unicode="T" horiz-adv-x="611" 
d="M212 0l98 618h-241l14 87h586l-14 -87h-241l-98 -618h-104z" />
    <glyph glyph-name="U" unicode="U" horiz-adv-x="735" 
d="M337 -9q-93 0 -155 32.5t-87.5 98.5t-10.5 164l67 419h104l-67 -420q-16 -102 20.5 -153t138.5 -51q90 0 143 48t70 157l67 419h102l-68 -425q-15 -99 -56 -163t-108 -95t-160 -31z" />
    <glyph glyph-name="V" unicode="V" horiz-adv-x="708" 
d="M268 0l-198 705h107l166 -618h-35l362 618h112l-423 -705h-91z" />
    <glyph glyph-name="W" unicode="W" horiz-adv-x="1116" 
d="M237 0l-135 705h104l107 -609h-37l314 609h80l107 -609h-34l309 609h106l-361 -705h-89l-106 580h20l-297 -580h-88z" />
    <glyph glyph-name="X" unicode="X" horiz-adv-x="661" 
d="M-41 0l345 381l-2 -42l-216 366h118l166 -292h-33l258 292h128l-332 -366v42l226 -381h-118l-177 308h39l-275 -308h-127z" />
    <glyph glyph-name="Y" unicode="Y" horiz-adv-x="617" 
d="M216 0l53 331l11 -66l-225 440h114l168 -337h-25l275 337h120l-366 -443l32 69l-53 -331h-104z" />
    <glyph glyph-name="Z" unicode="Z" horiz-adv-x="601" 
d="M4 0l12 76l498 577l-5 -35h-407l14 87h511l-12 -76l-499 -577l5 35h420l-14 -87h-523z" />
    <glyph glyph-name="bracketleft" unicode="[" horiz-adv-x="334" 
d="M35 -180l140 885h219l-12 -78h-120l-115 -729h120l-13 -78h-219z" />
    <glyph glyph-name="backslash" unicode="\" horiz-adv-x="300" 
d="M194 -57l-139 807h83l139 -807h-83z" />
    <glyph glyph-name="bracketright" unicode="]" horiz-adv-x="334" 
d="M-58 -180l12 78h119l115 729h-118l12 78h218l-140 -885h-218z" />
    <glyph glyph-name="asciicircum" unicode="^" horiz-adv-x="600" 
d="M27 140l293 488h78l139 -488h-77l-128 453h50l-271 -453h-84z" />
    <glyph glyph-name="underscore" unicode="_" horiz-adv-x="505" 
d="M-40 -63l10 63h485l-10 -63h-485z" />
    <glyph glyph-name="grave" unicode="`" horiz-adv-x="500" 
d="M300 553l-142 202h102l110 -202h-70z" />
    <glyph glyph-name="a" unicode="a" horiz-adv-x="609" 
d="M236 -9q-69 0 -116.5 33t-67 94.5t-6.5 147.5q20 121 90.5 184t168.5 63q65 0 109 -32.5t54 -88.5l-11 -2l29 114h97q-7 -31 -14.5 -61.5t-12.5 -59.5l-60 -383h-101l18 114h16q-26 -57 -75 -90t-118 -33zM266 70q64 0 110.5 45t60.5 134q15 93 -18.5 138.5t-101.5 45.5
q-64 0 -109.5 -45t-60.5 -132q-14 -94 18.5 -140t100.5 -46z" />
    <glyph glyph-name="b" unicode="b" horiz-adv-x="609" 
d="M305 -9q-65 0 -109 32.5t-54 88.5l10 2l-18 -114h-100l117 736h101l-55 -344l-16 -2q26 57 75 90t118 33q70 0 117 -33t67 -94.5t6 -146.5q-20 -122 -90.5 -185t-168.5 -63zM293 70q65 0 110 45t60 134q14 93 -18 138.5t-101 45.5q-64 0 -110.5 -45t-60.5 -132
q-14 -94 19 -140t101 -46z" />
    <glyph glyph-name="c" unicode="c" horiz-adv-x="499" 
d="M264 -9q-78 0 -132 33.5t-76.5 95t-9.5 146.5q20 121 95 184t185 63q48 0 91 -14.5t70 -43.5l-36 -69q-25 24 -57.5 35.5t-63.5 11.5q-70 0 -118.5 -44.5t-62.5 -131.5t21 -136t109 -49q33 0 69 12t68 40l31 -71q-31 -29 -81.5 -45.5t-101.5 -16.5z" />
    <glyph glyph-name="d" unicode="d" horiz-adv-x="609" 
d="M236 -9q-69 0 -116.5 33t-67 94.5t-6.5 147.5q20 121 90.5 184t168.5 63q65 0 109 -32.5t54 -88.5h-11l55 344h101l-117 -736h-100l18 114h15q-26 -57 -75 -90t-118 -33zM266 70q64 0 110.5 45t60.5 134q15 93 -18.5 138.5t-101.5 45.5q-64 0 -109.5 -45t-60.5 -132
q-14 -94 18.5 -140t100.5 -46z" />
    <glyph glyph-name="e" unicode="e" horiz-adv-x="546" 
d="M279 -9q-86 0 -142.5 34t-79.5 97t-10 147q13 77 49 131.5t92 83.5t128 29q71 0 117 -31t65.5 -85.5t8.5 -126.5l-5 -30h-379l9 58h310l-18 -15q11 77 -17.5 117.5t-95.5 40.5q-47 0 -82 -21.5t-56 -58.5t-27 -84l-5 -28q-11 -86 26 -132.5t123 -46.5q42 0 82 12.5
t75 41.5l32 -69q-40 -31 -92.5 -47.5t-107.5 -16.5z" />
    <glyph glyph-name="f" unicode="f" horiz-adv-x="352" 
d="M64 0l67 426h-98l13 78h125l-32 -26l14 87q14 86 66.5 130.5t142.5 44.5q20 0 41 -3.5t35 -9.5l-13 -82q-11 5 -26.5 8.5t-32.5 3.5q-29 0 -53 -11.5t-40 -34.5t-22 -59l-10 -68l-12 20h152l-13 -78h-136l-67 -426h-101z" />
    <glyph glyph-name="g" unicode="g" horiz-adv-x="612" 
d="M231 -224q-66 0 -119 16t-93 48l32 74q27 -20 55 -33t59.5 -19t66.5 -6q74 0 115 36.5t52 105.5l22 135h11q-23 -55 -74 -88t-118 -33q-68 0 -116 32.5t-68 92t-8 139.5q19 115 89 176t170 61q66 0 110.5 -32.5t52.5 -88.5l-7 8l26 104h98q-9 -31 -16 -61.5t-11 -59.5
l-59 -373q-18 -114 -86.5 -174t-183.5 -60zM269 91q67 0 112.5 45t58.5 125q13 84 -19.5 128t-99.5 44q-68 0 -113.5 -44t-59.5 -125q-13 -83 20 -128t101 -45z" />
    <glyph glyph-name="h" unicode="h" horiz-adv-x="593" 
d="M34 0l117 736h101l-54 -339h-15q30 57 81.5 86.5t117.5 29.5q92 0 128.5 -53t19.5 -156l-47 -304h-101l47 303q11 69 -11 99t-77 30q-65 0 -107.5 -39.5t-52.5 -104.5l-46 -288h-101z" />
    <glyph glyph-name="i" unicode="i" horiz-adv-x="249" 
d="M34 0l79 504h101l-79 -504h-101zM122 609l17 105h117l-17 -105h-117z" />
    <glyph glyph-name="j" unicode="j" horiz-adv-x="249" 
d="M-60 -221q-17 0 -37 3t-36 10l14 82q12 -4 26.5 -7.5t28.5 -3.5q39 0 63.5 24.5t33.5 80.5l85 536h101l-86 -543q-14 -90 -62 -136t-131 -46zM126 609l17 105h117l-17 -105h-117z" />
    <glyph glyph-name="k" unicode="k" horiz-adv-x="532" 
d="M34 0l117 736h101l-72 -452h2l250 220h129l-303 -265v45l246 -284h-123l-207 231h-2l-37 -231h-101z" />
    <glyph glyph-name="l" unicode="l" horiz-adv-x="249" 
d="M34 0l117 736h101l-117 -736h-101z" />
    <glyph glyph-name="m" unicode="m" horiz-adv-x="888" 
d="M34 0l60 383q5 29 7.5 59.5t3.5 61.5h98l-7 -106h-13q29 57 76 86t108 29t98 -30t41 -90h-16q28 54 80 87t114 33q85 0 121.5 -51t19.5 -160l-48 -302h-101l49 307q10 65 -9 95t-70 30q-58 0 -96 -40t-49 -108l-46 -284h-101l49 307q11 65 -7.5 95t-70.5 30
q-58 0 -96 -40t-49 -108l-45 -284h-101z" />
    <glyph glyph-name="n" unicode="n" horiz-adv-x="593" 
d="M34 0l60 383q5 29 7.5 59.5t3.5 61.5h98l-7 -106l-13 -1q30 57 81.5 86.5t117.5 29.5q92 0 128.5 -53t19.5 -156l-47 -304h-101l47 303q11 69 -11.5 99t-76.5 30q-65 0 -107.5 -39.5t-52.5 -104.5l-46 -288h-101z" />
    <glyph glyph-name="o" unicode="o" horiz-adv-x="581" 
d="M258 -9q-78 0 -130 32t-73.5 94t-8.5 149q13 80 51.5 135.5t96 83.5t128.5 28q80 0 131.5 -32.5t73 -94t7.5 -147.5q-13 -81 -51.5 -136t-96 -83.5t-128.5 -28.5zM265 70q63 0 109 45t60 134q15 93 -18.5 138.5t-99.5 45.5q-65 0 -109.5 -45t-59.5 -132q-14 -94 18 -140
t100 -46z" />
    <glyph glyph-name="p" unicode="p" horiz-adv-x="609" 
d="M0 -216l94 599q5 29 7.5 59.5t3.5 61.5h98l-7 -114h-15q26 57 75 90t118 33q70 0 117 -33t67 -94.5t6 -146.5q-20 -122 -90.5 -185t-168.5 -63q-65 0 -109 32.5t-54 88.5h11l-52 -328h-101zM293 70q65 0 110 45t60 134q14 93 -18 138.5t-101 45.5q-64 0 -110.5 -45
t-60.5 -132q-14 -94 19 -140t101 -46z" />
    <glyph glyph-name="q" unicode="q" horiz-adv-x="609" 
d="M361 -216l52 328l16 2q-26 -57 -75 -90t-118 -33t-116.5 33t-67 94.5t-6.5 147.5q20 121 90.5 184t168.5 63q65 0 109 -32.5t54 -88.5l-11 -2l29 114h97q-7 -31 -14.5 -61.5t-12.5 -59.5l-94 -599h-101zM266 70q64 0 110.5 45t60.5 134q15 93 -18.5 138.5t-101.5 45.5
q-64 0 -109.5 -45t-60.5 -132q-14 -94 18.5 -140t100.5 -46z" />
    <glyph glyph-name="r" unicode="r" horiz-adv-x="377" 
d="M32 0l61 379q5 31 8 62.5t4 62.5h98l-7 -130h-19q18 47 46.5 78t65.5 46t76 15q14 0 25.5 -1.5t22.5 -3.5l-16 -90q-14 6 -27 7.5t-31 1.5q-42 0 -76 -18.5t-55.5 -50.5t-27.5 -74l-46 -284h-102z" />
    <glyph glyph-name="s" unicode="s" horiz-adv-x="498" 
d="M215 -9q-59 0 -110.5 15t-81.5 40l33 70q34 -24 76 -37.5t88 -13.5q54 0 85 19t36 51q5 29 -11 47t-54 24l-76 13q-74 12 -103 51.5t-20 98.5q8 46 37 78t75 49t101 17t101 -14t73 -38l-35 -68q-26 21 -63 33.5t-76 12.5q-54 0 -84 -20.5t-36 -52.5q-5 -29 9 -48t49 -25
l78 -13q76 -13 106.5 -50t20.5 -95q-7 -45 -36 -77.5t-75.5 -49.5t-106.5 -17z" />
    <glyph glyph-name="t" unicode="t" horiz-adv-x="363" 
d="M234 -9q-86 0 -121.5 45.5t-22.5 132.5l41 257h-98l13 78h97l22 133l105 27l-26 -160h140l-12 -78h-140l-39 -247q-8 -56 8.5 -80.5t55.5 -24.5q18 0 32.5 3.5t27.5 8.5l-13 -82q-17 -6 -34 -9.5t-36 -3.5z" />
    <glyph glyph-name="u" unicode="u" horiz-adv-x="586" 
d="M220 -9q-90 0 -132 51t-26 156l48 306h101l-48 -303q-10 -68 12.5 -98.5t77.5 -30.5q62 0 102 40t51 107l45 285h101l-80 -504h-98l16 108h15q-28 -56 -76 -86.5t-109 -30.5z" />
    <glyph glyph-name="v" unicode="v" horiz-adv-x="537" 
d="M182 0l-136 504h104l104 -421h-29l240 421h106l-297 -504h-92z" />
    <glyph glyph-name="w" unicode="w" horiz-adv-x="875" 
d="M171 0l-111 504h101l83 -420h-26l219 420h79l84 -420h-24l216 420h103l-271 -504h-92l-90 428h47l-224 -428h-94z" />
    <glyph glyph-name="x" unicode="x" horiz-adv-x="541" 
d="M-42 0l275 284l-2 -48l-175 268h115l122 -197h-36l185 197h125l-257 -267l2 46l183 -283h-117l-132 211h37l-199 -211h-126z" />
    <glyph glyph-name="y" unicode="y" horiz-adv-x="536" 
d="M-16 -227l-17 82q49 10 83 24t58.5 36.5t45.5 57.5l34 59l-4 -41l-139 513h105l104 -420h-27l237 420h107l-316 -540q-30 -50 -60.5 -84t-63 -55t-69 -33t-78.5 -19z" />
    <glyph glyph-name="z" unicode="z" horiz-adv-x="522" 
d="M9 0l11 67l383 384l-4 -25h-323l13 78h420l-10 -67l-386 -387l4 27h336l-12 -77h-432z" />
    <glyph glyph-name="braceleft" unicode="{" horiz-adv-x="372" 
d="M210 -180q-44 0 -72 14t-38.5 39t-5.5 59l33 211q6 40 -4.5 58t-50.5 21l-32 3l11 75l34 3q39 3 56.5 21t24.5 58l33 211q10 56 40.5 84t81.5 28h112l-12 -78h-73q-20 0 -33.5 -10.5t-17.5 -33.5l-33 -212q-5 -36 -23.5 -60.5t-42.5 -36.5t-45 -12v4q21 0 40.5 -13
t30 -37.5t4.5 -61.5l-32 -212q-4 -23 5 -33.5t31 -10.5h74l-13 -78h-83z" />
    <glyph glyph-name="bar" unicode="|" horiz-adv-x="272" 
d="M17 -180l140 885h101l-140 -885h-101z" />
    <glyph glyph-name="braceright" unicode="}" horiz-adv-x="372" 
d="M-59 -180l12 78h73q21 0 34.5 10.5t17.5 33.5l33 212q6 37 24 61t42 36.5t45 12.5l1 -4q-22 0 -41.5 13t-29.5 37.5t-5 60.5l33 212q4 23 -5.5 33.5t-30.5 10.5h-75l13 78h83q45 0 72.5 -14t38.5 -39t5 -59l-33 -211q-6 -40 5 -58t50 -21l32 -2l-12 -76l-32 -3
q-39 -2 -57 -20.5t-24 -58.5l-34 -211q-9 -56 -40 -84t-82 -28h-113z" />
    <glyph glyph-name="asciitilde" unicode="~" horiz-adv-x="600" 
d="M419 213q-34 0 -66 13.5t-60 28.5q-26 15 -49 25t-44 10q-31 0 -53 -17.5t-39 -46.5l-53 36q26 48 59.5 73.5t78.5 25.5q34 0 67 -13.5t61 -28.5q27 -14 48.5 -24.5t41.5 -10.5q32 0 54.5 18t38.5 46l53 -36q-26 -47 -59.5 -73t-78.5 -26z" />
    <glyph glyph-name="uni00A0" unicode="&#xa0;" horiz-adv-x="267" 
 />
    <glyph glyph-name="exclamdown" unicode="&#xa1;" horiz-adv-x="237" 
d="M-13 -180l110 489h62l-47 -489h-125zM80 385l19 119h119l-19 -119h-119z" />
    <glyph glyph-name="cent" unicode="&#xa2;" horiz-adv-x="600" 
d="M217 -115l21 135l16 -24q-91 15 -137.5 80t-28.5 176q18 107 81.5 167.5t162.5 71.5l-24 -29l23 146h83l-23 -141l-17 26q48 -1 89 -15t67 -41l-36 -68q-26 23 -58.5 33.5t-63.5 10.5q-70 0 -118.5 -42.5t-62.5 -123.5q-9 -54 3.5 -93.5t45.5 -60.5t81 -21q33 0 69.5 12
t67.5 38l32 -70q-34 -29 -87.5 -46t-109.5 -15l27 25l-21 -131h-82z" />
    <glyph glyph-name="sterling" unicode="&#xa3;" horiz-adv-x="600" 
d="M5 0l10 71q48 17 77 42t36 65l22 143h-95l10 65h96l19 118q16 104 80.5 157t168.5 53q62 0 111.5 -17.5t82.5 -52.5l-41 -74q-32 30 -66.5 44.5t-82.5 14.5q-65 0 -102 -31t-48 -97l-19 -115h178l-10 -65h-177l-19 -116q-8 -50 -34 -80t-63 -44l1 5h399l-14 -86h-520z
" />
    <glyph glyph-name="currency" unicode="&#xa4;" horiz-adv-x="600" 
d="M114 -28l-46 48l73 75q-23 31 -36 69.5t-13 80.5q0 43 13 81.5t36 69.5l-73 75l46 47l74 -76q30 25 67.5 38t78.5 13t77.5 -12.5t66.5 -36.5l73 75l49 -49l-74 -75q24 -31 36.5 -69.5t12.5 -80.5t-13 -80.5t-37 -70.5l74 -74l-47 -47l-72 75q-31 -24 -68 -37.5t-78 -13.5
t-78.5 13.5t-68.5 36.5zM334 81q42 0 77 22.5t55.5 59.5t20.5 82q0 46 -20.5 83t-55.5 59.5t-77 21.5q-43 0 -78 -22t-56 -59t-21 -83q0 -45 21 -82t56 -59.5t78 -22.5z" />
    <glyph glyph-name="yen" unicode="&#xa5;" horiz-adv-x="600" 
d="M208 0l28 173h-178l10 63h178l14 91h-178l10 63h151l-1 -13l-180 328h110l160 -301h-25l257 301h118l-284 -328l2 13h152l-10 -63h-179l-14 -91h178l-9 -63h-179l-27 -173h-104z" />
    <glyph glyph-name="brokenbar" unicode="&#xa6;" horiz-adv-x="272" 
d="M104 372l53 333h101l-53 -333h-101zM17 -180l53 334h101l-53 -334h-101z" />
    <glyph glyph-name="section" unicode="&#xa7;" horiz-adv-x="555" 
d="M210 -189q-66 0 -121.5 17t-98.5 49l38 68q22 -19 50.5 -32.5t61 -21t67.5 -7.5q63 0 98.5 31.5t35.5 78.5q0 36 -16.5 57t-54.5 43l-109 61q-56 33 -86 72t-30 85q0 47 24 86t69 67l-3 -12q-8 17 -12 34t-4 36q0 59 31.5 101.5t83.5 66t116 23.5q57 0 108.5 -15.5
t91.5 -49.5l-33 -66q-31 27 -76 42.5t-89 15.5q-63 0 -99 -31.5t-36 -79.5q0 -35 16.5 -57t55.5 -44l106 -60q59 -33 88.5 -72t29.5 -84q0 -47 -24.5 -86.5t-69.5 -68.5l3 17q10 -16 14 -34t4 -38q0 -59 -31.5 -102.5t-83 -66.5t-115.5 -23zM137 329q0 -31 21.5 -55.5
t61.5 -49.5l97 -54q25 -16 44 -30.5t31 -31.5l-13 1q22 20 32.5 43.5t10.5 43.5q0 31 -22 55t-64 50l-93 52q-24 15 -43.5 30t-31.5 32l13 4q-22 -21 -33 -45t-11 -45z" />
    <glyph glyph-name="dieresis" unicode="&#xa8;" horiz-adv-x="500" 
d="M347 604l14 99h100l-16 -99h-98zM166 604l14 99h100l-15 -99h-99z" />
    <glyph glyph-name="copyright" unicode="&#xa9;" horiz-adv-x="815" 
d="M429 -9q-76 0 -142.5 27.5t-115.5 76.5t-76.5 115.5t-27.5 142.5q0 77 27.5 143t76.5 114.5t115 76t143 27.5t143 -27.5t114.5 -76t76 -114.5t27.5 -143q0 -76 -27.5 -142.5t-76 -115.5t-114.5 -76.5t-143 -27.5zM444 137q-99 0 -155.5 59.5t-56.5 158.5t56.5 156
t155.5 57q40 0 79.5 -13.5t64.5 -37.5l-28 -62q-24 22 -53 32.5t-57 10.5q-61 0 -95.5 -38t-34.5 -106q0 -67 34.5 -106.5t95.5 -39.5q28 0 57 10.5t53 32.5l28 -63q-25 -23 -65 -37t-79 -14zM429 39q67 0 123.5 23.5t98.5 66.5t65.5 100t23.5 124t-23.5 124t-65.5 99.5
t-98.5 66t-123.5 23.5t-124 -23.5t-99 -66t-65.5 -99.5t-23.5 -124t23.5 -124t65.5 -100t99 -66.5t124 -23.5z" />
    <glyph glyph-name="ordfeminine" unicode="&#xaa;" horiz-adv-x="333" 
d="M160 409q-32 0 -55.5 12.5t-34.5 35t-7 51.5q5 30 25.5 47.5t54.5 25t78 7.5h70l-7 -40h-70q-77 0 -83 -43q-4 -21 8 -34t41 -13q35 0 62 23t34 63l9 58q4 29 -11 44.5t-51 15.5q-25 0 -54 -6.5t-54 -21.5l-16 49q27 15 63.5 23t69.5 8q68 0 98 -31t19 -94l-28 -174h-63
l8 55h-2q-19 -31 -44.5 -46t-59.5 -15z" />
    <glyph glyph-name="guillemotleft" unicode="&#xab;" horiz-adv-x="469" 
d="M129 87l-102 180l160 182h95l-163 -189l96 -173h-86zM323 87l-102 180l160 182h95l-163 -189l96 -173h-86z" />
    <glyph glyph-name="logicalnot" unicode="&#xac;" horiz-adv-x="600" 
d="M453 145l33 207h-416l11 73h493l-45 -280h-76z" />
    <glyph glyph-name="uni00AD" unicode="&#xad;" horiz-adv-x="433" 
d="M67 234l13 81h293l-13 -81h-293z" />
    <glyph glyph-name="registered" unicode="&#xae;" horiz-adv-x="815" 
d="M429 -9q-76 0 -142.5 27.5t-115.5 76.5t-76.5 115.5t-27.5 142.5q0 77 27.5 143t76.5 114.5t115 76t143 27.5t143 -27.5t114.5 -76t76 -114.5t27.5 -143q0 -76 -27.5 -142.5t-76 -115.5t-114.5 -76.5t-143 -27.5zM429 39q67 0 123.5 23.5t98.5 66.5t65.5 100t23.5 124
t-23.5 124t-65.5 99.5t-98.5 66t-123.5 23.5t-124 -23.5t-99 -66t-65.5 -99.5t-23.5 -124t23.5 -124t65.5 -100t99 -66.5t124 -23.5zM279 142v422h178q68 0 105.5 -33.5t37.5 -89.5q0 -58 -37 -88.5t-104 -30.5l17 11q32 0 52.5 -14.5t32.5 -54.5l43 -122h-81l-45 128
q-8 23 -24.5 31t-40.5 8h-68l15 11v-178h-81zM359 371h86q40 0 58.5 16t18.5 50t-18.5 50t-58.5 16h-86v-132z" />
    <glyph glyph-name="macron" unicode="&#xaf;" horiz-adv-x="500" 
d="M156 621l9 64h306l-10 -64h-305z" />
    <glyph glyph-name="degree" unicode="&#xb0;" horiz-adv-x="375" 
d="M238 411q-44 0 -78.5 19.5t-54 54t-19.5 77.5q0 42 19.5 76.5t54.5 54t78 19.5q44 0 77.5 -19.5t53.5 -53.5t20 -78q0 -42 -20 -76.5t-53.5 -54t-77.5 -19.5zM238 473q38 0 61 25t23 64q0 38 -23 63t-61 25q-37 0 -61 -25t-24 -63q0 -39 24 -64t61 -25z" />
    <glyph glyph-name="plusminus" unicode="&#xb1;" horiz-adv-x="600" 
d="M244 133l25 161h-209l12 74h209l26 162h76l-26 -162h206l-11 -74h-207l-25 -161h-76zM13 0l12 74h492l-11 -74h-493z" />
    <glyph glyph-name="uni00B2" unicode="&#xb2;" horiz-adv-x="380" 
d="M54 282l10 60l160 139q31 29 46.5 51t19.5 41q5 34 -11 50t-49 16q-27 0 -58.5 -10t-56.5 -31l-18 63q30 23 69 35.5t83 12.5q68 0 105 -34t27 -95q-5 -27 -24.5 -58t-60.5 -65l-132 -115l-3 10h201l-12 -70h-296z" />
    <glyph glyph-name="uni00B3" unicode="&#xb3;" horiz-adv-x="380" 
d="M200 278q-49 0 -87.5 11.5t-62.5 33.5l23 61q22 -19 53.5 -29.5t68.5 -10.5t61.5 15.5t28.5 47.5q5 30 -14.5 43.5t-56.5 13.5h-81l10 63h70q37 0 60 15.5t28 44.5q4 27 -12 41.5t-54 14.5q-32 0 -66 -11.5t-56 -30.5l-19 61q32 22 73 34.5t86 12.5q70 0 105 -31t26 -84
q-6 -39 -35.5 -66t-68.5 -35l2 9q44 -6 67 -34t15 -75q-8 -54 -54.5 -84.5t-109.5 -30.5z" />
    <glyph glyph-name="acute" unicode="&#xb4;" horiz-adv-x="500" 
d="M263 553l133 202h105l-168 -202h-70z" />
    <glyph glyph-name="uni00B5" unicode="&#xb5;" horiz-adv-x="575" 
d="M-5 -216l113 720h101l-47 -305q-10 -65 11 -96t73 -31q64 0 103.5 42.5t49.5 113.5l42 276h101l-77 -504h-99l17 107h6q-21 -54 -59.5 -85t-91.5 -31q-40 0 -69 15t-42 45l4 1l-34 -268h-102z" />
    <glyph glyph-name="paragraph" unicode="&#xb6;" horiz-adv-x="614" 
d="M183 -180l76 476q-55 0 -95.5 23.5t-62.5 63.5t-22 90q0 70 31 122t85.5 81t123.5 29h283l-140 -885h-77l128 809h-125l-128 -809h-77z" />
    <glyph glyph-name="periodcentered" unicode="&#xb7;" horiz-adv-x="240" 
d="M54 215l19 119h120l-18 -119h-121z" />
    <glyph glyph-name="cedilla" unicode="&#xb8;" horiz-adv-x="500" 
d="M183 -194q-28 0 -52.5 5.5t-41.5 15.5l20 49q17 -8 34 -12t39 -4q27 0 43.5 9t16.5 26q0 11 -9 17.5t-26 6.5q-10 0 -20.5 -1.5t-25.5 -5.5l-16 16l29 92h58l-24 -76l-27 9q12 3 24 5t22 2q36 0 57.5 -16.5t21.5 -47.5q0 -40 -35 -65t-88 -25z" />
    <glyph glyph-name="uni00B9" unicode="&#xb9;" horiz-adv-x="380" 
d="M77 282l12 70h98l44 281l36 -1l-136 -72l12 82l120 63h62l-56 -353h86l-11 -70h-267z" />
    <glyph glyph-name="ordmasculine" unicode="&#xba;" horiz-adv-x="348" 
d="M205 410q-68 0 -105.5 42t-26.5 117q11 69 56 107t112 38q69 0 106.5 -40.5t25.5 -117.5q-10 -68 -55 -107t-113 -39zM209 464q36 0 62.5 25.5t33.5 73.5q8 48 -10 73t-57 25q-37 0 -63 -24.5t-34 -73.5q-7 -49 11 -74t57 -25z" />
    <glyph glyph-name="guillemotright" unicode="&#xbb;" horiz-adv-x="469" 
d="M103 87h-95l162 189l-95 173h86l102 -180zM296 87h-95l162 189l-95 173h86l102 -180z" />
    <glyph glyph-name="onequarter" unicode="&#xbc;" horiz-adv-x="904" 
d="M77 282l12 70h98l44 281l36 -1l-136 -72l12 82l120 63h62l-56 -353h86l-11 -70h-267zM269 -9h-90l540 723h90zM710 0l13 80h-199l9 59l252 284h69l-44 -278h62l-10 -65h-62l-13 -80h-77zM736 145l29 192h14l-182 -207l-1 15h140z" />
    <glyph glyph-name="onehalf" unicode="&#xbd;" horiz-adv-x="950" 
d="M77 282l12 70h98l44 281l36 -1l-136 -72l12 82l120 63h62l-56 -353h86l-11 -70h-267zM269 -9h-90l540 723h90zM579 0l10 60l160 139q31 29 46.5 51t19.5 41q5 34 -11 50t-49 16q-27 0 -58.5 -10t-56.5 -31l-18 63q30 23 69 35.5t83 12.5q68 0 105 -34t27 -95
q-5 -27 -24.5 -58t-60.5 -65l-132 -115l-3 10h201l-12 -70h-296z" />
    <glyph glyph-name="threequarters" unicode="&#xbe;" horiz-adv-x="904" 
d="M200 278q-49 0 -87.5 11.5t-62.5 33.5l23 61q22 -19 53.5 -29.5t68.5 -10.5t61.5 15.5t28.5 47.5q5 30 -14.5 43.5t-56.5 13.5h-81l10 63h70q37 0 60 15.5t28 44.5q4 27 -12 41.5t-54 14.5q-32 0 -66 -11.5t-56 -30.5l-19 61q32 22 73 34.5t86 12.5q70 0 105 -31t26 -84
q-6 -39 -35.5 -66t-68.5 -35l2 9q44 -6 67 -34t15 -75q-8 -54 -54.5 -84.5t-109.5 -30.5zM269 -9h-90l540 723h90zM710 0l13 80h-199l9 59l252 284h69l-44 -278h62l-10 -65h-62l-13 -80h-77zM736 145l29 192h14l-182 -207l-1 15h140z" />
    <glyph glyph-name="questiondown" unicode="&#xbf;" horiz-adv-x="455" 
d="M155 -206q-52 0 -91.5 17t-61 48t-21.5 72q0 44 18 80.5t47 67t61 56.5q57 48 81.5 83t34.5 70l7 21h63l-5 -29q-5 -32 -17 -61t-35.5 -59t-62.5 -66q-21 -20 -41 -43t-33 -48.5t-13 -53.5q0 -32 25.5 -50t70.5 -18q40 0 78 11.5t74 29.5l-14 -89q-36 -19 -80 -29
t-85 -10zM353 504l-19 -119h-120l19 119h120z" />
    <glyph glyph-name="Agrave" unicode="&#xc0;" horiz-adv-x="742" 
d="M-30 0l426 705h89l207 -705h-102l-56 200l40 -28h-427l50 28l-117 -200h-110zM426 591l-209 -359l-21 23h355l-24 -23l-98 359h-3zM414 765l-139 173h108l105 -173h-74z" />
    <glyph glyph-name="Aacute" unicode="&#xc1;" horiz-adv-x="742" 
d="M-30 0l426 705h89l207 -705h-102l-56 200l40 -28h-427l50 28l-117 -200h-110zM426 591l-209 -359l-21 23h355l-24 -23l-98 359h-3zM414 765l131 173h111l-168 -173h-74z" />
    <glyph glyph-name="Acircumflex" unicode="&#xc2;" horiz-adv-x="742" 
d="M-30 0l426 705h89l207 -705h-102l-56 200l40 -28h-427l50 28l-117 -200h-110zM426 591l-209 -359l-21 23h355l-24 -23l-98 359h-3zM276 765l141 173h90l105 -173h-72l-83 112l-109 -112h-72z" />
    <glyph glyph-name="Atilde" unicode="&#xc3;" horiz-adv-x="742" 
d="M-30 0l426 705h89l207 -705h-102l-56 200l40 -28h-427l50 28l-117 -200h-110zM426 591l-209 -359l-21 23h355l-24 -23l-98 359h-3zM288 778l-53 3q11 67 46 103.5t87 36.5q30 0 55.5 -12.5t48.5 -26.5q20 -13 38 -22.5t37 -9.5q57 0 75 75l54 -4q-11 -67 -46 -103.5
t-86 -36.5q-30 0 -56 13t-49 27q-20 12 -38.5 22t-37.5 10q-56 0 -75 -75z" />
    <glyph glyph-name="Adieresis" unicode="&#xc4;" horiz-adv-x="742" 
d="M-30 0l426 705h89l207 -705h-102l-56 200l40 -28h-427l50 28l-117 -200h-110zM426 591l-209 -359l-21 23h355l-24 -23l-98 359h-3zM497 799l16 99h99l-16 -99h-99zM316 799l16 99h99l-16 -99h-99z" />
    <glyph glyph-name="Aring" unicode="&#xc5;" horiz-adv-x="742" 
d="M-30 0l426 705h89l207 -705h-102l-56 200l40 -28h-427l50 28l-117 -200h-110zM426 591l-209 -359l-21 23h355l-24 -23l-98 359h-3zM466 756q-34 0 -62 16.5t-44 43.5t-16 60q0 34 16 60.5t44 42t62 15.5q35 0 62.5 -15.5t43.5 -42.5t16 -60t-16 -60t-43.5 -43.5
t-62.5 -16.5zM466 806q30 0 49 20t19 50q0 29 -18.5 48.5t-49.5 19.5q-30 0 -49.5 -19.5t-19.5 -48.5q0 -30 19.5 -50t49.5 -20z" />
    <glyph glyph-name="AE" unicode="&#xc6;" horiz-adv-x="1011" 
d="M-50 0l545 705h542l-15 -83h-389l26 22l-19 -272l-13 28h339l-13 -84h-334l17 10l-18 -268l-10 26h330l-13 -84h-407l13 195l24 -23h-377l41 28l-151 -200h-118zM536 621l-294 -390l-9 25h316l-14 -27l28 392h-27z" />
    <glyph glyph-name="Ccedilla" unicode="&#xc7;" horiz-adv-x="685" 
d="M377 -9q-117 0 -190 47.5t-100.5 132.5t-10.5 196q18 111 69.5 188.5t132.5 118.5t186 40q71 0 126 -20t94 -58l-39 -83q-43 38 -85.5 53.5t-101.5 15.5q-111 0 -182 -69t-92 -195q-12 -83 5 -145t67 -96t132 -34q53 0 104.5 18t98.5 59l33 -82q-48 -42 -113 -64.5
t-134 -22.5zM333 -194q-28 0 -52.5 5.5t-41.5 15.5l20 49q17 -8 34 -12t39 -4q27 0 43.5 9t16.5 26q0 11 -9 17.5t-26 6.5q-10 0 -20.5 -1.5t-25.5 -5.5l-16 16l29 92h58l-24 -76l-27 9q12 3 24 5t22 2q36 0 57.5 -16.5t21.5 -47.5q0 -40 -35 -65t-88 -25z" />
    <glyph glyph-name="Egrave" unicode="&#xc8;" horiz-adv-x="591" 
d="M43 0l112 705h462l-13 -83h-362l-35 -222h339l-13 -84h-339l-37 -232h361l-13 -84h-462zM375 765l-139 173h108l105 -173h-74z" />
    <glyph glyph-name="Eacute" unicode="&#xc9;" horiz-adv-x="591" 
d="M43 0l112 705h462l-13 -83h-362l-35 -222h339l-13 -84h-339l-37 -232h361l-13 -84h-462zM375 765l131 173h111l-168 -173h-74z" />
    <glyph glyph-name="Ecircumflex" unicode="&#xca;" horiz-adv-x="591" 
d="M43 0l112 705h462l-13 -83h-362l-35 -222h339l-13 -84h-339l-37 -232h361l-13 -84h-462zM237 765l141 173h90l105 -173h-72l-83 112l-109 -112h-72z" />
    <glyph glyph-name="Edieresis" unicode="&#xcb;" horiz-adv-x="591" 
d="M43 0l112 705h462l-13 -83h-362l-35 -222h339l-13 -84h-339l-37 -232h361l-13 -84h-462zM457 799l16 99h99l-16 -99h-99zM276 799l16 99h99l-16 -99h-99z" />
    <glyph glyph-name="Igrave" unicode="&#xcc;" horiz-adv-x="270" 
d="M43 0l112 705h104l-112 -705h-104zM180 765l-139 173h108l105 -173h-74z" />
    <glyph glyph-name="Iacute" unicode="&#xcd;" horiz-adv-x="270" 
d="M43 0l112 705h104l-112 -705h-104zM180 765l131 173h111l-168 -173h-74z" />
    <glyph glyph-name="Icircumflex" unicode="&#xce;" horiz-adv-x="270" 
d="M43 0l112 705h104l-112 -705h-104zM41 765l141 173h90l105 -173h-72l-83 112l-109 -112h-72z" />
    <glyph glyph-name="Idieresis" unicode="&#xcf;" horiz-adv-x="270" 
d="M43 0l112 705h104l-112 -705h-104zM262 799l16 99h99l-16 -99h-99zM81 799l16 99h99l-16 -99h-99z" />
    <glyph glyph-name="Eth" unicode="&#xd0;" horiz-adv-x="754" 
d="M43 0l112 705h234q126 0 202.5 -44t106 -125.5t11.5 -196.5q-27 -170 -134.5 -254.5t-283.5 -84.5h-248zM161 87h133q137 0 214 64.5t97 196.5q22 138 -34.5 204t-193.5 66h-132zM9 319l12 77h385l-13 -77h-384z" />
    <glyph glyph-name="Ntilde" unicode="&#xd1;" horiz-adv-x="750" 
d="M43 0l112 705h80l339 -573l-21 5l90 568h97l-112 -705h-79l-340 573l21 -5l-90 -568h-97zM296 778l-53 3q11 67 46 103.5t87 36.5q30 0 55.5 -12.5t48.5 -26.5q20 -13 38 -22.5t37 -9.5q57 0 75 75l54 -4q-11 -67 -46 -103.5t-86 -36.5q-30 0 -56 13t-49 27
q-20 12 -38.5 22t-37.5 10q-56 0 -75 -75z" />
    <glyph glyph-name="Ograve" unicode="&#xd2;" horiz-adv-x="779" 
d="M77 367q18 111 68 188.5t128.5 118t177.5 40.5q109 0 177.5 -47.5t95.5 -132.5t9 -195q-17 -111 -67.5 -188.5t-128.5 -118.5t-178 -41q-108 0 -177 47.5t-95.5 132.5t-9.5 196zM184 357q-13 -87 3.5 -148.5t62 -94.5t117.5 -33q108 0 174 71.5t85 196.5
q14 86 -3.5 147.5t-62.5 94.5t-117 33q-108 0 -173 -70.5t-86 -196.5zM434 765l-139 173h108l105 -173h-74z" />
    <glyph glyph-name="Oacute" unicode="&#xd3;" horiz-adv-x="779" 
d="M77 367q18 111 68 188.5t128.5 118t177.5 40.5q109 0 177.5 -47.5t95.5 -132.5t9 -195q-17 -111 -67.5 -188.5t-128.5 -118.5t-178 -41q-108 0 -177 47.5t-95.5 132.5t-9.5 196zM184 357q-13 -87 3.5 -148.5t62 -94.5t117.5 -33q108 0 174 71.5t85 196.5
q14 86 -3.5 147.5t-62.5 94.5t-117 33q-108 0 -173 -70.5t-86 -196.5zM434 765l131 173h111l-168 -173h-74z" />
    <glyph glyph-name="Ocircumflex" unicode="&#xd4;" horiz-adv-x="779" 
d="M77 367q18 111 68 188.5t128.5 118t177.5 40.5q109 0 177.5 -47.5t95.5 -132.5t9 -195q-17 -111 -67.5 -188.5t-128.5 -118.5t-178 -41q-108 0 -177 47.5t-95.5 132.5t-9.5 196zM184 357q-13 -87 3.5 -148.5t62 -94.5t117.5 -33q108 0 174 71.5t85 196.5
q14 86 -3.5 147.5t-62.5 94.5t-117 33q-108 0 -173 -70.5t-86 -196.5zM295 765l141 173h90l105 -173h-72l-83 112l-109 -112h-72z" />
    <glyph glyph-name="Otilde" unicode="&#xd5;" horiz-adv-x="779" 
d="M77 367q18 111 68 188.5t128.5 118t177.5 40.5q109 0 177.5 -47.5t95.5 -132.5t9 -195q-17 -111 -67.5 -188.5t-128.5 -118.5t-178 -41q-108 0 -177 47.5t-95.5 132.5t-9.5 196zM184 357q-13 -87 3.5 -148.5t62 -94.5t117.5 -33q108 0 174 71.5t85 196.5
q14 86 -3.5 147.5t-62.5 94.5t-117 33q-108 0 -173 -70.5t-86 -196.5zM307 778l-53 3q11 67 46 103.5t87 36.5q30 0 55.5 -12.5t48.5 -26.5q20 -13 38 -22.5t37 -9.5q57 0 75 75l54 -4q-11 -67 -46 -103.5t-86 -36.5q-30 0 -56 13t-49 27q-20 12 -38.5 22t-37.5 10
q-56 0 -75 -75z" />
    <glyph glyph-name="Odieresis" unicode="&#xd6;" horiz-adv-x="779" 
d="M77 367q18 111 68 188.5t128.5 118t177.5 40.5q109 0 177.5 -47.5t95.5 -132.5t9 -195q-17 -111 -67.5 -188.5t-128.5 -118.5t-178 -41q-108 0 -177 47.5t-95.5 132.5t-9.5 196zM184 357q-13 -87 3.5 -148.5t62 -94.5t117.5 -33q108 0 174 71.5t85 196.5
q14 86 -3.5 147.5t-62.5 94.5t-117 33q-108 0 -173 -70.5t-86 -196.5zM516 799l16 99h99l-16 -99h-99zM335 799l16 99h99l-16 -99h-99z" />
    <glyph glyph-name="multiply" unicode="&#xd7;" horiz-adv-x="600" 
d="M117 50l-52 53l199 184l-165 180l54 52l166 -181l198 181l50 -52l-199 -183l165 -181l-53 -53l-166 182z" />
    <glyph glyph-name="Oslash" unicode="&#xd8;" horiz-adv-x="779" 
d="M77 367q18 111 68 188.5t128.5 118t177.5 40.5q109 0 177.5 -47.5t95.5 -132.5t9 -195q-17 -111 -67.5 -188.5t-128.5 -118.5t-178 -41q-108 0 -177 47.5t-95.5 132.5t-9.5 196zM184 357q-13 -87 3.5 -148.5t62 -94.5t117.5 -33q108 0 174 71.5t85 196.5
q14 86 -3.5 147.5t-62.5 94.5t-117 33q-108 0 -173 -70.5t-86 -196.5zM238 60l-74 -100l-64 44l74 101l40 44l340 453l25 45l74 99l65 -45l-75 -99l-40 -45l-339 -453z" />
    <glyph glyph-name="Ugrave" unicode="&#xd9;" horiz-adv-x="735" 
d="M337 -9q-93 0 -155 32.5t-87.5 98.5t-10.5 164l67 419h104l-67 -420q-16 -102 20.5 -153t138.5 -51q90 0 143 48t70 157l67 419h102l-68 -425q-15 -99 -56 -163t-108 -95t-160 -31zM414 765l-139 173h108l105 -173h-74z" />
    <glyph glyph-name="Uacute" unicode="&#xda;" horiz-adv-x="735" 
d="M337 -9q-93 0 -155 32.5t-87.5 98.5t-10.5 164l67 419h104l-67 -420q-16 -102 20.5 -153t138.5 -51q90 0 143 48t70 157l67 419h102l-68 -425q-15 -99 -56 -163t-108 -95t-160 -31zM414 765l131 173h111l-168 -173h-74z" />
    <glyph glyph-name="Ucircumflex" unicode="&#xdb;" horiz-adv-x="735" 
d="M337 -9q-93 0 -155 32.5t-87.5 98.5t-10.5 164l67 419h104l-67 -420q-16 -102 20.5 -153t138.5 -51q90 0 143 48t70 157l67 419h102l-68 -425q-15 -99 -56 -163t-108 -95t-160 -31zM275 765l141 173h90l105 -173h-72l-83 112l-109 -112h-72z" />
    <glyph glyph-name="Udieresis" unicode="&#xdc;" horiz-adv-x="735" 
d="M337 -9q-93 0 -155 32.5t-87.5 98.5t-10.5 164l67 419h104l-67 -420q-16 -102 20.5 -153t138.5 -51q90 0 143 48t70 157l67 419h102l-68 -425q-15 -99 -56 -163t-108 -95t-160 -31zM496 799l16 99h99l-16 -99h-99zM315 799l16 99h99l-16 -99h-99z" />
    <glyph glyph-name="Yacute" unicode="&#xdd;" horiz-adv-x="617" 
d="M216 0l53 331l11 -66l-225 440h114l168 -337h-25l275 337h120l-366 -443l32 69l-53 -331h-104zM354 765l131 173h111l-168 -173h-74z" />
    <glyph glyph-name="Thorn" unicode="&#xde;" horiz-adv-x="659" 
d="M43 0l112 705h104l-21 -130h185q119 0 172.5 -58.5t37.5 -159.5q-9 -60 -42.5 -103.5t-87.5 -66.5t-128 -23h-202l-26 -164h-104zM186 248h183q72 0 113 29t50 88q10 62 -21.5 94.5t-103.5 32.5h-182z" />
    <glyph glyph-name="germandbls" unicode="&#xdf;" horiz-adv-x="652" 
d="M34 0l77 484q20 130 90 194.5t194 64.5q64 0 110.5 -21.5t67.5 -62.5t12 -101q-6 -37 -27 -72.5t-63 -67.5t-111 -57l1 20q84 -24 136 -55.5t73.5 -74t12.5 -99.5q-7 -51 -37 -87t-75.5 -55t-102.5 -19q-60 0 -105 14t-76 39l31 69q35 -23 70.5 -34.5t77.5 -11.5
q51 0 82.5 23.5t38.5 68.5q6 33 -10.5 62t-64.5 55t-138 50l13 79q64 21 102 45t55.5 51t21.5 57q9 51 -17.5 79.5t-86.5 28.5q-73 0 -115.5 -40.5t-56.5 -129.5l-79 -496h-101z" />
    <glyph glyph-name="agrave" unicode="&#xe0;" horiz-adv-x="609" 
d="M236 -9q-69 0 -116.5 33t-67 94.5t-6.5 147.5q20 121 90.5 184t168.5 63q65 0 109 -32.5t54 -88.5l-11 -2l29 114h97q-7 -31 -14.5 -61.5t-12.5 -59.5l-60 -383h-101l18 114h16q-26 -57 -75 -90t-118 -33zM266 70q64 0 110.5 45t60.5 134q15 93 -18.5 138.5t-101.5 45.5
q-64 0 -109.5 -45t-60.5 -132q-14 -94 18.5 -140t100.5 -46zM311 553l-142 202h102l110 -202h-70z" />
    <glyph glyph-name="aacute" unicode="&#xe1;" horiz-adv-x="609" 
d="M236 -9q-69 0 -116.5 33t-67 94.5t-6.5 147.5q20 121 90.5 184t168.5 63q65 0 109 -32.5t54 -88.5l-11 -2l29 114h97q-7 -31 -14.5 -61.5t-12.5 -59.5l-60 -383h-101l18 114h16q-26 -57 -75 -90t-118 -33zM266 70q64 0 110.5 45t60.5 134q15 93 -18.5 138.5t-101.5 45.5
q-64 0 -109.5 -45t-60.5 -132q-14 -94 18.5 -140t100.5 -46zM312 553l133 202h105l-168 -202h-70z" />
    <glyph glyph-name="acircumflex" unicode="&#xe2;" horiz-adv-x="609" 
d="M236 -9q-69 0 -116.5 33t-67 94.5t-6.5 147.5q20 121 90.5 184t168.5 63q65 0 109 -32.5t54 -88.5l-11 -2l29 114h97q-7 -31 -14.5 -61.5t-12.5 -59.5l-60 -383h-101l18 114h16q-26 -57 -75 -90t-118 -33zM266 70q64 0 110.5 45t60.5 134q15 93 -18.5 138.5t-101.5 45.5
q-64 0 -109.5 -45t-60.5 -132q-14 -94 18.5 -140t100.5 -46zM187 553l132 202h91l89 -202h-66l-73 140l-105 -140h-68z" />
    <glyph glyph-name="atilde" unicode="&#xe3;" horiz-adv-x="609" 
d="M236 -9q-69 0 -116.5 33t-67 94.5t-6.5 147.5q20 121 90.5 184t168.5 63q65 0 109 -32.5t54 -88.5l-11 -2l29 114h97q-7 -31 -14.5 -61.5t-12.5 -59.5l-60 -383h-101l18 114h16q-26 -57 -75 -90t-118 -33zM266 70q64 0 110.5 45t60.5 134q15 93 -18.5 138.5t-101.5 45.5
q-64 0 -109.5 -45t-60.5 -132q-14 -94 18.5 -140t100.5 -46zM219 587l-53 4q10 67 42 103.5t80 36.5q26 0 44.5 -12.5t33.5 -26.5q14 -13 28.5 -23t31.5 -10q50 0 68 75l53 -3q-10 -67 -42 -103.5t-79 -36.5q-26 0 -45.5 12.5t-34.5 26.5q-14 13 -28 22.5t-31 9.5
q-50 0 -68 -75z" />
    <glyph glyph-name="adieresis" unicode="&#xe4;" horiz-adv-x="609" 
d="M236 -9q-69 0 -116.5 33t-67 94.5t-6.5 147.5q20 121 90.5 184t168.5 63q65 0 109 -32.5t54 -88.5l-11 -2l29 114h97q-7 -31 -14.5 -61.5t-12.5 -59.5l-60 -383h-101l18 114h16q-26 -57 -75 -90t-118 -33zM266 70q64 0 110.5 45t60.5 134q15 93 -18.5 138.5t-101.5 45.5
q-64 0 -109.5 -45t-60.5 -132q-14 -94 18.5 -140t100.5 -46zM397 604l14 99h100l-16 -99h-98zM216 604l14 99h100l-15 -99h-99z" />
    <glyph glyph-name="aring" unicode="&#xe5;" horiz-adv-x="609" 
d="M236 -9q-69 0 -116.5 33t-67 94.5t-6.5 147.5q20 121 90.5 184t168.5 63q65 0 109 -32.5t54 -88.5l-11 -2l29 114h97q-7 -31 -14.5 -61.5t-12.5 -59.5l-60 -383h-101l18 114h16q-26 -57 -75 -90t-118 -33zM266 70q64 0 110.5 45t60.5 134q15 93 -18.5 138.5t-101.5 45.5
q-64 0 -109.5 -45t-60.5 -132q-14 -94 18.5 -140t100.5 -46zM366 546q-34 0 -62 16t-44.5 43t-16.5 60q0 34 16.5 60.5t44 42.5t61.5 16q35 0 62.5 -16t43.5 -43t16 -60t-16 -60t-43 -43t-62 -16zM365 596q31 0 50 20t19 49q0 30 -19 49.5t-49 19.5t-49.5 -19.5t-19.5 -49.5
t19 -49.5t49 -19.5z" />
    <glyph glyph-name="ae" unicode="&#xe6;" horiz-adv-x="877" 
d="M209 -9q-63 0 -103.5 23.5t-57.5 62.5t-10 84q10 52 47 81.5t103 42t161 12.5h51l-9 -57h-54q-62 0 -106.5 -7.5t-69.5 -26t-31 -52.5q-6 -40 18 -65.5t74 -25.5q62 0 102.5 39t50.5 103l18 113q10 61 -17 88.5t-78 27.5q-48 0 -88.5 -11t-87.5 -38l-29 71q29 18 64.5 31
t73.5 19.5t74 6.5q81 0 121 -30t47 -87h-31q36 58 90 87.5t119 29.5q70 0 115.5 -31t64.5 -85.5t8 -126.5l-5 -30h-371l9 58h302l-18 -15q11 77 -17 117.5t-93 40.5q-46 0 -80.5 -21.5t-55 -58.5t-26.5 -84l-5 -28q-11 -86 26 -132.5t120 -46.5q40 0 79 12.5t75 41.5l32 -69
q-39 -31 -91.5 -47.5t-105.5 -16.5q-89 0 -143.5 39t-73.5 111h25q-27 -71 -82 -110.5t-131 -39.5z" />
    <glyph glyph-name="ccedilla" unicode="&#xe7;" horiz-adv-x="499" 
d="M264 -9q-78 0 -132 33.5t-76.5 95t-9.5 146.5q20 121 95 184t185 63q48 0 91 -14.5t70 -43.5l-36 -69q-25 24 -57.5 35.5t-63.5 11.5q-70 0 -118.5 -44.5t-62.5 -131.5t21 -136t109 -49q33 0 69 12t68 40l31 -71q-31 -29 -81.5 -45.5t-101.5 -16.5zM229 -194
q-28 0 -52.5 5.5t-41.5 15.5l20 49q17 -8 34 -12t39 -4q27 0 43.5 9t16.5 26q0 11 -9 17.5t-26 6.5q-10 0 -20.5 -1.5t-25.5 -5.5l-16 16l29 92h58l-24 -76l-27 9q12 3 24 5t22 2q36 0 57.5 -16.5t21.5 -47.5q0 -40 -35 -65t-88 -25z" />
    <glyph glyph-name="egrave" unicode="&#xe8;" horiz-adv-x="546" 
d="M279 -9q-86 0 -142.5 34t-79.5 97t-10 147q13 77 49 131.5t92 83.5t128 29q71 0 117 -31t65.5 -85.5t8.5 -126.5l-5 -30h-379l9 58h310l-18 -15q11 77 -17.5 117.5t-95.5 40.5q-47 0 -82 -21.5t-56 -58.5t-27 -84l-5 -28q-11 -86 26 -132.5t123 -46.5q42 0 82 12.5
t75 41.5l32 -69q-40 -31 -92.5 -47.5t-107.5 -16.5zM299 553l-142 202h102l110 -202h-70z" />
    <glyph glyph-name="eacute" unicode="&#xe9;" horiz-adv-x="546" 
d="M279 -9q-86 0 -142.5 34t-79.5 97t-10 147q13 77 49 131.5t92 83.5t128 29q71 0 117 -31t65.5 -85.5t8.5 -126.5l-5 -30h-379l9 58h310l-18 -15q11 77 -17.5 117.5t-95.5 40.5q-47 0 -82 -21.5t-56 -58.5t-27 -84l-5 -28q-11 -86 26 -132.5t123 -46.5q42 0 82 12.5
t75 41.5l32 -69q-40 -31 -92.5 -47.5t-107.5 -16.5zM300 553l133 202h105l-168 -202h-70z" />
    <glyph glyph-name="ecircumflex" unicode="&#xea;" horiz-adv-x="546" 
d="M279 -9q-86 0 -142.5 34t-79.5 97t-10 147q13 77 49 131.5t92 83.5t128 29q71 0 117 -31t65.5 -85.5t8.5 -126.5l-5 -30h-379l9 58h310l-18 -15q11 77 -17.5 117.5t-95.5 40.5q-47 0 -82 -21.5t-56 -58.5t-27 -84l-5 -28q-11 -86 26 -132.5t123 -46.5q42 0 82 12.5
t75 41.5l32 -69q-40 -31 -92.5 -47.5t-107.5 -16.5zM175 553l132 202h91l89 -202h-66l-73 140l-105 -140h-68z" />
    <glyph glyph-name="edieresis" unicode="&#xeb;" horiz-adv-x="546" 
d="M279 -9q-86 0 -142.5 34t-79.5 97t-10 147q13 77 49 131.5t92 83.5t128 29q71 0 117 -31t65.5 -85.5t8.5 -126.5l-5 -30h-379l9 58h310l-18 -15q11 77 -17.5 117.5t-95.5 40.5q-47 0 -82 -21.5t-56 -58.5t-27 -84l-5 -28q-11 -86 26 -132.5t123 -46.5q42 0 82 12.5
t75 41.5l32 -69q-40 -31 -92.5 -47.5t-107.5 -16.5zM385 604l14 99h100l-16 -99h-98zM204 604l14 99h100l-15 -99h-99z" />
    <glyph glyph-name="igrave" unicode="&#xec;" horiz-adv-x="249" 
d="M34 0l79 504h101l-79 -504h-101zM136 553l-142 202h102l110 -202h-70z" />
    <glyph glyph-name="iacute" unicode="&#xed;" horiz-adv-x="249" 
d="M34 0l79 504h101l-79 -504h-101zM138 553l133 202h105l-168 -202h-70z" />
    <glyph glyph-name="icircumflex" unicode="&#xee;" horiz-adv-x="249" 
d="M34 0l79 504h101l-79 -504h-101zM13 553l132 202h91l89 -202h-66l-73 140l-105 -140h-68z" />
    <glyph glyph-name="idieresis" unicode="&#xef;" horiz-adv-x="249" 
d="M34 0l79 504h101l-79 -504h-101zM223 604l14 99h100l-16 -99h-98zM42 604l14 99h100l-15 -99h-99z" />
    <glyph glyph-name="eth" unicode="&#xf0;" horiz-adv-x="587" 
d="M258 -9q-76 0 -128.5 30.5t-75.5 86.5t-11 130q10 67 46 116t91 76t124 27q73 0 120.5 -35.5t56.5 -110.5h-26q13 83 -9 157.5t-78 127.5l25 -1l-212 -85l-20 48l180 72l-1 -13q-28 21 -61 36t-70 24l27 67q63 -12 111.5 -34.5t85.5 -53.5l-23 3l127 51l21 -47l-106 -43
l3 15q42 -46 66 -104t30 -123.5t-6 -135.5q-21 -137 -96 -209t-191 -72zM264 71q66 0 111 41t56 111q12 73 -20.5 114t-100.5 41q-66 0 -110.5 -39.5t-56.5 -112.5q-12 -74 21 -114.5t100 -40.5z" />
    <glyph glyph-name="ntilde" unicode="&#xf1;" horiz-adv-x="593" 
d="M34 0l60 383q5 29 7.5 59.5t3.5 61.5h98l-7 -106l-13 -1q30 57 81.5 86.5t117.5 29.5q92 0 128.5 -53t19.5 -156l-47 -304h-101l47 303q11 69 -11.5 99t-76.5 30q-65 0 -107.5 -39.5t-52.5 -104.5l-46 -288h-101zM217 587l-53 4q10 67 42 103.5t80 36.5q26 0 44.5 -12.5
t33.5 -26.5q14 -13 28.5 -23t31.5 -10q50 0 68 75l53 -3q-10 -67 -42 -103.5t-79 -36.5q-26 0 -45.5 12.5t-34.5 26.5q-14 13 -28 22.5t-31 9.5q-50 0 -68 -75z" />
    <glyph glyph-name="ograve" unicode="&#xf2;" horiz-adv-x="581" 
d="M258 -9q-78 0 -130 32t-73.5 94t-8.5 149q13 80 51.5 135.5t96 83.5t128.5 28q80 0 131.5 -32.5t73 -94t7.5 -147.5q-13 -81 -51.5 -136t-96 -83.5t-128.5 -28.5zM265 70q63 0 109 45t60 134q15 93 -18.5 138.5t-99.5 45.5q-65 0 -109.5 -45t-59.5 -132q-14 -94 18 -140
t100 -46zM303 553l-142 202h102l110 -202h-70z" />
    <glyph glyph-name="oacute" unicode="&#xf3;" horiz-adv-x="581" 
d="M258 -9q-78 0 -130 32t-73.5 94t-8.5 149q13 80 51.5 135.5t96 83.5t128.5 28q80 0 131.5 -32.5t73 -94t7.5 -147.5q-13 -81 -51.5 -136t-96 -83.5t-128.5 -28.5zM265 70q63 0 109 45t60 134q15 93 -18.5 138.5t-99.5 45.5q-65 0 -109.5 -45t-59.5 -132q-14 -94 18 -140
t100 -46zM304 553l133 202h105l-168 -202h-70z" />
    <glyph glyph-name="ocircumflex" unicode="&#xf4;" horiz-adv-x="581" 
d="M258 -9q-78 0 -130 32t-73.5 94t-8.5 149q13 80 51.5 135.5t96 83.5t128.5 28q80 0 131.5 -32.5t73 -94t7.5 -147.5q-13 -81 -51.5 -136t-96 -83.5t-128.5 -28.5zM265 70q63 0 109 45t60 134q15 93 -18.5 138.5t-99.5 45.5q-65 0 -109.5 -45t-59.5 -132q-14 -94 18 -140
t100 -46zM179 553l132 202h91l89 -202h-66l-73 140l-105 -140h-68z" />
    <glyph glyph-name="otilde" unicode="&#xf5;" horiz-adv-x="581" 
d="M258 -9q-78 0 -130 32t-73.5 94t-8.5 149q13 80 51.5 135.5t96 83.5t128.5 28q80 0 131.5 -32.5t73 -94t7.5 -147.5q-13 -81 -51.5 -136t-96 -83.5t-128.5 -28.5zM265 70q63 0 109 45t60 134q15 93 -18.5 138.5t-99.5 45.5q-65 0 -109.5 -45t-59.5 -132q-14 -94 18 -140
t100 -46zM211 587l-53 4q10 67 42 103.5t80 36.5q26 0 44.5 -12.5t33.5 -26.5q14 -13 28.5 -23t31.5 -10q50 0 68 75l53 -3q-10 -67 -42 -103.5t-79 -36.5q-26 0 -45.5 12.5t-34.5 26.5q-14 13 -28 22.5t-31 9.5q-50 0 -68 -75z" />
    <glyph glyph-name="odieresis" unicode="&#xf6;" horiz-adv-x="581" 
d="M258 -9q-78 0 -130 32t-73.5 94t-8.5 149q13 80 51.5 135.5t96 83.5t128.5 28q80 0 131.5 -32.5t73 -94t7.5 -147.5q-13 -81 -51.5 -136t-96 -83.5t-128.5 -28.5zM265 70q63 0 109 45t60 134q15 93 -18.5 138.5t-99.5 45.5q-65 0 -109.5 -45t-59.5 -132q-14 -94 18 -140
t100 -46zM389 604l14 99h100l-16 -99h-98zM208 604l14 99h100l-15 -99h-99z" />
    <glyph glyph-name="divide" unicode="&#xf7;" horiz-adv-x="600" 
d="M53 250l11 74h493l-11 -74h-493zM213 42l16 94h94l-15 -94h-95zM277 438l14 94h95l-15 -94h-94z" />
    <glyph glyph-name="oslash" unicode="&#xf8;" horiz-adv-x="581" 
d="M258 -9q-78 0 -130 32t-73.5 94t-8.5 149q13 80 51.5 135.5t96 83.5t128.5 28q80 0 131.5 -32.5t73 -94t7.5 -147.5q-13 -81 -51.5 -136t-96 -83.5t-128.5 -28.5zM265 70q68 0 115 45.5t61 133.5q15 91 -19.5 137.5t-105.5 46.5q-69 0 -115.5 -45t-60.5 -133
q-14 -89 18 -137t107 -48zM118 -37l-49 35l398 541l47 -34z" />
    <glyph glyph-name="ugrave" unicode="&#xf9;" horiz-adv-x="586" 
d="M220 -9q-90 0 -132 51t-26 156l48 306h101l-48 -303q-10 -68 12.5 -98.5t77.5 -30.5q62 0 102 40t51 107l45 285h101l-80 -504h-98l16 108h15q-28 -56 -76 -86.5t-109 -30.5zM305 554l-142 202h102l110 -202h-70z" />
    <glyph glyph-name="uacute" unicode="&#xfa;" horiz-adv-x="586" 
d="M220 -9q-90 0 -132 51t-26 156l48 306h101l-48 -303q-10 -68 12.5 -98.5t77.5 -30.5q62 0 102 40t51 107l45 285h101l-80 -504h-98l16 108h15q-28 -56 -76 -86.5t-109 -30.5zM306 554l133 202h105l-168 -202h-70z" />
    <glyph glyph-name="ucircumflex" unicode="&#xfb;" horiz-adv-x="586" 
d="M220 -9q-90 0 -132 51t-26 156l48 306h101l-48 -303q-10 -68 12.5 -98.5t77.5 -30.5q62 0 102 40t51 107l45 285h101l-80 -504h-98l16 108h15q-28 -56 -76 -86.5t-109 -30.5zM181 554l132 202h91l89 -202h-66l-73 140l-105 -140h-68z" />
    <glyph glyph-name="udieresis" unicode="&#xfc;" horiz-adv-x="586" 
d="M220 -9q-90 0 -132 51t-26 156l48 306h101l-48 -303q-10 -68 12.5 -98.5t77.5 -30.5q62 0 102 40t51 107l45 285h101l-80 -504h-98l16 108h15q-28 -56 -76 -86.5t-109 -30.5zM391 605l14 99h100l-16 -99h-98zM210 605l14 99h100l-15 -99h-99z" />
    <glyph glyph-name="yacute" unicode="&#xfd;" horiz-adv-x="536" 
d="M-16 -227l-17 82q49 10 83 24t58.5 36.5t45.5 57.5l34 59l-4 -41l-139 513h105l104 -420h-27l237 420h107l-316 -540q-30 -50 -60.5 -84t-63 -55t-69 -33t-78.5 -19zM281 553l133 202h105l-168 -202h-70z" />
    <glyph glyph-name="thorn" unicode="&#xfe;" horiz-adv-x="609" 
d="M0 -216l151 952h101l-55 -344l-16 -2q26 57 75 90t118 33q70 0 117 -33t67 -94.5t6 -146.5q-20 -122 -90.5 -185t-168.5 -63q-65 0 -109 32.5t-54 88.5h11l-52 -328h-101zM293 70q65 0 110 45t60 134q14 93 -18 138.5t-101 45.5q-64 0 -110.5 -45t-60.5 -132
q-14 -94 19 -140t101 -46z" />
    <glyph glyph-name="ydieresis" unicode="&#xff;" horiz-adv-x="536" 
d="M-16 -227l-17 82q49 10 83 24t58.5 36.5t45.5 57.5l34 59l-4 -41l-139 513h105l104 -420h-27l237 420h107l-316 -540q-30 -50 -60.5 -84t-63 -55t-69 -33t-78.5 -19zM366 604l14 99h100l-16 -99h-98zM185 604l14 99h100l-15 -99h-99z" />
    <glyph glyph-name="Amacron" unicode="&#x100;" horiz-adv-x="742" 
d="M-30 0l426 705h89l207 -705h-102l-56 200l40 -28h-427l50 28l-117 -200h-110zM426 591l-209 -359l-21 23h355l-24 -23l-98 359h-3zM291 811l9 63h336l-10 -63h-335z" />
    <glyph glyph-name="amacron" unicode="&#x101;" horiz-adv-x="609" 
d="M236 -9q-69 0 -116.5 33t-67 94.5t-6.5 147.5q20 121 90.5 184t168.5 63q65 0 109 -32.5t54 -88.5l-11 -2l29 114h97q-7 -31 -14.5 -61.5t-12.5 -59.5l-60 -383h-101l18 114h16q-26 -57 -75 -90t-118 -33zM266 70q64 0 110.5 45t60.5 134q15 93 -18.5 138.5t-101.5 45.5
q-64 0 -109.5 -45t-60.5 -132q-14 -94 18.5 -140t100.5 -46zM206 621l9 64h306l-10 -64h-305z" />
    <glyph glyph-name="Abreve" unicode="&#x102;" horiz-adv-x="742" 
d="M-30 0l426 705h89l207 -705h-102l-56 200l40 -28h-427l50 28l-117 -200h-110zM426 591l-209 -359l-21 23h355l-24 -23l-98 359h-3zM454 760q-49 0 -85.5 21t-56.5 59.5t-20 88.5l60 8q-1 -54 28 -83.5t78 -29.5q50 0 83 29.5t42 83.5l59 -8q-12 -78 -63 -123.5
t-125 -45.5z" />
    <glyph glyph-name="abreve" unicode="&#x103;" horiz-adv-x="609" 
d="M236 -9q-69 0 -116.5 33t-67 94.5t-6.5 147.5q20 121 90.5 184t168.5 63q65 0 109 -32.5t54 -88.5l-11 -2l29 114h97q-7 -31 -14.5 -61.5t-12.5 -59.5l-60 -383h-101l18 114h16q-26 -57 -75 -90t-118 -33zM266 70q64 0 110.5 45t60.5 134q15 93 -18.5 138.5t-101.5 45.5
q-64 0 -109.5 -45t-60.5 -132q-14 -94 18.5 -140t100.5 -46zM356 550q-46 0 -80 23t-51.5 66t-14.5 102l61 6q-3 -64 21 -98.5t68 -34.5t72.5 34.5t37.5 98.5l60 -6q-7 -59 -30.5 -102t-60 -66t-83.5 -23z" />
    <glyph glyph-name="Aogonek" unicode="&#x104;" horiz-adv-x="742" 
d="M-30 0l426 705h89l207 -705h-102l-56 200l40 -28h-427l50 28l-117 -200h-110zM426 591l-209 -359l-21 23h355l-24 -23l-98 359h-3zM625 -194q-49 0 -75 25.5t-26 66.5q0 47 31 84.5t79 56.5l28 -39q-36 -15 -53 -38t-17 -48q0 -22 13.5 -36t38.5 -14q13 0 26 3t28 9
l11 -54q-20 -6 -40.5 -11t-43.5 -5z" />
    <glyph glyph-name="aogonek" unicode="&#x105;" horiz-adv-x="609" 
d="M236 -9q-69 0 -116.5 33t-67 94.5t-6.5 147.5q20 121 90.5 184t168.5 63q65 0 109 -32.5t54 -88.5l-11 -2l29 114h97q-7 -31 -14.5 -61.5t-12.5 -59.5l-60 -383h-101l18 114h16q-26 -57 -75 -90t-118 -33zM266 70q64 0 110.5 45t60.5 134q15 93 -18.5 138.5t-101.5 45.5
q-64 0 -109.5 -45t-60.5 -132q-14 -94 18.5 -140t100.5 -46zM443 -194q-49 0 -75 25.5t-26 66.5q0 47 31 84.5t79 56.5l28 -39q-36 -15 -53 -38t-17 -48q0 -22 13.5 -36t38.5 -14q13 0 26 3t28 9l11 -54q-20 -6 -40.5 -11t-43.5 -5z" />
    <glyph glyph-name="Cacute" unicode="&#x106;" horiz-adv-x="685" 
d="M377 -9q-117 0 -190 47.5t-100.5 132.5t-10.5 196q18 111 69.5 188.5t132.5 118.5t186 40q71 0 126 -20t94 -58l-39 -83q-43 38 -85.5 53.5t-101.5 15.5q-111 0 -182 -69t-92 -195q-12 -83 5 -145t67 -96t132 -34q53 0 104.5 18t98.5 59l33 -82q-48 -42 -113 -64.5
t-134 -22.5zM440 765l131 173h111l-168 -173h-74z" />
    <glyph glyph-name="cacute" unicode="&#x107;" horiz-adv-x="499" 
d="M264 -9q-78 0 -132 33.5t-76.5 95t-9.5 146.5q20 121 95 184t185 63q48 0 91 -14.5t70 -43.5l-36 -69q-25 24 -57.5 35.5t-63.5 11.5q-70 0 -118.5 -44.5t-62.5 -131.5t21 -136t109 -49q33 0 69 12t68 40l31 -71q-31 -29 -81.5 -45.5t-101.5 -16.5zM303 553l133 202h105
l-168 -202h-70z" />
    <glyph glyph-name="Ccircumflex" unicode="&#x108;" horiz-adv-x="685" 
d="M377 -9q-117 0 -190 47.5t-100.5 132.5t-10.5 196q18 111 69.5 188.5t132.5 118.5t186 40q71 0 126 -20t94 -58l-39 -83q-43 38 -85.5 53.5t-101.5 15.5q-111 0 -182 -69t-92 -195q-12 -83 5 -145t67 -96t132 -34q53 0 104.5 18t98.5 59l33 -82q-48 -42 -113 -64.5
t-134 -22.5zM301 765l141 173h90l105 -173h-72l-83 112l-109 -112h-72z" />
    <glyph glyph-name="ccircumflex" unicode="&#x109;" horiz-adv-x="499" 
d="M264 -9q-78 0 -132 33.5t-76.5 95t-9.5 146.5q20 121 95 184t185 63q48 0 91 -14.5t70 -43.5l-36 -69q-25 24 -57.5 35.5t-63.5 11.5q-70 0 -118.5 -44.5t-62.5 -131.5t21 -136t109 -49q33 0 69 12t68 40l31 -71q-31 -29 -81.5 -45.5t-101.5 -16.5zM177 553l132 202h91
l89 -202h-66l-73 140l-105 -140h-68z" />
    <glyph glyph-name="Cdotaccent" unicode="&#x10a;" horiz-adv-x="685" 
d="M377 -9q-117 0 -190 47.5t-100.5 132.5t-10.5 196q18 111 69.5 188.5t132.5 118.5t186 40q71 0 126 -20t94 -58l-39 -83q-43 38 -85.5 53.5t-101.5 15.5q-111 0 -182 -69t-92 -195q-12 -83 5 -145t67 -96t132 -34q53 0 104.5 18t98.5 59l33 -82q-48 -42 -113 -64.5
t-134 -22.5zM430 801l15 101h104l-16 -101h-103z" />
    <glyph glyph-name="cdotaccent" unicode="&#x10b;" horiz-adv-x="499" 
d="M264 -9q-78 0 -132 33.5t-76.5 95t-9.5 146.5q20 121 95 184t185 63q48 0 91 -14.5t70 -43.5l-36 -69q-25 24 -57.5 35.5t-63.5 11.5q-70 0 -118.5 -44.5t-62.5 -131.5t21 -136t109 -49q33 0 69 12t68 40l31 -71q-31 -29 -81.5 -45.5t-101.5 -16.5zM293 603l16 101h105
l-16 -101h-105z" />
    <glyph glyph-name="Ccaron" unicode="&#x10c;" horiz-adv-x="685" 
d="M377 -9q-117 0 -190 47.5t-100.5 132.5t-10.5 196q18 111 69.5 188.5t132.5 118.5t186 40q71 0 126 -20t94 -58l-39 -83q-43 38 -85.5 53.5t-101.5 15.5q-111 0 -182 -69t-92 -195q-12 -83 5 -145t67 -96t132 -34q53 0 104.5 18t98.5 59l33 -82q-48 -42 -113 -64.5
t-134 -22.5zM431 765l-106 173h70l84 -112l107 112h76l-141 -173h-90z" />
    <glyph glyph-name="ccaron" unicode="&#x10d;" horiz-adv-x="499" 
d="M264 -9q-78 0 -132 33.5t-76.5 95t-9.5 146.5q20 121 95 184t185 63q48 0 91 -14.5t70 -43.5l-36 -69q-25 24 -57.5 35.5t-63.5 11.5q-70 0 -118.5 -44.5t-62.5 -131.5t21 -136t109 -49q33 0 69 12t68 40l31 -71q-31 -29 -81.5 -45.5t-101.5 -16.5zM292 553l-89 202h66
l73 -141l105 141h67l-131 -202h-91z" />
    <glyph glyph-name="Dcaron" unicode="&#x10e;" horiz-adv-x="754" 
d="M43 0l112 705h234q126 0 202.5 -44t106 -125.5t11.5 -196.5q-27 -170 -134.5 -254.5t-283.5 -84.5h-248zM161 87h133q137 0 214 64.5t97 196.5q22 138 -34.5 204t-193.5 66h-132zM420 765l-106 173h70l84 -112l107 112h76l-141 -173h-90z" />
    <glyph glyph-name="dcaron" unicode="&#x10f;" horiz-adv-x="609" 
d="M236 -9q-69 0 -116.5 33t-67 94.5t-6.5 147.5q20 121 90.5 184t168.5 63q65 0 109 -32.5t54 -88.5h-11l55 344h101l-117 -736h-100l18 114h15q-26 -57 -75 -90t-118 -33zM266 70q64 0 110.5 45t60.5 134q15 93 -18.5 138.5t-101.5 45.5q-64 0 -109.5 -45t-60.5 -132
q-14 -94 18.5 -140t100.5 -46zM627 545l31 191h74l-56 -191h-49z" />
    <glyph glyph-name="Dcroat" unicode="&#x110;" horiz-adv-x="754" 
d="M43 0l112 705h234q126 0 202.5 -44t106 -125.5t11.5 -196.5q-27 -170 -134.5 -254.5t-283.5 -84.5h-248zM161 87h133q137 0 214 64.5t97 196.5q22 138 -34.5 204t-193.5 66h-132zM9 319l12 77h385l-13 -77h-384z" />
    <glyph glyph-name="dcroat" unicode="&#x111;" horiz-adv-x="609" 
d="M236 -9q-69 0 -116.5 32t-67 92.5t-6.5 143.5q20 120 90.5 181.5t168.5 61.5q65 0 109 -32t54 -87l-11 9l30 184h-194l11 73h194l14 87h101l-14 -87h92l-12 -73h-92l-91 -576h-100l18 114l15 -2q-26 -56 -75 -88.5t-118 -32.5zM266 70q64 0 110.5 44t60.5 129
q15 90 -18.5 134.5t-101.5 44.5q-64 0 -109.5 -43.5t-60.5 -129.5q-14 -89 18.5 -134t100.5 -45z" />
    <glyph glyph-name="Emacron" unicode="&#x112;" horiz-adv-x="591" 
d="M43 0l112 705h462l-13 -83h-362l-35 -222h339l-13 -84h-339l-37 -232h361l-13 -84h-462zM251 811l9 63h336l-10 -63h-335z" />
    <glyph glyph-name="emacron" unicode="&#x113;" horiz-adv-x="546" 
d="M279 -9q-86 0 -142.5 34t-79.5 97t-10 147q13 77 49 131.5t92 83.5t128 29q71 0 117 -31t65.5 -85.5t8.5 -126.5l-5 -30h-379l9 58h310l-18 -15q11 77 -17.5 117.5t-95.5 40.5q-47 0 -82 -21.5t-56 -58.5t-27 -84l-5 -28q-11 -86 26 -132.5t123 -46.5q42 0 82 12.5
t75 41.5l32 -69q-40 -31 -92.5 -47.5t-107.5 -16.5zM194 621l9 64h306l-10 -64h-305z" />
    <glyph glyph-name="Ebreve" unicode="&#x114;" horiz-adv-x="591" 
d="M43 0l112 705h462l-13 -83h-362l-35 -222h339l-13 -84h-339l-37 -232h361l-13 -84h-462zM415 760q-49 0 -85.5 21t-56.5 59.5t-20 88.5l60 8q-1 -54 28 -83.5t78 -29.5q50 0 83 29.5t42 83.5l59 -8q-12 -78 -63 -123.5t-125 -45.5z" />
    <glyph glyph-name="ebreve" unicode="&#x115;" horiz-adv-x="546" 
d="M279 -9q-86 0 -142.5 34t-79.5 97t-10 147q13 77 49 131.5t92 83.5t128 29q71 0 117 -31t65.5 -85.5t8.5 -126.5l-5 -30h-379l9 58h310l-18 -15q11 77 -17.5 117.5t-95.5 40.5q-47 0 -82 -21.5t-56 -58.5t-27 -84l-5 -28q-11 -86 26 -132.5t123 -46.5q42 0 82 12.5
t75 41.5l32 -69q-40 -31 -92.5 -47.5t-107.5 -16.5zM343 550q-46 0 -80 23t-51.5 66t-14.5 102l61 6q-3 -64 21 -98.5t68 -34.5t72.5 34.5t37.5 98.5l60 -6q-7 -59 -30.5 -102t-60 -66t-83.5 -23z" />
    <glyph glyph-name="Edotaccent" unicode="&#x116;" horiz-adv-x="591" 
d="M43 0l112 705h462l-13 -83h-362l-35 -222h339l-13 -84h-339l-37 -232h361l-13 -84h-462zM365 801l15 101h104l-16 -101h-103z" />
    <glyph glyph-name="edotaccent" unicode="&#x117;" horiz-adv-x="546" 
d="M279 -9q-86 0 -142.5 34t-79.5 97t-10 147q13 77 49 131.5t92 83.5t128 29q71 0 117 -31t65.5 -85.5t8.5 -126.5l-5 -30h-379l9 58h310l-18 -15q11 77 -17.5 117.5t-95.5 40.5q-47 0 -82 -21.5t-56 -58.5t-27 -84l-5 -28q-11 -86 26 -132.5t123 -46.5q42 0 82 12.5
t75 41.5l32 -69q-40 -31 -92.5 -47.5t-107.5 -16.5zM290 603l16 101h105l-16 -101h-105z" />
    <glyph glyph-name="Eogonek" unicode="&#x118;" horiz-adv-x="591" 
d="M43 0l112 705h462l-13 -83h-362l-35 -222h339l-13 -84h-339l-37 -232h361l-13 -84h-462zM430 -194q-49 0 -75 25.5t-26 66.5q0 47 31 84.5t79 56.5l28 -39q-36 -15 -53 -38t-17 -48q0 -22 13.5 -36t38.5 -14q13 0 26 3t28 9l11 -54q-20 -6 -40.5 -11t-43.5 -5z" />
    <glyph glyph-name="eogonek" unicode="&#x119;" horiz-adv-x="546" 
d="M279 -9q-86 0 -142.5 34t-79.5 97t-10 147q13 77 49 131.5t92 83.5t128 29q71 0 117 -31t65.5 -85.5t8.5 -126.5l-5 -30h-379l9 58h310l-18 -15q11 77 -17.5 117.5t-95.5 40.5q-47 0 -82 -21.5t-56 -58.5t-27 -84l-5 -28q-11 -86 26 -132.5t123 -46.5q42 0 82 12.5
t75 41.5l32 -69q-40 -31 -92.5 -47.5t-107.5 -16.5zM299 -194q-49 0 -75 25.5t-26 66.5q0 47 31 84.5t79 56.5l28 -39q-36 -15 -53 -38t-17 -48q0 -22 13.5 -36t38.5 -14q13 0 26 3t28 9l11 -54q-20 -6 -40.5 -11t-43.5 -5z" />
    <glyph glyph-name="Ecaron" unicode="&#x11a;" horiz-adv-x="591" 
d="M43 0l112 705h462l-13 -83h-362l-35 -222h339l-13 -84h-339l-37 -232h361l-13 -84h-462zM367 765l-106 173h70l84 -112l107 112h76l-141 -173h-90z" />
    <glyph glyph-name="ecaron" unicode="&#x11b;" horiz-adv-x="546" 
d="M279 -9q-86 0 -142.5 34t-79.5 97t-10 147q13 77 49 131.5t92 83.5t128 29q71 0 117 -31t65.5 -85.5t8.5 -126.5l-5 -30h-379l9 58h310l-18 -15q11 77 -17.5 117.5t-95.5 40.5q-47 0 -82 -21.5t-56 -58.5t-27 -84l-5 -28q-11 -86 26 -132.5t123 -46.5q42 0 82 12.5
t75 41.5l32 -69q-40 -31 -92.5 -47.5t-107.5 -16.5zM289 553l-89 202h66l73 -141l105 141h67l-131 -202h-91z" />
    <glyph glyph-name="Gcircumflex" unicode="&#x11c;" horiz-adv-x="735" 
d="M386 -9q-124 0 -198.5 46t-101.5 130.5t-9 197.5q18 112 71.5 189.5t137.5 118.5t192 41q77 0 131 -19t92 -53l-41 -83q-40 34 -81 49t-106 15q-120 0 -194.5 -70t-94.5 -199t29.5 -201t180.5 -72q50 0 93.5 8.5t87.5 26.5l-32 -50l36 231h-173l13 78h261l-53 -330
q-31 -17 -72 -29t-85 -18.5t-84 -6.5zM311 765l141 173h90l105 -173h-72l-83 112l-109 -112h-72z" />
    <glyph glyph-name="gcircumflex" unicode="&#x11d;" horiz-adv-x="612" 
d="M231 -224q-66 0 -119 16t-93 48l32 74q27 -20 55 -33t59.5 -19t66.5 -6q74 0 115 36.5t52 105.5l22 135h11q-23 -55 -74 -88t-118 -33q-68 0 -116 32.5t-68 92t-8 139.5q19 115 89 176t170 61q66 0 110.5 -32.5t52.5 -88.5l-7 8l26 104h98q-9 -31 -16 -61.5t-11 -59.5
l-59 -373q-18 -114 -86.5 -174t-183.5 -60zM269 91q67 0 112.5 45t58.5 125q13 84 -19.5 128t-99.5 44q-68 0 -113.5 -44t-59.5 -125q-13 -83 20 -128t101 -45zM197 553l132 202h91l89 -202h-66l-73 140l-105 -140h-68z" />
    <glyph glyph-name="Gbreve" unicode="&#x11e;" horiz-adv-x="735" 
d="M386 -9q-124 0 -198.5 46t-101.5 130.5t-9 197.5q18 112 71.5 189.5t137.5 118.5t192 41q77 0 131 -19t92 -53l-41 -83q-40 34 -81 49t-106 15q-120 0 -194.5 -70t-94.5 -199t29.5 -201t180.5 -72q50 0 93.5 8.5t87.5 26.5l-32 -50l36 231h-173l13 78h261l-53 -330
q-31 -17 -72 -29t-85 -18.5t-84 -6.5zM489 760q-49 0 -85.5 21t-56.5 59.5t-20 88.5l60 8q-1 -54 28 -83.5t78 -29.5q50 0 83 29.5t42 83.5l59 -8q-12 -78 -63 -123.5t-125 -45.5z" />
    <glyph glyph-name="gbreve" unicode="&#x11f;" horiz-adv-x="612" 
d="M231 -224q-66 0 -119 16t-93 48l32 74q27 -20 55 -33t59.5 -19t66.5 -6q74 0 115 36.5t52 105.5l22 135h11q-23 -55 -74 -88t-118 -33q-68 0 -116 32.5t-68 92t-8 139.5q19 115 89 176t170 61q66 0 110.5 -32.5t52.5 -88.5l-7 8l26 104h98q-9 -31 -16 -61.5t-11 -59.5
l-59 -373q-18 -114 -86.5 -174t-183.5 -60zM269 91q67 0 112.5 45t58.5 125q13 84 -19.5 128t-99.5 44q-68 0 -113.5 -44t-59.5 -125q-13 -83 20 -128t101 -45zM366 550q-46 0 -80 23t-51.5 66t-14.5 102l61 6q-3 -64 21 -98.5t68 -34.5t72.5 34.5t37.5 98.5l60 -6
q-7 -59 -30.5 -102t-60 -66t-83.5 -23z" />
    <glyph glyph-name="Gdotaccent" unicode="&#x120;" horiz-adv-x="735" 
d="M386 -9q-124 0 -198.5 46t-101.5 130.5t-9 197.5q18 112 71.5 189.5t137.5 118.5t192 41q77 0 131 -19t92 -53l-41 -83q-40 34 -81 49t-106 15q-120 0 -194.5 -70t-94.5 -199t29.5 -201t180.5 -72q50 0 93.5 8.5t87.5 26.5l-32 -50l36 231h-173l13 78h261l-53 -330
q-31 -17 -72 -29t-85 -18.5t-84 -6.5zM440 801l15 101h104l-16 -101h-103z" />
    <glyph glyph-name="gdotaccent" unicode="&#x121;" horiz-adv-x="612" 
d="M231 -224q-66 0 -119 16t-93 48l32 74q27 -20 55 -33t59.5 -19t66.5 -6q74 0 115 36.5t52 105.5l22 135h11q-23 -55 -74 -88t-118 -33q-68 0 -116 32.5t-68 92t-8 139.5q19 115 89 176t170 61q66 0 110.5 -32.5t52.5 -88.5l-7 8l26 104h98q-9 -31 -16 -61.5t-11 -59.5
l-59 -373q-18 -114 -86.5 -174t-183.5 -60zM269 91q67 0 112.5 45t58.5 125q13 84 -19.5 128t-99.5 44q-68 0 -113.5 -44t-59.5 -125q-13 -83 20 -128t101 -45zM313 603l16 101h105l-16 -101h-105z" />
    <glyph glyph-name="uni0122" unicode="&#x122;" horiz-adv-x="735" 
d="M386 -9q-124 0 -198.5 46t-101.5 130.5t-9 197.5q18 112 71.5 189.5t137.5 118.5t192 41q77 0 131 -19t92 -53l-41 -83q-40 34 -81 49t-106 15q-120 0 -194.5 -70t-94.5 -199t29.5 -201t180.5 -72q50 0 93.5 8.5t87.5 26.5l-32 -50l36 231h-173l13 78h261l-53 -330
q-31 -17 -72 -29t-85 -18.5t-84 -6.5zM336 -273l-33 32q26 21 35 40.5t13 45.5l21 -13h-79l15 91h113l-12 -71q-7 -41 -22.5 -71t-50.5 -54z" />
    <glyph glyph-name="uni0123" unicode="&#x123;" horiz-adv-x="612" 
d="M231 -224q-66 0 -119 16t-93 48l32 74q27 -20 55 -33t59.5 -19t66.5 -6q74 0 115 36.5t52 105.5l22 135h11q-23 -55 -74 -88t-118 -33q-68 0 -116 32.5t-68 92t-8 139.5q19 115 89 176t170 61q66 0 110.5 -32.5t52.5 -88.5l-7 8l26 104h98q-9 -31 -16 -61.5t-11 -59.5
l-59 -373q-18 -114 -86.5 -174t-183.5 -60zM269 91q67 0 112.5 45t58.5 125q13 84 -19.5 128t-99.5 44q-68 0 -113.5 -44t-59.5 -125q-13 -83 20 -128t101 -45zM303 566l12 71q7 41 22.5 71t51.5 53l33 -31q-26 -21 -34.5 -40t-13.5 -46l-22 13h80l-15 -91h-114z" />
    <glyph glyph-name="Hcircumflex" unicode="&#x124;" horiz-adv-x="770" 
d="M43 0l112 705h104l-48 -304h396l48 304h104l-112 -705h-104l50 314h-396l-50 -314h-104zM292 765l141 173h90l105 -173h-72l-83 112l-109 -112h-72z" />
    <glyph glyph-name="hcircumflex" unicode="&#x125;" horiz-adv-x="593" 
d="M34 0l117 736h101l-54 -339h-15q30 57 81.5 86.5t117.5 29.5q92 0 128.5 -53t19.5 -156l-47 -304h-101l47 303q11 69 -11 99t-77 30q-65 0 -107.5 -39.5t-52.5 -104.5l-46 -288h-101zM209 776l141 173h90l105 -173h-72l-83 112l-109 -112h-72z" />
    <glyph glyph-name="Hbar" unicode="&#x126;" horiz-adv-x="805" 
d="M62 0l81 516h-90l12 77h90l19 112h104l-19 -112h395l18 112h104l-19 -112h91l-13 -77h-90l-81 -516h-104l49 305h-395l-48 -305h-104zM228 393h394l19 123h-394z" />
    <glyph glyph-name="hbar" unicode="&#x127;" horiz-adv-x="593" 
d="M34 0l91 576h-93l11 73h94l14 87h101l-14 -87h197l-11 -73h-198l-30 -187h-14q30 57 82 86.5t117 29.5q91 0 128 -53t21 -156l-47 -296h-101l47 295q11 69 -12 99t-78 30q-65 0 -107 -39.5t-53 -104.5l-44 -280h-101z" />
    <glyph glyph-name="Itilde" unicode="&#x128;" horiz-adv-x="270" 
d="M43 0l112 705h104l-112 -705h-104zM53 778l-53 3q11 67 46 103.5t87 36.5q30 0 55.5 -12.5t48.5 -26.5q20 -13 38 -22.5t37 -9.5q57 0 75 75l54 -4q-11 -67 -46 -103.5t-86 -36.5q-30 0 -56 13t-49 27q-20 12 -38.5 22t-37.5 10q-56 0 -75 -75z" />
    <glyph glyph-name="itilde" unicode="&#x129;" horiz-adv-x="249" 
d="M34 0l79 504h101l-79 -504h-101zM44 587l-53 4q10 67 42 103.5t80 36.5q26 0 44.5 -12.5t33.5 -26.5q14 -13 28.5 -23t31.5 -10q50 0 68 75l53 -3q-10 -67 -42 -103.5t-79 -36.5q-26 0 -45.5 12.5t-34.5 26.5q-14 13 -28 22.5t-31 9.5q-50 0 -68 -75z" />
    <glyph glyph-name="Imacron" unicode="&#x12a;" horiz-adv-x="270" 
d="M43 0l112 705h104l-112 -705h-104zM56 811l9 63h336l-10 -63h-335z" />
    <glyph glyph-name="imacron" unicode="&#x12b;" horiz-adv-x="249" 
d="M34 0l79 504h101l-79 -504h-101zM32 621l9 64h306l-10 -64h-305z" />
    <glyph glyph-name="Ibreve" unicode="&#x12c;" horiz-adv-x="270" 
d="M43 0l112 705h104l-112 -705h-104zM220 760q-49 0 -85.5 21t-56.5 59.5t-20 88.5l60 8q-1 -54 28 -83.5t78 -29.5q50 0 83 29.5t42 83.5l59 -8q-12 -78 -63 -123.5t-125 -45.5z" />
    <glyph glyph-name="ibreve" unicode="&#x12d;" horiz-adv-x="249" 
d="M34 0l79 504h101l-79 -504h-101zM181 550q-46 0 -80 23t-51.5 66t-14.5 102l61 6q-3 -64 21 -98.5t68 -34.5t72.5 34.5t37.5 98.5l60 -6q-7 -59 -30.5 -102t-60 -66t-83.5 -23z" />
    <glyph glyph-name="Iogonek" unicode="&#x12e;" horiz-adv-x="270" 
d="M43 0l112 705h104l-112 -705h-104zM90 -194q-49 0 -75 25.5t-26 66.5q0 47 31 84.5t79 56.5l28 -39q-36 -15 -53 -38t-17 -48q0 -22 13.5 -36t38.5 -14q13 0 26 3t28 9l11 -54q-20 -6 -40.5 -11t-43.5 -5z" />
    <glyph glyph-name="iogonek" unicode="&#x12f;" horiz-adv-x="249" 
d="M34 0l79 504h101l-79 -504h-101zM121 609l18 105h117l-17 -105h-118zM80 -194q-49 0 -75 25.5t-26 66.5q0 47 31 84.5t79 56.5l28 -39q-36 -15 -53 -38t-17 -48q0 -22 13.5 -36t38.5 -14q13 0 26 3t28 9l11 -54q-20 -6 -40.5 -11t-43.5 -5z" />
    <glyph glyph-name="Idotaccent" unicode="&#x130;" horiz-adv-x="270" 
d="M43 0l112 705h104l-112 -705h-104zM170 801l15 101h104l-16 -101h-103z" />
    <glyph glyph-name="dotlessi" unicode="&#x131;" horiz-adv-x="249" 
d="M34 0l79 504h101l-79 -504h-101z" />
    <glyph glyph-name="IJ" unicode="&#x132;" horiz-adv-x="614" 
d="M43 0l112 705h104l-112 -705h-104zM285 -187q-17 0 -39 2.5t-43 9.5l13 84q19 -7 35.5 -9.5t29.5 -2.5q46 0 72.5 28t35.5 89l110 691h104l-111 -699q-11 -66 -36.5 -108.5t-67.5 -63.5t-103 -21z" />
    <glyph glyph-name="Jcircumflex" unicode="&#x134;" horiz-adv-x="344" 
d="M15 -187q-17 0 -39 2.5t-43 9.5l13 84q19 -7 35.5 -9.5t29.5 -2.5q46 0 72.5 28t35.5 89l110 691h104l-111 -699q-11 -66 -36.5 -108.5t-67.5 -63.5t-103 -21zM116 765l141 173h90l105 -173h-72l-83 112l-109 -112h-72z" />
    <glyph glyph-name="jcircumflex" unicode="&#x135;" horiz-adv-x="249" 
d="M-60 -221q-16 0 -36.5 3t-35.5 10l14 82q11 -4 26 -7.5t29 -3.5q39 0 63.5 24.5t33.5 80.5l85 536h101l-87 -543q-14 -90 -61.5 -136t-131.5 -46zM17 553l132 202h91l89 -202h-66l-73 140l-105 -140h-68z" />
    <glyph glyph-name="uni0136" unicode="&#x136;" horiz-adv-x="648" 
d="M43 0l112 705h104l-50 -317h2l370 317h133l-432 -366l-2 49l348 -388h-128l-298 329h-2l-53 -329h-104zM250 -273l-33 32q26 21 35 40.5t13 45.5l21 -13h-79l15 91h113l-12 -71q-7 -41 -22.5 -71t-50.5 -54z" />
    <glyph glyph-name="uni0137" unicode="&#x137;" horiz-adv-x="532" 
d="M34 0l117 736h101l-72 -452h2l250 220h129l-303 -265v45l246 -284h-123l-207 231h-2l-37 -231h-101zM185 -273l-33 32q26 21 35 40.5t13 45.5l21 -13h-79l15 91h113l-12 -71q-7 -41 -22.5 -71t-50.5 -54z" />
    <glyph glyph-name="kgreenlandic" unicode="&#x138;" horiz-adv-x="532" 
d="M34 0l79 504h101l-34 -220h2l250 220h129l-303 -265v45l246 -284h-123l-207 231h-2l-37 -231h-101z" />
    <glyph glyph-name="Lacute" unicode="&#x139;" horiz-adv-x="552" 
d="M43 0l112 705h104l-98 -616h345l-13 -89h-450zM180 765l131 173h111l-168 -173h-74z" />
    <glyph glyph-name="lacute" unicode="&#x13a;" horiz-adv-x="249" 
d="M34 0l117 736h101l-117 -736h-101zM171 776l131 173h111l-168 -173h-74z" />
    <glyph glyph-name="uni013B" unicode="&#x13b;" horiz-adv-x="552" 
d="M43 0l112 705h104l-98 -616h345l-13 -89h-450zM230 -273l-33 32q26 21 35 40.5t13 45.5l21 -13h-79l15 91h113l-12 -71q-7 -41 -22.5 -71t-50.5 -54z" />
    <glyph glyph-name="uni013C" unicode="&#x13c;" horiz-adv-x="249" 
d="M34 0l117 736h101l-117 -736h-101zM44 -273l-33 32q26 21 35 40.5t13 45.5l21 -13h-79l15 91h113l-12 -71q-7 -41 -22.5 -71t-50.5 -54z" />
    <glyph glyph-name="Lcaron" unicode="&#x13d;" horiz-adv-x="552" 
d="M43 0l112 705h104l-98 -616h345l-13 -89h-450zM331 475l37 230h83l-59 -230h-61z" />
    <glyph glyph-name="lcaron" unicode="&#x13e;" horiz-adv-x="249" 
d="M34 0l117 736h101l-117 -736h-101zM266 545l31 191h74l-56 -191h-49z" />
    <glyph glyph-name="Ldot" unicode="&#x13f;" horiz-adv-x="552" 
d="M43 0l112 705h104l-98 -616h345l-13 -89h-450zM369 337l17 107h119l-16 -107h-120z" />
    <glyph glyph-name="ldot" unicode="&#x140;" horiz-adv-x="249" 
d="M34 0l117 736h101l-117 -736h-101zM234 301l17 107h119l-16 -107h-120z" />
    <glyph glyph-name="Lslash" unicode="&#x141;" horiz-adv-x="552" 
d="M43 0l112 705h104l-98 -616h345l-13 -89h-450zM16 260l-34 72l396 184l34 -72z" />
    <glyph glyph-name="lslash" unicode="&#x142;" horiz-adv-x="249" 
d="M34 0l117 736h101l-117 -736h-101zM10 255l-34 74l304 145l34 -73z" />
    <glyph glyph-name="Nacute" unicode="&#x143;" horiz-adv-x="750" 
d="M43 0l112 705h80l339 -573l-21 5l90 568h97l-112 -705h-79l-340 573l21 -5l-90 -568h-97zM422 765l131 173h111l-168 -173h-74z" />
    <glyph glyph-name="nacute" unicode="&#x144;" horiz-adv-x="593" 
d="M34 0l60 383q5 29 7.5 59.5t3.5 61.5h98l-7 -106l-13 -1q30 57 81.5 86.5t117.5 29.5q92 0 128.5 -53t19.5 -156l-47 -304h-101l47 303q11 69 -11.5 99t-76.5 30q-65 0 -107.5 -39.5t-52.5 -104.5l-46 -288h-101zM310 553l133 202h105l-168 -202h-70z" />
    <glyph glyph-name="uni0145" unicode="&#x145;" horiz-adv-x="750" 
d="M43 0l112 705h80l339 -573l-21 5l90 568h97l-112 -705h-79l-340 573l21 -5l-90 -568h-97zM297 -273l-33 32q26 21 35 40.5t13 45.5l21 -13h-79l15 91h113l-12 -71q-7 -41 -22.5 -71t-50.5 -54z" />
    <glyph glyph-name="uni0146" unicode="&#x146;" horiz-adv-x="593" 
d="M34 0l60 383q5 29 7.5 59.5t3.5 61.5h98l-7 -106l-13 -1q30 57 81.5 86.5t117.5 29.5q92 0 128.5 -53t19.5 -156l-47 -304h-101l47 303q11 69 -11.5 99t-76.5 30q-65 0 -107.5 -39.5t-52.5 -104.5l-46 -288h-101zM216 -273l-33 32q26 21 35 40.5t13 45.5l21 -13h-79
l15 91h113l-12 -71q-7 -41 -22.5 -71t-50.5 -54z" />
    <glyph glyph-name="Ncaron" unicode="&#x147;" horiz-adv-x="750" 
d="M43 0l112 705h80l339 -573l-21 5l90 568h97l-112 -705h-79l-340 573l21 -5l-90 -568h-97zM414 765l-106 173h70l84 -112l107 112h76l-141 -173h-90z" />
    <glyph glyph-name="ncaron" unicode="&#x148;" horiz-adv-x="593" 
d="M34 0l60 383q5 29 7.5 59.5t3.5 61.5h98l-7 -106l-13 -1q30 57 81.5 86.5t117.5 29.5q92 0 128.5 -53t19.5 -156l-47 -304h-101l47 303q11 69 -11.5 99t-76.5 30q-65 0 -107.5 -39.5t-52.5 -104.5l-46 -288h-101zM299 553l-89 202h66l73 -141l105 141h67l-131 -202h-91z
" />
    <glyph glyph-name="napostrophe" unicode="&#x149;" horiz-adv-x="681" 
d="M177 569l-37 29q24 21 33 41t12 40l24 -12h-80l15 94h113l-12 -67q-5 -38 -19.5 -67.5t-48.5 -57.5zM122 0l60 383q5 29 7.5 59.5t3.5 61.5h98l-7 -106l-13 -1q30 57 81.5 86.5t117.5 29.5q92 0 128.5 -53t19.5 -156l-47 -304h-101l47 303q11 69 -11.5 99t-76.5 30
q-65 0 -107.5 -39.5t-52.5 -104.5l-46 -288h-101z" />
    <glyph glyph-name="Eng" unicode="&#x14a;" horiz-adv-x="750" 
d="M368 -193l5 76l48 4q46 3 73.5 28.5t34.5 73.5l9 55l11 -44l-340 573l21 -5l-90 -568h-97l112 705h80l339 -573l-21 5l90 568h97l-113 -708q-9 -60 -35 -100.5t-69.5 -61.5t-108.5 -25z" />
    <glyph glyph-name="eng" unicode="&#x14b;" horiz-adv-x="593" 
d="M34 0l60 383q5 29 7.5 59.5t3.5 61.5h98l-7 -106l-13 -1q30 57 81.5 86.5t117.5 29.5q92 0 128.5 -53t19.5 -156l-53 -340q-16 -89 -65.5 -137t-137.5 -48q-20 0 -38.5 3t-33.5 10l13 82q13 -4 25.5 -7.5t29.5 -3.5q44 0 71 26.5t36 82.5l52 331q11 69 -11.5 99t-76.5 30
q-65 0 -107.5 -39.5t-52.5 -104.5l-46 -288h-101z" />
    <glyph glyph-name="Omacron" unicode="&#x14c;" horiz-adv-x="779" 
d="M77 367q18 111 68 188.5t128.5 118t177.5 40.5q109 0 177.5 -47.5t95.5 -132.5t9 -195q-17 -111 -67.5 -188.5t-128.5 -118.5t-178 -41q-108 0 -177 47.5t-95.5 132.5t-9.5 196zM184 357q-13 -87 3.5 -148.5t62 -94.5t117.5 -33q108 0 174 71.5t85 196.5
q14 86 -3.5 147.5t-62.5 94.5t-117 33q-108 0 -173 -70.5t-86 -196.5zM310 811l9 63h336l-10 -63h-335z" />
    <glyph glyph-name="omacron" unicode="&#x14d;" horiz-adv-x="581" 
d="M258 -9q-78 0 -130 32t-73.5 94t-8.5 149q13 80 51.5 135.5t96 83.5t128.5 28q80 0 131.5 -32.5t73 -94t7.5 -147.5q-13 -81 -51.5 -136t-96 -83.5t-128.5 -28.5zM265 70q63 0 109 45t60 134q15 93 -18.5 138.5t-99.5 45.5q-65 0 -109.5 -45t-59.5 -132q-14 -94 18 -140
t100 -46zM198 621l9 64h306l-10 -64h-305z" />
    <glyph glyph-name="Obreve" unicode="&#x14e;" horiz-adv-x="779" 
d="M77 367q18 111 68 188.5t128.5 118t177.5 40.5q109 0 177.5 -47.5t95.5 -132.5t9 -195q-17 -111 -67.5 -188.5t-128.5 -118.5t-178 -41q-108 0 -177 47.5t-95.5 132.5t-9.5 196zM184 357q-13 -87 3.5 -148.5t62 -94.5t117.5 -33q108 0 174 71.5t85 196.5
q14 86 -3.5 147.5t-62.5 94.5t-117 33q-108 0 -173 -70.5t-86 -196.5zM474 760q-49 0 -85.5 21t-56.5 59.5t-20 88.5l60 8q-1 -54 28 -83.5t78 -29.5q50 0 83 29.5t42 83.5l59 -8q-12 -78 -63 -123.5t-125 -45.5z" />
    <glyph glyph-name="obreve" unicode="&#x14f;" horiz-adv-x="581" 
d="M258 -9q-78 0 -130 32t-73.5 94t-8.5 149q13 80 51.5 135.5t96 83.5t128.5 28q80 0 131.5 -32.5t73 -94t7.5 -147.5q-13 -81 -51.5 -136t-96 -83.5t-128.5 -28.5zM265 70q63 0 109 45t60 134q15 93 -18.5 138.5t-99.5 45.5q-65 0 -109.5 -45t-59.5 -132q-14 -94 18 -140
t100 -46zM348 550q-46 0 -80 23t-51.5 66t-14.5 102l61 6q-3 -64 21 -98.5t68 -34.5t72.5 34.5t37.5 98.5l60 -6q-7 -59 -30.5 -102t-60 -66t-83.5 -23z" />
    <glyph glyph-name="Ohungarumlaut" unicode="&#x150;" horiz-adv-x="779" 
d="M77 367q18 111 68 188.5t128.5 118t177.5 40.5q109 0 177.5 -47.5t95.5 -132.5t9 -195q-17 -111 -67.5 -188.5t-128.5 -118.5t-178 -41q-108 0 -177 47.5t-95.5 132.5t-9.5 196zM184 357q-13 -87 3.5 -148.5t62 -94.5t117.5 -33q108 0 174 71.5t85 196.5
q14 86 -3.5 147.5t-62.5 94.5t-117 33q-108 0 -173 -70.5t-86 -196.5zM374 765l101 173h94l-137 -173h-58zM510 765l107 173h94l-143 -173h-58z" />
    <glyph glyph-name="ohungarumlaut" unicode="&#x151;" horiz-adv-x="581" 
d="M258 -9q-78 0 -130 32t-73.5 94t-8.5 149q13 80 51.5 135.5t96 83.5t128.5 28q80 0 131.5 -32.5t73 -94t7.5 -147.5q-13 -81 -51.5 -136t-96 -83.5t-128.5 -28.5zM265 70q63 0 109 45t60 134q15 93 -18.5 138.5t-99.5 45.5q-65 0 -109.5 -45t-59.5 -132q-14 -94 18 -140
t100 -46zM378 553l71 202h88l-104 -202h-55zM241 553l70 202h89l-104 -202h-55z" />
    <glyph glyph-name="OE" unicode="&#x152;" horiz-adv-x="1056" 
d="M513 0l112 705h456l-13 -83h-357l-34 -222h334l-13 -84h-334l-38 -232h356l-13 -84h-456zM344 -9q-104 0 -169.5 47.5t-90 132.5t-7.5 196q18 111 67 188.5t125 118t172 40.5q61 0 111 -18.5t79 -56.5l-18 -113q-23 48 -66 73t-104 25q-108 0 -173.5 -70.5t-85.5 -196.5
q-13 -85 2.5 -147t60 -95.5t115.5 -33.5q64 0 112 24t83 68l-18 -111q-39 -35 -87 -53t-108 -18z" />
    <glyph glyph-name="oe" unicode="&#x153;" horiz-adv-x="932" 
d="M258 -9q-78 0 -130.5 32t-74 94t-7.5 149q13 80 51.5 135.5t96 83.5t128.5 28q79 0 128 -37t64 -106h-31q23 49 57.5 80.5t76.5 47t87 15.5q70 0 115 -30.5t64.5 -84t9.5 -124.5l-4 -34h-375l9 58h306l-20 -15q12 77 -17 117.5t-92 40.5q-46 0 -80.5 -21.5t-55 -58.5
t-26.5 -84l-5 -28q-11 -86 25.5 -132.5t120.5 -46.5q40 0 79 12.5t75 41.5l32 -69q-39 -31 -91.5 -47.5t-105.5 -16.5q-86 0 -140 37t-71 105l31 2q-34 -69 -92.5 -106.5t-137.5 -37.5zM265 70q63 0 109 45t60 134q15 93 -18.5 138.5t-99.5 45.5q-65 0 -109.5 -45
t-59.5 -132q-14 -94 18 -140t100 -46z" />
    <glyph glyph-name="Racute" unicode="&#x154;" horiz-adv-x="697" 
d="M43 0l112 705h288q120 0 175 -56t38 -157q-9 -60 -43.5 -102.5t-88.5 -65t-121 -22.5l6 16h24q41 0 69.5 -21.5t43.5 -66.5l74 -230h-109l-73 231q-12 41 -41 53t-75 12h-128l-47 -296h-104zM206 375h186q71 0 112.5 31.5t50.5 88.5q9 63 -24.5 95t-107.5 32h-178z
M394 765l131 173h111l-168 -173h-74z" />
    <glyph glyph-name="racute" unicode="&#x155;" horiz-adv-x="377" 
d="M32 0l61 379q5 31 8 62.5t4 62.5h98l-7 -130h-19q18 47 46.5 78t65.5 46t76 15q14 0 25.5 -1.5t22.5 -3.5l-16 -90q-14 6 -27 7.5t-31 1.5q-42 0 -76 -18.5t-55.5 -50.5t-27.5 -74l-46 -284h-102zM243 553l133 202h105l-168 -202h-70z" />
    <glyph glyph-name="uni0156" unicode="&#x156;" horiz-adv-x="697" 
d="M43 0l112 705h288q120 0 175 -56t38 -157q-9 -60 -43.5 -102.5t-88.5 -65t-121 -22.5l6 16h24q41 0 69.5 -21.5t43.5 -66.5l74 -230h-109l-73 231q-12 41 -41 53t-75 12h-128l-47 -296h-104zM206 375h186q71 0 112.5 31.5t50.5 88.5q9 63 -24.5 95t-107.5 32h-178z
M270 -273l-33 32q26 21 35 40.5t13 45.5l21 -13h-79l15 91h113l-12 -71q-7 -41 -22.5 -71t-50.5 -54z" />
    <glyph glyph-name="uni0157" unicode="&#x157;" horiz-adv-x="377" 
d="M32 0l61 379q5 31 8 62.5t4 62.5h98l-7 -130h-19q18 47 46.5 78t65.5 46t76 15q14 0 25.5 -1.5t22.5 -3.5l-16 -90q-14 6 -27 7.5t-31 1.5q-42 0 -76 -18.5t-55.5 -50.5t-27.5 -74l-46 -284h-102zM43 -273l-33 32q26 21 35 40.5t13 45.5l21 -13h-79l15 91h113l-12 -71
q-7 -41 -22.5 -71t-50.5 -54z" />
    <glyph glyph-name="Rcaron" unicode="&#x158;" horiz-adv-x="697" 
d="M43 0l112 705h288q120 0 175 -56t38 -157q-9 -60 -43.5 -102.5t-88.5 -65t-121 -22.5l6 16h24q41 0 69.5 -21.5t43.5 -66.5l74 -230h-109l-73 231q-12 41 -41 53t-75 12h-128l-47 -296h-104zM206 375h186q71 0 112.5 31.5t50.5 88.5q9 63 -24.5 95t-107.5 32h-178z
M386 765l-106 173h70l84 -112l107 112h76l-141 -173h-90z" />
    <glyph glyph-name="rcaron" unicode="&#x159;" horiz-adv-x="377" 
d="M32 0l61 379q5 31 8 62.5t4 62.5h98l-7 -130h-19q18 47 46.5 78t65.5 46t76 15q14 0 25.5 -1.5t22.5 -3.5l-16 -90q-14 6 -27 7.5t-31 1.5q-42 0 -76 -18.5t-55.5 -50.5t-27.5 -74l-46 -284h-102zM232 553l-89 202h66l73 -141l105 141h67l-131 -202h-91z" />
    <glyph glyph-name="Sacute" unicode="&#x15a;" horiz-adv-x="633" 
d="M288 -9q-83 0 -150 20t-112 51l39 82q48 -30 102.5 -47.5t127.5 -17.5q83 0 127 30t51 77q7 44 -16 70.5t-88 35.5l-98 16q-96 14 -139.5 67t-30.5 136q9 61 48 106.5t102 71t146 25.5q72 0 131 -19.5t96 -51.5l-38 -81q-39 30 -87.5 47t-112.5 17q-78 0 -126 -31
t-57 -85q-8 -46 16 -75t89 -39l100 -15q97 -14 139.5 -63.5t29.5 -132.5q-9 -56 -47 -100t-99 -69t-143 -25zM371 765l131 173h111l-168 -173h-74z" />
    <glyph glyph-name="sacute" unicode="&#x15b;" horiz-adv-x="498" 
d="M215 -9q-59 0 -110.5 15t-81.5 40l33 70q34 -24 76 -37.5t88 -13.5q54 0 85 19t36 51q5 29 -11 47t-54 24l-76 13q-74 12 -103 51.5t-20 98.5q8 46 37 78t75 49t101 17t101 -14t73 -38l-35 -68q-26 21 -63 33.5t-76 12.5q-54 0 -84 -20.5t-36 -52.5q-5 -29 9 -48t49 -25
l78 -13q76 -13 106.5 -50t20.5 -95q-7 -45 -36 -77.5t-75.5 -49.5t-106.5 -17zM268 553l133 202h105l-168 -202h-70z" />
    <glyph glyph-name="Scircumflex" unicode="&#x15c;" horiz-adv-x="633" 
d="M288 -9q-83 0 -150 20t-112 51l39 82q48 -30 102.5 -47.5t127.5 -17.5q83 0 127 30t51 77q7 44 -16 70.5t-88 35.5l-98 16q-96 14 -139.5 67t-30.5 136q9 61 48 106.5t102 71t146 25.5q72 0 131 -19.5t96 -51.5l-38 -81q-39 30 -87.5 47t-112.5 17q-78 0 -126 -31
t-57 -85q-8 -46 16 -75t89 -39l100 -15q97 -14 139.5 -63.5t29.5 -132.5q-9 -56 -47 -100t-99 -69t-143 -25zM232 765l141 173h90l105 -173h-72l-83 112l-109 -112h-72z" />
    <glyph glyph-name="scircumflex" unicode="&#x15d;" horiz-adv-x="498" 
d="M215 -9q-59 0 -110.5 15t-81.5 40l33 70q34 -24 76 -37.5t88 -13.5q54 0 85 19t36 51q5 29 -11 47t-54 24l-76 13q-74 12 -103 51.5t-20 98.5q8 46 37 78t75 49t101 17t101 -14t73 -38l-35 -68q-26 21 -63 33.5t-76 12.5q-54 0 -84 -20.5t-36 -52.5q-5 -29 9 -48t49 -25
l78 -13q76 -13 106.5 -50t20.5 -95q-7 -45 -36 -77.5t-75.5 -49.5t-106.5 -17zM143 553l132 202h91l89 -202h-66l-73 140l-105 -140h-68z" />
    <glyph glyph-name="Scedilla" unicode="&#x15e;" horiz-adv-x="633" 
d="M288 -9q-83 0 -150 20t-112 51l39 82q48 -30 102.5 -47.5t127.5 -17.5q83 0 127 30t51 77q7 44 -16 70.5t-88 35.5l-98 16q-96 14 -139.5 67t-30.5 136q9 61 48 106.5t102 71t146 25.5q72 0 131 -19.5t96 -51.5l-38 -81q-39 30 -87.5 47t-112.5 17q-78 0 -126 -31
t-57 -85q-8 -46 16 -75t89 -39l100 -15q97 -14 139.5 -63.5t29.5 -132.5q-9 -56 -47 -100t-99 -69t-143 -25zM266 -194q-28 0 -52.5 5.5t-41.5 15.5l20 49q17 -8 34 -12t39 -4q27 0 43.5 9t16.5 26q0 11 -9 17.5t-26 6.5q-10 0 -20.5 -1.5t-25.5 -5.5l-16 16l29 92h58
l-24 -76l-27 9q12 3 24 5t22 2q36 0 57.5 -16.5t21.5 -47.5q0 -40 -35 -65t-88 -25z" />
    <glyph glyph-name="scedilla" unicode="&#x15f;" horiz-adv-x="498" 
d="M215 -9q-59 0 -110.5 15t-81.5 40l33 70q34 -24 76 -37.5t88 -13.5q54 0 85 19t36 51q5 29 -11 47t-54 24l-76 13q-74 12 -103 51.5t-20 98.5q8 46 37 78t75 49t101 17t101 -14t73 -38l-35 -68q-26 21 -63 33.5t-76 12.5q-54 0 -84 -20.5t-36 -52.5q-5 -29 9 -48t49 -25
l78 -13q76 -13 106.5 -50t20.5 -95q-7 -45 -36 -77.5t-75.5 -49.5t-106.5 -17zM186 -194q-28 0 -52.5 5.5t-41.5 15.5l20 49q17 -8 34 -12t39 -4q27 0 43.5 9t16.5 26q0 11 -9 17.5t-26 6.5q-10 0 -20.5 -1.5t-25.5 -5.5l-16 16l29 92h58l-24 -76l-27 9q12 3 24 5t22 2
q36 0 57.5 -16.5t21.5 -47.5q0 -40 -35 -65t-88 -25z" />
    <glyph glyph-name="Scaron" unicode="&#x160;" horiz-adv-x="633" 
d="M288 -9q-83 0 -150 20t-112 51l39 82q48 -30 102.5 -47.5t127.5 -17.5q83 0 127 30t51 77q7 44 -16 70.5t-88 35.5l-98 16q-96 14 -139.5 67t-30.5 136q9 61 48 106.5t102 71t146 25.5q72 0 131 -19.5t96 -51.5l-38 -81q-39 30 -87.5 47t-112.5 17q-78 0 -126 -31
t-57 -85q-8 -46 16 -75t89 -39l100 -15q97 -14 139.5 -63.5t29.5 -132.5q-9 -56 -47 -100t-99 -69t-143 -25zM362 765l-106 173h70l84 -112l107 112h76l-141 -173h-90z" />
    <glyph glyph-name="scaron" unicode="&#x161;" horiz-adv-x="498" 
d="M215 -9q-59 0 -110.5 15t-81.5 40l33 70q34 -24 76 -37.5t88 -13.5q54 0 85 19t36 51q5 29 -11 47t-54 24l-76 13q-74 12 -103 51.5t-20 98.5q8 46 37 78t75 49t101 17t101 -14t73 -38l-35 -68q-26 21 -63 33.5t-76 12.5q-54 0 -84 -20.5t-36 -52.5q-5 -29 9 -48t49 -25
l78 -13q76 -13 106.5 -50t20.5 -95q-7 -45 -36 -77.5t-75.5 -49.5t-106.5 -17zM257 553l-89 202h66l73 -141l105 141h67l-131 -202h-91z" />
    <glyph glyph-name="uni0162" unicode="&#x162;" horiz-adv-x="611" 
d="M212 0l98 618h-241l14 87h586l-14 -87h-241l-98 -618h-104zM245 -194q-28 0 -52.5 5.5t-41.5 15.5l20 49q17 -8 34 -12t39 -4q27 0 43.5 9t16.5 26q0 11 -9 17.5t-26 6.5q-10 0 -20.5 -1.5t-25.5 -5.5l-16 16l29 92h58l-24 -76l-27 9q12 3 24 5t22 2q36 0 57.5 -16.5
t21.5 -47.5q0 -40 -35 -65t-88 -25z" />
    <glyph glyph-name="uni0163" unicode="&#x163;" horiz-adv-x="363" 
d="M234 -9q-86 0 -121.5 45.5t-22.5 132.5l41 257h-98l13 78h97l22 133l105 27l-26 -160h140l-12 -78h-140l-39 -247q-8 -56 8.5 -80.5t55.5 -24.5q18 0 32.5 3.5t27.5 8.5l-13 -82q-17 -6 -34 -9.5t-36 -3.5zM171 -194q-28 0 -52.5 5.5t-41.5 15.5l20 49q17 -8 34 -12
t39 -4q27 0 43.5 9t16.5 26q0 11 -9 17.5t-26 6.5q-10 0 -20.5 -1.5t-25.5 -5.5l-16 16l29 92h58l-24 -76l-27 9q12 3 24 5t22 2q36 0 57.5 -16.5t21.5 -47.5q0 -40 -35 -65t-88 -25z" />
    <glyph glyph-name="Tcaron" unicode="&#x164;" horiz-adv-x="611" 
d="M212 0l98 618h-241l14 87h586l-14 -87h-241l-98 -618h-104zM342 765l-106 173h70l84 -112l107 112h76l-141 -173h-90z" />
    <glyph glyph-name="tcaron" unicode="&#x165;" horiz-adv-x="363" 
d="M234 -9q-86 0 -121.5 45.5t-22.5 132.5l41 257h-98l13 78h97l22 133l105 27l-26 -160h140l-12 -78h-140l-39 -247q-8 -56 8.5 -80.5t55.5 -24.5q18 0 32.5 3.5t27.5 8.5l-13 -82q-17 -6 -34 -9.5t-36 -3.5zM315 532l29 184h74l-55 -184h-48z" />
    <glyph glyph-name="Tbar" unicode="&#x166;" horiz-adv-x="611" 
d="M212 0l98 618h-241l14 87h586l-14 -87h-241l-98 -618h-104zM124 319l12 77h385l-13 -77h-384z" />
    <glyph glyph-name="tbar" unicode="&#x167;" horiz-adv-x="363" 
d="M234 -9q-86 0 -121.5 45.5t-22.5 132.5l41 257h-98l13 78h97l22 133l105 27l-26 -160h140l-12 -78h-140l-39 -247q-8 -56 8.5 -80.5t55.5 -24.5q18 0 32.5 3.5t27.5 8.5l-13 -82q-17 -6 -34 -9.5t-36 -3.5zM33 241l10 64h290l-11 -64h-289z" />
    <glyph glyph-name="Utilde" unicode="&#x168;" horiz-adv-x="735" 
d="M337 -9q-93 0 -155 32.5t-87.5 98.5t-10.5 164l67 419h104l-67 -420q-16 -102 20.5 -153t138.5 -51q90 0 143 48t70 157l67 419h102l-68 -425q-15 -99 -56 -163t-108 -95t-160 -31zM287 778l-53 3q11 67 46 103.5t87 36.5q30 0 55.5 -12.5t48.5 -26.5q20 -13 38 -22.5
t37 -9.5q57 0 75 75l54 -4q-11 -67 -46 -103.5t-86 -36.5q-30 0 -56 13t-49 27q-20 12 -38.5 22t-37.5 10q-56 0 -75 -75z" />
    <glyph glyph-name="utilde" unicode="&#x169;" horiz-adv-x="586" 
d="M220 -9q-90 0 -132 51t-26 156l48 306h101l-48 -303q-10 -68 12.5 -98.5t77.5 -30.5q62 0 102 40t51 107l45 285h101l-80 -504h-98l16 108h15q-28 -56 -76 -86.5t-109 -30.5zM213 588l-53 4q10 67 42 103.5t80 36.5q26 0 44.5 -12.5t33.5 -26.5q14 -13 28.5 -23t31.5 -10
q50 0 68 75l53 -3q-10 -67 -42 -103.5t-79 -36.5q-26 0 -45.5 12.5t-34.5 26.5q-14 13 -28 22.5t-31 9.5q-50 0 -68 -75z" />
    <glyph glyph-name="Umacron" unicode="&#x16a;" horiz-adv-x="735" 
d="M337 -9q-93 0 -155 32.5t-87.5 98.5t-10.5 164l67 419h104l-67 -420q-16 -102 20.5 -153t138.5 -51q90 0 143 48t70 157l67 419h102l-68 -425q-15 -99 -56 -163t-108 -95t-160 -31zM290 811l9 63h336l-10 -63h-335z" />
    <glyph glyph-name="umacron" unicode="&#x16b;" horiz-adv-x="586" 
d="M220 -9q-90 0 -132 51t-26 156l48 306h101l-48 -303q-10 -68 12.5 -98.5t77.5 -30.5q62 0 102 40t51 107l45 285h101l-80 -504h-98l16 108h15q-28 -56 -76 -86.5t-109 -30.5zM200 622l9 64h306l-10 -64h-305z" />
    <glyph glyph-name="Ubreve" unicode="&#x16c;" horiz-adv-x="735" 
d="M337 -9q-93 0 -155 32.5t-87.5 98.5t-10.5 164l67 419h104l-67 -420q-16 -102 20.5 -153t138.5 -51q90 0 143 48t70 157l67 419h102l-68 -425q-15 -99 -56 -163t-108 -95t-160 -31zM453 760q-49 0 -85.5 21t-56.5 59.5t-20 88.5l60 8q-1 -54 28 -83.5t78 -29.5
q50 0 83 29.5t42 83.5l59 -8q-12 -78 -63 -123.5t-125 -45.5z" />
    <glyph glyph-name="ubreve" unicode="&#x16d;" horiz-adv-x="586" 
d="M220 -9q-90 0 -132 51t-26 156l48 306h101l-48 -303q-10 -68 12.5 -98.5t77.5 -30.5q62 0 102 40t51 107l45 285h101l-80 -504h-98l16 108h15q-28 -56 -76 -86.5t-109 -30.5zM349 551q-46 0 -80 23t-51.5 66t-14.5 102l61 6q-3 -64 21 -98.5t68 -34.5t72.5 34.5
t37.5 98.5l60 -6q-7 -59 -30.5 -102t-60 -66t-83.5 -23z" />
    <glyph glyph-name="Uring" unicode="&#x16e;" horiz-adv-x="735" 
d="M337 -9q-93 0 -155 32.5t-87.5 98.5t-10.5 164l67 419h104l-67 -420q-16 -102 20.5 -153t138.5 -51q90 0 143 48t70 157l67 419h102l-68 -425q-15 -99 -56 -163t-108 -95t-160 -31zM465 756q-34 0 -62 16.5t-44 43.5t-16 60q0 34 16 60.5t44 42t62 15.5q35 0 62.5 -15.5
t43.5 -42.5t16 -60t-16 -60t-43.5 -43.5t-62.5 -16.5zM465 806q30 0 49 20t19 50q0 29 -18.5 48.5t-49.5 19.5q-30 0 -49.5 -19.5t-19.5 -48.5q0 -30 19.5 -50t49.5 -20z" />
    <glyph glyph-name="uring" unicode="&#x16f;" horiz-adv-x="586" 
d="M220 -9q-90 0 -132 51t-26 156l48 306h101l-48 -303q-10 -68 12.5 -98.5t77.5 -30.5q62 0 102 40t51 107l45 285h101l-80 -504h-98l16 108h15q-28 -56 -76 -86.5t-109 -30.5zM359 547q-34 0 -62 16t-44.5 43t-16.5 60q0 34 16.5 60.5t44 42.5t61.5 16q35 0 62.5 -16
t43.5 -43t16 -60t-16 -60t-43 -43t-62 -16zM358 597q31 0 50 20t19 49q0 30 -19 49.5t-49 19.5t-49.5 -19.5t-19.5 -49.5t19 -49.5t49 -19.5z" />
    <glyph glyph-name="Uhungarumlaut" unicode="&#x170;" horiz-adv-x="735" 
d="M337 -9q-93 0 -155 32.5t-87.5 98.5t-10.5 164l67 419h104l-67 -420q-16 -102 20.5 -153t138.5 -51q90 0 143 48t70 157l67 419h102l-68 -425q-15 -99 -56 -163t-108 -95t-160 -31zM354 765l101 173h94l-137 -173h-58zM490 765l107 173h94l-143 -173h-58z" />
    <glyph glyph-name="uhungarumlaut" unicode="&#x171;" horiz-adv-x="586" 
d="M220 -9q-90 0 -132 51t-26 156l48 306h101l-48 -303q-10 -68 12.5 -98.5t77.5 -30.5q62 0 102 40t51 107l45 285h101l-80 -504h-98l16 108h15q-28 -56 -76 -86.5t-109 -30.5zM380 554l71 202h88l-104 -202h-55zM243 554l70 202h89l-104 -202h-55z" />
    <glyph glyph-name="Uogonek" unicode="&#x172;" horiz-adv-x="735" 
d="M337 -9q-93 0 -155 32.5t-87.5 98.5t-10.5 164l67 419h104l-67 -420q-16 -102 20.5 -153t138.5 -51q90 0 143 48t70 157l67 419h102l-68 -425q-15 -99 -56 -163t-108 -95t-160 -31zM374 -194q-49 0 -75 25.5t-26 66.5q0 47 31 84.5t79 56.5l28 -39q-36 -15 -53 -38
t-17 -48q0 -22 13.5 -36t38.5 -14q13 0 26 3t28 9l11 -54q-20 -6 -40.5 -11t-43.5 -5z" />
    <glyph glyph-name="uogonek" unicode="&#x173;" horiz-adv-x="586" 
d="M220 -9q-90 0 -132 51t-26 156l48 306h101l-48 -303q-10 -68 12.5 -98.5t77.5 -30.5q62 0 102 40t51 107l45 285h101l-80 -504h-98l16 108h15q-28 -56 -76 -86.5t-109 -30.5zM413 -194q-49 0 -75 25.5t-26 66.5q0 47 31 84.5t79 56.5l28 -39q-36 -15 -53 -38t-17 -48
q0 -22 13.5 -36t38.5 -14q13 0 26 3t28 9l11 -54q-20 -6 -40.5 -11t-43.5 -5z" />
    <glyph glyph-name="Wcircumflex" unicode="&#x174;" horiz-adv-x="1116" 
d="M237 0l-135 705h104l107 -609h-37l314 609h80l107 -609h-34l309 609h106l-361 -705h-89l-106 580h20l-297 -580h-88zM465 765l141 173h90l105 -173h-72l-83 112l-109 -112h-72z" />
    <glyph glyph-name="wcircumflex" unicode="&#x175;" horiz-adv-x="875" 
d="M171 0l-111 504h101l83 -420h-26l219 420h79l84 -420h-24l216 420h103l-271 -504h-92l-90 428h47l-224 -428h-94zM326 553l132 202h91l89 -202h-66l-73 140l-105 -140h-68z" />
    <glyph glyph-name="Ycircumflex" unicode="&#x176;" horiz-adv-x="617" 
d="M216 0l53 331l11 -66l-225 440h114l168 -337h-25l275 337h120l-366 -443l32 69l-53 -331h-104zM215 765l141 173h90l105 -173h-72l-83 112l-109 -112h-72z" />
    <glyph glyph-name="ycircumflex" unicode="&#x177;" horiz-adv-x="536" 
d="M-16 -227l-17 82q49 10 83 24t58.5 36.5t45.5 57.5l34 59l-4 -41l-139 513h105l104 -420h-27l237 420h107l-316 -540q-30 -50 -60.5 -84t-63 -55t-69 -33t-78.5 -19zM155 553l132 202h91l89 -202h-66l-73 140l-105 -140h-68z" />
    <glyph glyph-name="Ydieresis" unicode="&#x178;" horiz-adv-x="617" 
d="M216 0l53 331l11 -66l-225 440h114l168 -337h-25l275 337h120l-366 -443l32 69l-53 -331h-104zM436 799l16 99h99l-16 -99h-99zM255 799l16 99h99l-16 -99h-99z" />
    <glyph glyph-name="Zacute" unicode="&#x179;" horiz-adv-x="601" 
d="M4 0l12 76l498 577l-5 -35h-407l14 87h511l-12 -76l-499 -577l5 35h420l-14 -87h-523zM351 765l131 173h111l-168 -173h-74z" />
    <glyph glyph-name="zacute" unicode="&#x17a;" horiz-adv-x="522" 
d="M9 0l11 67l383 384l-4 -25h-323l13 78h420l-10 -67l-386 -387l4 27h336l-12 -77h-432zM275 553l133 202h105l-168 -202h-70z" />
    <glyph glyph-name="Zdotaccent" unicode="&#x17b;" horiz-adv-x="601" 
d="M4 0l12 76l498 577l-5 -35h-407l14 87h511l-12 -76l-499 -577l5 35h420l-14 -87h-523zM341 801l15 101h104l-16 -101h-103z" />
    <glyph glyph-name="zdotaccent" unicode="&#x17c;" horiz-adv-x="522" 
d="M9 0l11 67l383 384l-4 -25h-323l13 78h420l-10 -67l-386 -387l4 27h336l-12 -77h-432zM265 603l16 101h105l-16 -101h-105z" />
    <glyph glyph-name="Zcaron" unicode="&#x17d;" horiz-adv-x="601" 
d="M4 0l12 76l498 577l-5 -35h-407l14 87h511l-12 -76l-499 -577l5 35h420l-14 -87h-523zM343 765l-106 173h70l84 -112l107 112h76l-141 -173h-90z" />
    <glyph glyph-name="zcaron" unicode="&#x17e;" horiz-adv-x="522" 
d="M9 0l11 67l383 384l-4 -25h-323l13 78h420l-10 -67l-386 -387l4 27h336l-12 -77h-432zM265 553l-89 202h66l73 -141l105 141h67l-131 -202h-91z" />
    <glyph glyph-name="uni0181" unicode="&#x181;" horiz-adv-x="826" 
d="M184 0l99 629h-31q-55 0 -84.5 -25t-38.5 -78l-7 -46h-87l8 50q15 88 71 131.5t160 43.5h318q112 0 165.5 -49t38.5 -141q-10 -65 -55.5 -106.5t-115.5 -56.5l2 15q75 -10 110.5 -59t24.5 -123q-14 -91 -83.5 -138t-185.5 -47h-309zM297 81h196q71 0 115.5 26t53.5 84
q8 47 -6.5 74.5t-45 39.5t-76.5 12h-200zM347 397h179q76 0 117.5 28t49.5 78q9 63 -21.5 92.5t-99.5 29.5h-189z" />
    <glyph glyph-name="uni018A" unicode="&#x18a;" horiz-adv-x="894" 
d="M184 0l99 629h-31q-55 0 -84.5 -25t-38.5 -78l-7 -46h-87l8 50q15 88 71 131.5t154 43.5h261q127 0 203.5 -44t106 -125.5t11.5 -196.5q-28 -170 -135 -254.5t-283 -84.5h-248zM301 87h133q137 0 214.5 64.5t97.5 196.5q22 138 -35 204t-194 66h-132z" />
    <glyph glyph-name="uni018F" unicode="&#x18f;" horiz-adv-x="757" 
d="M347 -9q-111 0 -176.5 46.5t-88.5 128.5t-7 190l7 40h554l-13 -82h-477l33 39q-13 -90 -2 -151.5t53 -92.5t120 -31q105 0 170.5 68t86.5 201t-28.5 205t-172.5 72q-68 0 -122.5 -17t-111.5 -57l-33 80q58 42 126.5 63t153.5 21q113 0 184.5 -46t99.5 -129.5t10 -198.5
q-17 -108 -67 -186.5t-126 -120.5t-173 -42z" />
    <glyph glyph-name="florin" unicode="&#x192;" horiz-adv-x="600" 
d="M-33 -189l12 81h53q40 0 69 22t50 76l159 432l18 -12h-136l12 78h148l-22 -16l27 77q27 76 84.5 120.5t140.5 44.5h54l-14 -82h-45q-45 0 -74 -21.5t-50 -76.5l-23 -62l-13 16h138l-13 -78h-151l21 13l-167 -448q-29 -75 -84 -119.5t-136 -44.5h-58z" />
    <glyph glyph-name="Ohorn" unicode="&#x1a0;" horiz-adv-x="779" 
d="M77 367q18 111 68 188.5t128.5 118t177.5 40.5q109 0 177.5 -47.5t95.5 -132.5t9 -195q-17 -111 -67.5 -188.5t-128.5 -118.5t-178 -41q-108 0 -177 47.5t-95.5 132.5t-9.5 196zM184 357q-13 -87 3.5 -148.5t62 -94.5t117.5 -33q108 0 174 71.5t85 196.5
q14 86 -3.5 147.5t-62.5 94.5t-117 33q-108 0 -173 -70.5t-86 -196.5zM556 649l-39 60q24 -1 41.5 -2.5t35.5 -1.5q40 0 63.5 10.5t36.5 35t20 64.5l3 18h89l-5 -32q-7 -45 -28 -79.5t-55 -53.5t-81 -19h-81z" />
    <glyph glyph-name="ohorn" unicode="&#x1a1;" horiz-adv-x="581" 
d="M258 -9q-78 0 -130 32t-73.5 94t-8.5 149q13 80 51.5 135.5t96 83.5t128.5 28q80 0 131.5 -32.5t73 -94t7.5 -147.5q-13 -81 -51.5 -136t-96 -83.5t-128.5 -28.5zM265 70q63 0 109 45t60 134q15 93 -18.5 138.5t-99.5 45.5q-65 0 -109.5 -45t-59.5 -132q-14 -94 18 -140
t100 -46zM433 447l-53 36l4 21q39 1 63 11.5t37 34.5t20 64l2 18h90l-6 -36q-10 -66 -50.5 -105t-106.5 -44z" />
    <glyph glyph-name="Uhorn" unicode="&#x1af;" horiz-adv-x="735" 
d="M337 -9q-93 0 -155 32.5t-87.5 98.5t-10.5 164l67 419h104l-67 -420q-16 -102 20.5 -153t138.5 -51q90 0 143 48t70 157l67 419h102l-68 -425q-15 -99 -56 -163t-108 -95t-160 -31zM709 649l-51 35l3 21q40 1 63.5 11.5t37 34t19.5 63.5l3 19h89l-5 -33
q-10 -66 -51.5 -106t-107.5 -45z" />
    <glyph glyph-name="uhorn" unicode="&#x1b0;" horiz-adv-x="586" 
d="M220 -9q-90 0 -132 51t-26 156l48 306h101l-48 -303q-10 -68 12.5 -98.5t77.5 -30.5q62 0 102 40t51 107l45 285h101l-80 -504h-98l16 108h15q-28 -56 -76 -86.5t-109 -30.5zM522 447l-53 36l4 21q39 1 63 11.5t37 34.5t20 64l2 18h90l-6 -36q-10 -66 -50.5 -105
t-106.5 -44z" />
    <glyph glyph-name="uni01B3" unicode="&#x1b3;" horiz-adv-x="617" 
d="M216 0l53 331l11 -66l-225 440h114l168 -337h-25l212 260q27 33 53 51.5t56 26.5t66 8q21 0 36.5 -2.5t28.5 -8.5l-11 -74q-10 4 -22 6t-27 2q-25 0 -48.5 -11.5t-45.5 -38.5l-269 -325l32 69l-53 -331h-104z" />
    <glyph glyph-name="uni01B4" unicode="&#x1b4;" horiz-adv-x="579" 
d="M-17 -227l-16 82q50 10 84 24t58 36.5t45 57.5l34 59l-4 -41l-139 513h105l104 -420h-27l176 313q23 41 48.5 66.5t57.5 37.5t75 12q20 0 36 -2.5t28 -7.5l-21 -77q-9 4 -19 5t-19 1q-33 0 -56.5 -16.5t-51.5 -62.5l-226 -389q-30 -50 -60.5 -84t-63 -55t-69.5 -33
t-79 -19z" />
    <glyph glyph-name="uni01C4" unicode="&#x1c4;" horiz-adv-x="1340" 
d="M43 0l112 705h234q126 0 202.5 -44t106 -125.5t11.5 -196.5q-27 -170 -134.5 -254.5t-283.5 -84.5h-248zM161 87h133q137 0 214 64.5t97 196.5q22 138 -34.5 204t-193.5 66h-132zM743 0l12 76l498 577l-5 -35h-407l14 87h511l-12 -76l-499 -577l5 35h420l-14 -87h-523z
M1081 765l-106 173h70l84 -112l107 112h76l-141 -173h-90z" />
    <glyph glyph-name="uni01C5" unicode="&#x1c5;" horiz-adv-x="1276" 
d="M43 0l112 705h234q126 0 202.5 -44t106 -125.5t11.5 -196.5q-27 -170 -134.5 -254.5t-283.5 -84.5h-248zM161 87h133q137 0 214 64.5t97 196.5q22 138 -34.5 204t-193.5 66h-132zM763 0l11 67l383 384l-4 -25h-323l13 78h420l-10 -67l-386 -387l4 27h336l-12 -77h-432z
M1018 553l-89 202h66l73 -141l105 141h67l-131 -202h-91z" />
    <glyph glyph-name="uni01C6" unicode="&#x1c6;" horiz-adv-x="1131" 
d="M236 -9q-69 0 -116.5 33t-67 94.5t-6.5 147.5q20 121 90.5 184t168.5 63q65 0 109 -32.5t54 -88.5h-11l55 344h101l-117 -736h-100l18 114h15q-26 -57 -75 -90t-118 -33zM266 70q64 0 110.5 45t60.5 134q15 93 -18.5 138.5t-101.5 45.5q-64 0 -109.5 -45t-60.5 -132
q-14 -94 18.5 -140t100.5 -46zM618 0l11 67l383 384l-4 -25h-323l13 78h420l-10 -67l-386 -387l4 27h336l-12 -77h-432zM874 553l-89 202h66l73 -141l105 141h67l-131 -202h-91z" />
    <glyph glyph-name="uni01C7" unicode="&#x1c7;" horiz-adv-x="936" 
d="M43 0l112 705h104l-98 -616h345l-13 -89h-450zM607 -187q-17 0 -39 2.5t-43 9.5l13 84q19 -7 35.5 -9.5t29.5 -2.5q46 0 72.5 28t35.5 89l110 691h104l-111 -699q-11 -66 -36.5 -108.5t-67.5 -63.5t-103 -21z" />
    <glyph glyph-name="uni01C8" unicode="&#x1c8;" horiz-adv-x="800" 
d="M43 0l112 705h104l-98 -616h345l-13 -89h-450zM492 -221q-17 0 -37 3t-36 10l14 82q12 -4 26.5 -7.5t28.5 -3.5q39 0 63.5 24.5t33.5 80.5l85 536h101l-86 -543q-14 -90 -62 -136t-131 -46zM678 609l17 105h117l-17 -105h-117z" />
    <glyph glyph-name="uni01C9" unicode="&#x1c9;" horiz-adv-x="496" 
d="M34 0l117 736h101l-117 -736h-101zM189 -221q-17 0 -37 3t-36 10l14 82q12 -4 26.5 -7.5t28.5 -3.5q39 0 63.5 24.5t33.5 80.5l85 536h101l-86 -543q-14 -90 -62 -136t-131 -46zM375 609l17 105h117l-17 -105h-117z" />
    <glyph glyph-name="uni01CA" unicode="&#x1ca;" horiz-adv-x="1094" 
d="M43 0l112 705h80l339 -573l-21 5l90 568h97l-112 -705h-79l-340 573l21 -5l-90 -568h-97zM765 -187q-17 0 -39 2.5t-43 9.5l13 84q19 -7 35.5 -9.5t29.5 -2.5q46 0 72.5 28t35.5 89l110 691h104l-111 -699q-11 -66 -36.5 -108.5t-67.5 -63.5t-103 -21z" />
    <glyph glyph-name="uni01CB" unicode="&#x1cb;" horiz-adv-x="999" 
d="M43 0l112 705h80l339 -573l-21 5l90 568h97l-112 -705h-79l-340 573l21 -5l-90 -568h-97zM690 -221q-17 0 -37 3t-36 10l14 82q12 -4 26.5 -7.5t28.5 -3.5q39 0 63.5 24.5t33.5 80.5l85 536h101l-86 -543q-14 -90 -62 -136t-131 -46zM876 609l17 105h117l-17 -105h-117z
" />
    <glyph glyph-name="uni01CC" unicode="&#x1cc;" horiz-adv-x="841" 
d="M34 0l60 383q5 29 7.5 59.5t3.5 61.5h98l-7 -106l-13 -1q30 57 81.5 86.5t117.5 29.5q92 0 128.5 -53t19.5 -156l-47 -304h-101l47 303q11 69 -11.5 99t-76.5 30q-65 0 -107.5 -39.5t-52.5 -104.5l-46 -288h-101zM533 -221q-17 0 -37 3t-36 10l14 82q12 -4 26.5 -7.5
t28.5 -3.5q39 0 63.5 24.5t33.5 80.5l85 536h101l-86 -543q-14 -90 -62 -136t-131 -46zM719 609l17 105h117l-17 -105h-117z" />
    <glyph glyph-name="uni01CD" unicode="&#x1cd;" horiz-adv-x="742" 
d="M-30 0l426 705h89l207 -705h-102l-56 200l40 -28h-427l50 28l-117 -200h-110zM426 591l-209 -359l-21 23h355l-24 -23l-98 359h-3zM406 765l-106 173h70l84 -112l107 112h76l-141 -173h-90z" />
    <glyph glyph-name="uni01CE" unicode="&#x1ce;" horiz-adv-x="609" 
d="M236 -9q-69 0 -116.5 33t-67 94.5t-6.5 147.5q20 121 90.5 184t168.5 63q65 0 109 -32.5t54 -88.5l-11 -2l29 114h97q-7 -31 -14.5 -61.5t-12.5 -59.5l-60 -383h-101l18 114h16q-26 -57 -75 -90t-118 -33zM266 70q64 0 110.5 45t60.5 134q15 93 -18.5 138.5t-101.5 45.5
q-64 0 -109.5 -45t-60.5 -132q-14 -94 18.5 -140t100.5 -46zM302 553l-89 202h66l73 -141l105 141h67l-131 -202h-91z" />
    <glyph glyph-name="uni01D4" unicode="&#x1d4;" horiz-adv-x="586" 
d="M220 -9q-90 0 -132 51t-26 156l48 306h101l-48 -303q-10 -68 12.5 -98.5t77.5 -30.5q62 0 102 40t51 107l45 285h101l-80 -504h-98l16 108h15q-28 -56 -76 -86.5t-109 -30.5zM295 554l-89 202h66l73 -141l105 141h67l-131 -202h-91z" />
    <glyph glyph-name="uni01E5" unicode="&#x1e5;" horiz-adv-x="613" 
d="M229 -223q-68 0 -120 15.5t-91 47.5l31 71q27 -19 55 -32.5t60 -20t67 -6.5q113 0 151 87l7 -10h-132l9 51h142l-16 -18q2 8 3.5 15t2.5 15l25 155h12q-25 -55 -77.5 -86.5t-116.5 -31.5q-69 0 -116 32t-67 89.5t-8 133.5q12 75 47 126t88.5 77t118.5 26q67 0 112 -31.5
t55 -88.5l-8 7l26 104h98q-9 -31 -16 -61.5t-11 -59.5l-59 -372q-2 -10 -4.5 -21t-4.5 -21l-9 11h79l-9 -51h-86l15 11q-29 -80 -92.5 -121.5t-160.5 -41.5zM272 107q66 0 111.5 42.5t57.5 119.5q12 79 -21 121.5t-101 42.5q-67 0 -112 -42t-57 -119q-13 -80 20.5 -122.5
t101.5 -42.5z" />
    <glyph glyph-name="Gcaron" unicode="&#x1e6;" horiz-adv-x="735" 
d="M386 -9q-124 0 -198.5 46t-101.5 130.5t-9 197.5q18 112 71.5 189.5t137.5 118.5t192 41q77 0 131 -19t92 -53l-41 -83q-40 34 -81 49t-106 15q-120 0 -194.5 -70t-94.5 -199t29.5 -201t180.5 -72q50 0 93.5 8.5t87.5 26.5l-32 -50l36 231h-173l13 78h261l-53 -330
q-31 -17 -72 -29t-85 -18.5t-84 -6.5zM441 765l-106 173h70l84 -112l107 112h76l-141 -173h-90z" />
    <glyph glyph-name="gcaron" unicode="&#x1e7;" horiz-adv-x="612" 
d="M231 -224q-66 0 -119 16t-93 48l32 74q27 -20 55 -33t59.5 -19t66.5 -6q74 0 115 36.5t52 105.5l22 135h11q-23 -55 -74 -88t-118 -33q-68 0 -116 32.5t-68 92t-8 139.5q19 115 89 176t170 61q66 0 110.5 -32.5t52.5 -88.5l-7 8l26 104h98q-9 -31 -16 -61.5t-11 -59.5
l-59 -373q-18 -114 -86.5 -174t-183.5 -60zM269 91q67 0 112.5 45t58.5 125q13 84 -19.5 128t-99.5 44q-68 0 -113.5 -44t-59.5 -125q-13 -83 20 -128t101 -45zM312 553l-89 202h66l73 -141l105 141h67l-131 -202h-91z" />
    <glyph glyph-name="uni01E9" unicode="&#x1e9;" horiz-adv-x="532" 
d="M34 0l117 736h101l-72 -452h2l250 220h129l-303 -265v45l246 -284h-123l-207 231h-2l-37 -231h-101zM309 776l-106 173h70l84 -112l107 112h76l-141 -173h-90z" />
    <glyph glyph-name="uni01EA" unicode="&#x1ea;" horiz-adv-x="779" 
d="M77 367q18 111 68 188.5t128.5 118t177.5 40.5q109 0 177.5 -47.5t95.5 -132.5t9 -195q-17 -111 -67.5 -188.5t-128.5 -118.5t-178 -41q-108 0 -177 47.5t-95.5 132.5t-9.5 196zM184 357q-13 -87 3.5 -148.5t62 -94.5t117.5 -33q108 0 174 71.5t85 196.5
q14 86 -3.5 147.5t-62.5 94.5t-117 33q-108 0 -173 -70.5t-86 -196.5zM376 -194q-49 0 -75 25.5t-26 66.5q0 47 31 84.5t79 56.5l28 -39q-36 -15 -53 -38t-17 -48q0 -22 13.5 -36t38.5 -14q13 0 26 3t28 9l11 -54q-20 -6 -40.5 -11t-43.5 -5z" />
    <glyph glyph-name="uni01EB" unicode="&#x1eb;" horiz-adv-x="581" 
d="M258 -9q-78 0 -130 32t-73.5 94t-8.5 149q13 80 51.5 135.5t96 83.5t128.5 28q80 0 131.5 -32.5t73 -94t7.5 -147.5q-13 -81 -51.5 -136t-96 -83.5t-128.5 -28.5zM265 70q63 0 109 45t60 134q15 93 -18.5 138.5t-99.5 45.5q-65 0 -109.5 -45t-59.5 -132q-14 -94 18 -140
t100 -46zM270 -194q-49 0 -75 25.5t-26 66.5q0 47 31 84.5t79 56.5l28 -39q-36 -15 -53 -38t-17 -48q0 -22 13.5 -36t38.5 -14q13 0 26 3t28 9l11 -54q-20 -6 -40.5 -11t-43.5 -5z" />
    <glyph glyph-name="Aringacute" unicode="&#x1fa;" horiz-adv-x="742" 
d="M-30 0l426 705h89l207 -705h-102l-56 200l40 -28h-427l50 28l-117 -200h-110zM426 591l-209 -359l-21 23h355l-24 -23l-98 359h-3zM452 756q-33 0 -60 15.5t-43 42t-16 58.5q0 33 16 58.5t43 41t60 15.5q18 0 34.5 -4.5t29.5 -13.5l68 63h89l-119 -102q16 -25 16 -58
q0 -32 -15.5 -58.5t-42.5 -42t-60 -15.5zM452 803q30 0 49 20t19 49q0 30 -19 49.5t-50 19.5q-29 0 -48.5 -20t-19.5 -49t19.5 -49t49.5 -20z" />
    <glyph glyph-name="aringacute" unicode="&#x1fb;" horiz-adv-x="609" 
d="M236 -9q-69 0 -116.5 33t-67 94.5t-6.5 147.5q20 121 90.5 184t168.5 63q65 0 109 -32.5t54 -88.5l-11 -2l29 114h97q-7 -31 -14.5 -61.5t-12.5 -59.5l-60 -383h-101l18 114h16q-26 -57 -75 -90t-118 -33zM266 70q64 0 110.5 45t60.5 134q15 93 -18.5 138.5t-101.5 45.5
q-64 0 -109.5 -45t-60.5 -132q-14 -94 18.5 -140t100.5 -46zM362 543q-33 0 -60 15t-42.5 41.5t-15.5 58.5t15.5 58.5t42.5 41.5t60 15q19 0 35 -5t30 -14l68 63h89l-119 -101q15 -27 15 -58q0 -32 -15.5 -58.5t-42.5 -41.5t-60 -15zM362 589q31 0 50 19.5t19 49.5t-19 49
t-50 19q-30 0 -49.5 -19t-19.5 -49t19.5 -49.5t49.5 -19.5z" />
    <glyph glyph-name="AEacute" unicode="&#x1fc;" horiz-adv-x="1011" 
d="M-50 0l545 705h542l-15 -83h-389l26 22l-19 -272l-13 28h339l-13 -84h-334l17 10l-18 -268l-10 26h330l-13 -84h-407l13 195l24 -23h-377l41 28l-151 -200h-118zM536 621l-294 -390l-9 25h316l-14 -27l28 392h-27zM563 765l131 173h111l-168 -173h-74z" />
    <glyph glyph-name="aeacute" unicode="&#x1fd;" horiz-adv-x="877" 
d="M209 -9q-63 0 -103.5 23.5t-57.5 62.5t-10 84q10 52 47 81.5t103 42t161 12.5h51l-9 -57h-54q-62 0 -106.5 -7.5t-69.5 -26t-31 -52.5q-6 -40 18 -65.5t74 -25.5q62 0 102.5 39t50.5 103l18 113q10 61 -17 88.5t-78 27.5q-48 0 -88.5 -11t-87.5 -38l-29 71q29 18 64.5 31
t73.5 19.5t74 6.5q81 0 121 -30t47 -87h-31q36 58 90 87.5t119 29.5q70 0 115.5 -31t64.5 -85.5t8 -126.5l-5 -30h-371l9 58h302l-18 -15q11 77 -17 117.5t-93 40.5q-46 0 -80.5 -21.5t-55 -58.5t-26.5 -84l-5 -28q-11 -86 26 -132.5t120 -46.5q40 0 79 12.5t75 41.5l32 -69
q-39 -31 -91.5 -47.5t-105.5 -16.5q-89 0 -143.5 39t-73.5 111h25q-27 -71 -82 -110.5t-131 -39.5zM448 553l133 202h105l-168 -202h-70z" />
    <glyph glyph-name="Oslashacute" unicode="&#x1fe;" horiz-adv-x="779" 
d="M77 367q18 111 68 188.5t128.5 118t177.5 40.5q109 0 177.5 -47.5t95.5 -132.5t9 -195q-17 -111 -67.5 -188.5t-128.5 -118.5t-178 -41q-108 0 -177 47.5t-95.5 132.5t-9.5 196zM184 357q-13 -87 3.5 -148.5t62 -94.5t117.5 -33q108 0 174 71.5t85 196.5
q14 86 -3.5 147.5t-62.5 94.5t-117 33q-108 0 -173 -70.5t-86 -196.5zM238 60l-74 -100l-64 44l74 101l40 44l340 453l25 45l74 99l65 -45l-75 -99l-40 -45l-339 -453zM434 765l131 173h111l-168 -173h-74z" />
    <glyph glyph-name="oslashacute" unicode="&#x1ff;" horiz-adv-x="581" 
d="M258 -9q-78 0 -130 32t-73.5 94t-8.5 149q13 80 51.5 135.5t96 83.5t128.5 28q80 0 131.5 -32.5t73 -94t7.5 -147.5q-13 -81 -51.5 -136t-96 -83.5t-128.5 -28.5zM265 70q68 0 115 45.5t61 133.5q15 91 -19.5 137.5t-105.5 46.5q-69 0 -115.5 -45t-60.5 -133
q-14 -89 18 -137t107 -48zM118 -37l-49 35l398 541l47 -34zM304 553l133 202h105l-168 -202h-70z" />
    <glyph glyph-name="uni0200" unicode="&#x200;" horiz-adv-x="742" 
d="M-30 0l426 705h89l207 -705h-102l-56 200l40 -28h-427l50 28l-117 -200h-110zM426 591l-209 -359l-21 23h355l-24 -23l-98 359h-3zM490 765l-108 173h95l70 -173h-57zM354 765l-114 173h94l78 -173h-58z" />
    <glyph glyph-name="uni0201" unicode="&#x201;" horiz-adv-x="609" 
d="M236 -9q-69 0 -116.5 33t-67 94.5t-6.5 147.5q20 121 90.5 184t168.5 63q65 0 109 -32.5t54 -88.5l-11 -2l29 114h97q-7 -31 -14.5 -61.5t-12.5 -59.5l-60 -383h-101l18 114h16q-26 -57 -75 -90t-118 -33zM266 70q64 0 110.5 45t60.5 134q15 93 -18.5 138.5t-101.5 45.5
q-64 0 -109.5 -45t-60.5 -132q-14 -94 18.5 -140t100.5 -46zM389 553l-67 202h87l35 -202h-55zM252 553l-68 202h88l35 -202h-55z" />
    <glyph glyph-name="uni0202" unicode="&#x202;" horiz-adv-x="742" 
d="M-30 0l426 705h89l207 -705h-102l-56 200l40 -28h-427l50 28l-117 -200h-110zM426 591l-209 -359l-21 23h355l-24 -23l-98 359h-3zM332 760l-60 8q13 78 64.5 123.5t125.5 45.5q48 0 84.5 -21t57 -59t19.5 -89l-61 -8q2 54 -26.5 84t-78.5 30q-49 0 -82.5 -30t-42.5 -84z
" />
    <glyph glyph-name="uni0203" unicode="&#x203;" horiz-adv-x="609" 
d="M236 -9q-69 0 -116.5 33t-67 94.5t-6.5 147.5q20 121 90.5 184t168.5 63q65 0 109 -32.5t54 -88.5l-11 -2l29 114h97q-7 -31 -14.5 -61.5t-12.5 -59.5l-60 -383h-101l18 114h16q-26 -57 -75 -90t-118 -33zM266 70q64 0 110.5 45t60.5 134q15 93 -18.5 138.5t-101.5 45.5
q-64 0 -109.5 -45t-60.5 -132q-14 -94 18.5 -140t100.5 -46zM241 550l-60 5q8 60 31.5 103t60 66t82.5 23q47 0 81 -23.5t51 -66.5t14 -102l-61 -5q3 63 -20 98t-68 35q-44 0 -73 -35t-38 -98z" />
    <glyph glyph-name="uni0204" unicode="&#x204;" horiz-adv-x="591" 
d="M43 0l112 705h462l-13 -83h-362l-35 -222h339l-13 -84h-339l-37 -232h361l-13 -84h-462zM451 765l-108 173h95l70 -173h-57zM315 765l-114 173h94l78 -173h-58z" />
    <glyph glyph-name="uni0205" unicode="&#x205;" horiz-adv-x="546" 
d="M279 -9q-86 0 -142.5 34t-79.5 97t-10 147q13 77 49 131.5t92 83.5t128 29q71 0 117 -31t65.5 -85.5t8.5 -126.5l-5 -30h-379l9 58h310l-18 -15q11 77 -17.5 117.5t-95.5 40.5q-47 0 -82 -21.5t-56 -58.5t-27 -84l-5 -28q-11 -86 26 -132.5t123 -46.5q42 0 82 12.5
t75 41.5l32 -69q-40 -31 -92.5 -47.5t-107.5 -16.5zM377 553l-67 202h87l35 -202h-55zM240 553l-68 202h88l35 -202h-55z" />
    <glyph glyph-name="uni0206" unicode="&#x206;" horiz-adv-x="591" 
d="M43 0l112 705h462l-13 -83h-362l-35 -222h339l-13 -84h-339l-37 -232h361l-13 -84h-462zM292 760l-60 8q13 78 64.5 123.5t125.5 45.5q48 0 84.5 -21t57 -59t19.5 -89l-61 -8q2 54 -26.5 84t-78.5 30q-49 0 -82.5 -30t-42.5 -84z" />
    <glyph glyph-name="uni0207" unicode="&#x207;" horiz-adv-x="546" 
d="M279 -9q-86 0 -142.5 34t-79.5 97t-10 147q13 77 49 131.5t92 83.5t128 29q71 0 117 -31t65.5 -85.5t8.5 -126.5l-5 -30h-379l9 58h310l-18 -15q11 77 -17.5 117.5t-95.5 40.5q-47 0 -82 -21.5t-56 -58.5t-27 -84l-5 -28q-11 -86 26 -132.5t123 -46.5q42 0 82 12.5
t75 41.5l32 -69q-40 -31 -92.5 -47.5t-107.5 -16.5zM229 550l-60 5q8 60 31.5 103t60 66t82.5 23q47 0 81 -23.5t51 -66.5t14 -102l-61 -5q3 63 -20 98t-68 35q-44 0 -73 -35t-38 -98z" />
    <glyph glyph-name="uni0208" unicode="&#x208;" horiz-adv-x="270" 
d="M43 0l112 705h104l-112 -705h-104zM256 765l-108 173h95l70 -173h-57zM120 765l-114 173h94l78 -173h-58z" />
    <glyph glyph-name="uni0209" unicode="&#x209;" horiz-adv-x="249" 
d="M34 0l79 504h101l-79 -504h-101zM215 553l-67 202h87l35 -202h-55zM78 553l-68 202h88l35 -202h-55z" />
    <glyph glyph-name="uni020A" unicode="&#x20a;" horiz-adv-x="270" 
d="M43 0l112 705h104l-112 -705h-104zM97 760l-60 8q13 78 64.5 123.5t125.5 45.5q48 0 84.5 -21t57 -59t19.5 -89l-61 -8q2 54 -26.5 84t-78.5 30q-49 0 -82.5 -30t-42.5 -84z" />
    <glyph glyph-name="uni020B" unicode="&#x20b;" horiz-adv-x="249" 
d="M34 0l79 504h101l-79 -504h-101zM66 550l-60 5q8 60 31.5 103t60 66t82.5 23q47 0 81 -23.5t51 -66.5t14 -102l-61 -5q3 63 -20 98t-68 35q-44 0 -73 -35t-38 -98z" />
    <glyph glyph-name="uni020C" unicode="&#x20c;" horiz-adv-x="779" 
d="M77 367q18 111 68 188.5t128.5 118t177.5 40.5q109 0 177.5 -47.5t95.5 -132.5t9 -195q-17 -111 -67.5 -188.5t-128.5 -118.5t-178 -41q-108 0 -177 47.5t-95.5 132.5t-9.5 196zM184 357q-13 -87 3.5 -148.5t62 -94.5t117.5 -33q108 0 174 71.5t85 196.5
q14 86 -3.5 147.5t-62.5 94.5t-117 33q-108 0 -173 -70.5t-86 -196.5zM510 765l-108 173h95l70 -173h-57zM374 765l-114 173h94l78 -173h-58z" />
    <glyph glyph-name="uni020D" unicode="&#x20d;" horiz-adv-x="581" 
d="M258 -9q-78 0 -130 32t-73.5 94t-8.5 149q13 80 51.5 135.5t96 83.5t128.5 28q80 0 131.5 -32.5t73 -94t7.5 -147.5q-13 -81 -51.5 -136t-96 -83.5t-128.5 -28.5zM265 70q63 0 109 45t60 134q15 93 -18.5 138.5t-99.5 45.5q-65 0 -109.5 -45t-59.5 -132q-14 -94 18 -140
t100 -46zM381 553l-67 202h87l35 -202h-55zM244 553l-68 202h88l35 -202h-55z" />
    <glyph glyph-name="uni020E" unicode="&#x20e;" horiz-adv-x="779" 
d="M77 367q18 111 68 188.5t128.5 118t177.5 40.5q109 0 177.5 -47.5t95.5 -132.5t9 -195q-17 -111 -67.5 -188.5t-128.5 -118.5t-178 -41q-108 0 -177 47.5t-95.5 132.5t-9.5 196zM184 357q-13 -87 3.5 -148.5t62 -94.5t117.5 -33q108 0 174 71.5t85 196.5
q14 86 -3.5 147.5t-62.5 94.5t-117 33q-108 0 -173 -70.5t-86 -196.5zM351 760l-60 8q13 78 64.5 123.5t125.5 45.5q48 0 84.5 -21t57 -59t19.5 -89l-61 -8q2 54 -26.5 84t-78.5 30q-49 0 -82.5 -30t-42.5 -84z" />
    <glyph glyph-name="uni020F" unicode="&#x20f;" horiz-adv-x="581" 
d="M258 -9q-78 0 -130 32t-73.5 94t-8.5 149q13 80 51.5 135.5t96 83.5t128.5 28q80 0 131.5 -32.5t73 -94t7.5 -147.5q-13 -81 -51.5 -136t-96 -83.5t-128.5 -28.5zM265 70q63 0 109 45t60 134q15 93 -18.5 138.5t-99.5 45.5q-65 0 -109.5 -45t-59.5 -132q-14 -94 18 -140
t100 -46zM233 550l-60 5q8 60 31.5 103t60 66t82.5 23q47 0 81 -23.5t51 -66.5t14 -102l-61 -5q3 63 -20 98t-68 35q-44 0 -73 -35t-38 -98z" />
    <glyph glyph-name="uni0210" unicode="&#x210;" horiz-adv-x="697" 
d="M43 0l112 705h288q120 0 175 -56t38 -157q-9 -60 -43.5 -102.5t-88.5 -65t-121 -22.5l6 16h24q41 0 69.5 -21.5t43.5 -66.5l74 -230h-109l-73 231q-12 41 -41 53t-75 12h-128l-47 -296h-104zM206 375h186q71 0 112.5 31.5t50.5 88.5q9 63 -24.5 95t-107.5 32h-178z
M470 765l-108 173h95l70 -173h-57zM334 765l-114 173h94l78 -173h-58z" />
    <glyph glyph-name="uni0211" unicode="&#x211;" horiz-adv-x="377" 
d="M32 0l61 379q5 31 8 62.5t4 62.5h98l-7 -130h-19q18 47 46.5 78t65.5 46t76 15q14 0 25.5 -1.5t22.5 -3.5l-16 -90q-14 6 -27 7.5t-31 1.5q-42 0 -76 -18.5t-55.5 -50.5t-27.5 -74l-46 -284h-102zM320 553l-67 202h87l35 -202h-55zM183 553l-68 202h88l35 -202h-55z" />
    <glyph glyph-name="uni0212" unicode="&#x212;" horiz-adv-x="697" 
d="M43 0l112 705h288q120 0 175 -56t38 -157q-9 -60 -43.5 -102.5t-88.5 -65t-121 -22.5l6 16h24q41 0 69.5 -21.5t43.5 -66.5l74 -230h-109l-73 231q-12 41 -41 53t-75 12h-128l-47 -296h-104zM206 375h186q71 0 112.5 31.5t50.5 88.5q9 63 -24.5 95t-107.5 32h-178z
M312 760l-60 8q13 78 64.5 123.5t125.5 45.5q48 0 84.5 -21t57 -59t19.5 -89l-61 -8q2 54 -26.5 84t-78.5 30q-49 0 -82.5 -30t-42.5 -84z" />
    <glyph glyph-name="uni0213" unicode="&#x213;" horiz-adv-x="377" 
d="M32 0l61 379q5 31 8 62.5t4 62.5h98l-7 -130h-19q18 47 46.5 78t65.5 46t76 15q14 0 25.5 -1.5t22.5 -3.5l-16 -90q-14 6 -27 7.5t-31 1.5q-42 0 -76 -18.5t-55.5 -50.5t-27.5 -74l-46 -284h-102zM172 550l-60 5q8 60 31.5 103t60 66t82.5 23q47 0 81 -23.5t51 -66.5
t14 -102l-61 -5q3 63 -20 98t-68 35q-44 0 -73 -35t-38 -98z" />
    <glyph glyph-name="uni0214" unicode="&#x214;" horiz-adv-x="735" 
d="M337 -9q-93 0 -155 32.5t-87.5 98.5t-10.5 164l67 419h104l-67 -420q-16 -102 20.5 -153t138.5 -51q90 0 143 48t70 157l67 419h102l-68 -425q-15 -99 -56 -163t-108 -95t-160 -31zM490 765l-108 173h95l70 -173h-57zM354 765l-114 173h94l78 -173h-58z" />
    <glyph glyph-name="uni0215" unicode="&#x215;" horiz-adv-x="586" 
d="M220 -9q-90 0 -132 51t-26 156l48 306h101l-48 -303q-10 -68 12.5 -98.5t77.5 -30.5q62 0 102 40t51 107l45 285h101l-80 -504h-98l16 108h15q-28 -56 -76 -86.5t-109 -30.5zM383 554l-67 202h87l35 -202h-55zM246 554l-68 202h88l35 -202h-55z" />
    <glyph glyph-name="uni0216" unicode="&#x216;" horiz-adv-x="735" 
d="M337 -9q-93 0 -155 32.5t-87.5 98.5t-10.5 164l67 419h104l-67 -420q-16 -102 20.5 -153t138.5 -51q90 0 143 48t70 157l67 419h102l-68 -425q-15 -99 -56 -163t-108 -95t-160 -31zM331 760l-60 8q13 78 64.5 123.5t125.5 45.5q48 0 84.5 -21t57 -59t19.5 -89l-61 -8
q2 54 -26.5 84t-78.5 30q-49 0 -82.5 -30t-42.5 -84z" />
    <glyph glyph-name="uni0217" unicode="&#x217;" horiz-adv-x="586" 
d="M220 -9q-90 0 -132 51t-26 156l48 306h101l-48 -303q-10 -68 12.5 -98.5t77.5 -30.5q62 0 102 40t51 107l45 285h101l-80 -504h-98l16 108h15q-28 -56 -76 -86.5t-109 -30.5zM235 551l-60 5q8 60 31.5 103t60 66t82.5 23q47 0 81 -23.5t51 -66.5t14 -102l-61 -5
q3 63 -20 98t-68 35q-44 0 -73 -35t-38 -98z" />
    <glyph glyph-name="uni0218" unicode="&#x218;" horiz-adv-x="633" 
d="M288 -9q-83 0 -150 20t-112 51l39 82q48 -30 102.5 -47.5t127.5 -17.5q83 0 127 30t51 77q7 44 -16 70.5t-88 35.5l-98 16q-96 14 -139.5 67t-30.5 136q9 61 48 106.5t102 71t146 25.5q72 0 131 -19.5t96 -51.5l-38 -81q-39 30 -87.5 47t-112.5 17q-78 0 -126 -31
t-57 -85q-8 -46 16 -75t89 -39l100 -15q97 -14 139.5 -63.5t29.5 -132.5q-9 -56 -47 -100t-99 -69t-143 -25zM246 -273l-33 32q26 21 35 40.5t13 45.5l21 -13h-79l15 91h113l-12 -71q-7 -41 -22.5 -71t-50.5 -54z" />
    <glyph glyph-name="uni0219" unicode="&#x219;" horiz-adv-x="498" 
d="M215 -9q-59 0 -110.5 15t-81.5 40l33 70q34 -24 76 -37.5t88 -13.5q54 0 85 19t36 51q5 29 -11 47t-54 24l-76 13q-74 12 -103 51.5t-20 98.5q8 46 37 78t75 49t101 17t101 -14t73 -38l-35 -68q-26 21 -63 33.5t-76 12.5q-54 0 -84 -20.5t-36 -52.5q-5 -29 9 -48t49 -25
l78 -13q76 -13 106.5 -50t20.5 -95q-7 -45 -36 -77.5t-75.5 -49.5t-106.5 -17zM166 -273l-33 32q26 21 35 40.5t13 45.5l21 -13h-79l15 91h113l-12 -71q-7 -41 -22.5 -71t-50.5 -54z" />
    <glyph glyph-name="uni021A" unicode="&#x21a;" horiz-adv-x="611" 
d="M212 0l98 618h-241l14 87h586l-14 -87h-241l-98 -618h-104zM225 -273l-33 32q26 21 35 40.5t13 45.5l21 -13h-79l15 91h113l-12 -71q-7 -41 -22.5 -71t-50.5 -54z" />
    <glyph glyph-name="uni021B" unicode="&#x21b;" horiz-adv-x="363" 
d="M234 -9q-86 0 -121.5 45.5t-22.5 132.5l41 257h-98l13 78h97l22 133l105 27l-26 -160h140l-12 -78h-140l-39 -247q-8 -56 8.5 -80.5t55.5 -24.5q18 0 32.5 3.5t27.5 8.5l-13 -82q-17 -6 -34 -9.5t-36 -3.5zM151 -273l-33 32q26 21 35 40.5t13 45.5l21 -13h-79l15 91h113
l-12 -71q-7 -41 -22.5 -71t-50.5 -54z" />
    <glyph glyph-name="uni021F" unicode="&#x21f;" horiz-adv-x="593" 
d="M34 0l117 736h101l-54 -339h-15q30 57 81.5 86.5t117.5 29.5q92 0 128.5 -53t19.5 -156l-47 -304h-101l47 303q11 69 -11 99t-77 30q-65 0 -107.5 -39.5t-52.5 -104.5l-46 -288h-101zM339 776l-106 173h70l84 -112l107 112h76l-141 -173h-90z" />
    <glyph glyph-name="uni0226" unicode="&#x226;" horiz-adv-x="742" 
d="M-30 0l426 705h89l207 -705h-102l-56 200l40 -28h-427l50 28l-117 -200h-110zM426 591l-209 -359l-21 23h355l-24 -23l-98 359h-3zM405 801l15 101h104l-16 -101h-103z" />
    <glyph glyph-name="uni0227" unicode="&#x227;" horiz-adv-x="609" 
d="M236 -9q-69 0 -116.5 33t-67 94.5t-6.5 147.5q20 121 90.5 184t168.5 63q65 0 109 -32.5t54 -88.5l-11 -2l29 114h97q-7 -31 -14.5 -61.5t-12.5 -59.5l-60 -383h-101l18 114h16q-26 -57 -75 -90t-118 -33zM266 70q64 0 110.5 45t60.5 134q15 93 -18.5 138.5t-101.5 45.5
q-64 0 -109.5 -45t-60.5 -132q-14 -94 18.5 -140t100.5 -46zM302 603l16 101h105l-16 -101h-105z" />
    <glyph glyph-name="uni0228" unicode="&#x228;" horiz-adv-x="591" 
d="M43 0l112 705h462l-13 -83h-362l-35 -222h339l-13 -84h-339l-37 -232h361l-13 -84h-462zM270 -194q-28 0 -52.5 5.5t-41.5 15.5l20 49q17 -8 34 -12t39 -4q27 0 43.5 9t16.5 26q0 11 -9 17.5t-26 6.5q-10 0 -20.5 -1.5t-25.5 -5.5l-16 16l29 92h58l-24 -76l-27 9
q12 3 24 5t22 2q36 0 57.5 -16.5t21.5 -47.5q0 -40 -35 -65t-88 -25z" />
    <glyph glyph-name="uni022A" unicode="&#x22a;" horiz-adv-x="779" 
d="M77 367q18 111 68 188.5t128.5 118t177.5 40.5q109 0 177.5 -47.5t95.5 -132.5t9 -195q-17 -111 -67.5 -188.5t-128.5 -118.5t-178 -41q-108 0 -177 47.5t-95.5 132.5t-9.5 196zM184 357q-13 -87 3.5 -148.5t62 -94.5t117.5 -33q108 0 174 71.5t85 196.5
q14 86 -3.5 147.5t-62.5 94.5t-117 33q-108 0 -173 -70.5t-86 -196.5zM343 925l10 63h305l-10 -63h-305zM335 793l13 79h99l-13 -79h-99zM516 793l12 79h100l-13 -79h-99z" />
    <glyph glyph-name="uni022B" unicode="&#x22b;" horiz-adv-x="581" 
d="M258 -9q-78 0 -130 32t-73.5 94t-8.5 149q13 80 51.5 135.5t96 83.5t128.5 28q80 0 131.5 -32.5t73 -94t7.5 -147.5q-13 -81 -51.5 -136t-96 -83.5t-128.5 -28.5zM265 70q63 0 109 45t60 134q15 93 -18.5 138.5t-99.5 45.5q-65 0 -109.5 -45t-59.5 -132q-14 -94 18 -140
t100 -46zM210 707l10 64h306l-10 -64h-306zM202 576l12 79h100l-12 -79h-100zM383 576l12 79h100l-13 -79h-99z" />
    <glyph glyph-name="uni022C" unicode="&#x22c;" horiz-adv-x="779" 
d="M77 367q18 111 68 188.5t128.5 118t177.5 40.5q109 0 177.5 -47.5t95.5 -132.5t9 -195q-17 -111 -67.5 -188.5t-128.5 -118.5t-178 -41q-108 0 -177 47.5t-95.5 132.5t-9.5 196zM184 357q-13 -87 3.5 -148.5t62 -94.5t117.5 -33q108 0 174 71.5t85 196.5
q14 86 -3.5 147.5t-62.5 94.5t-117 33q-108 0 -173 -70.5t-86 -196.5zM343 925l10 63h305l-9 -63h-306zM545 767q-21 0 -40 9t-36 18q-14 8 -27.5 15t-28.5 7q-22 0 -35 -12t-20 -38l-50 3q8 52 36 78t71 26q21 0 39.5 -8t35.5 -18q14 -8 28 -15t28 -7q23 0 35.5 12t19.5 38
l50 -3q-8 -52 -36.5 -78.5t-69.5 -26.5z" />
    <glyph glyph-name="uni022D" unicode="&#x22d;" horiz-adv-x="581" 
d="M258 -9q-78 0 -130 32t-73.5 94t-8.5 149q13 80 51.5 135.5t96 83.5t128.5 28q80 0 131.5 -32.5t73 -94t7.5 -147.5q-13 -81 -51.5 -136t-96 -83.5t-128.5 -28.5zM265 70q63 0 109 45t60 134q15 93 -18.5 138.5t-99.5 45.5q-65 0 -109.5 -45t-59.5 -132q-14 -94 18 -140
t100 -46zM210 707l10 64h305l-10 -64h-305zM225 549l-51 2q8 53 35 79t69 26q23 0 42.5 -9t36.5 -18q15 -8 28.5 -15t26.5 -7q23 0 35.5 12t19.5 38l51 -3q-8 -52 -35.5 -78t-68.5 -26q-22 0 -41.5 8.5t-37.5 18.5q-14 9 -28 15t-27 6q-23 0 -35.5 -12t-19.5 -37z" />
    <glyph glyph-name="uni0230" unicode="&#x230;" horiz-adv-x="779" 
d="M77 367q18 111 68 188.5t128.5 118t177.5 40.5q109 0 177.5 -47.5t95.5 -132.5t9 -195q-17 -111 -67.5 -188.5t-128.5 -118.5t-178 -41q-108 0 -177 47.5t-95.5 132.5t-9.5 196zM184 357q-13 -87 3.5 -148.5t62 -94.5t117.5 -33q108 0 174 71.5t85 196.5
q14 86 -3.5 147.5t-62.5 94.5t-117 33q-108 0 -173 -70.5t-86 -196.5zM343 925l10 63h305l-10 -63h-305zM426 793l13 79h99l-13 -79h-99z" />
    <glyph glyph-name="uni0231" unicode="&#x231;" horiz-adv-x="581" 
d="M258 -9q-78 0 -130 32t-73.5 94t-8.5 149q13 80 51.5 135.5t96 83.5t128.5 28q80 0 131.5 -32.5t73 -94t7.5 -147.5q-13 -81 -51.5 -136t-96 -83.5t-128.5 -28.5zM265 70q63 0 109 45t60 134q15 93 -18.5 138.5t-99.5 45.5q-65 0 -109.5 -45t-59.5 -132q-14 -94 18 -140
t100 -46zM207 707l10 64h306l-10 -64h-306zM290 576l12 79h100l-13 -79h-99z" />
    <glyph glyph-name="uni0232" unicode="&#x232;" horiz-adv-x="617" 
d="M216 0l53 331l11 -66l-225 440h114l168 -337h-25l275 337h120l-366 -443l32 69l-53 -331h-104zM230 811l9 63h336l-10 -63h-335z" />
    <glyph glyph-name="uni0233" unicode="&#x233;" horiz-adv-x="536" 
d="M-16 -227l-17 82q49 10 83 24t58.5 36.5t45.5 57.5l34 59l-4 -41l-139 513h105l104 -420h-27l237 420h107l-316 -540q-30 -50 -60.5 -84t-63 -55t-69 -33t-78.5 -19zM175 621l9 64h306l-10 -64h-305z" />
    <glyph glyph-name="uni0237" unicode="&#x237;" horiz-adv-x="249" 
d="M-60 -221q-16 0 -36.5 3t-35.5 10l14 82q11 -4 26 -7.5t29 -3.5q39 0 63.5 24.5t33.5 80.5l85 536h101l-87 -543q-14 -90 -61.5 -136t-131.5 -46z" />
    <glyph glyph-name="uni0253" unicode="&#x253;" horiz-adv-x="609" 
d="M305 -9q-65 0 -109 32.5t-54 88.5l10 2l-18 -114h-100l90 565q14 91 66 135.5t143 44.5q16 0 31.5 -2t27.5 -7l-20 -77q-12 4 -20 5t-19 1q-92 0 -108 -100l-28 -173l-16 -2q26 57 75 90t118 33q70 0 117 -33t67 -94.5t6 -146.5q-20 -122 -90.5 -185t-168.5 -63zM293 70
q65 0 110 45t60 134q14 93 -18 138.5t-101 45.5q-64 0 -110.5 -45t-60.5 -132q-14 -94 19 -140t101 -46z" />
    <glyph glyph-name="uni0257" unicode="&#x257;" horiz-adv-x="609" 
d="M236 -9q-69 0 -116.5 33t-67 94.5t-6.5 147.5q20 121 90.5 184t168.5 63q65 0 109 -32.5t54 -88.5h-11l28 175q15 92 67.5 135t140.5 43q16 0 32 -2t29 -7l-21 -77q-13 4 -21 5t-18 1q-45 0 -73 -25.5t-36 -76.5l-89 -563h-100l18 114h15q-26 -57 -75.5 -90t-117.5 -33z
M266 70q64 0 110.5 45t60.5 134q15 93 -18.5 138.5t-101.5 45.5q-64 0 -109.5 -45t-60.5 -132q-14 -94 18.5 -140t100.5 -46z" />
    <glyph glyph-name="uni0259" unicode="&#x259;" horiz-adv-x="546" 
d="M238 -9q-75 0 -123 31t-67.5 85.5t-8.5 125.5l5 31h379l-8 -58h-311l21 15q-14 -76 15 -117t98 -41q46 0 80.5 21.5t55 59t27.5 83.5l4 28q12 86 -25.5 132t-124.5 46q-40 0 -80 -11.5t-76 -40.5l-31 69q42 32 94.5 47.5t109.5 15.5q84 0 139 -34.5t78.5 -96.5t9.5 -147
q-12 -75 -47.5 -130t-89.5 -84.5t-124 -29.5z" />
    <glyph glyph-name="uni02B9" unicode="&#x2b9;" horiz-adv-x="231" 
d="M109 422l20 283h118l-70 -283h-68z" />
    <glyph glyph-name="uni02BA" unicode="&#x2ba;" horiz-adv-x="417" 
d="M109 422l20 283h118l-70 -283h-68zM295 422l20 283h118l-70 -283h-68z" />
    <glyph glyph-name="uni02BB" unicode="&#x2bb;" horiz-adv-x="500" 
d="M243 566l10 67q6 39 23.5 70.5t52.5 57.5l34 -30q-25 -23 -35.5 -43t-14.5 -44l-22 13h79l-14 -91h-113z" />
    <glyph glyph-name="uni02BC" unicode="&#x2bc;" horiz-adv-x="336" 
d="M225 569l-37 29q24 21 33 41t12 40l24 -12h-80l15 94h113l-12 -67q-5 -38 -19.5 -67.5t-48.5 -57.5z" />
    <glyph glyph-name="uni02BE" unicode="&#x2be;" horiz-adv-x="500" 
d="M297 553l8 49q25 -1 42.5 16.5t17.5 42.5q0 20 -11.5 33t-31.5 14l8 48q40 -3 64.5 -29t24.5 -63q0 -32 -17 -58t-45 -40.5t-60 -12.5z" />
    <glyph glyph-name="uni02BF" unicode="&#x2bf;" horiz-adv-x="500" 
d="M299 553q-40 3 -64.5 29.5t-24.5 62.5q0 33 17.5 58.5t45 40t59.5 12.5l-8 -48q-25 0 -42.5 -17t-17.5 -43q0 -20 11.5 -32.5t31.5 -14.5z" />
    <glyph glyph-name="circumflex" unicode="&#x2c6;" horiz-adv-x="500" 
d="M141 553l132 202h91l89 -202h-66l-73 140l-105 -140h-68z" />
    <glyph glyph-name="caron" unicode="&#x2c7;" horiz-adv-x="500" 
d="M263 553l-89 202h66l73 -141l105 141h67l-131 -202h-91z" />
    <glyph glyph-name="uni02C8" unicode="&#x2c8;" horiz-adv-x="500" 
d="M269 595l32 201h70l-32 -201h-70z" />
    <glyph glyph-name="uni02C9" unicode="&#x2c9;" horiz-adv-x="500" 
d="M156 621l10 64h305l-10 -64h-305z" />
    <glyph glyph-name="uni02CA" unicode="&#x2ca;" horiz-adv-x="500" 
d="M263 553l124 202h105l-159 -202h-70z" />
    <glyph glyph-name="uni02CB" unicode="&#x2cb;" horiz-adv-x="500" 
d="M300 553l-141 202h102l109 -202h-70z" />
    <glyph glyph-name="uni02CC" unicode="&#x2cc;" horiz-adv-x="500" 
d="M132 -270l32 202h70l-32 -202h-70z" />
    <glyph glyph-name="breve" unicode="&#x2d8;" horiz-adv-x="500" 
d="M313 550q-46 0 -80 23t-51.5 66t-14.5 102l61 6q-3 -64 21 -98.5t68 -34.5t72.5 34.5t37.5 98.5l60 -6q-7 -59 -30.5 -102t-60 -66t-83.5 -23z" />
    <glyph glyph-name="dotaccent" unicode="&#x2d9;" horiz-adv-x="500" 
d="M253 603l16 101h105l-16 -101h-105z" />
    <glyph glyph-name="ring" unicode="&#x2da;" horiz-adv-x="500" 
d="M318 546q-34 0 -62 16t-44.5 43t-16.5 60q0 34 16.5 60.5t44 42.5t61.5 16q35 0 62.5 -16t43.5 -43t16 -60t-16 -60t-43 -43t-62 -16zM317 596q31 0 50 20t19 49q0 30 -19 49.5t-49 19.5t-49.5 -19.5t-19.5 -49.5t19 -49.5t49 -19.5z" />
    <glyph glyph-name="ogonek" unicode="&#x2db;" horiz-adv-x="500" 
d="M165 -194q-49 0 -75 25.5t-26 66.5q0 47 31 84.5t79 56.5l28 -39q-36 -15 -53 -38t-17 -48q0 -22 13.5 -36t38.5 -14q13 0 26 3t28 9l11 -54q-20 -6 -40.5 -11t-43.5 -5z" />
    <glyph glyph-name="tilde" unicode="&#x2dc;" horiz-adv-x="500" 
d="M171 587l-53 4q10 67 42 103.5t80 36.5q26 0 44.5 -12.5t33.5 -26.5q14 -13 28.5 -23t31.5 -10q50 0 68 75l53 -3q-10 -67 -42 -103.5t-79 -36.5q-26 0 -45.5 12.5t-34.5 26.5q-14 13 -28 22.5t-31 9.5q-50 0 -68 -75z" />
    <glyph glyph-name="hungarumlaut" unicode="&#x2dd;" horiz-adv-x="500" 
d="M337 553l71 202h88l-104 -202h-55zM200 553l70 202h89l-104 -202h-55z" />
    <glyph glyph-name="gravecomb" unicode="&#x300;" 
d="M50 553l-142 202h102l110 -202h-70z" />
    <glyph glyph-name="acutecomb" unicode="&#x301;" 
d="M13 553l133 202h105l-168 -202h-70z" />
    <glyph glyph-name="uni0302" unicode="&#x302;" 
d="M-109 553l132 202h91l89 -202h-66l-73 140l-105 -140h-68z" />
    <glyph glyph-name="tildecomb" unicode="&#x303;" 
d="M-79 587l-53 4q10 67 42 103.5t80 36.5q26 0 44.5 -12.5t33.5 -26.5q14 -13 28.5 -23t31.5 -10q50 0 68 75l53 -3q-10 -67 -42 -103.5t-79 -36.5q-26 0 -45.5 12.5t-34.5 26.5q-14 13 -28 22.5t-31 9.5q-50 0 -68 -75z" />
    <glyph glyph-name="uni0304" unicode="&#x304;" 
d="M-94 621l9 64h306l-10 -64h-305z" />
    <glyph glyph-name="uni0306" unicode="&#x306;" 
d="M63 550q-46 0 -80 23t-51.5 66t-14.5 102l61 6q-3 -64 21 -98.5t68 -34.5t72.5 34.5t37.5 98.5l60 -6q-7 -59 -30.5 -102t-60 -66t-83.5 -23z" />
    <glyph glyph-name="uni0307" unicode="&#x307;" 
d="M3 603l16 101h105l-16 -101h-105z" />
    <glyph glyph-name="uni0308" unicode="&#x308;" 
d="M97 604l14 99h100l-16 -99h-98zM-84 604l14 99h100l-15 -99h-99z" />
    <glyph glyph-name="hookabovecomb" unicode="&#x309;" 
d="M27 553l3 21q4 22 15 36t23.5 25.5t22 22t9.5 24.5q0 13 -10.5 19t-31.5 6q-16 0 -31 -3.5t-33 -12.5l-12 48q21 12 46.5 17.5t55.5 5.5q45 0 70 -17t25 -47q0 -27 -11 -43.5t-26.5 -27.5t-29 -24t-17.5 -35l-3 -15h-65z" />
    <glyph glyph-name="uni030A" unicode="&#x30a;" 
d="M68 546q-34 0 -62 16t-44.5 43t-16.5 60q0 34 16.5 60.5t44 42.5t61.5 16q35 0 62.5 -16t43.5 -43t16 -60t-16 -60t-43 -43t-62 -16zM67 596q31 0 50 20t19 49q0 30 -19 49.5t-49 19.5t-49.5 -19.5t-19.5 -49.5t19 -49.5t49 -19.5z" />
    <glyph glyph-name="uni030B" unicode="&#x30b;" 
d="M87 553l71 202h88l-104 -202h-55zM-50 553l70 202h89l-104 -202h-55z" />
    <glyph glyph-name="uni030C" unicode="&#x30c;" 
d="M13 553l-89 202h66l73 -141l105 141h67l-131 -202h-91z" />
    <glyph glyph-name="uni030F" unicode="&#x30f;" 
d="M104 553l-67 202h87l35 -202h-55zM-33 553l-68 202h88l35 -202h-55z" />
    <glyph glyph-name="uni0311" unicode="&#x311;" 
d="M-52 550l-60 5q8 60 31.5 103t60 66t82.5 23q47 0 81 -23.5t51 -66.5t14 -102l-61 -5q3 63 -20 98t-68 35q-44 0 -73 -35t-38 -98z" />
    <glyph glyph-name="uni0312" unicode="&#x312;" 
d="M-8 566l12 71q7 41 22.5 71t51.5 53l33 -31q-26 -21 -34.5 -40t-13.5 -46l-22 13h80l-15 -91h-114z" />
    <glyph glyph-name="uni031B" unicode="&#x31b;" 
d="M86 431l-53 36l4 21q39 1 63 11.5t37 34.5t20 64l2 18h90l-6 -36q-10 -66 -50.5 -105t-106.5 -44z" />
    <glyph glyph-name="dotbelowcomb" unicode="&#x323;" 
d="M-124 -195l17 101h105l-17 -101h-105z" />
    <glyph glyph-name="uni0324" unicode="&#x324;" 
d="M-29 -186l15 98h100l-16 -98h-99zM-210 -186l16 98h99l-16 -98h-99z" />
    <glyph glyph-name="uni0326" unicode="&#x326;" 
d="M-83 -273l-33 32q26 21 35 40.5t13 45.5l21 -13h-79l15 91h113l-12 -71q-7 -41 -22.5 -71t-50.5 -54z" />
    <glyph glyph-name="uni0327" unicode="&#x327;" 
d="M-67 -194q-28 0 -52.5 5.5t-41.5 15.5l20 49q17 -8 34 -12t39 -4q27 0 43.5 9t16.5 26q0 11 -9 17.5t-26 6.5q-10 0 -20.5 -1.5t-25.5 -5.5l-16 16l29 92h58l-24 -76l-27 9q12 3 24 5t22 2q36 0 57.5 -16.5t21.5 -47.5q0 -40 -35 -65t-88 -25z" />
    <glyph glyph-name="uni0328" unicode="&#x328;" 
d="M-85 -194q-49 0 -75 25.5t-26 66.5q0 47 31 84.5t79 56.5l28 -39q-36 -15 -53 -38t-17 -48q0 -22 13.5 -36t38.5 -14q13 0 26 3t28 9l11 -54q-20 -6 -40.5 -11t-43.5 -5z" />
    <glyph glyph-name="uni032E" unicode="&#x32e;" 
d="M-61 -215q-70 0 -111.5 41t-37.5 110l60 6q-2 -44 22.5 -69t68.5 -25t72.5 25t35.5 69l60 -6q-8 -69 -54 -110t-116 -41z" />
    <glyph glyph-name="uni0331" unicode="&#x331;" 
d="M-218 -160l10 64h306l-10 -64h-306z" />
    <glyph glyph-name="uni0335" unicode="&#x335;" 
d="M-148 528l12 73h382l-11 -73h-383z" />
    <glyph glyph-name="uni0337" unicode="&#x337;" 
d="M-116 248l-34 74l304 145l34 -73z" />
    <glyph glyph-name="uni0338" unicode="&#x338;" 
d="M91 -42l-49 35l398 541l47 -34z" />
    <glyph glyph-name="uni0394" unicode="&#x394;" horiz-adv-x="736" 
d="M-6 0l10 60l385 645h86l181 -645l-8 -60h-654zM417 589l-318 -541l6 36h465l-6 -36l-145 541h-2z" />
    <glyph glyph-name="Sigma" unicode="&#x3a3;" horiz-adv-x="611" 
d="M-19 -180l12 73l335 387l8 -34l-226 386l12 73h517l-13 -87h-408l-4 25l206 -351l-10 -59l-305 -351l1 25h407l-14 -87h-518z" />
    <glyph glyph-name="uni03A9" unicode="&#x3a9;" horiz-adv-x="796" 
d="M-2 0l14 85h238l-1 -27q-91 63 -135 141t-44 163q0 107 45.5 186.5t129 122.5t195.5 43q70 0 128 -20t101.5 -57t67 -87.5t23.5 -111.5q0 -92 -35 -165.5t-98.5 -127t-149.5 -87.5l1 27h243l-13 -85h-299l13 82q104 58 167 141.5t63 194.5q0 62 -26 108t-74 72t-117 26
q-82 0 -139.5 -34.5t-87.5 -95t-30 -139.5q0 -72 33 -140.5t100 -132.5l-13 -82h-300z" />
    <glyph glyph-name="uni03BC" unicode="&#x3bc;" horiz-adv-x="586" 
d="M-1 -216l111 720h102l-46 -302q-10 -66 11.5 -98t73.5 -32q66 0 106.5 43t51.5 115l41 274h102l-78 -504h-101l16 107h6q-21 -54 -61 -85t-94 -31q-40 0 -66.5 15t-38.5 44l4 1l-36 -267h-104z" />
    <glyph glyph-name="pi" unicode="&#x3c0;" horiz-adv-x="605" 
d="M-4 0q34 68 60.5 135.5t45.5 139.5t31 151h-101l13 78h564l-14 -78h-111l-36 -231q-6 -39 0 -65.5t28.5 -41t64.5 -17.5l28 -2l-13 -76l-35 2q-71 4 -112.5 26.5t-56 67t-3.5 114.5l34 223h-150q-14 -89 -33 -164t-43 -139.5t-55 -122.5h-106z" />
    <glyph glyph-name="uni0400" unicode="&#x400;" horiz-adv-x="591" 
d="M43 0l112 705h462l-13 -83h-362l-35 -222h339l-13 -84h-339l-37 -232h361l-13 -84h-462zM381 765l-139 173h108l105 -173h-74z" />
    <glyph glyph-name="uni0401" unicode="&#x401;" horiz-adv-x="591" 
d="M43 0l112 705h462l-13 -83h-362l-35 -222h339l-13 -84h-339l-37 -232h361l-13 -84h-462zM463 799l16 99h99l-16 -99h-99zM282 799l16 99h99l-16 -99h-99z" />
    <glyph glyph-name="uni0402" unicode="&#x402;" horiz-adv-x="868" 
d="M527 -189q-35 0 -66 5.5t-53 15.5l24 77q19 -8 41.5 -11.5t49.5 -3.5q62 0 101.5 39.5t51.5 116.5l15 92q18 107 -24.5 157t-142.5 50q-44 0 -84 -8.5t-74 -26.5l-50 -314h-104l98 618h-241l14 87h586l-14 -87h-241l-34 -213q31 16 76 24.5t91 8.5q143 0 207.5 -72
t40.5 -218l-15 -94q-12 -84 -46 -138t-86.5 -79.5t-120.5 -25.5z" />
    <glyph glyph-name="uni0403" unicode="&#x403;" horiz-adv-x="563" 
d="M43 0l112 705h465l-14 -86h-362l-97 -619h-104zM330 765l131 173h111l-168 -173h-74z" />
    <glyph glyph-name="uni0404" unicode="&#x404;" horiz-adv-x="693" 
d="M388 -9q-93 0 -158 27.5t-103.5 78.5t-51 119.5t0.5 150.5q18 111 70 188.5t134.5 118.5t190.5 40q71 0 127 -20t94 -57l-39 -83q-43 38 -85 53.5t-106 15.5q-113 0 -182 -66.5t-93 -185.5l-26 29h383l-13 -83h-385l37 24q-15 -120 36 -189t172 -69q58 0 109.5 18
t98.5 60l34 -83q-48 -42 -112.5 -64.5t-132.5 -22.5z" />
    <glyph glyph-name="uni0405" unicode="&#x405;" horiz-adv-x="633" 
d="M288 -9q-83 0 -150 20t-112 51l39 82q48 -30 102.5 -47.5t127.5 -17.5q83 0 127 30t51 77q7 44 -16 70.5t-88 35.5l-98 16q-96 14 -139.5 67t-30.5 136q9 61 48 106.5t102 71t146 25.5q72 0 131 -19.5t96 -51.5l-38 -81q-39 30 -87.5 47t-112.5 17q-78 0 -126 -31
t-57 -85q-8 -46 16 -75t89 -39l100 -15q97 -14 139.5 -63.5t29.5 -132.5q-9 -56 -47 -100t-99 -69t-143 -25z" />
    <glyph glyph-name="uni0406" unicode="&#x406;" horiz-adv-x="270" 
d="M43 0l112 705h104l-112 -705h-104z" />
    <glyph glyph-name="uni0407" unicode="&#x407;" horiz-adv-x="270" 
d="M43 0l112 705h104l-112 -705h-104zM262 799l16 99h99l-16 -99h-99zM81 799l16 99h99l-16 -99h-99z" />
    <glyph glyph-name="uni0408" unicode="&#x408;" horiz-adv-x="344" 
d="M15 -187q-17 0 -39 2.5t-43 9.5l13 84q19 -7 35.5 -9.5t29.5 -2.5q46 0 72.5 28t35.5 89l110 691h104l-111 -699q-11 -66 -36.5 -108.5t-67.5 -63.5t-103 -21z" />
    <glyph glyph-name="uni0409" unicode="&#x409;" horiz-adv-x="1166" 
d="M29 -16l-48 77q47 23 85 52.5t67.5 76t52.5 117.5t39 174l35 224h482l-49 -304h202q119 0 176.5 -53.5t41.5 -160.5q-14 -93 -84.5 -140t-180.5 -47h-321l98 619h-283l-26 -161q-16 -107 -42.5 -185.5t-62 -133.5t-81.5 -92t-101 -63zM642 82h201q78 0 120 28t51 89
q10 62 -22 91t-110 29h-202z" />
    <glyph glyph-name="uni040A" unicode="&#x40a;" horiz-adv-x="1180" 
d="M43 0l112 705h103l-49 -304h397l47 304h103l-48 -304h201q120 0 177.5 -53.5t41.5 -160.5q-15 -93 -85 -140t-180 -47h-322l51 315h-396l-50 -315h-103zM658 82h200q78 0 120 28t51 89q9 62 -22.5 91t-109.5 29h-201z" />
    <glyph glyph-name="uni040B" unicode="&#x40b;" horiz-adv-x="870" 
d="M212 0l98 618h-241l14 87h586l-14 -87h-241l-34 -213q34 17 81 25t91 8q142 0 205.5 -73.5t40.5 -216.5l-23 -148h-103l22 142q17 109 -25 158.5t-139 49.5q-42 0 -83.5 -8t-80.5 -27l-50 -315h-104z" />
    <glyph glyph-name="uni040C" unicode="&#x40c;" horiz-adv-x="672" 
d="M43 0l112 705h103l-50 -308h133l-29 -16l269 324h120l-290 -342l-37 30q63 -9 101.5 -44.5t60.5 -100.5l85 -248h-105l-67 205q-19 58 -53.5 82t-90.5 24h-110l-49 -311h-103zM384 765l131 173h111l-168 -173h-74z" />
    <glyph glyph-name="uni040D" unicode="&#x40d;" horiz-adv-x="750" 
d="M43 0l112 705h96l-90 -570h-24l523 570h80l-112 -705h-97l90 570h23l-523 -570h-78zM422 765l-139 173h108l105 -173h-74z" />
    <glyph glyph-name="uni040E" unicode="&#x40e;" horiz-adv-x="670" 
d="M151 0l161 232v-36l-246 509h106l200 -418h-21l287 418h112l-486 -705h-113zM414 760q-47 0 -85 15.5t-63 46t-36 73.5l56 20q16 -50 48 -72.5t83 -22.5q52 0 87 22t64 72l51 -19q-20 -46 -51.5 -76t-70.5 -44.5t-83 -14.5z" />
    <glyph glyph-name="uni040F" unicode="&#x40f;" horiz-adv-x="768" 
d="M272 -161l26 161h-255l112 705h104l-99 -618h395l99 618h103l-112 -705h-254l-27 -161h-92z" />
    <glyph glyph-name="uni0410" unicode="&#x410;" horiz-adv-x="742" 
d="M-30 0l426 705h89l207 -705h-102l-56 200l40 -28h-427l50 28l-117 -200h-110zM426 591l-209 -359l-21 23h355l-24 -23l-98 359h-3z" />
    <glyph glyph-name="uni0411" unicode="&#x411;" horiz-adv-x="682" 
d="M43 0l112 705h488l-14 -82h-387l-35 -222h204q119 0 177.5 -53.5t41.5 -160.5q-15 -93 -85 -140t-181 -47h-321zM156 82h203q79 0 120.5 28t51.5 89q10 62 -22 91t-110 29h-205z" />
    <glyph glyph-name="uni0412" unicode="&#x412;" horiz-adv-x="685" 
d="M43 0l112 705h297q112 0 165 -49t39 -141q-10 -65 -56 -106.5t-116 -56.5l2 15q76 -10 111 -59t24 -123q-14 -91 -83 -138t-184 -47h-311zM156 81h197q71 0 115.5 26t53.5 84q7 47 -7 74.5t-45 39.5t-76 12h-201zM207 397h179q75 0 116.5 28t49.5 78q10 63 -20.5 92.5
t-99.5 29.5h-190z" />
    <glyph glyph-name="uni0413" unicode="&#x413;" horiz-adv-x="563" 
d="M43 0l112 705h465l-14 -86h-362l-97 -619h-104z" />
    <glyph glyph-name="uni0414" unicode="&#x414;" horiz-adv-x="811" 
d="M-50 -161l39 244h72q62 63 104.5 170.5t67.5 267.5l29 184h495l-99 -622h103l-38 -244h-92l26 161h-589l-26 -161h-92zM172 83h383l85 540h-296l-17 -109q-24 -155 -62 -258.5t-93 -172.5z" />
    <glyph glyph-name="uni0415" unicode="&#x415;" horiz-adv-x="591" 
d="M43 0l112 705h462l-13 -83h-362l-35 -222h339l-13 -84h-339l-37 -232h361l-13 -84h-462z" />
    <glyph glyph-name="uni0416" unicode="&#x416;" horiz-adv-x="1016" 
d="M-35 0l163 248q43 65 94.5 101t120.5 44l-41 -30l-181 342h109l166 -324l-18 16h104l49 308h99l-49 -308h105l-30 -16l270 324h118l-289 -342l-36 30q58 -8 98.5 -44t62.5 -101l86 -248h-106l-68 205q-19 57 -53 81.5t-90 24.5h-81l-50 -311h-99l49 311h-82
q-56 0 -96.5 -24.5t-76.5 -81.5l-131 -205h-117z" />
    <glyph glyph-name="uni0417" unicode="&#x417;" horiz-adv-x="649" 
d="M287 -9q-89 0 -156.5 23.5t-108.5 64.5l37 77q43 -38 98.5 -58t131.5 -20q90 0 139 31t58 90q9 60 -24 88.5t-109 28.5h-181l14 83h166q76 0 116.5 28t49.5 81q8 57 -29 88t-122 31q-64 0 -123.5 -19t-112.5 -56l-34 78q57 41 130.5 62.5t153.5 21.5q89 0 145.5 -24.5
t80 -69.5t13.5 -104q-9 -60 -52 -104t-119 -59l2 14q72 -10 109.5 -57t24.5 -124q-9 -60 -45.5 -104t-99.5 -67.5t-153 -23.5z" />
    <glyph glyph-name="uni0418" unicode="&#x418;" horiz-adv-x="750" 
d="M43 0l112 705h96l-90 -570h-24l523 570h80l-112 -705h-97l90 570h23l-523 -570h-78z" />
    <glyph glyph-name="uni0419" unicode="&#x419;" horiz-adv-x="750" 
d="M43 0l112 705h96l-90 -570h-24l523 570h80l-112 -705h-97l90 570h23l-523 -570h-78zM454 760q-47 0 -85 15.5t-63 46t-36 73.5l56 20q16 -50 48 -72.5t83 -22.5q52 0 87 22t64 72l51 -19q-20 -46 -51.5 -76t-70.5 -44.5t-83 -14.5z" />
    <glyph glyph-name="uni041A" unicode="&#x41a;" horiz-adv-x="672" 
d="M43 0l112 705h103l-50 -308h133l-29 -16l269 324h120l-290 -342l-37 30q63 -9 101.5 -44.5t60.5 -100.5l85 -248h-105l-67 205q-19 58 -53.5 82t-90.5 24h-110l-49 -311h-103z" />
    <glyph glyph-name="uni041B" unicode="&#x41b;" horiz-adv-x="767" 
d="M29 -16l-48 77q47 23 85 52.5t67.5 76t52.5 117.5t39 174l35 224h496l-112 -705h-103l98 619h-297l-26 -161q-16 -107 -42.5 -185.5t-62 -133.5t-81.5 -92t-101 -63z" />
    <glyph glyph-name="uni041C" unicode="&#x41c;" horiz-adv-x="864" 
d="M44 0l112 705h91l175 -613h-31l370 613h90l-112 -705h-94l89 564h34l-344 -564h-63l-166 564h33l-89 -564h-95z" />
    <glyph glyph-name="uni041D" unicode="&#x41d;" horiz-adv-x="770" 
d="M43 0l112 705h104l-48 -304h396l48 304h104l-112 -705h-104l50 314h-396l-50 -314h-104z" />
    <glyph glyph-name="uni041E" unicode="&#x41e;" horiz-adv-x="779" 
d="M77 367q18 111 68 188.5t128.5 118t177.5 40.5q109 0 177.5 -47.5t95.5 -132.5t9 -195q-17 -111 -67.5 -188.5t-128.5 -118.5t-178 -41q-108 0 -177 47.5t-95.5 132.5t-9.5 196zM184 357q-13 -87 3.5 -148.5t62 -94.5t117.5 -33q108 0 174 71.5t85 196.5
q14 86 -3.5 147.5t-62.5 94.5t-117 33q-108 0 -173 -70.5t-86 -196.5z" />
    <glyph glyph-name="uni041F" unicode="&#x41f;" horiz-adv-x="768" 
d="M43 0l112 705h602l-112 -705h-103l98 619h-396l-98 -619h-103z" />
    <glyph glyph-name="uni0420" unicode="&#x420;" horiz-adv-x="658" 
d="M43 0l112 705h289q118 0 172 -58.5t37 -159.5q-9 -61 -42.5 -104t-87.5 -66t-128 -23h-201l-47 -294h-104zM207 377h183q72 0 112.5 29.5t49.5 87.5q10 63 -21.5 95.5t-102.5 32.5h-183z" />
    <glyph glyph-name="uni0421" unicode="&#x421;" horiz-adv-x="685" 
d="M377 -9q-117 0 -190 47.5t-100.5 132.5t-10.5 196q18 111 69.5 188.5t132.5 118.5t186 40q71 0 126 -20t94 -58l-39 -83q-43 38 -85.5 53.5t-101.5 15.5q-111 0 -182 -69t-92 -195q-12 -83 5 -145t67 -96t132 -34q53 0 104.5 18t98.5 59l33 -82q-48 -42 -113 -64.5
t-134 -22.5z" />
    <glyph glyph-name="uni0422" unicode="&#x422;" horiz-adv-x="611" 
d="M212 0l98 618h-241l14 87h586l-14 -87h-241l-98 -618h-104z" />
    <glyph glyph-name="uni0423" unicode="&#x423;" horiz-adv-x="670" 
d="M151 0l161 232v-36l-246 509h106l200 -418h-21l287 418h112l-486 -705h-113z" />
    <glyph glyph-name="uni0424" unicode="&#x424;" horiz-adv-x="886" 
d="M348 -24l16 101l23 -21h-24q-104 0 -173 38.5t-98 110t-14 167.5q22 141 119 214.5t248 73.5h38l-30 -21l15 95h103l-15 -95l-24 21h24q107 0 175.5 -38t97 -109t13.5 -169q-15 -92 -64.5 -156.5t-126.5 -98t-177 -33.5h-37l30 21l-16 -101h-103zM371 116l76 484l20 -20
h-37q-98 0 -164 -53t-84 -162q-11 -74 7.5 -125.5t62.5 -77.5t108 -26h37zM472 116l-20 20h38q64 0 116 24.5t86.5 72.5t44.5 117q13 77 -6 127.5t-62.5 76.5t-108.5 26h-38l27 20z" />
    <glyph glyph-name="uni0425" unicode="&#x425;" horiz-adv-x="661" 
d="M-41 0l345 381l-2 -42l-216 366h118l166 -292h-33l258 292h128l-332 -366v42l226 -381h-118l-177 308h39l-275 -308h-127z" />
    <glyph glyph-name="uni0426" unicode="&#x426;" horiz-adv-x="811" 
d="M631 -161l25 161h-613l112 705h103l-99 -618h396l99 618h103l-98 -618h103l-39 -248h-92z" />
    <glyph glyph-name="uni0427" unicode="&#x427;" horiz-adv-x="701" 
d="M475 0l45 288q-33 -15 -79.5 -24t-93.5 -9q-92 0 -152 32.5t-84 97t-10 161.5l27 159h103l-25 -153q-18 -112 23.5 -159.5t141.5 -47.5q43 0 84 8t80 27l52 325h103l-112 -705h-103z" />
    <glyph glyph-name="uni0428" unicode="&#x428;" horiz-adv-x="1089" 
d="M43 0l112 705h102l-98 -618h309l98 618h102l-99 -618h309l98 618h102l-112 -705h-923z" />
    <glyph glyph-name="uni0429" unicode="&#x429;" horiz-adv-x="1132" 
d="M952 -161l25 161h-934l112 705h102l-98 -618h309l98 618h102l-99 -618h309l98 618h102l-98 -618h103l-40 -248h-91z" />
    <glyph glyph-name="uni042A" unicode="&#x42a;" horiz-adv-x="828" 
d="M189 0l98 619h-218l14 86h321l-48 -304h201q119 0 177 -53.5t42 -160.5q-15 -93 -85 -140t-181 -47h-321zM305 82h200q78 0 120 28t52 89q9 62 -22.5 91t-109.5 29h-202z" />
    <glyph glyph-name="uni042B" unicode="&#x42b;" horiz-adv-x="895" 
d="M43 0l112 705h104l-49 -304h171q119 0 177 -53.5t42 -160.5q-15 -93 -85 -140t-181 -47h-291zM159 82h170q79 0 121 28t51 89q10 62 -22 91t-110 29h-172zM668 0l112 705h103l-112 -705h-103z" />
    <glyph glyph-name="uni042C" unicode="&#x42c;" horiz-adv-x="682" 
d="M43 0l112 705h104l-49 -304h201q119 0 177.5 -53.5t41.5 -160.5q-15 -93 -85 -140t-181 -47h-321zM159 82h200q79 0 120.5 28t51.5 89q10 62 -22 91t-110 29h-202z" />
    <glyph glyph-name="uni042D" unicode="&#x42d;" horiz-adv-x="693" 
d="M253 -9q-71 0 -126.5 20t-95.5 58l40 83q43 -38 85.5 -53.5t105.5 -15.5q113 0 183 66.5t93 184.5l29 -17h-384l13 83h382l-36 -36q15 121 -36 190t-170 69q-57 0 -109.5 -18.5t-100.5 -59.5l-34 83q52 43 119.5 64.5t134.5 21.5q89 0 152 -27.5t100.5 -78t50.5 -119.5
t-1 -151q-17 -110 -69.5 -188t-135 -119t-190.5 -40z" />
    <glyph glyph-name="uni042E" unicode="&#x42e;" horiz-adv-x="1055" 
d="M635 -9q-97 0 -163 39.5t-97.5 112.5t-25.5 172h-153l-49 -315h-104l112 705h104l-49 -305h150q33 153 130.5 233.5t236.5 80.5q109 0 178 -47t96.5 -131.5t9.5 -195.5t-70 -189t-130 -119t-176 -41zM641 81q106 0 173.5 71.5t88.5 196.5q13 86 -4 147.5t-62.5 94.5
t-117.5 33q-108 0 -173.5 -70.5t-84.5 -196.5q-14 -85 2 -147t61 -95.5t117 -33.5z" />
    <glyph glyph-name="uni042F" unicode="&#x42f;" horiz-adv-x="696" 
d="M-8 0l162 224q31 44 66.5 65t77.5 21h29l-18 -15q-70 0 -118.5 25.5t-70 74t-11.5 115.5q16 96 84.5 145.5t184.5 49.5h307l-112 -705h-103l46 291h-112q-31 0 -53.5 -5.5t-40.5 -20t-37 -40.5l-162 -225h-119zM340 369h189l40 254h-182q-84 0 -127 -31.5t-52 -91.5
q-10 -64 24 -97.5t108 -33.5z" />
    <glyph glyph-name="uni0430" unicode="&#x430;" horiz-adv-x="621" 
d="M242 -9q-69 0 -116.5 33t-67 94.5t-6.5 147.5q20 121 90.5 184t168.5 63q65 0 109 -32.5t54 -88.5l-11 -2l29 114h97q-7 -31 -14.5 -61.5t-12.5 -59.5l-60 -383h-101l18 114h16q-26 -57 -75 -90t-118 -33zM272 70q64 0 110.5 45t60.5 134q15 93 -18.5 138.5t-101.5 45.5
q-64 0 -109.5 -45t-60.5 -132q-14 -94 18.5 -140t100.5 -46z" />
    <glyph glyph-name="uni0431" unicode="&#x431;" horiz-adv-x="594" 
d="M269 -9q-122 0 -179 75t-36 212l17 99q20 126 93.5 210t205.5 114l190 44l17 -83l-194 -43q-97 -23 -147.5 -79.5t-65.5 -142.5l-8 -46h-16q19 46 49.5 78.5t71.5 51t89 18.5q68 0 114 -31t65.5 -90t5.5 -143q-13 -79 -51.5 -134t-95 -82.5t-125.5 -27.5zM271 69
q65 0 111 45t59 130q14 86 -19 131.5t-102 45.5q-66 0 -110.5 -45t-58.5 -130q-15 -86 18 -131.5t102 -45.5z" />
    <glyph glyph-name="uni0432" unicode="&#x432;" horiz-adv-x="568" 
d="M36 0l80 504h248q63 0 101.5 -16t53.5 -46t8 -74q-7 -46 -44.5 -78.5t-91.5 -39.5v14q62 -3 93 -37t22 -90q-10 -68 -63 -102.5t-137 -34.5h-270zM141 65h160q49 0 78.5 19t35.5 60q6 40 -17 60t-72 20h-161zM176 289h152q45 0 72 20t32 55q6 36 -15 55.5t-67 19.5h-151z
" />
    <glyph glyph-name="uni0433" unicode="&#x433;" horiz-adv-x="455" 
d="M36 0l80 504h363l-13 -81h-262l-67 -423h-101z" />
    <glyph glyph-name="uni0434" unicode="&#x434;" horiz-adv-x="619" 
d="M-35 -130l33 208h56q42 50 67.5 117t39.5 162l23 147h370l-68 -426h80l-32 -208h-87l21 130h-395l-21 -130h-87zM151 77h240l55 349h-187l-13 -89q-12 -73 -36 -142.5t-59 -117.5z" />
    <glyph glyph-name="uni0435" unicode="&#x435;" horiz-adv-x="558" 
d="M285 -9q-86 0 -142.5 34t-79.5 97t-10 147q13 77 49 131.5t92 83.5t128 29q71 0 117 -31t65.5 -85.5t8.5 -126.5l-5 -30h-379l9 58h310l-18 -15q11 77 -17.5 117.5t-95.5 40.5q-47 0 -82 -21.5t-56 -58.5t-27 -84l-5 -28q-11 -86 26 -132.5t123 -46.5q42 0 82 12.5
t75 41.5l32 -69q-40 -31 -92.5 -47.5t-107.5 -16.5z" />
    <glyph glyph-name="uni0436" unicode="&#x436;" horiz-adv-x="823" 
d="M-44 0l134 182q28 36 51 58t47 33.5t53 14.5l-25 -32l-152 248h106l126 -206h74l33 206h101l-33 -206h70l191 206h114l-228 -248l-21 32q26 -3 45.5 -14.5t35.5 -33.5t32 -58l75 -182h-103l-65 154q-11 26 -23.5 40.5t-30 20t-43.5 5.5h-62l-34 -220h-100l34 220h-62
q-26 0 -44 -5.5t-34 -20t-36 -40.5l-113 -154h-113z" />
    <glyph glyph-name="uni0437" unicode="&#x437;" horiz-adv-x="518" 
d="M217 -9q-64 0 -119.5 16.5t-87.5 47.5l35 68q32 -29 78.5 -43.5t98.5 -14.5q68 0 102.5 20.5t40.5 58.5q6 37 -17 56t-72 19h-125l11 72h114q45 0 73.5 19t32.5 53q6 36 -19.5 56t-88.5 20q-52 0 -97.5 -12.5t-87.5 -36.5l-28 65q47 29 106 43.5t126 14.5q99 0 146.5 -38
t36.5 -107q-7 -45 -44 -78t-91 -40l2 13q61 -3 92 -38t22 -91q-10 -64 -70 -103.5t-170 -39.5z" />
    <glyph glyph-name="uni0438" unicode="&#x438;" horiz-adv-x="604" 
d="M36 0l80 504h91l-64 -407l-30 1l371 406h84l-80 -504h-91l65 408l30 -2l-372 -406h-84z" />
    <glyph glyph-name="uni0439" unicode="&#x439;" horiz-adv-x="604" 
d="M36 0l80 504h91l-64 -407l-30 1l371 406h84l-80 -504h-91l65 408l30 -2l-372 -406h-84zM353 550q-43 0 -78 16t-57.5 46t-32.5 73l55 19q14 -49 43 -72t74 -23q46 0 76 22.5t54 71.5l53 -18q-18 -47 -46.5 -77t-64 -44t-76.5 -14z" />
    <glyph glyph-name="uni043A" unicode="&#x43a;" horiz-adv-x="552" 
d="M36 0l80 504h100l-32 -206h83l190 206h115l-227 -248l-22 32q28 -3 47 -14.5t34 -33.5t31 -58l77 -182h-104l-65 154q-11 26 -23.5 40.5t-30 20t-43.5 5.5h-75l-35 -220h-100z" />
    <glyph glyph-name="uni043B" unicode="&#x43b;" horiz-adv-x="597" 
d="M16 -13l-25 81q37 14 63.5 35.5t45 54.5t32 81.5t25.5 117.5l24 147h380l-80 -504h-100l67 425h-188l-12 -79q-13 -83 -33 -143.5t-47.5 -103t-65 -69.5t-86.5 -43z" />
    <glyph glyph-name="uni043C" unicode="&#x43c;" horiz-adv-x="684" 
d="M36 0l80 504h84l131 -322l233 322h84l-80 -504h-89l62 391h25l-224 -310h-49l-125 310h19l-62 -391h-89z" />
    <glyph glyph-name="uni043D" unicode="&#x43d;" horiz-adv-x="607" 
d="M36 0l80 504h100l-32 -205h254l33 205h100l-80 -504h-100l35 220h-255l-35 -220h-100z" />
    <glyph glyph-name="uni043E" unicode="&#x43e;" horiz-adv-x="592" 
d="M264 -9q-78 0 -130 32t-73.5 94t-8.5 149q13 80 51.5 135.5t96 83.5t128.5 28q80 0 131.5 -32.5t73 -94t7.5 -147.5q-13 -81 -51.5 -136t-96 -83.5t-128.5 -28.5zM271 70q63 0 109 45t60 134q15 93 -18.5 138.5t-99.5 45.5q-65 0 -109.5 -45t-59.5 -132q-14 -94 18 -140
t100 -46z" />
    <glyph glyph-name="uni043F" unicode="&#x43f;" horiz-adv-x="604" 
d="M36 0l80 504h452l-80 -504h-100l67 425h-251l-68 -425h-100z" />
    <glyph glyph-name="uni0440" unicode="&#x440;" horiz-adv-x="621" 
d="M6 -216l94 599q5 29 7.5 59.5t3.5 61.5h98l-7 -114h-15q26 57 75 90t118 33q70 0 117 -33t67 -94.5t6 -146.5q-20 -122 -90.5 -185t-168.5 -63q-65 0 -109 32.5t-54 88.5h11l-52 -328h-101zM299 70q65 0 110 45t60 134q14 93 -18 138.5t-101 45.5q-64 0 -110.5 -45
t-60.5 -132q-14 -94 19 -140t101 -46z" />
    <glyph glyph-name="uni0441" unicode="&#x441;" horiz-adv-x="511" 
d="M270 -9q-78 0 -132 33.5t-76.5 95t-9.5 146.5q20 121 95 184t185 63q48 0 91 -14.5t70 -43.5l-36 -69q-25 24 -57.5 35.5t-63.5 11.5q-70 0 -118.5 -44.5t-62.5 -131.5t21 -136t109 -49q33 0 69 12t68 40l31 -71q-31 -29 -81.5 -45.5t-101.5 -16.5z" />
    <glyph glyph-name="uni0442" unicode="&#x442;" horiz-adv-x="468" 
d="M144 0l67 423h-179l14 81h457l-13 -81h-179l-67 -423h-100z" />
    <glyph glyph-name="uni0443" unicode="&#x443;" horiz-adv-x="548" 
d="M-10 -227l-17 82q49 10 83 24t58.5 36.5t45.5 57.5l34 59l-4 -41l-139 513h105l104 -420h-27l237 420h107l-316 -540q-30 -50 -60.5 -84t-63 -55t-69 -33t-78.5 -19z" />
    <glyph glyph-name="uni0444" unicode="&#x444;" horiz-adv-x="836" 
d="M294 -216l50 322h14q-25 -56 -65 -85.5t-91 -29.5q-59 0 -97.5 34t-52 95t-0.5 142q20 123 78.5 187t140.5 64q54 0 88.5 -30t41.5 -84h-9l53 337h100l-53 -337h-14q26 54 65.5 84t90.5 30q60 0 98.5 -33.5t52 -95t0.5 -142.5q-20 -122 -79 -186.5t-142 -64.5
q-52 0 -87 30t-42 85h10l-51 -322h-100zM232 68q53 0 88.5 46.5t49.5 137.5q14 90 -8.5 137t-74.5 47q-50 0 -86 -47t-51 -137q-14 -91 8.5 -137.5t73.5 -46.5zM548 68q51 0 87.5 46t50.5 137q15 90 -8 137.5t-75 47.5q-51 0 -87 -47.5t-49 -137.5q-15 -91 7.5 -137
t73.5 -46z" />
    <glyph glyph-name="uni0445" unicode="&#x445;" horiz-adv-x="553" 
d="M-36 0l275 284l-2 -48l-175 268h115l122 -197h-36l185 197h125l-257 -267l2 46l183 -283h-117l-132 211h37l-199 -211h-126z" />
    <glyph glyph-name="uni0446" unicode="&#x446;" horiz-adv-x="622" 
d="M451 -130l21 130h-436l80 504h100l-67 -425h240l68 425h99l-67 -425h80l-33 -209h-85z" />
    <glyph glyph-name="uni0447" unicode="&#x447;" horiz-adv-x="572" 
d="M358 0l31 195q-30 -15 -64 -23.5t-70 -8.5q-65 0 -109.5 23t-63.5 68.5t-8 114.5l21 135h101l-20 -127q-11 -69 15 -100t93 -31q34 0 61.5 7.5t54.5 23.5l36 227h100l-79 -504h-99z" />
    <glyph glyph-name="uni0448" unicode="&#x448;" horiz-adv-x="831" 
d="M36 0l80 504h95l-67 -425h196l68 425h94l-66 -425h197l66 425h96l-80 -504h-679z" />
    <glyph glyph-name="uni0449" unicode="&#x449;" horiz-adv-x="860" 
d="M689 -130l21 130h-674l80 504h95l-67 -425h196l68 425h94l-66 -425h197l66 425h96l-67 -425h79l-33 -209h-85z" />
    <glyph glyph-name="uni044A" unicode="&#x44a;" horiz-adv-x="640" 
d="M120 0l68 423h-156l14 81h254l-28 -176h138q102 0 146 -45t31 -126q-13 -80 -70.5 -118.5t-151.5 -38.5h-245zM231 69h133q56 0 89 21.5t40 69.5q9 52 -17.5 75.5t-83.5 23.5h-131z" />
    <glyph glyph-name="uni044B" unicode="&#x44b;" horiz-adv-x="764" 
d="M36 0l80 504h100l-28 -176h137q103 0 147 -45t31 -126q-12 -80 -69.5 -118.5t-152.5 -38.5h-245zM147 69h133q56 0 89 21.5t40 69.5q9 52 -17 75.5t-83 23.5h-132zM549 0l79 504h100l-79 -504h-100z" />
    <glyph glyph-name="uni044C" unicode="&#x44c;" horiz-adv-x="556" 
d="M36 0l80 504h100l-28 -176h137q103 0 147 -45t31 -126q-12 -80 -69.5 -118.5t-152.5 -38.5h-245zM147 69h133q56 0 88.5 21.5t40.5 69.5q9 52 -17 75.5t-83 23.5h-132z" />
    <glyph glyph-name="uni044D" unicode="&#x44d;" horiz-adv-x="529" 
d="M188 -9q-54 0 -98 15t-71 42l34 66q26 -25 60.5 -36.5t71.5 -11.5q79 0 128.5 44.5t64.5 121.5l12 -12h-261l12 72h262l-21 -30q9 86 -28 131t-115 45q-39 0 -77.5 -12.5t-73.5 -40.5l-26 65q32 30 84.5 46.5t107.5 16.5q80 0 134.5 -33.5t78 -95t9.5 -145.5
q-13 -82 -52.5 -137t-99.5 -83t-136 -28z" />
    <glyph glyph-name="uni044E" unicode="&#x44e;" horiz-adv-x="809" 
d="M480 -9q-105 0 -162.5 60t-51.5 169h-97l-35 -220h-98l80 504h98l-33 -205h95q28 104 99 159t169 55q80 0 131.5 -32.5t73 -94t7.5 -147.5q-13 -81 -51 -136t-96 -83.5t-129 -28.5zM487 70q64 0 109.5 45t59.5 134q15 93 -18.5 138.5t-99.5 45.5q-65 0 -109.5 -45
t-58.5 -132q-15 -94 17 -140t100 -46z" />
    <glyph glyph-name="uni044F" unicode="&#x44f;" horiz-adv-x="559" 
d="M-8 0l103 140q25 34 56.5 53.5t58.5 19.5h24l-9 -10q-81 0 -121.5 43t-29.5 117q11 64 63 102.5t144 38.5h242l-80 -504h-93l29 187h-71q-34 0 -60.5 -16.5t-45.5 -43.5l-93 -127h-117zM259 255h131l29 181h-124q-57 0 -88.5 -23t-37.5 -61q-7 -48 18 -72.5t72 -24.5z
" />
    <glyph glyph-name="uni0450" unicode="&#x450;" horiz-adv-x="558" 
d="M285 -9q-86 0 -142.5 34t-79.5 97t-10 147q13 77 49 131.5t92 83.5t128 29q71 0 117 -31t65.5 -85.5t8.5 -126.5l-5 -30h-379l9 58h310l-18 -15q11 77 -17.5 117.5t-95.5 40.5q-47 0 -82 -21.5t-56 -58.5t-27 -84l-5 -28q-11 -86 26 -132.5t123 -46.5q42 0 82 12.5
t75 41.5l32 -69q-40 -31 -92.5 -47.5t-107.5 -16.5zM304 553l-142 202h102l110 -202h-70z" />
    <glyph glyph-name="uni0451" unicode="&#x451;" horiz-adv-x="558" 
d="M285 -9q-86 0 -142.5 34t-79.5 97t-10 147q13 77 49 131.5t92 83.5t128 29q71 0 117 -31t65.5 -85.5t8.5 -126.5l-5 -30h-379l9 58h310l-18 -15q11 77 -17.5 117.5t-95.5 40.5q-47 0 -82 -21.5t-56 -58.5t-27 -84l-5 -28q-11 -86 26 -132.5t123 -46.5q42 0 82 12.5
t75 41.5l32 -69q-40 -31 -92.5 -47.5t-107.5 -16.5zM391 604l14 99h100l-16 -99h-98zM210 604l14 99h100l-15 -99h-99z" />
    <glyph glyph-name="uni0452" unicode="&#x452;" horiz-adv-x="602" 
d="M263 -186l-19 76q53 12 83 32t46 53t23 81l37 235q11 70 -11.5 99.5t-76.5 29.5q-65 0 -107.5 -39t-53.5 -105l-43 -276h-101l91 576h-94l12 73h93l15 87h101l-15 -87h198l-12 -73h-197l-31 -191h-14q30 58 81.5 87.5t116.5 29.5q93 0 129 -53.5t20 -156.5l-37 -233
q-11 -73 -36.5 -121t-72.5 -77t-125 -47z" />
    <glyph glyph-name="uni0453" unicode="&#x453;" horiz-adv-x="455" 
d="M36 0l80 504h363l-13 -81h-262l-67 -423h-101zM255 553l133 202h105l-168 -202h-70z" />
    <glyph glyph-name="uni0454" unicode="&#x454;" horiz-adv-x="534" 
d="M282 -9q-83 0 -139.5 33.5t-80 95t-10.5 146.5q13 81 52.5 136t100 83t136.5 28q54 0 98 -14.5t71 -43.5l-34 -65q-27 25 -61.5 36.5t-71.5 11.5q-78 0 -127.5 -44.5t-64.5 -121.5l-9 20h261l-12 -72h-262l18 22q-9 -86 27.5 -131t114.5 -45q40 0 79 12.5t73 41.5l29 -67
q-30 -29 -82 -45.5t-106 -16.5z" />
    <glyph glyph-name="uni0455" unicode="&#x455;" horiz-adv-x="510" 
d="M221 -9q-59 0 -110.5 15t-81.5 40l33 70q34 -24 76 -37.5t88 -13.5q54 0 85 19t36 51q5 29 -11 47t-54 24l-76 13q-74 12 -103 51.5t-20 98.5q8 46 37 78t75 49t101 17t101 -14t73 -38l-35 -68q-26 21 -63 33.5t-76 12.5q-54 0 -84 -20.5t-36 -52.5q-5 -29 9 -48t49 -25
l78 -13q76 -13 106.5 -50t20.5 -95q-7 -45 -36 -77.5t-75.5 -49.5t-106.5 -17z" />
    <glyph glyph-name="uni0456" unicode="&#x456;" horiz-adv-x="260" 
d="M40 0l79 504h101l-79 -504h-101zM128 609l17 105h117l-17 -105h-117z" />
    <glyph glyph-name="uni0457" unicode="&#x457;" horiz-adv-x="260" 
d="M40 0l79 504h101l-79 -504h-101zM228 604l14 99h100l-16 -99h-98zM47 604l14 99h100l-15 -99h-99z" />
    <glyph glyph-name="uni0458" unicode="&#x458;" horiz-adv-x="260" 
d="M-54 -221q-17 0 -37 3t-36 10l14 82q12 -4 26.5 -7.5t28.5 -3.5q39 0 63.5 24.5t33.5 80.5l85 536h101l-86 -543q-14 -90 -62 -136t-131 -46zM132 609l17 105h117l-17 -105h-117z" />
    <glyph glyph-name="uni0459" unicode="&#x459;" horiz-adv-x="899" 
d="M16 -13l-25 81q37 14 63.5 35.5t45 54.5t32 81.5t25.5 117.5l24 147h379l-28 -176h137q103 0 147 -45t30 -126q-12 -80 -69.5 -118.5t-151.5 -38.5h-244l68 425h-189l-12 -79q-13 -83 -32.5 -143.5t-47.5 -103t-65.5 -69.5t-86.5 -43zM491 69h132q57 0 89.5 21.5
t40.5 69.5q8 52 -18 75.5t-83 23.5h-131z" />
    <glyph glyph-name="uni045A" unicode="&#x45a;" horiz-adv-x="911" 
d="M36 0l80 504h100l-32 -205h255l33 205h99l-28 -176h137q103 0 147 -45t31 -126q-12 -80 -69.5 -118.5t-152.5 -38.5h-244l34 220h-255l-35 -220h-100zM502 69h132q57 0 90 21.5t40 69.5q9 52 -17 75.5t-83 23.5h-132z" />
    <glyph glyph-name="uni045B" unicode="&#x45b;" horiz-adv-x="605" 
d="M40 0l91 576h-93l11 73h94l14 87h101l-14 -87h197l-11 -73h-198l-30 -187h-14q30 57 82 86.5t117 29.5q91 0 128 -53t21 -156l-47 -296h-101l47 295q11 69 -12 99t-78 30q-65 0 -107 -39.5t-53 -104.5l-44 -280h-101z" />
    <glyph glyph-name="uni045C" unicode="&#x45c;" horiz-adv-x="552" 
d="M36 0l80 504h100l-32 -206h83l190 206h115l-227 -248l-22 32q28 -3 47 -14.5t34 -33.5t31 -58l77 -182h-104l-65 154q-11 26 -23.5 40.5t-30 20t-43.5 5.5h-75l-35 -220h-100zM316 553l133 202h105l-168 -202h-70z" />
    <glyph glyph-name="uni045D" unicode="&#x45d;" horiz-adv-x="604" 
d="M36 0l80 504h91l-64 -407l-30 1l371 406h84l-80 -504h-91l65 408l30 -2l-372 -406h-84zM314 553l-142 202h102l110 -202h-70z" />
    <glyph glyph-name="uni045E" unicode="&#x45e;" horiz-adv-x="548" 
d="M-10 -227l-17 82q49 10 83 24t58.5 36.5t45.5 57.5l34 59l-4 -41l-139 513h105l104 -420h-27l237 420h107l-316 -540q-30 -50 -60.5 -84t-63 -55t-69 -33t-78.5 -19zM323 550q-43 0 -78 16t-57.5 46t-32.5 73l55 19q14 -49 43 -72t74 -23q46 0 76 22.5t54 71.5l53 -18
q-18 -47 -46.5 -77t-64 -44t-76.5 -14z" />
    <glyph glyph-name="uni045F" unicode="&#x45f;" horiz-adv-x="604" 
d="M197 -130l21 130h-182l80 504h100l-67 -425h252l67 425h100l-80 -504h-183l-21 -130h-87z" />
    <glyph glyph-name="uni0462" unicode="&#x462;" horiz-adv-x="754" 
d="M119 0l84 530h-179l13 78h178l16 97h99l-15 -97h245l-13 -78h-245l-20 -129h201q120 0 177.5 -53.5t40.5 -160.5q-14 -93 -84 -140t-180 -47h-318zM231 82h201q78 0 120 28t51 89q9 62 -22.5 91t-109.5 29h-202z" />
    <glyph glyph-name="uni0463" unicode="&#x463;" horiz-adv-x="641" 
d="M121 0l69 434h-155l11 70h155l37 232h100l-37 -232h170l-11 -70h-170l-18 -119h146q95 0 138.5 -43t30.5 -122q-12 -78 -67.5 -114t-148.5 -36h-250zM232 64h135q55 0 87.5 21.5t39.5 68.5q8 52 -18 74.5t-80 22.5h-135z" />
    <glyph glyph-name="uni046A" unicode="&#x46a;" horiz-adv-x="1003" 
d="M-35 0l164 250q47 72 109.5 109t151.5 37h61l-11 -24l-242 333h752l-349 -333l-3 24h55q62 0 103.5 -17t68 -50t42.5 -79l85 -250h-105l-68 205q-13 41 -32 64t-45 32.5t-65 9.5h-75l-49 -311h-103l50 311h-75q-59 0 -97.5 -25t-74.5 -81l-131 -205h-117zM522 397h2
l277 266l-5 -32h-472l5 32z" />
    <glyph glyph-name="uni046B" unicode="&#x46b;" horiz-adv-x="825" 
d="M-44 0l132 173q33 44 61 69.5t59.5 36.5t77.5 11h69l-18 -26l-170 240h570l-244 -240l-11 26h69q46 0 73.5 -11t46.5 -36.5t38 -69.5l76 -173h-103l-66 145q-12 27 -25 41t-29.5 19.5t-42.5 5.5h-62l-34 -211h-100l33 211h-62q-26 0 -44 -5.5t-33.5 -19.5t-35.5 -41
l-112 -145h-113zM415 282h2l182 183l-5 -29h-309l5 29z" />
    <glyph glyph-name="uni0472" unicode="&#x472;" horiz-adv-x="779" 
d="M124 319l13 79h564l-13 -79h-564zM77 367q18 111 68 188.5t128.5 118t177.5 40.5q109 0 177.5 -47.5t95.5 -132.5t9 -195q-17 -111 -67.5 -188.5t-128.5 -118.5t-178 -41q-108 0 -177 47.5t-95.5 132.5t-9.5 196zM184 357q-13 -87 3.5 -148.5t62 -94.5t117.5 -33
q108 0 174 71.5t85 196.5q14 86 -3.5 147.5t-62.5 94.5t-117 33q-108 0 -173 -70.5t-86 -196.5z" />
    <glyph glyph-name="uni0473" unicode="&#x473;" horiz-adv-x="592" 
d="M264 -9q-78 0 -130 32t-73.5 94t-8.5 149q13 80 51.5 135.5t96 83.5t128.5 28q79 0 131 -32.5t73.5 -94t7.5 -147.5q-13 -81 -51.5 -136t-96 -83.5t-128.5 -28.5zM270 70q69 0 116 45.5t61 133.5q15 91 -19.5 137.5t-106.5 46.5q-68 0 -114.5 -45t-60.5 -133
q-14 -89 18 -137t106 -48zM107 218l10 68h370l-10 -68h-370z" />
    <glyph glyph-name="uni0474" unicode="&#x474;" horiz-adv-x="778" 
d="M265 0l-195 705h107l163 -618h-35l257 433q34 57 64.5 94.5t64 59.5t74.5 31t96 9l-4 -84q-49 0 -82 -13t-61.5 -44.5t-63.5 -87.5l-294 -485h-91z" />
    <glyph glyph-name="uni0475" unicode="&#x475;" horiz-adv-x="577" 
d="M187 0l-136 504h104l104 -421h-29l174 305q28 49 57 76.5t67.5 38t92.5 10.5l-4 -81q-32 0 -55.5 -8t-42 -27t-37.5 -52l-202 -345h-93z" />
    <glyph glyph-name="uni048A" unicode="&#x48a;" horiz-adv-x="774" 
d="M537 -161l81 161h-87l13 84h205l-123 -245h-89zM43 0l112 705h96l-90 -570h-24l523 570h80l-112 -705h-97l90 570h23l-523 -570h-78zM454 760q-47 0 -85 15.5t-63 46t-36 73.5l56 20q16 -50 48 -72.5t83 -22.5q52 0 87 22t64 72l51 -19q-20 -46 -51.5 -76t-70.5 -44.5
t-83 -14.5z" />
    <glyph glyph-name="uni048B" unicode="&#x48b;" horiz-adv-x="632" 
d="M398 -130l68 130h-69l13 78h181l-108 -208h-85zM36 0l80 504h91l-64 -407l-30 1l371 406h84l-80 -504h-91l65 408l30 -2l-372 -406h-84zM353 550q-43 0 -78 16t-57.5 46t-31.5 73l54 19q14 -49 43 -72t74 -23q46 0 76 22.5t55 71.5l52 -18q-18 -47 -46.5 -77t-64 -44
t-76.5 -14z" />
    <glyph glyph-name="uni048C" unicode="&#x48c;" horiz-adv-x="742" 
d="M108 0l84 531h-148l13 77h146l17 97h99l-16 -97h147l-12 -77h-147l-20 -130h200q120 0 177.5 -53.5t41.5 -160.5q-15 -93 -85 -140t-180 -47h-317zM220 82h200q78 0 120 28t51 89q9 62 -22.5 91t-109.5 29h-201z" />
    <glyph glyph-name="uni048D" unicode="&#x48d;" horiz-adv-x="641" 
d="M121 0l69 434h-155l11 70h155l37 232h100l-37 -232h170l-11 -70h-170l-18 -119h146q95 0 138.5 -43t30.5 -122q-12 -78 -67.5 -114t-148.5 -36h-250zM232 64h135q55 0 87.5 21.5t39.5 68.5q8 52 -18 74.5t-80 22.5h-135z" />
    <glyph glyph-name="uni048E" unicode="&#x48e;" horiz-adv-x="658" 
d="M43 0l112 705h280q126 0 180.5 -57.5t36.5 -168.5q-10 -65 -51 -114.5t-106 -73.5l7 16l43 -83l-52 -31l-53 101l16 -14q-17 -2 -35.5 -4t-40.5 -2h-191l-43 -274h-103zM202 357h178q11 0 26 1t25 3l-19 -13l-42 81l51 30l52 -98l-18 9q43 13 67 42.5t31 73.5
q11 69 -20 103t-113 34h-175z" />
    <glyph glyph-name="uni048F" unicode="&#x48f;" horiz-adv-x="621" 
d="M5 -216l94 599q5 29 7.5 59.5t3.5 61.5h98l-7 -114h-15q26 57 75 90t118 33q70 0 117 -33t66.5 -94.5t5.5 -146.5q-12 -75 -42 -126t-79 -83l2 15l41 -63l-46 -32l-43 68l13 -2q-23 -14 -49 -19.5t-55 -5.5q-64 0 -108.5 32.5t-54.5 88.5h11l-52 -328h-101zM349 433
q-64 0 -110.5 -45t-60.5 -132q-14 -94 19 -140t99 -46q42 0 73 20l-4 -14l-47 75l45 30l49 -77l-13 6q26 22 43.5 56t24.5 83q15 93 -17.5 138.5t-100.5 45.5z" />
    <glyph glyph-name="uni0490" unicode="&#x490;" horiz-adv-x="564" 
d="M43 0l112 705h373l26 157h91l-38 -243h-363l-97 -619h-104z" />
    <glyph glyph-name="uni0491" unicode="&#x491;" horiz-adv-x="455" 
d="M36 0l80 504h276l19 114h86l-30 -195h-264l-67 -423h-100z" />
    <glyph glyph-name="uni0492" unicode="&#x492;" horiz-adv-x="604" 
d="M84 0l50 312h-99l11 77h100l50 316h465l-14 -86h-362l-36 -230h189l-13 -77h-188l-50 -312h-103z" />
    <glyph glyph-name="uni0493" unicode="&#x493;" horiz-adv-x="479" 
d="M61 0l32 203h-97l13 72h96l36 229h363l-13 -80h-263l-23 -149h149l-12 -72h-149l-32 -203h-100z" />
    <glyph glyph-name="uni0494" unicode="&#x494;" horiz-adv-x="698" 
d="M357 -189q-29 0 -56.5 3.5t-45.5 10.5l9 83q18 -8 41 -11.5t48 -3.5q62 0 102 40.5t53 117.5l14 91q17 108 -25 157.5t-142 49.5q-45 0 -85 -8.5t-75 -26.5l-49 -314h-103l112 705h467l-15 -86h-363l-35 -214q31 16 77 24.5t92 8.5q145 0 208 -73.5t40 -216.5l-14 -93
q-13 -86 -48 -140t-88 -79t-119 -25z" />
    <glyph glyph-name="uni0495" unicode="&#x495;" horiz-adv-x="574" 
d="M264 -186l-17 76q53 12 83.5 32t46 53t22.5 81l11 67q11 70 -11 99.5t-83 29.5q-67 0 -109.5 -39t-53.5 -105l-17 -108h-100l80 504h363l-12 -74h-263l-33 -215l-18 -1q31 58 83 88.5t120 30.5q95 0 133 -53t22 -152l-11 -71q-11 -67 -36 -115t-73 -79t-127 -49z" />
    <glyph glyph-name="uni0496" unicode="&#x496;" horiz-adv-x="1029" 
d="M905 -161l25 161h-50l13 84h143l-39 -245h-92zM-35 0l163 248q43 65 94.5 101t120.5 44l-41 -30l-181 342h109l166 -324l-18 16h104l49 308h99l-49 -308h105l-30 -16l270 324h118l-289 -342l-36 30q58 -8 98.5 -44t62.5 -101l86 -248h-106l-68 205q-19 57 -53 81.5
t-90 24.5h-81l-50 -311h-99l49 311h-82q-56 0 -96.5 -24.5t-76.5 -81.5l-131 -205h-117z" />
    <glyph glyph-name="uni0497" unicode="&#x497;" horiz-adv-x="868" 
d="M706 -130l21 130h-38l12 78h126l-33 -208h-88zM-44 0l134 182q28 36 51 58t47 33.5t53 14.5l-25 -32l-152 248h106l126 -206h74l33 206h101l-33 -206h70l191 206h114l-228 -248l-21 32q26 -3 45.5 -14.5t35.5 -33.5t32 -58l75 -182h-103l-65 154q-11 26 -23.5 40.5
t-30 20t-43.5 5.5h-62l-34 -220h-100l34 220h-62q-26 0 -44 -5.5t-34 -20t-36 -40.5l-113 -154h-113z" />
    <glyph glyph-name="uni0498" unicode="&#x498;" horiz-adv-x="649" 
d="M214 -161l32 207h90l-33 -207h-89zM287 -9q-89 0 -156.5 23.5t-108.5 64.5l37 77q43 -38 98.5 -58t131.5 -20q90 0 139 31t58 90q9 60 -24 88.5t-109 28.5h-181l14 83h166q76 0 116.5 28t49.5 81q8 57 -29 88t-122 31q-64 0 -123.5 -19t-112.5 -56l-34 78
q57 41 130.5 62.5t153.5 21.5q89 0 145.5 -24.5t80 -69.5t13.5 -104q-9 -60 -52 -104t-119 -59l2 14q72 -10 109.5 -57t24.5 -124q-9 -60 -45.5 -104t-99.5 -67.5t-153 -23.5z" />
    <glyph glyph-name="uni0499" unicode="&#x499;" horiz-adv-x="518" 
d="M156 -130l29 175h82l-28 -175h-83zM217 -9q-64 0 -119.5 16.5t-87.5 47.5l35 68q32 -29 78.5 -43.5t98.5 -14.5q68 0 102.5 20.5t40.5 58.5q6 37 -17 56t-72 19h-125l11 72h114q45 0 73.5 19t32.5 53q6 36 -19.5 56t-88.5 20q-52 0 -97.5 -12.5t-87.5 -36.5l-28 65
q47 29 106 43.5t126 14.5q99 0 146.5 -38t36.5 -107q-7 -45 -44 -78t-91 -40l2 13q61 -3 92 -38t22 -91q-10 -64 -70 -103.5t-170 -39.5z" />
    <glyph glyph-name="uni049A" unicode="&#x49a;" horiz-adv-x="704" 
d="M558 -161l26 161h-51l13 84h143l-38 -245h-93zM43 0l112 705h103l-50 -308h133l-29 -16l269 324h120l-290 -342l-37 30q63 -9 101.5 -44.5t60.5 -100.5l85 -248h-105l-67 205q-19 58 -53.5 82t-90.5 24h-110l-49 -311h-103z" />
    <glyph glyph-name="uni049B" unicode="&#x49b;" horiz-adv-x="598" 
d="M432 -130l21 130h-39l13 78h126l-33 -208h-88zM36 0l80 504h100l-32 -206h83l190 206h115l-227 -248l-22 32q28 -3 47 -14.5t34 -33.5t31 -58l77 -182h-104l-65 154q-11 26 -23.5 40.5t-30 20t-43.5 5.5h-75l-35 -220h-100z" />
    <glyph glyph-name="uni049C" unicode="&#x49c;" horiz-adv-x="712" 
d="M43 0l112 705h104l-50 -308h70l26 166h63l-26 -166h21l257 308h119l-290 -342l-36 30q64 -9 102.5 -44t60.5 -101l85 -248h-106l-66 205q-19 58 -54 82.5t-90 24.5h-29l14 10l-27 -174h-64l27 164h-70l-49 -312h-104z" />
    <glyph glyph-name="uni049D" unicode="&#x49d;" horiz-adv-x="598" 
d="M36 0l80 504h100l-32 -206h53l19 115h63l-18 -115h12l190 206h115l-227 -248l-23 32q28 -3 47 -14.5t34.5 -33.5t31.5 -58l76 -182h-103l-66 154q-11 26 -23 40t-29 20t-45 6h-16l16 13l-22 -138h-63l19 125h-54l-35 -220h-100z" />
    <glyph glyph-name="uni049E" unicode="&#x49e;" horiz-adv-x="726" 
d="M93 0l86 536h-146l11 72h146l15 97h103l-16 -97h139l-12 -72h-138l-23 -139h147l-36 -24l279 332h119l-299 -350l-26 32q50 -7 85.5 -40.5t58.5 -98.5l85 -248h-106l-67 205q-18 58 -53 82t-91 24h-109l-49 -311h-103z" />
    <glyph glyph-name="uni049F" unicode="&#x49f;" horiz-adv-x="555" 
d="M40 0l91 576h-94l12 73h93l15 87h101l-15 -87h198l-12 -73h-197l-45 -281h86l185 198h114l-226 -242l-17 31q27 -3 45.5 -13.5t32.5 -32.5t30 -59l78 -177h-104l-65 152q-12 26 -24.5 40.5t-30 20t-43.5 5.5h-74l-33 -218h-101z" />
    <glyph glyph-name="uni04A0" unicode="&#x4a0;" horiz-adv-x="816" 
d="M69 619l13 86h320l-14 -86h-319zM189 0l112 705h102l-49 -308h132l-29 -16l270 324h119l-290 -342l-37 30q64 -9 102 -44.5t60 -100.5l86 -248h-106l-67 205q-19 58 -53.5 82t-90.5 24h-109l-50 -311h-102z" />
    <glyph glyph-name="uni04A1" unicode="&#x4a1;" horiz-adv-x="637" 
d="M120 0l67 423h-155l14 81h254l-32 -206h84l190 206h115l-227 -248l-23 32q28 -3 47 -14.5t34.5 -33.5t31.5 -58l76 -182h-104l-65 154q-11 26 -23.5 40.5t-30 20t-43.5 5.5h-74l-35 -220h-101z" />
    <glyph glyph-name="uni04A2" unicode="&#x4a2;" horiz-adv-x="814" 
d="M649 -161l26 161h-110l13 84h201l-38 -245h-92zM43 0l112 705h104l-48 -304h396l48 304h104l-112 -705h-104l50 314h-396l-50 -314h-104z" />
    <glyph glyph-name="uni04A3" unicode="&#x4a3;" horiz-adv-x="608" 
d="M465 -130l21 130h-89l12 78h176l-34 -208h-86zM36 0l80 504h100l-32 -205h254l33 205h100l-80 -504h-100l35 220h-255l-35 -220h-100z" />
    <glyph glyph-name="uni04A4" unicode="&#x4a4;" horiz-adv-x="956" 
d="M43 0l112 705h103l-49 -304h397l49 304h360l-15 -86h-257l-98 -619h-102l50 315h-397l-50 -315h-103z" />
    <glyph glyph-name="uni04A5" unicode="&#x4a5;" horiz-adv-x="766" 
d="M36 0l80 504h100l-32 -205h249l33 205h325l-13 -81h-224l-67 -423h-100l34 220h-250l-35 -220h-100z" />
    <glyph glyph-name="uni04A8" unicode="&#x4a8;" horiz-adv-x="848" 
d="M368 -9q-111 0 -182 46t-99 130.5t-10 199.5q18 113 70 190.5t131.5 117t176.5 39.5q24 0 42 -1.5t31 -4.5l-15 -85q-16 3 -30.5 4.5t-28.5 1.5q-108 0 -179.5 -71t-92.5 -201q-21 -135 29 -210.5t169 -75.5q80 0 141.5 29t101.5 85.5t52 138.5q12 70 -12 109t-76 39
q-51 0 -85.5 -39t-46.5 -109q-12 -81 9.5 -138t73.5 -86t131 -29q41 0 76 8t70 24l16 -76q-32 -19 -74.5 -27.5t-94.5 -8.5q-74 0 -134.5 25t-101.5 71t-58.5 110t-5.5 141q11 67 42.5 115.5t80 74.5t107.5 26q67 0 111 -28.5t62 -80.5t6 -122q-12 -72 -48 -132.5
t-90.5 -105.5t-122 -69.5t-142.5 -24.5z" />
    <glyph glyph-name="uni04A9" unicode="&#x4a9;" horiz-adv-x="684" 
d="M289 -9q-89 0 -146 35t-80 97.5t-10 145.5q13 79 51.5 133.5t97 82.5t128.5 28q31 0 56 -4t41 -13l-18 -72q-14 8 -34 11t-40 3q-74 0 -123.5 -49t-62.5 -134q-15 -93 25.5 -143t126.5 -50q93 0 147 41t66 117q7 46 -10 72t-52 26q-34 0 -58 -25.5t-31 -69.5
q-12 -80 29.5 -120.5t132.5 -40.5q30 0 63.5 7.5t60.5 22.5l13 -71q-32 -15 -65 -22.5t-70 -7.5q-61 0 -109.5 18t-81.5 51t-47 78t-5 98q7 44 30 78t60 54t84 20t81 -20.5t49 -59t6 -91.5q-7 -49 -35 -90t-70 -71.5t-93.5 -47.5t-106.5 -17z" />
    <glyph glyph-name="uni04AA" unicode="&#x4aa;" horiz-adv-x="685" 
d="M291 -161l32 207h90l-33 -207h-89zM377 -9q-117 0 -190 47.5t-100.5 132.5t-10.5 196q18 111 69.5 188.5t132.5 118.5t186 40q71 0 126 -20t94 -58l-39 -83q-43 38 -85.5 53.5t-101.5 15.5q-111 0 -182 -69t-92 -195q-12 -83 5 -145t67 -96t132 -34q53 0 104.5 18
t98.5 59l33 -82q-48 -42 -113 -64.5t-134 -22.5z" />
    <glyph glyph-name="uni04AB" unicode="&#x4ab;" horiz-adv-x="511" 
d="M191 -130l29 175h82l-28 -175h-83zM270 -9q-79 0 -132.5 33.5t-76 95t-9.5 146.5q20 121 95 184t185 63q47 0 90.5 -14.5t70.5 -43.5l-36 -69q-25 24 -58 35.5t-64 11.5q-70 0 -118 -44.5t-62 -131.5t21 -136t109 -49q32 0 68.5 12t68.5 40l31 -71q-31 -29 -81.5 -45.5
t-101.5 -16.5z" />
    <glyph glyph-name="uni04AC" unicode="&#x4ac;" horiz-adv-x="611" 
d="M301 -161l26 161h-115l98 618h-241l14 87h586l-14 -87h-241l-85 -534h102l-38 -245h-92z" />
    <glyph glyph-name="uni04AD" unicode="&#x4ad;" horiz-adv-x="470" 
d="M218 -130l21 130h-90l13 78h175l-33 -208h-86zM144 0l67 423h-179l14 81h457l-13 -81h-179l-67 -423h-100z" />
    <glyph glyph-name="uni04AE" unicode="&#x4ae;" horiz-adv-x="617" 
d="M216 0l53 331l11 -66l-225 440h114l168 -337h-25l275 337h120l-366 -443l32 69l-53 -331h-104z" />
    <glyph glyph-name="uni04AF" unicode="&#x4af;" horiz-adv-x="543" 
d="M145 -216l35 224l-133 496h104l104 -421h-29l240 421h105l-290 -493l-35 -227h-101z" />
    <glyph glyph-name="uni04B0" unicode="&#x4b0;" horiz-adv-x="617" 
d="M216 0l53 331l11 -66l-225 440h114l168 -337h-25l275 337h120l-366 -443l32 69l-53 -331h-104zM99 283l9 63h432l-10 -63h-431z" />
    <glyph glyph-name="uni04B1" unicode="&#x4b1;" horiz-adv-x="543" 
d="M149 -193l23 146h-128l12 73h130l-3 -25l-136 503h103l105 -422h-29l240 422h105l-293 -500l3 22h130l-12 -73h-127l-23 -146h-100z" />
    <glyph glyph-name="uni04B2" unicode="&#x4b2;" horiz-adv-x="693" 
d="M549 -161l25 161h-51l13 84h143l-38 -245h-92zM-41 0l345 381l-2 -42l-216 366h118l166 -292h-33l258 292h128l-332 -366v42l226 -381h-118l-177 308h39l-275 -308h-127z" />
    <glyph glyph-name="uni04B3" unicode="&#x4b3;" horiz-adv-x="584" 
d="M431 -130l21 130h-38l12 78h127l-34 -208h-88zM-36 0l275 284l-2 -48l-175 268h115l122 -197h-36l184 197h126l-258 -267l3 46l183 -283h-117l-132 211h37l-200 -211h-125z" />
    <glyph glyph-name="uni04B4" unicode="&#x4b4;" horiz-adv-x="957" 
d="M777 -161l26 161h-614l98 619h-218l14 86h525l-15 -86h-204l-84 -532h396l99 618h103l-99 -618h104l-39 -248h-92z" />
    <glyph glyph-name="uni04B5" unicode="&#x4b5;" horiz-adv-x="727" 
d="M555 -130l21 130h-456l67 423h-155l14 81h404l-13 -81h-150l-54 -344h261l67 425h101l-68 -425h80l-33 -209h-86z" />
    <glyph glyph-name="uni04B6" unicode="&#x4b6;" horiz-adv-x="745" 
d="M563 -161l25 161h-109l13 84h201l-39 -245h-91zM475 0l45 288q-33 -15 -79.5 -24t-93.5 -9q-92 0 -152 32.5t-84 97t-10 161.5l27 159h103l-25 -153q-18 -112 23.5 -159.5t141.5 -47.5q43 0 84 8t80 27l52 325h103l-112 -705h-103z" />
    <glyph glyph-name="uni04B7" unicode="&#x4b7;" horiz-adv-x="574" 
d="M430 -130l21 130h-89l13 78h175l-33 -208h-87zM358 0l31 195q-30 -15 -64 -23.5t-70 -8.5q-65 0 -109.5 23t-63.5 68.5t-8 114.5l21 135h101l-20 -127q-11 -69 15 -100t93 -31q34 0 61.5 7.5t54.5 23.5l36 227h100l-79 -504h-99z" />
    <glyph glyph-name="uni04B8" unicode="&#x4b8;" horiz-adv-x="701" 
d="M475 0l46 288q-33 -15 -76.5 -23.5t-84.5 -8.5l20 15l-26 -162h-65l25 162l12 -16q-82 5 -137.5 37t-78.5 94.5t-9 159.5l27 159h103l-25 -153q-17 -104 19 -153t121 -54l-21 -10l28 179h66l-29 -179l-20 10q41 0 85 8.5t81 26.5l51 325h103l-112 -705h-103z" />
    <glyph glyph-name="uni04B9" unicode="&#x4b9;" horiz-adv-x="596" 
d="M380 0l31 196q-28 -14 -59 -22t-60 -9l22 18l-18 -116h-64l18 116l18 -18q-107 0 -158.5 51.5t-35.5 152.5l21 135h101l-20 -129q-11 -67 16 -97.5t90 -31.5l-24 -13l22 140h64l-22 -140l-17 12q30 0 59.5 7.5t59.5 22.5l35 229h101l-80 -504h-100z" />
    <glyph glyph-name="uni04BA" unicode="&#x4ba;" horiz-adv-x="701" 
d="M43 0l112 705h104l-46 -287q33 16 81 24t94 8q91 0 151 -32t84 -96.5t8 -162.5l-25 -159h-103l24 153q17 109 -24 158.5t-139 49.5q-42 0 -84.5 -7.5t-81.5 -26.5l-51 -327h-104z" />
    <glyph glyph-name="uni04BB" unicode="&#x4bb;" horiz-adv-x="605" 
d="M40 0l117 736h101l-54 -339h-15q30 57 81.5 86.5t117.5 29.5q92 0 128.5 -53t19.5 -156l-47 -304h-101l47 303q11 69 -11 99t-77 30q-65 0 -107.5 -39.5t-52.5 -104.5l-46 -288h-101z" />
    <glyph glyph-name="uni04BC" unicode="&#x4bc;" horiz-adv-x="926" 
d="M551 -9q-86 0 -148.5 26t-101 73t-53.5 108.5t-8 132.5l19 -22h-46q-99 0 -137 45.5t-23 132.5l9 56h101l-9 -53q-8 -52 9 -75t72 -23h29l-19 -21q19 109 69.5 186t127.5 117t173 40q111 0 176.5 -45.5t88 -128.5t2.5 -194l-6 -37h-555l26 36q-12 -80 7 -139.5t70 -92
t136 -32.5q62 0 116.5 18.5t101.5 58.5l33 -80q-33 -27 -73 -47t-86.5 -30t-100.5 -10zM609 628q-104 0 -171 -68.5t-89 -199.5l-15 31h477l-31 -39q22 136 -16 206t-155 70z" />
    <glyph glyph-name="uni04BD" unicode="&#x4bd;" horiz-adv-x="666" 
d="M399 -9q-86 0 -141.5 33.5t-78.5 93.5t-13 136l4 -16h-20q-72 0 -98.5 34t-17.5 98l6 37h82l-7 -37q-7 -38 5.5 -56t49.5 -18h26l-28 -20q15 75 51 128t91 81t126 28t117.5 -31t65.5 -85.5t8 -126.5l-5 -30h-375l15 15q-13 -87 23 -136t125 -49q42 0 82 12.5t75 41.5
l32 -69q-40 -31 -92 -47.5t-108 -16.5zM431 441q-68 0 -110.5 -44.5t-53.5 -113.5l-11 15h306l-18 -15q11 77 -17.5 117.5t-95.5 40.5z" />
    <glyph glyph-name="uni04BE" unicode="&#x4be;" horiz-adv-x="926" 
d="M551 -9q-86 0 -148.5 26t-101 73t-53.5 108.5t-8 132.5l19 -22h-46q-99 0 -137 45.5t-23 132.5l9 56h101l-9 -53q-8 -52 9 -75t72 -23h29l-19 -21q19 109 69.5 186t127.5 117t173 40q111 0 176.5 -45.5t88 -128.5t2.5 -194l-6 -37h-555l26 36q-12 -80 7 -139.5t70 -92
t136 -32.5q62 0 116.5 18.5t101.5 58.5l33 -80q-33 -27 -73 -47t-86.5 -30t-100.5 -10zM609 628q-104 0 -171 -68.5t-89 -199.5l-15 31h477l-31 -39q22 136 -16 206t-155 70zM563 -194q-49 0 -75 25.5t-26 66.5q0 47 31 84.5t79 56.5l28 -39q-36 -15 -53 -38t-17 -48
q0 -22 13.5 -36t38.5 -14q13 0 26 3t28 9l11 -54q-20 -6 -40.5 -11t-43.5 -5z" />
    <glyph glyph-name="uni04BF" unicode="&#x4bf;" horiz-adv-x="666" 
d="M399 -9q-86 0 -141.5 33.5t-78.5 93.5t-13 136l4 -16h-20q-72 0 -98.5 34t-17.5 98l6 37h82l-7 -37q-7 -38 5.5 -56t49.5 -18h26l-28 -20q15 75 51 128t91 81t126 28t117.5 -31t65.5 -85.5t8 -126.5l-5 -30h-375l15 15q-13 -87 23 -136t125 -49q42 0 82 12.5t75 41.5
l32 -69q-40 -31 -92 -47.5t-108 -16.5zM431 441q-68 0 -110.5 -44.5t-53.5 -113.5l-11 15h306l-18 -15q11 77 -17.5 117.5t-95.5 40.5zM418 -194q-49 0 -75 25.5t-26 66.5q0 47 31 84.5t79 56.5l28 -39q-36 -15 -53 -38t-17 -48q0 -22 13.5 -36t38.5 -14q13 0 26 3t28 9
l11 -54q-20 -6 -40.5 -11t-43.5 -5z" />
    <glyph glyph-name="uni04C0" unicode="&#x4c0;" horiz-adv-x="270" 
d="M43 0l112 705h104l-112 -705h-104z" />
    <glyph glyph-name="uni04C1" unicode="&#x4c1;" horiz-adv-x="1016" 
d="M-35 0l163 248q43 65 94.5 101t120.5 44l-41 -30l-181 342h109l166 -324l-18 16h104l49 308h99l-49 -308h105l-30 -16l270 324h118l-289 -342l-36 30q58 -8 98.5 -44t62.5 -101l86 -248h-106l-68 205q-19 57 -53 81.5t-90 24.5h-81l-50 -311h-99l49 311h-82
q-56 0 -96.5 -24.5t-76.5 -81.5l-131 -205h-117zM585 760q-47 0 -85 15.5t-63 46t-36 73.5l56 20q16 -50 48 -72.5t83 -22.5q52 0 87 22t64 72l51 -19q-20 -46 -51.5 -76t-70.5 -44.5t-83 -14.5z" />
    <glyph glyph-name="uni04C2" unicode="&#x4c2;" horiz-adv-x="823" 
d="M-44 0l134 182q28 36 51 58t47 33.5t53 14.5l-25 -32l-152 248h106l126 -206h74l33 206h101l-33 -206h70l191 206h114l-228 -248l-21 32q26 -3 45.5 -14.5t35.5 -33.5t32 -58l75 -182h-103l-65 154q-11 26 -23.5 40.5t-30 20t-43.5 5.5h-62l-34 -220h-100l34 220h-62
q-26 0 -44 -5.5t-34 -20t-36 -40.5l-113 -154h-113zM463 550q-43 0 -78 16t-57.5 46t-32.5 73l55 19q14 -49 43 -72t74 -23q46 0 76 22.5t54 71.5l53 -18q-18 -47 -46.5 -77t-64 -44t-76.5 -14z" />
    <glyph glyph-name="uni04C3" unicode="&#x4c3;" horiz-adv-x="698" 
d="M357 -189q-29 0 -56.5 3.5t-45.5 9.5l9 85q18 -8 41 -12t48 -4q63 0 103.5 40t52.5 117l8 56q16 110 -28.5 160t-149.5 50h-143l-50 -316h-103l112 705h103l-49 -304h142l-36 -20l271 324h119l-290 -342l-10 35q122 -8 180 -78.5t36 -207.5l-9 -58q-13 -85 -48 -139
t-88 -79t-119 -25z" />
    <glyph glyph-name="uni04C4" unicode="&#x4c4;" horiz-adv-x="565" 
d="M254 -186l-17 76q52 12 82 31.5t45 51.5t23 79l5 30q12 73 -17 105.5t-96 32.5h-108l-35 -220h-100l80 504h100l-32 -206h83l190 206h113l-225 -248l-39 40q70 0 115.5 -24t64.5 -70t8 -114l-6 -34q-10 -64 -35 -111t-72.5 -79t-126.5 -50z" />
    <glyph glyph-name="uni04C5" unicode="&#x4c5;" horiz-adv-x="790" 
d="M551 -161l81 161h-87l13 84h204l-122 -245h-89zM29 -16l-48 77q47 23 85 52.5t67.5 76t52.5 117.5t39 174l35 224h496l-112 -705h-103l98 619h-297l-26 -161q-16 -107 -42.5 -185.5t-62 -133.5t-81.5 -92t-101 -63z" />
    <glyph glyph-name="uni04C6" unicode="&#x4c6;" horiz-adv-x="625" 
d="M387 -130l68 130h-68l12 78h181l-107 -208h-86zM16 -13l-25 81q37 14 63.5 35.5t45 54.5t32 81.5t25.5 117.5l24 147h380l-80 -504h-100l67 425h-188l-12 -79q-13 -83 -33 -143.5t-47.5 -103t-65 -69.5t-86.5 -43z" />
    <glyph glyph-name="uni04C7" unicode="&#x4c7;" horiz-adv-x="770" 
d="M441 -187q-17 0 -38.5 2t-43.5 7l13 84q19 -4 35.5 -6.5t29.5 -2.5q46 0 72 27.5t36 87.5l48 302h-396l-50 -314h-104l112 705h104l-48 -304h396l48 304h104l-110 -692q-11 -68 -36.5 -112.5t-67.5 -66t-104 -21.5z" />
    <glyph glyph-name="uni04C8" unicode="&#x4c8;" horiz-adv-x="608" 
d="M232 -193l6 76l47 3q45 4 71 29.5t34 73.5l36 231h-255l-35 -220h-100l80 504h100l-32 -205h255l33 205h99l-79 -504q-11 -63 -36.5 -104t-69 -61.5t-108.5 -24.5z" />
    <glyph glyph-name="uni04C9" unicode="&#x4c9;" horiz-adv-x="793" 
d="M571 -161l81 161h-87l13 84h204l-122 -245h-89zM43 0l112 705h104l-48 -304h396l48 304h104l-112 -705h-104l50 314h-396l-50 -314h-104z" />
    <glyph glyph-name="uni04CA" unicode="&#x4ca;" horiz-adv-x="631" 
d="M397 -130l68 130h-68l12 78h181l-107 -208h-86zM36 0l80 504h100l-32 -205h254l33 205h100l-80 -504h-100l35 220h-255l-35 -220h-100z" />
    <glyph glyph-name="uni04CB" unicode="&#x4cb;" horiz-adv-x="701" 
d="M446 -161h-93l39 245h154l-13 -84h-61zM475 0l45 288q-33 -15 -79.5 -24t-93.5 -9q-92 0 -152 32.5t-84 97t-10 161.5l27 159h103l-25 -153q-18 -112 23.5 -159.5t141.5 -47.5q43 0 84 8t80 27l52 325h103l-112 -705h-103z" />
    <glyph glyph-name="uni04CC" unicode="&#x4cc;" horiz-adv-x="598" 
d="M344 -130h-86l30 190h160l-10 -60h-73zM358 0l31 195q-30 -15 -64 -23.5t-70 -8.5q-65 0 -109.5 23t-63.5 68.5t-8 114.5l21 135h101l-20 -127q-11 -69 15 -100t93 -31q34 0 61.5 7.5t54.5 23.5l36 227h100l-79 -504h-99z" />
    <glyph glyph-name="uni04CD" unicode="&#x4cd;" horiz-adv-x="887" 
d="M674 -161l81 161h-87l13 84h204l-122 -245h-89zM44 0l112 705h91l175 -613h-31l370 613h90l-112 -705h-94l89 564h34l-344 -564h-63l-166 564h33l-89 -564h-95z" />
    <glyph glyph-name="uni04CE" unicode="&#x4ce;" horiz-adv-x="712" 
d="M480 -130l67 130h-68l12 78h181l-107 -208h-85zM36 0l80 504h84l131 -322l233 322h84l-80 -504h-89l62 391h25l-224 -310h-49l-125 310h19l-62 -391h-89z" />
    <glyph glyph-name="uni04CF" unicode="&#x4cf;" horiz-adv-x="260" 
d="M40 0l117 736h101l-117 -736h-101z" />
    <glyph glyph-name="uni04D0" unicode="&#x4d0;" horiz-adv-x="742" 
d="M-30 0l426 705h89l207 -705h-102l-56 200l40 -28h-427l50 28l-117 -200h-110zM426 591l-209 -359l-21 23h355l-24 -23l-98 359h-3zM448 760q-47 0 -85 15.5t-63 46t-36 73.5l56 20q16 -50 48 -72.5t83 -22.5q52 0 87 22t64 72l51 -19q-20 -46 -51.5 -76t-70.5 -44.5
t-83 -14.5z" />
    <glyph glyph-name="uni04D1" unicode="&#x4d1;" horiz-adv-x="621" 
d="M242 -9q-69 0 -116.5 33t-67 94.5t-6.5 147.5q20 121 90.5 184t168.5 63q65 0 109 -32.5t54 -88.5l-11 -2l29 114h97q-7 -31 -14.5 -61.5t-12.5 -59.5l-60 -383h-101l18 114h16q-26 -57 -75 -90t-118 -33zM272 70q64 0 110.5 45t60.5 134q15 93 -18.5 138.5t-101.5 45.5
q-64 0 -109.5 -45t-60.5 -132q-14 -94 18.5 -140t100.5 -46zM355 550q-43 0 -78 16t-57.5 46t-32.5 73l55 19q14 -49 43 -72t74 -23q46 0 76 22.5t54 71.5l53 -18q-18 -47 -46.5 -77t-64 -44t-76.5 -14z" />
    <glyph glyph-name="uni04D2" unicode="&#x4d2;" horiz-adv-x="742" 
d="M-30 0l426 705h89l207 -705h-102l-56 200l40 -28h-427l50 28l-117 -200h-110zM426 591l-209 -359l-21 23h355l-24 -23l-98 359h-3zM499 799l16 99h99l-16 -99h-99zM318 799l16 99h99l-16 -99h-99z" />
    <glyph glyph-name="uni04D3" unicode="&#x4d3;" horiz-adv-x="621" 
d="M242 -9q-69 0 -116.5 33t-67 94.5t-6.5 147.5q20 121 90.5 184t168.5 63q65 0 109 -32.5t54 -88.5l-11 -2l29 114h97q-7 -31 -14.5 -61.5t-12.5 -59.5l-60 -383h-101l18 114h16q-26 -57 -75 -90t-118 -33zM272 70q64 0 110.5 45t60.5 134q15 93 -18.5 138.5t-101.5 45.5
q-64 0 -109.5 -45t-60.5 -132q-14 -94 18.5 -140t100.5 -46zM402 604l14 99h100l-16 -99h-98zM221 604l14 99h100l-15 -99h-99z" />
    <glyph glyph-name="uni04D4" unicode="&#x4d4;" horiz-adv-x="1011" 
d="M-50 0l545 705h542l-15 -83h-389l26 22l-19 -272l-13 28h339l-13 -84h-334l17 10l-18 -268l-10 26h330l-13 -84h-407l13 195l24 -23h-377l41 28l-151 -200h-118zM536 621l-294 -390l-9 25h316l-14 -27l28 392h-27z" />
    <glyph glyph-name="uni04D5" unicode="&#x4d5;" horiz-adv-x="889" 
d="M215 -9q-63 0 -103.5 23.5t-57.5 62.5t-10 84q10 52 47 81.5t103 42t161 12.5h51l-9 -57h-54q-62 0 -106.5 -7.5t-69.5 -26t-31 -52.5q-6 -40 18 -65.5t74 -25.5q62 0 102.5 39t50.5 103l18 113q10 61 -17 88.5t-78 27.5q-48 0 -88.5 -11t-87.5 -38l-29 71q29 18 64.5 31
t73.5 19.5t74 6.5q81 0 121 -30t47 -87h-31q36 58 90 87.5t119 29.5q70 0 115.5 -31t64.5 -85.5t8 -126.5l-5 -30h-371l9 58h302l-18 -15q11 77 -17 117.5t-93 40.5q-46 0 -80.5 -21.5t-55 -58.5t-26.5 -84l-5 -28q-11 -86 26 -132.5t120 -46.5q40 0 79 12.5t75 41.5l32 -69
q-39 -31 -91.5 -47.5t-105.5 -16.5q-89 0 -143.5 39t-73.5 111h25q-27 -71 -82 -110.5t-131 -39.5z" />
    <glyph glyph-name="uni04D6" unicode="&#x4d6;" horiz-adv-x="591" 
d="M43 0l112 705h462l-13 -83h-362l-35 -222h339l-13 -84h-339l-37 -232h361l-13 -84h-462zM413 760q-47 0 -85 15.5t-63 46t-36 73.5l56 20q16 -50 48 -72.5t83 -22.5q52 0 87 22t64 72l51 -19q-20 -46 -51.5 -76t-70.5 -44.5t-83 -14.5z" />
    <glyph glyph-name="uni04D7" unicode="&#x4d7;" horiz-adv-x="558" 
d="M285 -9q-86 0 -142.5 34t-79.5 97t-10 147q13 77 49 131.5t92 83.5t128 29q71 0 117 -31t65.5 -85.5t8.5 -126.5l-5 -30h-379l9 58h310l-18 -15q11 77 -17.5 117.5t-95.5 40.5q-47 0 -82 -21.5t-56 -58.5t-27 -84l-5 -28q-11 -86 26 -132.5t123 -46.5q42 0 82 12.5
t75 41.5l32 -69q-40 -31 -92.5 -47.5t-107.5 -16.5zM344 550q-43 0 -78 16t-57.5 46t-32.5 73l55 19q14 -49 43 -72t74 -23q46 0 76 22.5t54 71.5l53 -18q-18 -47 -46.5 -77t-64 -44t-76.5 -14z" />
    <glyph glyph-name="uni04D8" unicode="&#x4d8;" horiz-adv-x="757" 
d="M347 -9q-111 0 -176.5 46.5t-88.5 128.5t-7 190l7 40h554l-13 -82h-477l33 39q-13 -90 -2 -151.5t53 -92.5t120 -31q105 0 170.5 68t86.5 201t-28.5 205t-172.5 72q-68 0 -122.5 -17t-111.5 -57l-33 80q58 42 126.5 63t153.5 21q113 0 184.5 -46t99.5 -129.5t10 -198.5
q-17 -108 -67 -186.5t-126 -120.5t-173 -42z" />
    <glyph glyph-name="uni04D9" unicode="&#x4d9;" horiz-adv-x="558" 
d="M244 -9q-75 0 -123 31t-67.5 85.5t-8.5 125.5l5 31h379l-8 -58h-311l21 15q-14 -76 15 -117t98 -41q46 0 80.5 21.5t55 59t27.5 83.5l4 28q12 86 -25.5 132t-124.5 46q-40 0 -80 -11.5t-76 -40.5l-31 69q42 32 94.5 47.5t109.5 15.5q84 0 139 -34.5t78.5 -96.5t9.5 -147
q-12 -75 -47.5 -130t-89.5 -84.5t-124 -29.5z" />
    <glyph glyph-name="uni04DA" unicode="&#x4da;" horiz-adv-x="757" 
d="M347 -9q-111 0 -176.5 46.5t-88.5 128.5t-7 190l7 40h554l-13 -82h-477l33 39q-13 -90 -2 -151.5t53 -92.5t120 -31q105 0 170.5 68t86.5 201t-28.5 205t-172.5 72q-68 0 -122.5 -17t-111.5 -57l-33 80q58 42 126.5 63t153.5 21q113 0 184.5 -46t99.5 -129.5t10 -198.5
q-17 -108 -67 -186.5t-126 -120.5t-173 -42zM507 799l16 99h99l-16 -99h-99zM326 799l16 99h99l-16 -99h-99z" />
    <glyph glyph-name="uni04DB" unicode="&#x4db;" horiz-adv-x="558" 
d="M244 -9q-75 0 -123 31t-67.5 85.5t-8.5 125.5l5 31h379l-8 -58h-311l21 15q-14 -76 15 -117t98 -41q46 0 80.5 21.5t55 59t27.5 83.5l4 28q12 86 -25.5 132t-124.5 46q-40 0 -80 -11.5t-76 -40.5l-31 69q42 32 94.5 47.5t109.5 15.5q84 0 139 -34.5t78.5 -96.5t9.5 -147
q-12 -75 -47.5 -130t-89.5 -84.5t-124 -29.5zM370 604l14 99h100l-16 -99h-98zM189 604l14 99h100l-15 -99h-99z" />
    <glyph glyph-name="uni04DC" unicode="&#x4dc;" horiz-adv-x="1016" 
d="M-35 0l163 248q43 65 94.5 101t120.5 44l-41 -30l-181 342h109l166 -324l-18 16h104l49 308h99l-49 -308h105l-30 -16l270 324h118l-289 -342l-36 30q58 -8 98.5 -44t62.5 -101l86 -248h-106l-68 205q-19 57 -53 81.5t-90 24.5h-81l-50 -311h-99l49 311h-82
q-56 0 -96.5 -24.5t-76.5 -81.5l-131 -205h-117zM635 799l16 99h99l-16 -99h-99zM454 799l16 99h99l-16 -99h-99z" />
    <glyph glyph-name="uni04DD" unicode="&#x4dd;" horiz-adv-x="823" 
d="M-44 0l134 182q28 36 51 58t47 33.5t53 14.5l-25 -32l-152 248h106l126 -206h74l33 206h101l-33 -206h70l191 206h114l-228 -248l-21 32q26 -3 45.5 -14.5t35.5 -33.5t32 -58l75 -182h-103l-65 154q-11 26 -23.5 40.5t-30 20t-43.5 5.5h-62l-34 -220h-100l34 220h-62
q-26 0 -44 -5.5t-34 -20t-36 -40.5l-113 -154h-113zM511 604l14 99h100l-16 -99h-98zM330 604l14 99h100l-15 -99h-99z" />
    <glyph glyph-name="uni04DE" unicode="&#x4de;" horiz-adv-x="649" 
d="M287 -9q-89 0 -156.5 23.5t-108.5 64.5l37 77q43 -38 98.5 -58t131.5 -20q90 0 139 31t58 90q9 60 -24 88.5t-109 28.5h-181l14 83h166q76 0 116.5 28t49.5 81q8 57 -29 88t-122 31q-64 0 -123.5 -19t-112.5 -56l-34 78q57 41 130.5 62.5t153.5 21.5q89 0 145.5 -24.5
t80 -69.5t13.5 -104q-9 -60 -52 -104t-119 -59l2 14q72 -10 109.5 -57t24.5 -124q-9 -60 -45.5 -104t-99.5 -67.5t-153 -23.5zM448 799l16 99h99l-16 -99h-99zM267 799l16 99h99l-16 -99h-99z" />
    <glyph glyph-name="uni04DF" unicode="&#x4df;" horiz-adv-x="518" 
d="M217 -9q-64 0 -119.5 16.5t-87.5 47.5l35 68q32 -29 78.5 -43.5t98.5 -14.5q68 0 102.5 20.5t40.5 58.5q6 37 -17 56t-72 19h-125l11 72h114q45 0 73.5 19t32.5 53q6 36 -19.5 56t-88.5 20q-52 0 -97.5 -12.5t-87.5 -36.5l-28 65q47 29 106 43.5t126 14.5q99 0 146.5 -38
t36.5 -107q-7 -45 -44 -78t-91 -40l2 13q61 -3 92 -38t22 -91q-10 -64 -70 -103.5t-170 -39.5zM354 608l14 99h100l-16 -99h-98zM173 608l14 99h100l-15 -99h-99z" />
    <glyph glyph-name="uni04E0" unicode="&#x4e0;" horiz-adv-x="650" 
d="M286 -9q-89 0 -157 23.5t-110 64.5l40 78q40 -39 96 -59t128 -20q97 0 145.5 31.5t57.5 90.5q9 60 -23.5 88t-107.5 28h-136l11 67l294 265l-5 -29h-409l14 86h514l-12 -72l-294 -265l-14 28h66q109 0 164 -52t38 -155q-10 -61 -46.5 -105.5t-100 -68.5t-153.5 -24z" />
    <glyph glyph-name="uni04E1" unicode="&#x4e1;" horiz-adv-x="517" 
d="M175 -189q-69 0 -123.5 16t-88.5 46l33 72q32 -28 75.5 -41.5t99.5 -13.5q78 0 123.5 33.5t54.5 94.5q11 68 -21 101t-107 33h-109l8 48l268 249l-1 -24h-326l12 79h421l-10 -67l-260 -240l-25 26h57q71 0 117.5 -25.5t66 -71t9.5 -105.5q-10 -68 -45.5 -115t-93 -71
t-135.5 -24z" />
    <glyph glyph-name="uni04E2" unicode="&#x4e2;" horiz-adv-x="750" 
d="M43 0l112 705h96l-90 -570h-24l523 570h80l-112 -705h-97l90 570h23l-523 -570h-78zM298 811l9 63h336l-10 -63h-335z" />
    <glyph glyph-name="uni04E3" unicode="&#x4e3;" horiz-adv-x="604" 
d="M36 0l80 504h91l-64 -407l-30 1l371 406h84l-80 -504h-91l65 408l30 -2l-372 -406h-84zM210 621l9 64h306l-10 -64h-305z" />
    <glyph glyph-name="uni04E4" unicode="&#x4e4;" horiz-adv-x="750" 
d="M43 0l112 705h96l-90 -570h-24l523 570h80l-112 -705h-97l90 570h23l-523 -570h-78zM504 799l16 99h99l-16 -99h-99zM323 799l16 99h99l-16 -99h-99z" />
    <glyph glyph-name="uni04E5" unicode="&#x4e5;" horiz-adv-x="604" 
d="M36 0l80 504h91l-64 -407l-30 1l371 406h84l-80 -504h-91l65 408l30 -2l-372 -406h-84zM401 604l14 99h100l-16 -99h-98zM220 604l14 99h100l-15 -99h-99z" />
    <glyph glyph-name="uni04E6" unicode="&#x4e6;" horiz-adv-x="779" 
d="M77 367q18 111 68 188.5t128.5 118t177.5 40.5q109 0 177.5 -47.5t95.5 -132.5t9 -195q-17 -111 -67.5 -188.5t-128.5 -118.5t-178 -41q-108 0 -177 47.5t-95.5 132.5t-9.5 196zM184 357q-13 -87 3.5 -148.5t62 -94.5t117.5 -33q108 0 174 71.5t85 196.5
q14 86 -3.5 147.5t-62.5 94.5t-117 33q-108 0 -173 -70.5t-86 -196.5zM525 799l16 99h99l-16 -99h-99zM344 799l16 99h99l-16 -99h-99z" />
    <glyph glyph-name="uni04E7" unicode="&#x4e7;" horiz-adv-x="592" 
d="M264 -9q-78 0 -130 32t-73.5 94t-8.5 149q13 80 51.5 135.5t96 83.5t128.5 28q80 0 131.5 -32.5t73 -94t7.5 -147.5q-13 -81 -51.5 -136t-96 -83.5t-128.5 -28.5zM271 70q63 0 109 45t60 134q15 93 -18.5 138.5t-99.5 45.5q-65 0 -109.5 -45t-59.5 -132q-14 -94 18 -140
t100 -46zM394 604l14 99h100l-16 -99h-98zM213 604l14 99h100l-15 -99h-99z" />
    <glyph glyph-name="uni04E8" unicode="&#x4e8;" horiz-adv-x="779" 
d="M124 319l13 79h564l-13 -79h-564zM77 367q18 111 68 188.5t128.5 118t177.5 40.5q109 0 177.5 -47.5t95.5 -132.5t9 -195q-17 -111 -67.5 -188.5t-128.5 -118.5t-178 -41q-108 0 -177 47.5t-95.5 132.5t-9.5 196zM184 357q-13 -87 3.5 -148.5t62 -94.5t117.5 -33
q108 0 174 71.5t85 196.5q14 86 -3.5 147.5t-62.5 94.5t-117 33q-108 0 -173 -70.5t-86 -196.5z" />
    <glyph glyph-name="uni04E9" unicode="&#x4e9;" horiz-adv-x="592" 
d="M264 -9q-78 0 -130 32t-73.5 94t-8.5 149q13 80 51.5 135.5t96 83.5t128.5 28q79 0 131 -32.5t73.5 -94t7.5 -147.5q-13 -81 -51.5 -136t-96 -83.5t-128.5 -28.5zM270 70q69 0 116 45.5t61 133.5q15 91 -19.5 137.5t-106.5 46.5q-68 0 -114.5 -45t-60.5 -133
q-14 -89 18 -137t106 -48zM107 218l10 68h370l-10 -68h-370z" />
    <glyph glyph-name="uni04EA" unicode="&#x4ea;" horiz-adv-x="779" 
d="M124 319l13 79h564l-13 -79h-564zM77 367q18 111 68 188.5t128.5 118t177.5 40.5q109 0 177.5 -47.5t95.5 -132.5t9 -195q-17 -111 -67.5 -188.5t-128.5 -118.5t-178 -41q-108 0 -177 47.5t-95.5 132.5t-9.5 196zM184 357q-13 -87 3.5 -148.5t62 -94.5t117.5 -33
q108 0 174 71.5t85 196.5q14 86 -3.5 147.5t-62.5 94.5t-117 33q-108 0 -173 -70.5t-86 -196.5zM520 799l16 99h99l-16 -99h-99zM339 799l16 99h99l-16 -99h-99z" />
    <glyph glyph-name="uni04EB" unicode="&#x4eb;" horiz-adv-x="592" 
d="M264 -9q-78 0 -130 32t-73.5 94t-8.5 149q13 80 51.5 135.5t96 83.5t128.5 28q79 0 131 -32.5t73.5 -94t7.5 -147.5q-13 -81 -51.5 -136t-96 -83.5t-128.5 -28.5zM270 70q69 0 116 45.5t61 133.5q15 91 -19.5 137.5t-106.5 46.5q-68 0 -114.5 -45t-60.5 -133
q-14 -89 18 -137t106 -48zM107 218l10 68h370l-10 -68h-370zM394 604l14 99h100l-16 -99h-98zM213 604l14 99h100l-15 -99h-99z" />
    <glyph glyph-name="uni04EC" unicode="&#x4ec;" horiz-adv-x="693" 
d="M253 -9q-71 0 -126.5 20t-95.5 58l40 83q43 -38 85.5 -53.5t105.5 -15.5q113 0 183 66.5t93 184.5l29 -17h-384l13 83h382l-36 -36q15 121 -36 190t-170 69q-57 0 -109.5 -18.5t-100.5 -59.5l-34 83q52 43 119.5 64.5t134.5 21.5q89 0 152 -27.5t100.5 -78t50.5 -119.5
t-1 -151q-17 -110 -69.5 -188t-135 -119t-190.5 -40zM442 799l16 99h99l-16 -99h-99zM261 799l16 99h99l-16 -99h-99z" />
    <glyph glyph-name="uni04ED" unicode="&#x4ed;" horiz-adv-x="529" 
d="M188 -9q-54 0 -98 15t-71 42l34 66q26 -25 60.5 -36.5t71.5 -11.5q79 0 128.5 44.5t64.5 121.5l12 -12h-261l12 72h262l-21 -30q9 86 -28 131t-115 45q-39 0 -77.5 -12.5t-73.5 -40.5l-26 65q32 30 84.5 46.5t107.5 16.5q80 0 134.5 -33.5t78 -95t9.5 -145.5
q-13 -82 -52.5 -137t-99.5 -83t-136 -28zM339 604l14 99h100l-16 -99h-98zM158 604l14 99h100l-15 -99h-99z" />
    <glyph glyph-name="uni04EE" unicode="&#x4ee;" horiz-adv-x="670" 
d="M151 0l161 232v-36l-246 509h106l200 -418h-21l287 418h112l-486 -705h-113zM258 811l9 63h336l-10 -63h-335z" />
    <glyph glyph-name="uni04EF" unicode="&#x4ef;" horiz-adv-x="546" 
d="M-11 -227l-17 82q49 10 83 24t58.5 36.5t45.5 57.5l34 59l-4 -41l-139 513h105l104 -420h-27l237 420h107l-316 -540q-30 -50 -60.5 -84t-63 -55t-69 -33t-78.5 -19zM169 621l9 64h306l-10 -64h-305z" />
    <glyph glyph-name="uni04F0" unicode="&#x4f0;" horiz-adv-x="670" 
d="M151 0l161 232v-36l-246 509h106l200 -418h-21l287 418h112l-486 -705h-113zM464 799l16 99h99l-16 -99h-99zM283 799l16 99h99l-16 -99h-99z" />
    <glyph glyph-name="uni04F1" unicode="&#x4f1;" horiz-adv-x="546" 
d="M-11 -227l-17 82q49 10 83 24t58.5 36.5t45.5 57.5l34 59l-4 -41l-139 513h105l104 -420h-27l237 420h107l-316 -540q-30 -50 -60.5 -84t-63 -55t-69 -33t-78.5 -19zM360 604l14 99h100l-16 -99h-98zM179 604l14 99h100l-15 -99h-99z" />
    <glyph glyph-name="uni04F2" unicode="&#x4f2;" horiz-adv-x="670" 
d="M151 0l161 232v-36l-246 509h106l200 -418h-21l287 418h112l-486 -705h-113zM322 765l101 173h94l-137 -173h-58zM458 765l107 173h94l-143 -173h-58z" />
    <glyph glyph-name="uni04F3" unicode="&#x4f3;" horiz-adv-x="546" 
d="M-11 -227l-17 82q49 10 83 24t58.5 36.5t45.5 57.5l34 59l-4 -41l-139 513h105l104 -420h-27l237 420h107l-316 -540q-30 -50 -60.5 -84t-63 -55t-69 -33t-78.5 -19zM349 553l71 202h88l-104 -202h-55zM212 553l70 202h89l-104 -202h-55z" />
    <glyph glyph-name="uni04F4" unicode="&#x4f4;" horiz-adv-x="701" 
d="M475 0l45 288q-33 -15 -79.5 -24t-93.5 -9q-92 0 -152 32.5t-84 97t-10 161.5l27 159h103l-25 -153q-18 -112 23.5 -159.5t141.5 -47.5q43 0 84 8t80 27l52 325h103l-112 -705h-103zM458 799l16 99h99l-16 -99h-99zM277 799l16 99h99l-16 -99h-99z" />
    <glyph glyph-name="uni04F5" unicode="&#x4f5;" horiz-adv-x="572" 
d="M358 0l31 195q-30 -15 -64 -23.5t-70 -8.5q-65 0 -109.5 23t-63.5 68.5t-8 114.5l21 135h101l-20 -127q-11 -69 15 -100t93 -31q34 0 61.5 7.5t54.5 23.5l36 227h100l-79 -504h-99zM375 604l14 99h100l-16 -99h-98zM194 604l14 99h100l-15 -99h-99z" />
    <glyph glyph-name="uni04F6" unicode="&#x4f6;" horiz-adv-x="563" 
d="M135 -161l25 161h-110l14 84h201l-39 -245h-91zM43 0l112 705h465l-14 -86h-362l-97 -619h-104z" />
    <glyph glyph-name="uni04F7" unicode="&#x4f7;" horiz-adv-x="456" 
d="M110 -130l21 130h-89l12 78h176l-34 -208h-86zM36 0l80 504h363l-13 -81h-262l-67 -423h-101z" />
    <glyph glyph-name="uni04F8" unicode="&#x4f8;" horiz-adv-x="895" 
d="M43 0l112 705h104l-49 -304h171q119 0 177 -53.5t42 -160.5q-15 -93 -85 -140t-181 -47h-291zM159 82h170q79 0 121 28t51 89q10 62 -22 91t-110 29h-172zM668 0l112 705h103l-112 -705h-103zM575 799l16 99h99l-16 -99h-99zM394 799l16 99h99l-16 -99h-99z" />
    <glyph glyph-name="uni04F9" unicode="&#x4f9;" horiz-adv-x="764" 
d="M36 0l80 504h100l-28 -176h137q103 0 147 -45t31 -126q-12 -80 -69.5 -118.5t-152.5 -38.5h-245zM147 69h133q56 0 89 21.5t40 69.5q9 52 -17 75.5t-83 23.5h-132zM549 0l79 504h100l-79 -504h-100zM481 604l14 99h100l-16 -99h-98zM300 604l14 99h100l-15 -99h-99z" />
    <glyph glyph-name="uni04FA" unicode="&#x4fa;" horiz-adv-x="604" 
d="M23 -184l5 72l49 4q56 5 83.5 31.5t35.5 76.5h-112l50 312h-99l11 77h100l50 316h465l-14 -86h-362l-36 -230h189l-13 -77h-188l-36 -228h102l-10 -68q-16 -94 -67.5 -142t-145.5 -54z" />
    <glyph glyph-name="uni04FB" unicode="&#x4fb;" horiz-adv-x="479" 
d="M7 -184l5 72l51 5q41 4 62 30.5t29 76.5h-93l34 210h-97l11 69h97l35 225h363l-13 -80h-262l-22 -145h147l-11 -69h-148l-23 -148h82l-8 -46q-15 -94 -63.5 -142t-120.5 -53z" />
    <glyph glyph-name="uni04FC" unicode="&#x4fc;" horiz-adv-x="661" 
d="M358 -186l-4 82q58 7 88.5 27t35.5 55q6 33 -8 66t-37 71l-111 193h39l-275 -308h-127l345 381l-2 -42l-216 366h118l166 -292h-33l258 292h128l-332 -366v42l137 -231q31 -52 46 -94.5t7 -90.5q-9 -63 -63.5 -101.5t-159.5 -49.5z" />
    <glyph glyph-name="uni04FD" unicode="&#x4fd;" horiz-adv-x="553" 
d="M267 -186l-5 73q55 6 83 23.5t33 51.5q4 24 -7 49.5t-38 70.5l-82 129h37l-199 -211h-125l274 284l-2 -48l-174 268h115l122 -197h-36l184 197h125l-257 -267l3 45l101 -156q25 -37 39.5 -64.5t19.5 -51t1 -50.5q-6 -41 -32 -71.5t-71 -49.5t-109 -25z" />
    <glyph glyph-name="uni04FE" unicode="&#x4fe;" horiz-adv-x="661" 
d="M-41 0l345 381l-2 -42l-216 366h118l166 -292h-33l258 292h128l-332 -366v42l226 -381h-118l-177 308h39l-275 -308h-127zM127 332l9 63h432l-10 -63h-431z" />
    </font>
</defs>
</svg>
