<?xml version="1.0" standalone="no"?>
<!DOCTYPE svg PUBLIC "-//W3C//DTD SVG 1.1//EN" "http://www.w3.org/Graphics/SVG/1.1/DTD/svg11.dtd" >
<svg xmlns="http://www.w3.org/2000/svg" xmlns:xlink="http://www.w3.org/1999/xlink" version="1.1">
<metadata>
Created by FontForge 20201107 at Thu Sep 30 21:20:51 2021
 By 
Copyright 2016 The Mulish Project Authors (https://github.com/googlefonts/mulish)
</metadata>
<defs>
<font id="Mulish-Medium" horiz-adv-x="0" >
  <font-face 
    font-family="Mulish Medium"
    font-weight="500"
    font-stretch="normal"
    units-per-em="1000"
    panose-1="0 0 0 0 0 0 0 0 0 0"
    ascent="800"
    descent="-200"
    x-height="503"
    cap-height="705"
    bbox="-256 -270 1299 1045"
    underline-thickness="44"
    underline-position="-107"
    unicode-range="U+000D-FB02"
  />
<missing-glyph horiz-adv-x="500" 
 />
    <glyph glyph-name="fi" unicode="fi" horiz-adv-x="586" 
d="M104 0v433h-98v70h123l-25 -23v81q0 88 43.5 133.5t125.5 45.5q20 0 42.5 -3t37.5 -10v-74q-12 5 -30 8t-35 3q-45 0 -69 -26.5t-24 -82.5v-71l-14 19h329v-503h-91v433h-224v-433h-91zM410 613v98h108v-98h-108z" />
    <glyph glyph-name="fl" unicode="fl" horiz-adv-x="587" 
d="M104 0v433h-98v70h123l-25 -23v81q0 88 44 133.5t128 45.5q20 0 42.5 -3t37.5 -10v-74q-12 5 -30 8t-35 3q-30 0 -52 -12t-33 -35.5t-11 -61.5v-71l-14 19h153v-70h-139v-433h-91zM421 0v736h91v-736h-91z" />
    <glyph glyph-name=".notdef" horiz-adv-x="500" 
 />
    <glyph glyph-name="uni0000" 
 />
    <glyph glyph-name="uni0000" 
 />
    <glyph glyph-name="nonmarkingreturn" horiz-adv-x="333" 
 />
    <glyph glyph-name="CR" unicode="&#xd;" horiz-adv-x="264" 
 />
    <glyph glyph-name="space" unicode=" " horiz-adv-x="264" 
 />
    <glyph glyph-name="exclam" unicode="!" horiz-adv-x="233" 
d="M88 190l-28 515h113l-29 -515h-56zM61 0v111h111v-111h-111z" />
    <glyph glyph-name="quotedbl" unicode="&#x22;" horiz-adv-x="405" 
d="M83 425l-23 280h107l-23 -280h-61zM261 425l-23 280h107l-23 -280h-61z" />
    <glyph glyph-name="numbersign" unicode="#" horiz-adv-x="600" 
d="M84 0l36 180h-89v63h101l46 227h-126v64h139l35 171h68l-34 -171h151l35 171h69l-35 -171h89v-64h-102l-46 -227h127v-63h-139l-36 -180h-70l37 180h-151l-35 -180h-70zM201 243h151l46 227h-151z" />
    <glyph glyph-name="dollar" unicode="$" horiz-adv-x="600" 
d="M272 -115v128l19 -18q-72 1 -136 21.5t-112 61.5l32 74q48 -38 101.5 -57.5t124.5 -19.5q83 0 123 32t40 82q0 41 -29 65.5t-96 38.5l-102 22q-91 20 -135 66t-44 121q0 58 28.5 104t80 73t119.5 30l-14 -14v125h76v-125l-16 14q55 -2 110 -23t93 -62l-31 -71
q-39 40 -88 58.5t-109 18.5q-73 0 -116.5 -34.5t-43.5 -90.5q0 -44 27 -70t89 -40l102 -21q97 -20 143.5 -63.5t46.5 -116.5q0 -57 -28.5 -100t-79 -68t-116.5 -30l17 18v-129h-76z" />
    <glyph glyph-name="percent" unicode="%" horiz-adv-x="940" 
d="M301 0h-80l418 705h81zM224 283q-82 0 -128.5 57.5t-46.5 158.5q0 102 47 158.5t128 56.5q83 0 129.5 -57.5t46.5 -157.5q0 -101 -46.5 -158.5t-129.5 -57.5zM224 345q46 0 72 38t26 116q0 77 -26 114.5t-72 37.5q-45 0 -71 -37t-26 -115q0 -79 26 -116.5t71 -37.5z
M716 -9q-82 0 -128.5 57.5t-46.5 158.5q0 102 47 158.5t128 56.5q82 0 129 -57t47 -158t-47 -158.5t-129 -57.5zM716 54q46 0 72 37.5t26 115.5t-26 115t-72 37q-45 0 -71 -37t-26 -115t26 -115.5t71 -37.5z" />
    <glyph glyph-name="ampersand" unicode="&#x26;" horiz-adv-x="674" 
d="M653 -9q-46 20 -86 49.5t-70 58.5h22q-44 -51 -105 -79.5t-132 -28.5q-73 0 -126 22.5t-81 63t-28 95.5q0 68 40 116.5t113 94.5l33 20l-13 -16q-46 48 -67.5 87.5t-21.5 82.5q0 47 22.5 82t63.5 55t96 20q71 0 116.5 -39t45.5 -106q0 -37 -14.5 -68.5t-48 -62
t-90.5 -64.5l2 20l190 -204h-20q26 42 40.5 100.5t16.5 124.5h79q-3 -83 -24 -155t-58 -126l-1 25q26 -28 62.5 -55.5t78.5 -46.5zM286 64q57 0 102.5 23t78.5 67l-2 -25l-216 227h36l-30 -19q-40 -26 -66 -50t-38.5 -50t-12.5 -60q0 -53 37.5 -83t110.5 -30zM313 648
q-44 0 -70.5 -25t-26.5 -66q0 -21 7.5 -39.5t25 -40t46.5 -54.5l-24 -3q68 41 98.5 73t30.5 71t-23.5 61.5t-63.5 22.5z" />
    <glyph glyph-name="quotesingle" unicode="'" horiz-adv-x="226" 
d="M83 425l-23 280h107l-23 -280h-61z" />
    <glyph glyph-name="parenleft" unicode="(" horiz-adv-x="327" 
d="M226 -180q-43 74 -70.5 145.5t-40 145t-12.5 152.5q0 80 12.5 153t40 144t70.5 145h74q-51 -113 -77 -222.5t-26 -219.5t26 -220t77 -223h-74z" />
    <glyph glyph-name="parenright" unicode=")" horiz-adv-x="327" 
d="M101 -180h-75q51 113 77.5 223t26.5 220q0 109 -26.5 219t-77.5 223h75q43 -74 70.5 -145.5t40 -144.5t12.5 -152q0 -80 -12.5 -153t-40 -144.5t-70.5 -145.5z" />
    <glyph glyph-name="asterisk" unicode="*" horiz-adv-x="455" 
d="M139 360l-54 41l96 123l-151 45l22 65l146 -55l-5 157h69l-6 -157l149 55l20 -65l-151 -44l97 -124l-56 -41l-87 132z" />
    <glyph glyph-name="plus" unicode="+" horiz-adv-x="600" 
d="M265 38v215h-212v68h212v210h70v-210h212v-68h-212v-215h-70z" />
    <glyph glyph-name="comma" unicode="," horiz-adv-x="233" 
d="M107 -119l-41 32q28 29 38 54.5t10 52.5l20 -20h-73v111h111v-77q0 -43 -14 -79.5t-51 -73.5z" />
    <glyph glyph-name="hyphen" unicode="-" horiz-adv-x="431" 
d="M71 237v74h289v-74h-289z" />
    <glyph glyph-name="period" unicode="." horiz-adv-x="233" 
d="M61 0v111h111v-111h-111z" />
    <glyph glyph-name="slash" unicode="/" horiz-adv-x="293" 
d="M54 -56h-77l261 805h78z" />
    <glyph glyph-name="zero" unicode="0" horiz-adv-x="600" 
d="M300 -9q-121 0 -186 93.5t-65 268.5q0 178 65 269.5t186 91.5q122 0 186.5 -91.5t64.5 -268.5q0 -176 -65 -269.5t-186 -93.5zM300 70q80 0 119.5 69t39.5 215t-39.5 213.5t-119.5 67.5q-79 0 -119 -67.5t-40 -213.5t40 -215t119 -69z" />
    <glyph glyph-name="one" unicode="1" horiz-adv-x="600" 
d="M124 0v79h165v547h47l-197 -122v91l176 110h67v-626h155v-79h-413z" />
    <glyph glyph-name="two" unicode="2" horiz-adv-x="600" 
d="M85 0v69l246 258q48 49 71.5 94t23.5 93q0 59 -36.5 89.5t-106.5 30.5q-54 0 -101.5 -19.5t-90.5 -59.5l-33 71q41 40 103.5 64t131.5 24q108 0 167 -49.5t59 -141.5q0 -67 -32.5 -127.5t-95.5 -124.5l-215 -218v26h372v-79h-463z" />
    <glyph glyph-name="three" unicode="3" horiz-adv-x="600" 
d="M295 -9q-72 0 -137.5 22t-109.5 62l33 72q49 -40 101 -58t110 -18q77 0 117 32.5t40 93.5q0 60 -40.5 91t-118.5 31h-108v77h101q66 0 106 34t40 93q0 54 -36.5 82.5t-103.5 28.5q-113 0 -196 -79l-33 71q42 42 104 65t131 23q105 0 165 -48t60 -134q0 -65 -36.5 -111.5
t-99.5 -61.5v11q74 -13 115 -60.5t41 -118.5q0 -93 -65.5 -146.5t-179.5 -53.5z" />
    <glyph glyph-name="four" unicode="4" horiz-adv-x="600" 
d="M379 0v149h-331v67l346 489h76v-482h106v-74h-106v-149h-91zM379 223v372h23l-279 -394v22h256z" />
    <glyph glyph-name="five" unicode="5" horiz-adv-x="600" 
d="M312 -9q-46 0 -90.5 10t-83.5 28.5t-68 45.5l33 72q49 -39 100 -57.5t107 -18.5q74 0 116 39t42 104q0 67 -40 108.5t-111 41.5q-49 0 -88.5 -19.5t-69.5 -61.5h-66v422h423v-79h-333v-267h-24q27 40 73.5 62t104.5 22q68 0 117.5 -28t77 -78.5t27.5 -117.5t-30 -118.5
t-85.5 -80.5t-131.5 -29z" />
    <glyph glyph-name="six" unicode="6" horiz-adv-x="600" 
d="M323 -9q-129 0 -199 91t-70 254q0 122 35.5 206t101.5 128t158 44q56 0 112 -22t93 -61l-34 -72q-37 38 -81.5 56.5t-90.5 18.5q-99 0 -151.5 -70.5t-52.5 -209.5v-89h-10q7 56 34.5 96t71 62t98.5 22q63 0 112 -29t77 -79t28 -116t-30 -118.5t-82 -82t-120 -29.5z
M318 68q44 0 77.5 19t52 53t18.5 78t-18.5 78t-52 53t-77.5 19t-77.5 -19t-52.5 -53t-19 -78t19 -78t52.5 -53t77.5 -19z" />
    <glyph glyph-name="seven" unicode="7" horiz-adv-x="600" 
d="M106 0l347 663v-38h-390v80h475v-69l-329 -636h-103z" />
    <glyph glyph-name="eight" unicode="8" horiz-adv-x="600" 
d="M300 -9q-122 0 -189 52t-67 145q0 73 45.5 121.5t118.5 58.5v-16q-67 14 -106.5 61t-39.5 113q0 88 63.5 138t174.5 50q112 0 175.5 -50t63.5 -138q0 -66 -37.5 -114t-103.5 -60v16q73 -10 115.5 -58.5t42.5 -121.5q0 -93 -66.5 -145t-189.5 -52zM300 66q85 0 126.5 32
t41.5 95q0 64 -41.5 95t-126.5 31q-84 0 -126 -31t-42 -95q0 -63 42 -95t126 -32zM300 395q73 0 111.5 32.5t38.5 90.5q0 57 -38.5 89t-111.5 32q-72 0 -111 -32t-39 -89q0 -58 39 -90.5t111 -32.5z" />
    <glyph glyph-name="nine" unicode="9" horiz-adv-x="600" 
d="M252 -9q-56 0 -112 23t-93 61l34 71q37 -37 81.5 -56t90.5 -19q98 0 151 70.5t53 209.5v89h10q-6 -55 -34.5 -95.5t-71.5 -62.5t-98 -22q-63 0 -112 29t-77 79.5t-28 115.5q0 67 29.5 119t81.5 81.5t120 29.5q130 0 200 -90.5t70 -254.5q0 -121 -35.5 -205.5
t-101.5 -128.5t-158 -44zM283 337q44 0 77.5 19t52.5 53t19 78q0 45 -19 78.5t-52.5 53t-77.5 19.5t-77.5 -19.5t-52 -53t-18.5 -78.5q0 -44 18.5 -78t52 -53t77.5 -19z" />
    <glyph glyph-name="colon" unicode=":" horiz-adv-x="233" 
d="M61 393v110h111v-110h-111zM61 0v111h111v-111h-111z" />
    <glyph glyph-name="semicolon" unicode=";" horiz-adv-x="233" 
d="M107 -119l-41 32q28 29 38 54.5t10 52.5l26 -20h-79v111h111v-77q0 -43 -14 -79.5t-51 -73.5zM61 393v110h111v-110h-111z" />
    <glyph glyph-name="less" unicode="&#x3c;" horiz-adv-x="600" 
d="M546 34l-493 218v71l493 217v-75l-459 -201v46l459 -201v-75z" />
    <glyph glyph-name="equal" unicode="=" horiz-adv-x="600" 
d="M53 353v68h494v-68h-494zM53 154v67h494v-67h-494z" />
    <glyph glyph-name="greater" unicode="&#x3e;" horiz-adv-x="600" 
d="M54 34v75l459 201v-46l-459 201v75l493 -217v-71z" />
    <glyph glyph-name="question" unicode="?" horiz-adv-x="451" 
d="M172 190v32q0 49 19 92.5t68 97.5q38 41 53 72.5t15 63.5q0 41 -30 64t-82 23q-39 0 -75.5 -10.5t-69.5 -29.5v83q33 17 74 26.5t81 9.5q58 0 102 -18t68.5 -52.5t24.5 -86.5q0 -32 -10.5 -62t-31 -59t-53.5 -62q-49 -49 -68.5 -85t-24.5 -74l-3 -25h-57zM145 0v111h111
v-111h-111z" />
    <glyph glyph-name="at" unicode="@" horiz-adv-x="968" 
d="M495 -164q-98 0 -178 30.5t-137 88t-88.5 137.5t-31.5 179t32.5 180.5t92.5 140.5t142.5 90.5t182.5 31.5q119 0 209 -46t140 -129.5t50 -195.5q0 -86 -25 -150t-69.5 -99t-103.5 -35q-60 0 -92 34.5t-28 93.5l21 -2q-26 -62 -73 -94t-101 -32q-79 0 -122.5 49t-43.5 134
q0 74 28.5 131.5t78.5 90t113 32.5q56 0 91.5 -27t46.5 -76h-13l18 94h72l-46 -255q-2 -14 -3.5 -26t-1.5 -23q0 -33 15 -49t45 -16q38 0 67 28t46 78.5t17 118.5q0 95 -42 164.5t-117 107.5t-178 38q-114 0 -199.5 -47.5t-133 -133.5t-47.5 -201q0 -116 45 -200
t127.5 -128.5t193.5 -44.5q82 0 148.5 24t111.5 70l34 -53q-49 -49 -125.5 -76t-168.5 -27zM449 122q45 0 80 25.5t55 71.5t20 104q0 56 -25 83t-77 27q-44 0 -79.5 -24t-55.5 -67.5t-20 -99.5q0 -58 27 -89t75 -31z" />
    <glyph glyph-name="A" unicode="A" horiz-adv-x="738" 
d="M14 0l312 705h81l317 -705h-96l-87 200l40 -24h-429l44 24l-87 -200h-95zM365 601l-156 -370l-24 21h363l-19 -21l-160 370h-4z" />
    <glyph glyph-name="B" unicode="B" horiz-adv-x="683" 
d="M86 0v705h287q114 0 175 -48t61 -135q0 -66 -39.5 -110t-107.5 -59v15q78 -9 121.5 -54t43.5 -119q0 -94 -63 -144.5t-178 -50.5h-300zM176 74h201q74 0 116.5 28.5t42.5 94.5q0 67 -42.5 95t-116.5 28h-201v-246zM176 394h184q79 0 118 30.5t39 88.5t-39 88.5t-118 30.5
h-184v-238z" />
    <glyph glyph-name="C" unicode="C" horiz-adv-x="685" 
d="M397 -9q-106 0 -181.5 44t-115.5 125.5t-40 192.5t40 192t115.5 125t181.5 44q76 0 135 -22.5t103 -65.5l-34 -75q-48 42 -94.5 60.5t-107.5 18.5q-117 0 -179 -72t-62 -205t62 -205.5t179 -72.5q61 0 107.5 18.5t94.5 60.5l34 -74q-44 -43 -103.5 -66t-134.5 -23z" />
    <glyph glyph-name="D" unicode="D" horiz-adv-x="750" 
d="M86 0v705h239q118 0 199.5 -41t123.5 -119.5t42 -191.5t-42 -192t-123.5 -120t-199.5 -41h-239zM179 79h139q141 0 209 68t68 206t-68 205.5t-209 67.5h-139v-547z" />
    <glyph glyph-name="E" unicode="E" horiz-adv-x="590" 
d="M86 0v705h456v-76h-366v-233h343v-76h-343v-244h366v-76h-456z" />
    <glyph glyph-name="F" unicode="F" horiz-adv-x="565" 
d="M86 0v705h446v-76h-353v-236h330v-76h-330v-317h-93z" />
    <glyph glyph-name="G" unicode="G" horiz-adv-x="733" 
d="M413 -9q-116 0 -195 43.5t-118.5 124.5t-39.5 193t42 193t120.5 125t188.5 44q77 0 134 -22t102 -64l-35 -74q-32 28 -62 45t-62.5 24.5t-76.5 7.5q-123 0 -188 -73t-65 -207q0 -136 63 -207t196 -71q47 0 92 9t86 26l-19 -47v239h-177v72h257v-330q-45 -23 -111 -37
t-132 -14z" />
    <glyph glyph-name="H" unicode="H" horiz-adv-x="768" 
d="M86 0v705h93v-308h410v308h94v-705h-94v318h-410v-318h-93z" />
    <glyph glyph-name="I" unicode="I" horiz-adv-x="264" 
d="M86 0v705h93v-705h-93z" />
    <glyph glyph-name="J" unicode="J" horiz-adv-x="337" 
d="M82 -187q-17 0 -38 2t-43 7v76q19 -4 36 -6t29 -2q46 0 68.5 28t22.5 89v698h94v-699q0 -63 -18 -106t-55 -65t-96 -22z" />
    <glyph glyph-name="K" unicode="K" horiz-adv-x="641" 
d="M86 0v705h93v-319h2l331 319h117l-384 -365l1 45l410 -385h-121l-354 331h-2v-331h-93z" />
    <glyph glyph-name="L" unicode="L" horiz-adv-x="549" 
d="M86 0v705h93v-625h351v-80h-444z" />
    <glyph glyph-name="M" unicode="M" horiz-adv-x="861" 
d="M86 0v705h82l278 -626h-30l278 626h81v-705h-85v581h31l-261 -581h-59l-261 581h31v-581h-85z" />
    <glyph glyph-name="N" unicode="N" horiz-adv-x="748" 
d="M86 0v705h72l442 -584h-24v584h87v-705h-71l-442 584h23v-584h-87z" />
    <glyph glyph-name="O" unicode="O" horiz-adv-x="776" 
d="M60 353q0 111 39 192t112.5 125t175.5 44q101 0 174.5 -44t113.5 -125t40 -191q0 -111 -40 -192.5t-113.5 -126t-174.5 -44.5q-102 0 -175 44.5t-112.5 126t-39.5 191.5zM158 353q0 -132 58 -206t171 -74q109 0 169.5 73.5t60.5 206.5t-60 206t-170 73q-113 0 -171 -73
t-58 -206z" />
    <glyph glyph-name="P" unicode="P" horiz-adv-x="655" 
d="M86 0v705h292q113 0 173 -54t60 -149t-60 -149.5t-173 -54.5h-199v-298h-93zM179 374h190q74 0 112 33.5t38 94.5t-38 94t-112 33h-190v-255z" />
    <glyph glyph-name="Q" unicode="Q" horiz-adv-x="776" 
d="M577 -192q-29 19 -60.5 49t-59 67t-47.5 75l79 30q26 -52 67.5 -94.5t84.5 -72.5zM60 353q0 111 39 192t112.5 125t175.5 44q101 0 174.5 -44t113.5 -125t40 -191q0 -111 -40 -192.5t-113.5 -126t-174.5 -44.5q-102 0 -175 44.5t-112.5 126t-39.5 191.5zM158 353
q0 -132 58 -206t171 -74q109 0 169.5 73.5t60.5 206.5t-60 206t-170 73q-113 0 -171 -73t-58 -206z" />
    <glyph glyph-name="R" unicode="R" horiz-adv-x="695" 
d="M86 0v705h292q113 0 174.5 -53t61.5 -148q0 -63 -28 -107t-78.5 -67t-117.5 -23l17 14h24q41 0 73 -20.5t53 -66.5l100 -234h-103l-97 232q-17 43 -49.5 56t-81.5 13h-147v-301h-93zM179 373h185q77 0 117.5 33t40.5 96q0 62 -40.5 94.5t-117.5 32.5h-185v-256z" />
    <glyph glyph-name="S" unicode="S" horiz-adv-x="628" 
d="M319 -9q-85 0 -153 22t-118 62l32 74q35 -26 71 -43.5t77.5 -26t90.5 -8.5q87 0 128.5 31.5t41.5 83.5q0 45 -29 69t-101 38l-107 22q-97 20 -144.5 65.5t-47.5 123.5q0 63 33.5 110.5t93 73.5t139.5 26q74 0 137 -22t106 -65l-32 -71q-45 41 -96.5 59.5t-116.5 18.5
q-79 0 -125 -34t-46 -92q0 -46 29 -72.5t96 -40.5l107 -21q102 -20 149.5 -63t47.5 -119q0 -60 -32 -105.5t-91 -70.5t-140 -25z" />
    <glyph glyph-name="T" unicode="T" horiz-adv-x="607" 
d="M255 0v626h-244v79h583v-79h-245v-626h-94z" />
    <glyph glyph-name="U" unicode="U" horiz-adv-x="733" 
d="M367 -9q-145 0 -215.5 73.5t-70.5 216.5v424h94v-421q0 -105 46 -158t146 -53q96 0 144.5 53t48.5 158v421h92v-424q0 -143 -72 -216.5t-213 -73.5z" />
    <glyph glyph-name="V" unicode="V" horiz-adv-x="703" 
d="M309 0l-309 705h101l269 -628h-34l270 628h97l-311 -705h-83z" />
    <glyph glyph-name="W" unicode="W" horiz-adv-x="1114" 
d="M279 0l-247 705h98l209 -622h-36l222 622h73l208 -622h-32l216 622h92l-249 -705h-81l-203 595h21l-211 -595h-80z" />
    <glyph glyph-name="X" unicode="X" horiz-adv-x="657" 
d="M5 0l284 378v-36l-272 363h110l217 -296h-29l214 296h111l-272 -363v36l284 -378h-111l-230 314h35l-231 -314h-110z" />
    <glyph glyph-name="Y" unicode="Y" horiz-adv-x="612" 
d="M259 0v330l20 -61l-294 436h108l226 -344h-23l226 344h105l-294 -436l19 61v-330h-93z" />
    <glyph glyph-name="Z" unicode="Z" horiz-adv-x="599" 
d="M44 0v69l419 590v-33h-419v79h508v-68l-420 -591v33h432v-79h-520z" />
    <glyph glyph-name="bracketleft" unicode="[" horiz-adv-x="325" 
d="M105 -180v885h211v-71h-121v-743h121v-71h-211z" />
    <glyph glyph-name="backslash" unicode="\" horiz-adv-x="293" 
d="M238 -56l-261 805h77l262 -805h-78z" />
    <glyph glyph-name="bracketright" unicode="]" horiz-adv-x="325" 
d="M10 -180v71h120v743h-120v71h210v-885h-210z" />
    <glyph glyph-name="asciicircum" unicode="^" horiz-adv-x="600" 
d="M45 141l219 487h71l220 -487h-75l-203 453h45l-203 -453h-74z" />
    <glyph glyph-name="underscore" unicode="_" horiz-adv-x="505" 
d="M9 -58v58h487v-58h-487z" />
    <glyph glyph-name="grave" unicode="`" horiz-adv-x="500" 
d="M218 552l-134 202h95l103 -202h-64z" />
    <glyph glyph-name="a" unicode="a" horiz-adv-x="605" 
d="M268 -9q-66 0 -116 31t-78 90t-28 140t28 139.5t78 89.5t116 31q67 0 116.5 -33.5t65.5 -91.5h-12l11 116h88q-3 -30 -5.5 -60t-2.5 -59v-384h-91v115h11q-16 -57 -65.5 -90.5t-115.5 -33.5zM289 63q68 0 109 48t41 141t-41 140t-109 47t-109.5 -47t-41.5 -140t41 -141
t110 -48z" />
    <glyph glyph-name="b" unicode="b" horiz-adv-x="605" 
d="M337 -9q-67 0 -116 33.5t-65 92.5h11v-117h-91v736h91v-348h-11q17 58 65.5 91t115.5 33t117 -31.5t77.5 -89.5t27.5 -140q0 -81 -27.5 -139.5t-78 -89.5t-116.5 -31zM316 63q68 0 109.5 47.5t41.5 140.5t-41.5 140.5t-109.5 47.5q-69 0 -109.5 -47t-40.5 -140t40.5 -141
t109.5 -48z" />
    <glyph glyph-name="c" unicode="c" horiz-adv-x="497" 
d="M292 -9q-75 0 -130 31.5t-85.5 91t-30.5 141.5q0 81 31 138.5t86 88t129 30.5q49 0 95 -16.5t75 -47.5l-31 -64q-29 28 -64 41.5t-69 13.5q-74 0 -116 -47.5t-42 -137.5q0 -91 42 -140t116 -49q33 0 68 13t65 41l31 -63q-30 -32 -76.5 -48.5t-93.5 -16.5z" />
    <glyph glyph-name="d" unicode="d" horiz-adv-x="605" 
d="M268 -9q-66 0 -116 31t-78 90t-28 140t28 139.5t78 89.5t116 31t115.5 -33t66.5 -91h-12v348h91v-736h-90v117h11q-16 -59 -65.5 -92.5t-116.5 -33.5zM289 63q68 0 109.5 48t41.5 141t-41.5 140t-109.5 47t-109.5 -47t-41.5 -140t41.5 -141t109.5 -48z" />
    <glyph glyph-name="e" unicode="e" horiz-adv-x="545" 
d="M305 -9q-120 0 -189.5 69t-69.5 190q0 80 30.5 138.5t84.5 91t126 32.5q69 0 117 -29.5t73 -83.5t25 -128v-30h-385v54h323l-17 -13q0 78 -34.5 121t-101.5 43q-73 0 -113 -50.5t-40 -137.5v-9q0 -92 45.5 -139t126.5 -47q45 0 84 13t75 43l30 -63q-34 -31 -84.5 -48
t-105.5 -17z" />
    <glyph glyph-name="f" unicode="f" horiz-adv-x="345" 
d="M104 0v433h-98v70h123l-25 -23v81q0 88 44 133.5t128 45.5q20 0 42.5 -3t37.5 -10v-74q-12 5 -30 8t-35 3q-30 0 -52 -12t-33 -35.5t-11 -61.5v-71l-14 19h153v-70h-139v-433h-91z" />
    <glyph glyph-name="g" unicode="g" horiz-adv-x="608" 
d="M300 -224q-66 0 -121 16t-99 49l24 67q31 -21 61 -34t62.5 -19t67.5 -6q74 0 111 38t37 108v141h10q-16 -57 -65.5 -90.5t-116.5 -33.5q-68 0 -118.5 30.5t-78.5 87t-28 132.5q0 77 28 133t78.5 86.5t118.5 30.5q67 0 116 -33t65 -91l-9 9l9 106h88q-3 -30 -5.5 -60
t-2.5 -59v-378q0 -112 -58.5 -171t-173.5 -59zM291 84q69 0 110 47t41 131q0 85 -41 131t-110 46q-70 0 -111.5 -46t-41.5 -131q0 -84 41.5 -131t111.5 -47z" />
    <glyph glyph-name="h" unicode="h" horiz-adv-x="589" 
d="M76 0v736h91v-342h-13q22 58 71 88t113 30q91 0 134.5 -49t43.5 -148v-315h-91v310q0 67 -26 97.5t-85 30.5q-66 0 -106.5 -41t-40.5 -109v-288h-91z" />
    <glyph glyph-name="i" unicode="i" horiz-adv-x="243" 
d="M76 0v503h91v-503h-91zM68 613v98h108v-98h-108z" />
    <glyph glyph-name="j" unicode="j" horiz-adv-x="243" 
d="M14 -220q-15 0 -36.5 3t-35.5 9v75q12 -4 28 -7.5t29 -3.5q41 0 61.5 25.5t20.5 83.5v538h91v-546q0 -87 -39 -132t-119 -45zM72 613v98h108v-98h-108z" />
    <glyph glyph-name="k" unicode="k" horiz-adv-x="523" 
d="M76 0v736h91v-455h2l227 222h113l-270 -264l1 43l293 -282h-116l-248 234h-2v-234h-91z" />
    <glyph glyph-name="l" unicode="l" horiz-adv-x="243" 
d="M76 0v736h91v-736h-91z" />
    <glyph glyph-name="m" unicode="m" horiz-adv-x="883" 
d="M76 0v384q0 29 -2 59t-6 60h88l10 -108h-12q20 56 64 86.5t105 30.5q62 0 102 -29.5t54 -92.5h-15q19 56 67 89t112 33q83 0 125 -48.5t42 -150.5v-313h-91v308q0 69 -24 99.5t-76 30.5q-61 0 -96 -41.5t-35 -112.5v-284h-91v308q0 69 -23.5 99.5t-76.5 30.5
q-61 0 -95.5 -41.5t-34.5 -112.5v-284h-91z" />
    <glyph glyph-name="n" unicode="n" horiz-adv-x="589" 
d="M76 0v384q0 29 -2 59t-6 60h88l10 -108h-12q23 57 71 87t112 30q89 0 134 -48.5t45 -150.5v-313h-91v308q0 69 -27 99.5t-84 30.5q-68 0 -107.5 -41t-39.5 -111v-286h-91z" />
    <glyph glyph-name="o" unicode="o" horiz-adv-x="576" 
d="M288 -9q-74 0 -128 31.5t-84 90t-30 139.5q0 80 30 138.5t84 90t128 31.5t128.5 -31.5t84 -90t29.5 -138.5q0 -81 -29.5 -139.5t-84 -90t-128.5 -31.5zM288 63q68 0 109 48t41 141t-41 140t-109 47q-69 0 -109.5 -47t-40.5 -140t40.5 -141t109.5 -48z" />
    <glyph glyph-name="p" unicode="p" horiz-adv-x="605" 
d="M76 -216v600q0 29 -2 59t-6 60h88l11 -116h-11q15 58 64 91.5t117 33.5q67 0 117 -31t77.5 -89.5t27.5 -139.5t-27.5 -140t-77.5 -90t-117 -31t-115.5 33.5t-65.5 90.5h11v-331h-91zM316 63q69 0 110 48t41 141t-41 140t-110 47t-109.5 -47t-40.5 -140t40.5 -141
t109.5 -48z" />
    <glyph glyph-name="q" unicode="q" horiz-adv-x="605" 
d="M438 -216v331h11q-16 -57 -65.5 -90.5t-115.5 -33.5t-116 31t-78 90t-28 140t28 139.5t78 89.5t116 31q67 0 116.5 -33.5t65.5 -91.5h-12l11 116h88q-3 -30 -5.5 -60t-2.5 -59v-600h-91zM289 63q68 0 109 48t41 141t-41 140t-109 47t-109.5 -47t-41.5 -140t41 -141
t110 -48z" />
    <glyph glyph-name="r" unicode="r" horiz-adv-x="370" 
d="M75 0v380q0 30 -1.5 61.5t-5.5 61.5h88l11 -126l-15 -1q10 46 34.5 76.5t59 45t71.5 14.5q16 0 27 -1t22 -5l-2 -81q-15 6 -27.5 7.5t-30.5 1.5q-44 0 -75.5 -20t-48 -53t-16.5 -71v-290h-91z" />
    <glyph glyph-name="s" unicode="s" horiz-adv-x="497" 
d="M246 -9q-61 0 -113.5 16t-86.5 46l29 63q37 -28 81.5 -42.5t91.5 -14.5q57 0 86.5 21t29.5 56q0 28 -19 45t-60 25l-95 19q-64 15 -96.5 48.5t-32.5 86.5q0 44 24 78.5t68.5 54t104.5 19.5q55 0 102.5 -16t78.5 -47l-30 -61q-31 27 -69.5 41.5t-78.5 14.5
q-58 0 -86 -22.5t-28 -58.5q0 -27 17 -44.5t55 -26.5l95 -19q67 -14 101 -46t34 -85q0 -47 -25.5 -81t-71 -52t-106.5 -18z" />
    <glyph glyph-name="t" unicode="t" horiz-adv-x="356" 
d="M264 -9q-79 0 -119.5 43.5t-40.5 131.5v267h-98v70h98v135l91 25v-160h142v-70h-142v-259q0 -58 20.5 -82.5t59.5 -24.5q20 0 34.5 3.5t26.5 8.5v-75q-15 -6 -34.5 -9.5t-37.5 -3.5z" />
    <glyph glyph-name="u" unicode="u" horiz-adv-x="582" 
d="M255 -9q-91 0 -136.5 49t-45.5 151v312h91v-310q0 -66 27 -97t84 -31q62 0 100.5 41.5t38.5 110.5v286h91v-503h-88v111h13q-21 -57 -67 -88.5t-108 -31.5z" />
    <glyph glyph-name="v" unicode="v" horiz-adv-x="534" 
d="M224 0l-215 503h98l175 -432h-28l178 432h93l-216 -503h-85z" />
    <glyph glyph-name="w" unicode="w" horiz-adv-x="872" 
d="M212 0l-188 503h95l152 -431h-26l156 431h74l155 -431h-25l153 431h91l-189 -503h-86l-160 438h44l-159 -438h-87z" />
    <glyph glyph-name="x" unicode="x" horiz-adv-x="538" 
d="M6 0l228 282v-45l-215 266h109l157 -201h-33l157 201h108l-212 -264v41l225 -280h-110l-168 215h33l-170 -215h-109z" />
    <glyph glyph-name="y" unicode="y" horiz-adv-x="534" 
d="M59 -227l-21 74q47 11 78 25.5t52 37.5t37 58l25 60l-2 -38l-219 513h98l175 -431h-26l175 431h94l-231 -542q-21 -49 -45.5 -82t-53 -54t-62.5 -33t-74 -19z" />
    <glyph glyph-name="z" unicode="z" horiz-adv-x="520" 
d="M49 0v61l334 395v-23h-334v70h418v-61l-336 -397l-1 25h348v-70h-429z" />
    <glyph glyph-name="braceleft" unicode="{" horiz-adv-x="363" 
d="M253 -180q-51 0 -78 27.5t-27 79.5v219q0 41 -16.5 59.5t-55.5 20.5l-31 2v69l31 2q39 3 55.5 21t16.5 59v219q0 52 27 79.5t78 27.5h102v-71h-73q-23 0 -33.5 -11t-10.5 -34v-220q0 -30 -13 -55t-34.5 -39.5t-47.5 -14.5v4q26 0 47.5 -14t34.5 -38.5t13 -55.5v-220
q0 -22 10.5 -33.5t33.5 -11.5h73v-71h-102z" />
    <glyph glyph-name="bar" unicode="|" horiz-adv-x="268" 
d="M89 -186v897h91v-897h-91z" />
    <glyph glyph-name="braceright" unicode="}" horiz-adv-x="363" 
d="M9 -180v71h72q23 0 34 11.5t11 33.5v220q0 31 12.5 55.5t34 39t48.5 14.5v-4q-27 0 -48.5 14t-34 39t-12.5 55v220q0 23 -11 34t-34 11h-72v71h101q52 0 79 -27.5t27 -79.5v-219q0 -41 16 -59.5t55 -20.5l32 -2v-69l-32 -2q-39 -2 -55 -20t-16 -60v-219q0 -52 -27 -79.5
t-79 -27.5h-101z" />
    <glyph glyph-name="asciitilde" unicode="~" horiz-adv-x="600" 
d="M416 215q-26 0 -54.5 9t-71.5 32q-40 22 -62 30t-38 8q-55 0 -83 -65l-54 30q20 49 54 74.5t77 25.5q26 0 54.5 -8.5t69.5 -30.5q39 -20 61.5 -29.5t40.5 -9.5q55 0 83 65l54 -31q-20 -49 -53.5 -74.5t-77.5 -25.5z" />
    <glyph glyph-name="uni00A0" unicode="&#xa0;" horiz-adv-x="264" 
 />
    <glyph glyph-name="exclamdown" unicode="&#xa1;" horiz-adv-x="233" 
d="M60 -180l28 494h56l29 -494h-113zM61 393v110h111v-110h-111z" />
    <glyph glyph-name="cent" unicode="&#xa2;" horiz-adv-x="600" 
d="M278 -115v133l19 -23q-63 7 -109.5 40t-72.5 87t-26 122q0 66 26 118.5t72.5 86.5t108.5 42l-18 -28v144h76v-140l-19 26q48 0 95.5 -16.5t75.5 -46.5l-29 -64q-29 26 -65 40t-74 14q-72 0 -114 -48.5t-42 -126.5q0 -80 41.5 -128.5t113.5 -48.5q38 0 74.5 14t65.5 40
l29 -64q-30 -29 -76.5 -46.5t-96.5 -19.5l21 22v-129h-76z" />
    <glyph glyph-name="sterling" unicode="&#xa3;" horiz-adv-x="600" 
d="M45 0v64q46 19 72.5 45t26.5 67v148h-99v60h99v123q0 66 25 112t75 70.5t125 24.5q60 0 112 -20t91 -57l-36 -70q-34 36 -75 53t-92 17q-66 0 -99 -32t-33 -95v-126h181v-60h-180v-122q0 -53 -22 -84t-60 -45v5h408v-78h-519z" />
    <glyph glyph-name="currency" unicode="&#xa4;" horiz-adv-x="600" 
d="M79 -27l-45 46l74 75q-23 32 -36 70.5t-13 80.5q0 43 12.5 81.5t36.5 69.5l-74 76l45 45l74 -76q30 25 68 38.5t79 13.5t78 -13t68 -37l72 75l46 -47l-73 -74q24 -32 36.5 -70.5t12.5 -81.5t-13 -81.5t-37 -70.5l74 -74l-45 -45l-73 74q-30 -24 -67 -37.5t-79 -13.5
q-41 0 -79 14t-69 37zM299 74q45 0 81.5 23t58 62t21.5 86q0 48 -21.5 86.5t-58 62t-81.5 22.5q-44 0 -80.5 -23t-58 -61.5t-21.5 -86.5q0 -47 21.5 -86t58 -62t80.5 -23z" />
    <glyph glyph-name="yen" unicode="&#xa5;" horiz-adv-x="600" 
d="M254 0v175h-183v59h183v95h-183v58h157v-11l-235 329h103l216 -308h-23l216 308h102l-233 -329v11h155v-58h-183v-95h183v-59h-183v-175h-92z" />
    <glyph glyph-name="brokenbar" unicode="&#xa6;" horiz-adv-x="268" 
d="M89 372v339h91v-339h-91zM89 -186v340h91v-340h-91z" />
    <glyph glyph-name="section" unicode="&#xa7;" horiz-adv-x="549" 
d="M251 -189q-66 0 -120.5 17t-89.5 46l31 64q21 -18 50.5 -31.5t63.5 -20.5t67 -7q61 0 97 27.5t36 79.5q0 35 -20 61t-70 49l-117 53q-54 26 -86 51.5t-45.5 55t-13.5 66.5q0 43 22 81.5t59 64.5l-8 -26q-14 15 -22.5 37.5t-8.5 53.5q0 57 28.5 97t78.5 62t114 22
q62 0 113.5 -16t84.5 -46l-29 -62q-32 26 -78.5 40.5t-92.5 14.5q-58 0 -94 -27.5t-36 -78.5q0 -36 20.5 -61.5t70.5 -49.5l116 -52q55 -25 86.5 -51t45 -55.5t13.5 -66.5q0 -43 -21.5 -81.5t-58.5 -64.5l8 26q13 -15 21.5 -38t8.5 -54q0 -56 -28 -96.5t-78.5 -62
t-117.5 -21.5zM118 336q0 -35 22.5 -62.5t82.5 -55.5l100 -45q36 -17 60 -34.5t39 -34.5l-26 -2q39 36 39 86q0 36 -23 63.5t-83 55.5l-100 45q-36 17 -60 34.5t-39 34.5l26 1q-19 -17 -28.5 -39t-9.5 -47z" />
    <glyph glyph-name="dieresis" unicode="&#xa8;" horiz-adv-x="500" 
d="M292 606v93h93v-93h-93zM115 606v93h93v-93h-93z" />
    <glyph glyph-name="copyright" unicode="&#xa9;" horiz-adv-x="815" 
d="M408 -9q-76 0 -142.5 27.5t-115.5 76.5t-76.5 115.5t-27.5 142.5q0 77 27.5 143t76.5 114.5t115 76t143 27.5t143 -27.5t114.5 -76t76 -114.5t27.5 -143q0 -76 -27.5 -142.5t-76 -115.5t-114.5 -76.5t-143 -27.5zM422 137q-97 0 -153.5 59.5t-56.5 158.5t56.5 156
t153.5 57q40 0 79 -13.5t64 -38.5l-26 -57q-24 23 -54 33.5t-58 10.5q-63 0 -99 -39t-36 -110q0 -70 36 -111t99 -41q28 0 58 11t54 34l26 -58q-25 -23 -64.5 -37.5t-78.5 -14.5zM408 37q67 0 124 24t99.5 67t66 100.5t23.5 124.5t-23.5 124.5t-66 100t-99.5 66.5t-124 24
t-124.5 -24t-100 -66.5t-66 -100t-23.5 -124.5t23.5 -124.5t66 -100.5t100 -67t124.5 -24z" />
    <glyph glyph-name="ordfeminine" unicode="&#xaa;" horiz-adv-x="330" 
d="M133 410q-48 0 -79 26t-31 66q0 45 41.5 65t115.5 20h58v-37h-56q-49 0 -72.5 -11.5t-23.5 -35.5q0 -20 14.5 -34t47.5 -14q36 0 59 24t23 66v57q0 33 -17.5 48t-53.5 15q-26 0 -54 -6.5t-52 -21.5l-16 46q24 16 58.5 23.5t66.5 7.5q129 0 129 -114v-184h-59v54h-2
q-16 -31 -39 -45.5t-58 -14.5z" />
    <glyph glyph-name="guillemotleft" unicode="&#xab;" horiz-adv-x="457" 
d="M155 87l-129 181l129 181h78l-119 -181l119 -181h-78zM343 87l-129 181l129 181h78l-119 -181l119 -181h-78z" />
    <glyph glyph-name="logicalnot" unicode="&#xac;" horiz-adv-x="600" 
d="M476 147v208h-423v68h494v-276h-71z" />
    <glyph glyph-name="uni00AD" unicode="&#xad;" horiz-adv-x="431" 
d="M71 237v74h289v-74h-289z" />
    <glyph glyph-name="registered" unicode="&#xae;" horiz-adv-x="815" 
d="M408 -9q-76 0 -142.5 27.5t-115.5 76.5t-76.5 115.5t-27.5 142.5q0 77 27.5 143t76.5 114.5t115 76t143 27.5t143 -27.5t114.5 -76t76 -114.5t27.5 -143q0 -76 -27.5 -142.5t-76 -115.5t-114.5 -76.5t-143 -27.5zM408 37q67 0 124 24t99.5 67t66 100.5t23.5 124.5
t-23.5 124.5t-66 100t-99.5 66.5t-124 24t-124.5 -24t-100 -66.5t-66 -100t-23.5 -124.5t23.5 -124.5t66 -100.5t100 -67t124.5 -24zM261 142v422h175q68 0 104.5 -33t36.5 -90t-36 -87.5t-103 -30.5l14 10q31 0 52 -14t33 -52l45 -125h-75l-46 129q-9 24 -26.5 32.5
t-42.5 8.5h-71l14 10v-180h-74zM334 369h92q41 0 61 17t20 52t-20 52t-61 17h-92v-138z" />
    <glyph glyph-name="macron" unicode="&#xaf;" horiz-adv-x="500" 
d="M99 623v59h302v-59h-302z" />
    <glyph glyph-name="degree" unicode="&#xb0;" horiz-adv-x="373" 
d="M187 415q-43 0 -77 20t-54 54t-20 76t20 75.5t54 53.5t77 20q42 0 76 -19.5t53.5 -53t19.5 -76.5q0 -42 -19.5 -76.5t-53.5 -54t-76 -19.5zM187 474q39 0 63 25.5t24 65.5q0 39 -24 65t-63 26t-63.5 -26t-24.5 -65q0 -40 24.5 -65.5t63.5 -25.5z" />
    <glyph glyph-name="plusminus" unicode="&#xb1;" horiz-adv-x="600" 
d="M265 130v166h-212v68h212v166h70v-166h212v-68h-212v-166h-70zM53 0v68h494v-68h-494z" />
    <glyph glyph-name="uni00B2" unicode="&#xb2;" horiz-adv-x="380" 
d="M51 282v55l140 143q28 29 41 53t13 49q0 63 -72 63q-28 0 -58.5 -11.5t-54.5 -31.5l-22 57q27 23 65.5 36.5t83.5 13.5q65 0 102 -31.5t37 -86.5q0 -34 -17 -67t-53 -69l-119 -118v10h207v-65h-293z" />
    <glyph glyph-name="uni00B3" unicode="&#xb3;" horiz-adv-x="380" 
d="M187 278q-48 0 -88 12.5t-68 35.5l21 55q25 -20 58.5 -30.5t70.5 -10.5t60.5 16t23.5 49q0 32 -23.5 46.5t-62.5 14.5h-80v59h69q40 0 62 16.5t22 47.5q0 28 -20 43.5t-56 15.5q-31 0 -63.5 -12t-55.5 -32l-22 56q27 23 66.5 36t85.5 13q65 0 102.5 -30t37.5 -80
q0 -41 -25 -68t-62 -36v9q45 -6 72 -33t27 -73q0 -57 -43 -88.5t-109 -31.5z" />
    <glyph glyph-name="acute" unicode="&#xb4;" horiz-adv-x="500" 
d="M218 552l103 202h95l-134 -202h-64z" />
    <glyph glyph-name="uni00B5" unicode="&#xb5;" horiz-adv-x="573" 
d="M71 -205v708h91v-314q0 -63 26.5 -92.5t81.5 -29.5q62 0 100.5 40t38.5 107v289h91v-503h-89v110h8q-16 -57 -56.5 -88t-93.5 -31q-42 0 -74.5 15.5t-50.5 56.5h10l8 -268h-91z" />
    <glyph glyph-name="paragraph" unicode="&#xb6;" horiz-adv-x="607" 
d="M250 -180v484q-63 0 -109.5 25.5t-72 71t-25.5 104.5t25.5 104t73 70.5t110.5 25.5h269v-885h-71v817h-130v-817h-70z" />
    <glyph glyph-name="periodcentered" unicode="&#xb7;" horiz-adv-x="236" 
d="M62 219v111h112v-111h-112z" />
    <glyph glyph-name="cedilla" unicode="&#xb8;" horiz-adv-x="500" 
d="M253 -193q-27 0 -51.5 5.5t-41.5 14.5l14 47q19 -9 35.5 -13t38.5 -4q27 0 42.5 9t15.5 27q0 26 -38 26q-11 0 -21 -1.5t-25 -5.5l-17 16l14 92h55l-13 -76l-26 8q11 3 23.5 5t22.5 2q37 0 61 -18t24 -51q0 -37 -31.5 -60t-81.5 -23z" />
    <glyph glyph-name="uni00B9" unicode="&#xb9;" horiz-adv-x="380" 
d="M77 282v65h98v292h33l-122 -71v74l107 63h57v-358h86v-65h-259z" />
    <glyph glyph-name="ordmasculine" unicode="&#xba;" horiz-adv-x="345" 
d="M172 411q-43 0 -76.5 18.5t-53 53t-19.5 80.5t19.5 80t53 52.5t77.5 18.5q43 0 76.5 -18.5t53 -52.5t19.5 -80t-19.5 -80.5t-53 -53t-77.5 -18.5zM172 461q40 0 63 26t23 76t-23 76t-63 26q-39 0 -62 -26t-23 -76t23.5 -76t61.5 -26z" />
    <glyph glyph-name="guillemotright" unicode="&#xbb;" horiz-adv-x="457" 
d="M114 87h-78l119 181l-119 181h79l128 -181zM302 87h-78l119 181l-119 181h79l128 -181z" />
    <glyph glyph-name="onequarter" unicode="&#xbc;" horiz-adv-x="900" 
d="M77 282v65h98v292h33l-122 -71v74l107 63h57v-358h86v-65h-259zM302 -9h-81l428 723h80zM750 0v83h-199v54l206 286h63v-280h63v-60h-63v-83h-70zM752 143v199h10l-155 -214v15h145z" />
    <glyph glyph-name="onehalf" unicode="&#xbd;" horiz-adv-x="945" 
d="M77 282v65h98v292h33l-122 -71v74l107 63h57v-358h86v-65h-259zM302 -9h-81l428 723h80zM616 0v55l140 143q28 29 41 53t13 49q0 63 -72 63q-28 0 -58.5 -11.5t-54.5 -31.5l-22 57q27 23 65.5 36.5t83.5 13.5q65 0 102 -31.5t37 -86.5q0 -34 -17 -67t-53 -69l-119 -118
v10h207v-65h-293z" />
    <glyph glyph-name="threequarters" unicode="&#xbe;" horiz-adv-x="900" 
d="M187 278q-48 0 -88 12.5t-68 35.5l21 55q25 -20 58.5 -30.5t70.5 -10.5t60.5 16t23.5 49q0 32 -23.5 46.5t-62.5 14.5h-80v59h69q40 0 62 16.5t22 47.5q0 28 -20 43.5t-56 15.5q-31 0 -63.5 -12t-55.5 -32l-22 56q27 23 66.5 36t85.5 13q65 0 102.5 -30t37.5 -80
q0 -41 -25 -68t-62 -36v9q45 -6 72 -33t27 -73q0 -57 -43 -88.5t-109 -31.5zM302 -9h-81l428 723h80zM750 0v83h-199v54l206 286h63v-280h63v-60h-63v-83h-70zM752 143v199h10l-155 -214v15h145z" />
    <glyph glyph-name="questiondown" unicode="&#xbf;" horiz-adv-x="451" 
d="M226 -208q-57 0 -101 19t-69 54.5t-25 85.5q0 33 9 61t30 57t56 64q50 49 69.5 85t23.5 74l3 21h57v-28q0 -49 -19 -92.5t-67 -97.5q-38 -41 -53.5 -72t-15.5 -64q0 -42 30 -65t82 -23q39 0 75.5 11t69.5 30v-83q-33 -17 -73.5 -27t-81.5 -10zM307 503v-111h-111v111h111
z" />
    <glyph glyph-name="Agrave" unicode="&#xc0;" horiz-adv-x="738" 
d="M14 0l312 705h81l317 -705h-96l-87 200l40 -24h-429l44 24l-87 -200h-95zM365 601l-156 -370l-24 21h363l-19 -21l-160 370h-4zM333 765l-150 172h100l118 -172h-68z" />
    <glyph glyph-name="Aacute" unicode="&#xc1;" horiz-adv-x="738" 
d="M14 0l312 705h81l317 -705h-96l-87 200l40 -24h-429l44 24l-87 -200h-95zM365 601l-156 -370l-24 21h363l-19 -21l-160 370h-4zM333 765l118 172h100l-150 -172h-68z" />
    <glyph glyph-name="Acircumflex" unicode="&#xc2;" horiz-adv-x="738" 
d="M14 0l312 705h81l317 -705h-96l-87 200l40 -24h-429l44 24l-87 -200h-95zM365 601l-156 -370l-24 21h363l-19 -21l-160 370h-4zM203 765l122 172h84l122 -172h-66l-98 115l-98 -115h-66z" />
    <glyph glyph-name="Atilde" unicode="&#xc3;" horiz-adv-x="738" 
d="M14 0l312 705h81l317 -705h-96l-87 200l40 -24h-429l44 24l-87 -200h-95zM365 601l-156 -370l-24 21h363l-19 -21l-160 370h-4zM205 780l-50 3q6 66 39.5 101.5t83.5 35.5q23 0 46.5 -9.5t56.5 -30.5q30 -18 47 -25.5t31 -7.5q29 0 46.5 19.5t23.5 56.5l50 -3
q-6 -65 -39 -101t-83 -36q-23 0 -47.5 10t-59.5 32q-28 19 -44 25.5t-31 6.5q-29 0 -46.5 -19.5t-23.5 -57.5z" />
    <glyph glyph-name="Adieresis" unicode="&#xc4;" horiz-adv-x="738" 
d="M14 0l312 705h81l317 -705h-96l-87 200l40 -24h-429l44 24l-87 -200h-95zM365 601l-156 -370l-24 21h363l-19 -21l-160 370h-4zM409 802v93h93v-93h-93zM232 802v93h93v-93h-93z" />
    <glyph glyph-name="Aring" unicode="&#xc5;" horiz-adv-x="738" 
d="M14 0l312 705h81l317 -705h-96l-87 200l40 -24h-429l44 24l-87 -200h-95zM365 601l-156 -370l-24 21h363l-19 -21l-160 370h-4zM367 757q-33 0 -60.5 16t-43.5 43t-16 59q0 33 16 59.5t43 42t61 15.5t61 -15.5t43 -42t16 -59.5t-16 -59.5t-42.5 -42.5t-61.5 -16zM367 804
q31 0 50.5 20.5t19.5 50.5t-19 50t-51 20q-30 0 -50 -20.5t-20 -49.5q0 -30 19.5 -50.5t50.5 -20.5z" />
    <glyph glyph-name="AE" unicode="&#xc6;" horiz-adv-x="1008" 
d="M-6 0l433 705h533v-76h-394l22 23l25 -281l-18 25h344v-76h-338l15 10l25 -278l-12 24h331v-76h-401l-17 196l26 -20h-381l31 25l-122 -201h-102zM473 628l-238 -398l-10 22h323l-8 -24l-36 400h-31z" />
    <glyph glyph-name="Ccedilla" unicode="&#xc7;" horiz-adv-x="685" 
d="M397 -9q-106 0 -181.5 44t-115.5 125.5t-40 192.5t40 192t115.5 125t181.5 44q76 0 135 -22.5t103 -65.5l-34 -75q-48 42 -94.5 60.5t-107.5 18.5q-117 0 -179 -72t-62 -205t62 -205.5t179 -72.5q61 0 107.5 18.5t94.5 60.5l34 -74q-44 -43 -103.5 -66t-134.5 -23z
M395 -193q-27 0 -51.5 5.5t-41.5 14.5l14 47q19 -9 35.5 -13t38.5 -4q27 0 42.5 9t15.5 27q0 26 -38 26q-11 0 -21 -1.5t-25 -5.5l-17 16l14 92h55l-13 -76l-26 8q11 3 23.5 5t22.5 2q37 0 61 -18t24 -51q0 -37 -31.5 -60t-81.5 -23z" />
    <glyph glyph-name="Egrave" unicode="&#xc8;" horiz-adv-x="590" 
d="M86 0v705h456v-76h-366v-233h343v-76h-343v-244h366v-76h-456zM295 765l-150 172h100l118 -172h-68z" />
    <glyph glyph-name="Eacute" unicode="&#xc9;" horiz-adv-x="590" 
d="M86 0v705h456v-76h-366v-233h343v-76h-343v-244h366v-76h-456zM295 765l118 172h100l-150 -172h-68z" />
    <glyph glyph-name="Ecircumflex" unicode="&#xca;" horiz-adv-x="590" 
d="M86 0v705h456v-76h-366v-233h343v-76h-343v-244h366v-76h-456zM165 765l122 172h84l122 -172h-66l-98 115l-98 -115h-66z" />
    <glyph glyph-name="Edieresis" unicode="&#xcb;" horiz-adv-x="590" 
d="M86 0v705h456v-76h-366v-233h343v-76h-343v-244h366v-76h-456zM371 802v93h93v-93h-93zM194 802v93h93v-93h-93z" />
    <glyph glyph-name="Igrave" unicode="&#xcc;" horiz-adv-x="264" 
d="M86 0v705h93v-705h-93zM98 765l-150 172h100l118 -172h-68z" />
    <glyph glyph-name="Iacute" unicode="&#xcd;" horiz-adv-x="264" 
d="M86 0v705h93v-705h-93zM98 765l118 172h100l-150 -172h-68z" />
    <glyph glyph-name="Icircumflex" unicode="&#xce;" horiz-adv-x="264" 
d="M86 0v705h93v-705h-93zM-32 765l122 172h84l122 -172h-66l-98 115l-98 -115h-66z" />
    <glyph glyph-name="Idieresis" unicode="&#xcf;" horiz-adv-x="264" 
d="M86 0v705h93v-705h-93zM174 802v93h93v-93h-93zM-3 802v93h93v-93h-93z" />
    <glyph glyph-name="Eth" unicode="&#xd0;" horiz-adv-x="750" 
d="M86 0v705h239q118 0 199.5 -41t123.5 -119.5t42 -191.5t-42 -192t-123.5 -120t-199.5 -41h-239zM179 79h139q141 0 209 68t68 206t-68 205.5t-209 67.5h-139v-547zM0 322v71h376v-71h-376z" />
    <glyph glyph-name="Ntilde" unicode="&#xd1;" horiz-adv-x="748" 
d="M86 0v705h72l442 -584h-24v584h87v-705h-71l-442 584h23v-584h-87zM214 780l-50 3q6 66 39.5 101.5t83.5 35.5q23 0 46.5 -9.5t56.5 -30.5q30 -18 47 -25.5t31 -7.5q29 0 46.5 19.5t23.5 56.5l50 -3q-6 -65 -39 -101t-83 -36q-23 0 -47.5 10t-59.5 32q-28 19 -44 25.5
t-31 6.5q-29 0 -46.5 -19.5t-23.5 -57.5z" />
    <glyph glyph-name="Ograve" unicode="&#xd2;" horiz-adv-x="776" 
d="M60 353q0 111 39 192t112.5 125t175.5 44q101 0 174.5 -44t113.5 -125t40 -191q0 -111 -40 -192.5t-113.5 -126t-174.5 -44.5q-102 0 -175 44.5t-112.5 126t-39.5 191.5zM158 353q0 -132 58 -206t171 -74q109 0 169.5 73.5t60.5 206.5t-60 206t-170 73q-113 0 -171 -73
t-58 -206zM353 765l-150 172h100l118 -172h-68z" />
    <glyph glyph-name="Oacute" unicode="&#xd3;" horiz-adv-x="776" 
d="M60 353q0 111 39 192t112.5 125t175.5 44q101 0 174.5 -44t113.5 -125t40 -191q0 -111 -40 -192.5t-113.5 -126t-174.5 -44.5q-102 0 -175 44.5t-112.5 126t-39.5 191.5zM158 353q0 -132 58 -206t171 -74q109 0 169.5 73.5t60.5 206.5t-60 206t-170 73q-113 0 -171 -73
t-58 -206zM353 765l118 172h100l-150 -172h-68z" />
    <glyph glyph-name="Ocircumflex" unicode="&#xd4;" horiz-adv-x="776" 
d="M60 353q0 111 39 192t112.5 125t175.5 44q101 0 174.5 -44t113.5 -125t40 -191q0 -111 -40 -192.5t-113.5 -126t-174.5 -44.5q-102 0 -175 44.5t-112.5 126t-39.5 191.5zM158 353q0 -132 58 -206t171 -74q109 0 169.5 73.5t60.5 206.5t-60 206t-170 73q-113 0 -171 -73
t-58 -206zM223 765l122 172h84l122 -172h-66l-98 115l-98 -115h-66z" />
    <glyph glyph-name="Otilde" unicode="&#xd5;" horiz-adv-x="776" 
d="M60 353q0 111 39 192t112.5 125t175.5 44q101 0 174.5 -44t113.5 -125t40 -191q0 -111 -40 -192.5t-113.5 -126t-174.5 -44.5q-102 0 -175 44.5t-112.5 126t-39.5 191.5zM158 353q0 -132 58 -206t171 -74q109 0 169.5 73.5t60.5 206.5t-60 206t-170 73q-113 0 -171 -73
t-58 -206zM225 780l-50 3q6 66 39.5 101.5t83.5 35.5q23 0 46.5 -9.5t56.5 -30.5q30 -18 47 -25.5t31 -7.5q29 0 46.5 19.5t23.5 56.5l50 -3q-6 -65 -39 -101t-83 -36q-23 0 -47.5 10t-59.5 32q-28 19 -44 25.5t-31 6.5q-29 0 -46.5 -19.5t-23.5 -57.5z" />
    <glyph glyph-name="Odieresis" unicode="&#xd6;" horiz-adv-x="776" 
d="M60 353q0 111 39 192t112.5 125t175.5 44q101 0 174.5 -44t113.5 -125t40 -191q0 -111 -40 -192.5t-113.5 -126t-174.5 -44.5q-102 0 -175 44.5t-112.5 126t-39.5 191.5zM158 353q0 -132 58 -206t171 -74q109 0 169.5 73.5t60.5 206.5t-60 206t-170 73q-113 0 -171 -73
t-58 -206zM429 802v93h93v-93h-93zM252 802v93h93v-93h-93z" />
    <glyph glyph-name="multiply" unicode="&#xd7;" horiz-adv-x="600" 
d="M114 50l-48 48l186 187l-186 187l48 48l186 -187l187 187l48 -48l-187 -187l187 -187l-48 -48l-187 187z" />
    <glyph glyph-name="Oslash" unicode="&#xd8;" horiz-adv-x="776" 
d="M60 353q0 111 39 192t112.5 125t175.5 44q101 0 174.5 -44t113.5 -125t40 -191q0 -111 -40 -192.5t-113.5 -126t-174.5 -44.5q-102 0 -175 44.5t-112.5 126t-39.5 191.5zM158 353q0 -132 58 -206t171 -74q109 0 169.5 73.5t60.5 206.5t-60 206t-170 73q-113 0 -171 -73
t-58 -206zM254 47l-56 -97l-62 37l56 96l29 41l289 494l17 41l56 96l63 -37l-56 -96l-30 -41l-288 -494z" />
    <glyph glyph-name="Ugrave" unicode="&#xd9;" horiz-adv-x="733" 
d="M367 -9q-145 0 -215.5 73.5t-70.5 216.5v424h94v-421q0 -105 46 -158t146 -53q96 0 144.5 53t48.5 158v421h92v-424q0 -143 -72 -216.5t-213 -73.5zM333 765l-150 172h100l118 -172h-68z" />
    <glyph glyph-name="Uacute" unicode="&#xda;" horiz-adv-x="733" 
d="M367 -9q-145 0 -215.5 73.5t-70.5 216.5v424h94v-421q0 -105 46 -158t146 -53q96 0 144.5 53t48.5 158v421h92v-424q0 -143 -72 -216.5t-213 -73.5zM333 765l118 172h100l-150 -172h-68z" />
    <glyph glyph-name="Ucircumflex" unicode="&#xdb;" horiz-adv-x="733" 
d="M367 -9q-145 0 -215.5 73.5t-70.5 216.5v424h94v-421q0 -105 46 -158t146 -53q96 0 144.5 53t48.5 158v421h92v-424q0 -143 -72 -216.5t-213 -73.5zM203 765l122 172h84l122 -172h-66l-98 115l-98 -115h-66z" />
    <glyph glyph-name="Udieresis" unicode="&#xdc;" horiz-adv-x="733" 
d="M367 -9q-145 0 -215.5 73.5t-70.5 216.5v424h94v-421q0 -105 46 -158t146 -53q96 0 144.5 53t48.5 158v421h92v-424q0 -143 -72 -216.5t-213 -73.5zM409 802v93h93v-93h-93zM232 802v93h93v-93h-93z" />
    <glyph glyph-name="Yacute" unicode="&#xdd;" horiz-adv-x="612" 
d="M259 0v330l20 -61l-294 436h108l226 -344h-23l226 344h105l-294 -436l19 61v-330h-93zM272 765l118 172h100l-150 -172h-68z" />
    <glyph glyph-name="Thorn" unicode="&#xde;" horiz-adv-x="655" 
d="M86 0v705h93v-132h197q112 0 173.5 -54t61.5 -150q0 -94 -61.5 -149t-173.5 -55h-197v-165h-93zM179 241h191q73 0 111 33.5t38 94.5t-38 94.5t-111 33.5h-191v-256z" />
    <glyph glyph-name="germandbls" unicode="&#xdf;" horiz-adv-x="643" 
d="M76 0v489q0 124 61.5 188.5t184.5 64.5q64 0 109.5 -20.5t70.5 -58.5t25 -92q0 -65 -37.5 -117.5t-135.5 -90.5v17q91 -24 148 -55.5t84 -71.5t27 -93q0 -52 -24.5 -90t-69.5 -58.5t-106 -20.5q-39 0 -72 7t-60.5 20.5t-50.5 33.5l27 63q38 -28 75 -41t81 -13q53 0 82 25
t29 71q0 35 -21 65t-73.5 56.5t-148.5 50.5v72q61 23 96 48.5t49.5 55t14.5 64.5q0 47 -31 74.5t-88 27.5q-80 0 -117.5 -42.5t-37.5 -129.5v-499h-91z" />
    <glyph glyph-name="agrave" unicode="&#xe0;" horiz-adv-x="605" 
d="M268 -9q-66 0 -116 31t-78 90t-28 140t28 139.5t78 89.5t116 31q67 0 116.5 -33.5t65.5 -91.5h-12l11 116h88q-3 -30 -5.5 -60t-2.5 -59v-384h-91v115h11q-16 -57 -65.5 -90.5t-115.5 -33.5zM289 63q68 0 109 48t41 141t-41 140t-109 47t-109.5 -47t-41.5 -140t41 -141
t110 -48zM265 552l-134 202h95l103 -202h-64z" />
    <glyph glyph-name="aacute" unicode="&#xe1;" horiz-adv-x="605" 
d="M268 -9q-66 0 -116 31t-78 90t-28 140t28 139.5t78 89.5t116 31q67 0 116.5 -33.5t65.5 -91.5h-12l11 116h88q-3 -30 -5.5 -60t-2.5 -59v-384h-91v115h11q-16 -57 -65.5 -90.5t-115.5 -33.5zM289 63q68 0 109 48t41 141t-41 140t-109 47t-109.5 -47t-41.5 -140t41 -141
t110 -48zM265 552l103 202h95l-134 -202h-64z" />
    <glyph glyph-name="acircumflex" unicode="&#xe2;" horiz-adv-x="605" 
d="M268 -9q-66 0 -116 31t-78 90t-28 140t28 139.5t78 89.5t116 31q67 0 116.5 -33.5t65.5 -91.5h-12l11 116h88q-3 -30 -5.5 -60t-2.5 -59v-384h-91v115h11q-16 -57 -65.5 -90.5t-115.5 -33.5zM289 63q68 0 109 48t41 141t-41 140t-109 47t-109.5 -47t-41.5 -140t41 -141
t110 -48zM145 552l110 202h84l110 -202h-61l-91 144l-91 -144h-61z" />
    <glyph glyph-name="atilde" unicode="&#xe3;" horiz-adv-x="605" 
d="M268 -9q-66 0 -116 31t-78 90t-28 140t28 139.5t78 89.5t116 31q67 0 116.5 -33.5t65.5 -91.5h-12l11 116h88q-3 -30 -5.5 -60t-2.5 -59v-384h-91v115h11q-16 -57 -65.5 -90.5t-115.5 -33.5zM289 63q68 0 109 48t41 141t-41 140t-109 47t-109.5 -47t-41.5 -140t41 -141
t110 -48zM163 589l-49 3q5 65 35 101t75 36q21 0 40 -10t43 -31q21 -18 34.5 -25.5t26.5 -7.5q51 0 63 77l49 -3q-4 -66 -34 -101.5t-75 -35.5q-21 0 -40 10t-45 31q-20 18 -33 25t-27 7q-27 0 -42 -20t-21 -56z" />
    <glyph glyph-name="adieresis" unicode="&#xe4;" horiz-adv-x="605" 
d="M268 -9q-66 0 -116 31t-78 90t-28 140t28 139.5t78 89.5t116 31q67 0 116.5 -33.5t65.5 -91.5h-12l11 116h88q-3 -30 -5.5 -60t-2.5 -59v-384h-91v115h11q-16 -57 -65.5 -90.5t-115.5 -33.5zM289 63q68 0 109 48t41 141t-41 140t-109 47t-109.5 -47t-41.5 -140t41 -141
t110 -48zM339 606v93h93v-93h-93zM162 606v93h93v-93h-93z" />
    <glyph glyph-name="aring" unicode="&#xe5;" horiz-adv-x="605" 
d="M268 -9q-66 0 -116 31t-78 90t-28 140t28 139.5t78 89.5t116 31q67 0 116.5 -33.5t65.5 -91.5h-12l11 116h88q-3 -30 -5.5 -60t-2.5 -59v-384h-91v115h11q-16 -57 -65.5 -90.5t-115.5 -33.5zM289 63q68 0 109 48t41 141t-41 140t-109 47t-109.5 -47t-41.5 -140t41 -141
t110 -48zM297 546q-33 0 -60.5 16t-43.5 42.5t-16 59.5t16 59t43 42t61 16t61 -16t43 -42t16 -60q0 -32 -16 -58.5t-42.5 -42.5t-61.5 -16zM297 593q31 0 50.5 20.5t19.5 49.5q0 31 -19 51t-51 20q-30 0 -50 -20t-20 -50q0 -31 19.5 -51t50.5 -20z" />
    <glyph glyph-name="ae" unicode="&#xe6;" horiz-adv-x="879" 
d="M239 -9q-54 0 -95.5 21t-64.5 56t-23 78q0 58 26.5 91.5t90.5 47.5t174 14h50v-54h-50q-80 0 -124.5 -8.5t-63 -29t-18.5 -57.5q0 -40 29.5 -66t79.5 -26q40 0 71 18t49 51.5t18 77.5v121q0 60 -28 87t-85 27q-46 0 -86 -12t-82 -39l-30 66q39 27 92 42t108 15
q77 0 120.5 -30.5t58.5 -90.5h-26q30 59 79 90t116 31q98 0 154.5 -63.5t56.5 -175.5v-29h-373v55h311l-17 -15q0 76 -34.5 119t-98.5 43q-69 0 -109 -45t-40 -133v-7q0 -95 42.5 -146.5t124.5 -51.5q43 0 82 13.5t75 43.5l30 -63q-34 -32 -85 -49t-104 -17
q-89 0 -146.5 39.5t-81.5 114.5h23q-16 -73 -68 -113.5t-128 -40.5z" />
    <glyph glyph-name="ccedilla" unicode="&#xe7;" horiz-adv-x="497" 
d="M292 -9q-75 0 -130 31.5t-85.5 91t-30.5 141.5q0 81 31 138.5t86 88t129 30.5q49 0 95 -16.5t75 -47.5l-31 -64q-29 28 -64 41.5t-69 13.5q-74 0 -116 -47.5t-42 -137.5q0 -91 42 -140t116 -49q33 0 68 13t65 41l31 -63q-30 -32 -76.5 -48.5t-93.5 -16.5zM291 -193
q-27 0 -51.5 5.5t-41.5 14.5l14 47q19 -9 35.5 -13t38.5 -4q27 0 42.5 9t15.5 27q0 26 -38 26q-11 0 -21 -1.5t-25 -5.5l-17 16l14 92h55l-13 -76l-26 8q11 3 23.5 5t22.5 2q37 0 61 -18t24 -51q0 -37 -31.5 -60t-81.5 -23z" />
    <glyph glyph-name="egrave" unicode="&#xe8;" horiz-adv-x="545" 
d="M305 -9q-120 0 -189.5 69t-69.5 190q0 80 30.5 138.5t84.5 91t126 32.5q69 0 117 -29.5t73 -83.5t25 -128v-30h-385v54h323l-17 -13q0 78 -34.5 121t-101.5 43q-73 0 -113 -50.5t-40 -137.5v-9q0 -92 45.5 -139t126.5 -47q45 0 84 13t75 43l30 -63q-34 -31 -84.5 -48
t-105.5 -17zM255 552l-134 202h95l103 -202h-64z" />
    <glyph glyph-name="eacute" unicode="&#xe9;" horiz-adv-x="545" 
d="M305 -9q-120 0 -189.5 69t-69.5 190q0 80 30.5 138.5t84.5 91t126 32.5q69 0 117 -29.5t73 -83.5t25 -128v-30h-385v54h323l-17 -13q0 78 -34.5 121t-101.5 43q-73 0 -113 -50.5t-40 -137.5v-9q0 -92 45.5 -139t126.5 -47q45 0 84 13t75 43l30 -63q-34 -31 -84.5 -48
t-105.5 -17zM255 552l103 202h95l-134 -202h-64z" />
    <glyph glyph-name="ecircumflex" unicode="&#xea;" horiz-adv-x="545" 
d="M305 -9q-120 0 -189.5 69t-69.5 190q0 80 30.5 138.5t84.5 91t126 32.5q69 0 117 -29.5t73 -83.5t25 -128v-30h-385v54h323l-17 -13q0 78 -34.5 121t-101.5 43q-73 0 -113 -50.5t-40 -137.5v-9q0 -92 45.5 -139t126.5 -47q45 0 84 13t75 43l30 -63q-34 -31 -84.5 -48
t-105.5 -17zM135 552l110 202h84l110 -202h-61l-91 144l-91 -144h-61z" />
    <glyph glyph-name="edieresis" unicode="&#xeb;" horiz-adv-x="545" 
d="M305 -9q-120 0 -189.5 69t-69.5 190q0 80 30.5 138.5t84.5 91t126 32.5q69 0 117 -29.5t73 -83.5t25 -128v-30h-385v54h323l-17 -13q0 78 -34.5 121t-101.5 43q-73 0 -113 -50.5t-40 -137.5v-9q0 -92 45.5 -139t126.5 -47q45 0 84 13t75 43l30 -63q-34 -31 -84.5 -48
t-105.5 -17zM329 606v93h93v-93h-93zM152 606v93h93v-93h-93z" />
    <glyph glyph-name="igrave" unicode="&#xec;" horiz-adv-x="243" 
d="M76 0v503h91v-503h-91zM90 552l-134 202h95l103 -202h-64z" />
    <glyph glyph-name="iacute" unicode="&#xed;" horiz-adv-x="243" 
d="M76 0v503h91v-503h-91zM90 552l103 202h95l-134 -202h-64z" />
    <glyph glyph-name="icircumflex" unicode="&#xee;" horiz-adv-x="243" 
d="M76 0v503h91v-503h-91zM-30 552l110 202h84l110 -202h-61l-91 144l-91 -144h-61z" />
    <glyph glyph-name="idieresis" unicode="&#xef;" horiz-adv-x="243" 
d="M76 0v503h91v-503h-91zM164 606v93h93v-93h-93zM-13 606v93h93v-93h-93z" />
    <glyph glyph-name="eth" unicode="&#xf0;" horiz-adv-x="581" 
d="M287 -9q-72 0 -126.5 29t-84.5 82t-30 123t29.5 122.5t82.5 81.5t124 29q74 0 122 -37t69 -113h-24q0 85 -34.5 162t-101.5 131l21 -3l-197 -84l-21 47l170 72l-2 -13q-30 22 -65.5 37.5t-76.5 25.5l18 60q61 -12 112 -34.5t91 -52.5l-20 3l118 50l21 -47l-99 -42l4 17
q51 -45 83.5 -101.5t48.5 -121t16 -133.5q0 -93 -29 -158t-84 -98.5t-135 -33.5zM288 64q70 0 110.5 43t40.5 118t-40 117.5t-110 42.5t-110.5 -42.5t-40.5 -117.5q0 -76 40 -118.5t110 -42.5z" />
    <glyph glyph-name="ntilde" unicode="&#xf1;" horiz-adv-x="589" 
d="M76 0v384q0 29 -2 59t-6 60h88l10 -108h-12q23 57 71 87t112 30q89 0 134 -48.5t45 -150.5v-313h-91v308q0 69 -27 99.5t-84 30.5q-68 0 -107.5 -41t-39.5 -111v-286h-91zM161 589l-49 3q5 65 35 101t75 36q21 0 40 -10t43 -31q21 -18 34.5 -25.5t26.5 -7.5q51 0 63 77
l49 -3q-4 -66 -34 -101.5t-75 -35.5q-21 0 -40 10t-45 31q-20 18 -33 25t-27 7q-27 0 -42 -20t-21 -56z" />
    <glyph glyph-name="ograve" unicode="&#xf2;" horiz-adv-x="576" 
d="M288 -9q-74 0 -128 31.5t-84 90t-30 139.5q0 80 30 138.5t84 90t128 31.5t128.5 -31.5t84 -90t29.5 -138.5q0 -81 -29.5 -139.5t-84 -90t-128.5 -31.5zM288 63q68 0 109 48t41 141t-41 140t-109 47q-69 0 -109.5 -47t-40.5 -140t40.5 -141t109.5 -48zM257 552l-134 202
h95l103 -202h-64z" />
    <glyph glyph-name="oacute" unicode="&#xf3;" horiz-adv-x="576" 
d="M288 -9q-74 0 -128 31.5t-84 90t-30 139.5q0 80 30 138.5t84 90t128 31.5t128.5 -31.5t84 -90t29.5 -138.5q0 -81 -29.5 -139.5t-84 -90t-128.5 -31.5zM288 63q68 0 109 48t41 141t-41 140t-109 47q-69 0 -109.5 -47t-40.5 -140t40.5 -141t109.5 -48zM257 552l103 202h95
l-134 -202h-64z" />
    <glyph glyph-name="ocircumflex" unicode="&#xf4;" horiz-adv-x="576" 
d="M288 -9q-74 0 -128 31.5t-84 90t-30 139.5q0 80 30 138.5t84 90t128 31.5t128.5 -31.5t84 -90t29.5 -138.5q0 -81 -29.5 -139.5t-84 -90t-128.5 -31.5zM288 63q68 0 109 48t41 141t-41 140t-109 47q-69 0 -109.5 -47t-40.5 -140t40.5 -141t109.5 -48zM137 552l110 202h84
l110 -202h-61l-91 144l-91 -144h-61z" />
    <glyph glyph-name="otilde" unicode="&#xf5;" horiz-adv-x="576" 
d="M288 -9q-74 0 -128 31.5t-84 90t-30 139.5q0 80 30 138.5t84 90t128 31.5t128.5 -31.5t84 -90t29.5 -138.5q0 -81 -29.5 -139.5t-84 -90t-128.5 -31.5zM288 63q68 0 109 48t41 141t-41 140t-109 47q-69 0 -109.5 -47t-40.5 -140t40.5 -141t109.5 -48zM155 589l-49 3
q5 65 35 101t75 36q21 0 40 -10t43 -31q21 -18 34.5 -25.5t26.5 -7.5q51 0 63 77l49 -3q-4 -66 -34 -101.5t-75 -35.5q-21 0 -40 10t-45 31q-20 18 -33 25t-27 7q-27 0 -42 -20t-21 -56z" />
    <glyph glyph-name="odieresis" unicode="&#xf6;" horiz-adv-x="576" 
d="M288 -9q-74 0 -128 31.5t-84 90t-30 139.5q0 80 30 138.5t84 90t128 31.5t128.5 -31.5t84 -90t29.5 -138.5q0 -81 -29.5 -139.5t-84 -90t-128.5 -31.5zM288 63q68 0 109 48t41 141t-41 140t-109 47q-69 0 -109.5 -47t-40.5 -140t40.5 -141t109.5 -48zM331 606v93h93v-93
h-93zM154 606v93h93v-93h-93z" />
    <glyph glyph-name="divide" unicode="&#xf7;" horiz-adv-x="600" 
d="M53 253v68h494v-68h-494zM250 43v90h90v-90h-90zM250 440v90h90v-90h-90z" />
    <glyph glyph-name="oslash" unicode="&#xf8;" horiz-adv-x="576" 
d="M288 -9q-74 0 -128 31.5t-84 90t-30 139.5q0 80 30 138.5t84 90t128 31.5t128.5 -31.5t84 -90t29.5 -138.5q0 -81 -29.5 -139.5t-84 -90t-128.5 -31.5zM288 63q73 0 114.5 49t41.5 140t-41.5 139t-114.5 48t-114.5 -48t-41.5 -139t41.5 -140t114.5 -49zM150 -42l-47 29
l324 558l48 -29z" />
    <glyph glyph-name="ugrave" unicode="&#xf9;" horiz-adv-x="582" 
d="M255 -9q-91 0 -136.5 49t-45.5 151v312h91v-310q0 -66 27 -97t84 -31q62 0 100.5 41.5t38.5 110.5v286h91v-503h-88v111h13q-21 -57 -67 -88.5t-108 -31.5zM259 553l-134 202h95l103 -202h-64z" />
    <glyph glyph-name="uacute" unicode="&#xfa;" horiz-adv-x="582" 
d="M255 -9q-91 0 -136.5 49t-45.5 151v312h91v-310q0 -66 27 -97t84 -31q62 0 100.5 41.5t38.5 110.5v286h91v-503h-88v111h13q-21 -57 -67 -88.5t-108 -31.5zM259 553l103 202h95l-134 -202h-64z" />
    <glyph glyph-name="ucircumflex" unicode="&#xfb;" horiz-adv-x="582" 
d="M255 -9q-91 0 -136.5 49t-45.5 151v312h91v-310q0 -66 27 -97t84 -31q62 0 100.5 41.5t38.5 110.5v286h91v-503h-88v111h13q-21 -57 -67 -88.5t-108 -31.5zM139 553l110 202h84l110 -202h-61l-91 144l-91 -144h-61z" />
    <glyph glyph-name="udieresis" unicode="&#xfc;" horiz-adv-x="582" 
d="M255 -9q-91 0 -136.5 49t-45.5 151v312h91v-310q0 -66 27 -97t84 -31q62 0 100.5 41.5t38.5 110.5v286h91v-503h-88v111h13q-21 -57 -67 -88.5t-108 -31.5zM333 607v93h93v-93h-93zM156 607v93h93v-93h-93z" />
    <glyph glyph-name="yacute" unicode="&#xfd;" horiz-adv-x="534" 
d="M59 -227l-21 74q47 11 78 25.5t52 37.5t37 58l25 60l-2 -38l-219 513h98l175 -431h-26l175 431h94l-231 -542q-21 -49 -45.5 -82t-53 -54t-62.5 -33t-74 -19zM234 552l103 202h95l-134 -202h-64z" />
    <glyph glyph-name="thorn" unicode="&#xfe;" horiz-adv-x="605" 
d="M76 -216v952h91v-349h-11q15 58 64.5 91.5t116.5 33.5t117 -31t77.5 -89.5t27.5 -139.5t-27.5 -140t-77 -90t-116.5 -31q-68 0 -116.5 33.5t-65.5 90.5h11v-331h-91zM317 63q68 0 109 48t41 141t-41 140t-109 47q-69 0 -110 -47t-41 -140t41 -141t110 -48z" />
    <glyph glyph-name="ydieresis" unicode="&#xff;" horiz-adv-x="534" 
d="M59 -227l-21 74q47 11 78 25.5t52 37.5t37 58l25 60l-2 -38l-219 513h98l175 -431h-26l175 431h94l-231 -542q-21 -49 -45.5 -82t-53 -54t-62.5 -33t-74 -19zM308 606v93h93v-93h-93zM131 606v93h93v-93h-93z" />
    <glyph glyph-name="Amacron" unicode="&#x100;" horiz-adv-x="738" 
d="M14 0l312 705h81l317 -705h-96l-87 200l40 -24h-429l44 24l-87 -200h-95zM365 601l-156 -370l-24 21h363l-19 -21l-160 370h-4zM201 813v59h332v-59h-332z" />
    <glyph glyph-name="amacron" unicode="&#x101;" horiz-adv-x="605" 
d="M268 -9q-66 0 -116 31t-78 90t-28 140t28 139.5t78 89.5t116 31q67 0 116.5 -33.5t65.5 -91.5h-12l11 116h88q-3 -30 -5.5 -60t-2.5 -59v-384h-91v115h11q-16 -57 -65.5 -90.5t-115.5 -33.5zM289 63q68 0 109 48t41 141t-41 140t-109 47t-109.5 -47t-41.5 -140t41 -141
t110 -48zM146 623v59h302v-59h-302z" />
    <glyph glyph-name="Abreve" unicode="&#x102;" horiz-adv-x="738" 
d="M14 0l312 705h81l317 -705h-96l-87 200l40 -24h-429l44 24l-87 -200h-95zM365 601l-156 -370l-24 21h363l-19 -21l-160 370h-4zM367 760q-72 0 -119 45.5t-53 123.5l55 7q5 -55 35.5 -86t80.5 -31q51 0 82.5 31t35.5 86l55 -7q-6 -78 -53 -123.5t-119 -45.5z" />
    <glyph glyph-name="abreve" unicode="&#x103;" horiz-adv-x="605" 
d="M268 -9q-66 0 -116 31t-78 90t-28 140t28 139.5t78 89.5t116 31q67 0 116.5 -33.5t65.5 -91.5h-12l11 116h88q-3 -30 -5.5 -60t-2.5 -59v-384h-91v115h11q-16 -57 -65.5 -90.5t-115.5 -33.5zM289 63q68 0 109 48t41 141t-41 140t-109 47t-109.5 -47t-41.5 -140t41 -141
t110 -48zM297 549q-46 0 -80.5 23.5t-54 66t-22.5 101.5l55 6q4 -66 30.5 -101.5t71.5 -35.5t71.5 35.5t30.5 101.5l55 -6q-2 -59 -22 -101.5t-54.5 -66t-80.5 -23.5z" />
    <glyph glyph-name="Aogonek" unicode="&#x104;" horiz-adv-x="738" 
d="M14 0l312 705h81l317 -705h-96l-87 200l40 -24h-429l44 24l-87 -200h-95zM365 601l-156 -370l-24 21h363l-19 -21l-160 370h-4zM680 -193q-49 0 -78.5 27t-29.5 72q0 40 26 75.5t71 55.5l31 -37q-16 -7 -31 -19t-25 -28.5t-10 -36.5q0 -27 17 -41t41 -14q14 0 27 3t27 9
l14 -49q-15 -8 -35 -12.5t-45 -4.5z" />
    <glyph glyph-name="aogonek" unicode="&#x105;" horiz-adv-x="605" 
d="M268 -9q-66 0 -116 31t-78 90t-28 140t28 139.5t78 89.5t116 31q67 0 116.5 -33.5t65.5 -91.5h-12l11 116h88q-3 -30 -5.5 -60t-2.5 -59v-384h-91v115h11q-16 -57 -65.5 -90.5t-115.5 -33.5zM289 63q68 0 109 48t41 141t-41 140t-109 47t-109.5 -47t-41.5 -140t41 -141
t110 -48zM496 -193q-49 0 -78.5 27t-29.5 72q0 40 26 75.5t71 55.5l31 -37q-16 -7 -31 -19t-25 -28.5t-10 -36.5q0 -27 17 -41t41 -14q14 0 27 3t27 9l14 -49q-15 -8 -35 -12.5t-45 -4.5z" />
    <glyph glyph-name="Cacute" unicode="&#x106;" horiz-adv-x="685" 
d="M397 -9q-106 0 -181.5 44t-115.5 125.5t-40 192.5t40 192t115.5 125t181.5 44q76 0 135 -22.5t103 -65.5l-34 -75q-48 42 -94.5 60.5t-107.5 18.5q-117 0 -179 -72t-62 -205t62 -205.5t179 -72.5q61 0 107.5 18.5t94.5 60.5l34 -74q-44 -43 -103.5 -66t-134.5 -23z
M359 765l118 172h100l-150 -172h-68z" />
    <glyph glyph-name="cacute" unicode="&#x107;" horiz-adv-x="497" 
d="M292 -9q-75 0 -130 31.5t-85.5 91t-30.5 141.5q0 81 31 138.5t86 88t129 30.5q49 0 95 -16.5t75 -47.5l-31 -64q-29 28 -64 41.5t-69 13.5q-74 0 -116 -47.5t-42 -137.5q0 -91 42 -140t116 -49q33 0 68 13t65 41l31 -63q-30 -32 -76.5 -48.5t-93.5 -16.5zM256 552
l103 202h95l-134 -202h-64z" />
    <glyph glyph-name="Ccircumflex" unicode="&#x108;" horiz-adv-x="685" 
d="M397 -9q-106 0 -181.5 44t-115.5 125.5t-40 192.5t40 192t115.5 125t181.5 44q76 0 135 -22.5t103 -65.5l-34 -75q-48 42 -94.5 60.5t-107.5 18.5q-117 0 -179 -72t-62 -205t62 -205.5t179 -72.5q61 0 107.5 18.5t94.5 60.5l34 -74q-44 -43 -103.5 -66t-134.5 -23z
M229 765l122 172h84l122 -172h-66l-98 115l-98 -115h-66z" />
    <glyph glyph-name="ccircumflex" unicode="&#x109;" horiz-adv-x="497" 
d="M292 -9q-75 0 -130 31.5t-85.5 91t-30.5 141.5q0 81 31 138.5t86 88t129 30.5q49 0 95 -16.5t75 -47.5l-31 -64q-29 28 -64 41.5t-69 13.5q-74 0 -116 -47.5t-42 -137.5q0 -91 42 -140t116 -49q33 0 68 13t65 41l31 -63q-30 -32 -76.5 -48.5t-93.5 -16.5zM136 552
l110 202h84l110 -202h-61l-91 144l-91 -144h-61z" />
    <glyph glyph-name="Cdotaccent" unicode="&#x10a;" horiz-adv-x="685" 
d="M397 -9q-106 0 -181.5 44t-115.5 125.5t-40 192.5t40 192t115.5 125t181.5 44q76 0 135 -22.5t103 -65.5l-34 -75q-48 42 -94.5 60.5t-107.5 18.5q-117 0 -179 -72t-62 -205t62 -205.5t179 -72.5q61 0 107.5 18.5t94.5 60.5l34 -74q-44 -43 -103.5 -66t-134.5 -23z
M344 804v94h98v-94h-98z" />
    <glyph glyph-name="cdotaccent" unicode="&#x10b;" horiz-adv-x="497" 
d="M292 -9q-75 0 -130 31.5t-85.5 91t-30.5 141.5q0 81 31 138.5t86 88t129 30.5q49 0 95 -16.5t75 -47.5l-31 -64q-29 28 -64 41.5t-69 13.5q-74 0 -116 -47.5t-42 -137.5q0 -91 42 -140t116 -49q33 0 68 13t65 41l31 -63q-30 -32 -76.5 -48.5t-93.5 -16.5zM239 606v94h98
v-94h-98z" />
    <glyph glyph-name="Ccaron" unicode="&#x10c;" horiz-adv-x="685" 
d="M397 -9q-106 0 -181.5 44t-115.5 125.5t-40 192.5t40 192t115.5 125t181.5 44q76 0 135 -22.5t103 -65.5l-34 -75q-48 42 -94.5 60.5t-107.5 18.5q-117 0 -179 -72t-62 -205t62 -205.5t179 -72.5q61 0 107.5 18.5t94.5 60.5l34 -74q-44 -43 -103.5 -66t-134.5 -23z
M351 765l-122 172h66l98 -115l98 115h66l-122 -172h-84z" />
    <glyph glyph-name="ccaron" unicode="&#x10d;" horiz-adv-x="497" 
d="M292 -9q-75 0 -130 31.5t-85.5 91t-30.5 141.5q0 81 31 138.5t86 88t129 30.5q49 0 95 -16.5t75 -47.5l-31 -64q-29 28 -64 41.5t-69 13.5q-74 0 -116 -47.5t-42 -137.5q0 -91 42 -140t116 -49q33 0 68 13t65 41l31 -63q-30 -32 -76.5 -48.5t-93.5 -16.5zM246 552
l-110 202h61l91 -144l91 144h61l-110 -202h-84z" />
    <glyph glyph-name="Dcaron" unicode="&#x10e;" horiz-adv-x="750" 
d="M86 0v705h239q118 0 199.5 -41t123.5 -119.5t42 -191.5t-42 -192t-123.5 -120t-199.5 -41h-239zM179 79h139q141 0 209 68t68 206t-68 205.5t-209 67.5h-139v-547zM339 765l-122 172h66l98 -115l98 115h66l-122 -172h-84z" />
    <glyph glyph-name="dcaron" unicode="&#x10f;" horiz-adv-x="605" 
d="M268 -9q-66 0 -116 31t-78 90t-28 140t28 139.5t78 89.5t116 31t115.5 -33t66.5 -91h-12v348h91v-736h-90v117h11q-16 -59 -65.5 -92.5t-116.5 -33.5zM289 63q68 0 109.5 48t41.5 141t-41.5 140t-109.5 47t-109.5 -47t-41.5 -140t41.5 -141t109.5 -48zM576 546v190h70
l-25 -190h-45z" />
    <glyph glyph-name="Dcroat" unicode="&#x110;" horiz-adv-x="750" 
d="M86 0v705h239q118 0 199.5 -41t123.5 -119.5t42 -191.5t-42 -192t-123.5 -120t-199.5 -41h-239zM179 79h139q141 0 209 68t68 206t-68 205.5t-209 67.5h-139v-547zM0 322v71h376v-71h-376z" />
    <glyph glyph-name="dcroat" unicode="&#x111;" horiz-adv-x="605" 
d="M268 -9q-66 0 -116 30.5t-78 88.5t-28 137q0 80 28 137t78 88t116 31t115 -33.5t65 -89.5h-11v199h-193v67h193v90h91v-90h94v-67h-94v-579h-90v116h11q-17 -58 -65.5 -91.5t-115.5 -33.5zM289 63q67 0 108.5 47t41.5 137t-41.5 136.5t-108.5 46.5q-68 0 -109.5 -46.5
t-41.5 -136.5t41.5 -137t109.5 -47z" />
    <glyph glyph-name="Emacron" unicode="&#x112;" horiz-adv-x="590" 
d="M86 0v705h456v-76h-366v-233h343v-76h-343v-244h366v-76h-456zM163 813v59h332v-59h-332z" />
    <glyph glyph-name="emacron" unicode="&#x113;" horiz-adv-x="545" 
d="M305 -9q-120 0 -189.5 69t-69.5 190q0 80 30.5 138.5t84.5 91t126 32.5q69 0 117 -29.5t73 -83.5t25 -128v-30h-385v54h323l-17 -13q0 78 -34.5 121t-101.5 43q-73 0 -113 -50.5t-40 -137.5v-9q0 -92 45.5 -139t126.5 -47q45 0 84 13t75 43l30 -63q-34 -31 -84.5 -48
t-105.5 -17zM136 623v59h302v-59h-302z" />
    <glyph glyph-name="Ebreve" unicode="&#x114;" horiz-adv-x="590" 
d="M86 0v705h456v-76h-366v-233h343v-76h-343v-244h366v-76h-456zM329 760q-72 0 -119 45.5t-53 123.5l55 7q5 -55 35.5 -86t80.5 -31q51 0 82.5 31t35.5 86l55 -7q-6 -78 -53 -123.5t-119 -45.5z" />
    <glyph glyph-name="ebreve" unicode="&#x115;" horiz-adv-x="545" 
d="M305 -9q-120 0 -189.5 69t-69.5 190q0 80 30.5 138.5t84.5 91t126 32.5q69 0 117 -29.5t73 -83.5t25 -128v-30h-385v54h323l-17 -13q0 78 -34.5 121t-101.5 43q-73 0 -113 -50.5t-40 -137.5v-9q0 -92 45.5 -139t126.5 -47q45 0 84 13t75 43l30 -63q-34 -31 -84.5 -48
t-105.5 -17zM287 549q-46 0 -80.5 23.5t-54 66t-22.5 101.5l55 6q4 -66 30.5 -101.5t71.5 -35.5t71.5 35.5t30.5 101.5l55 -6q-2 -59 -22 -101.5t-54.5 -66t-80.5 -23.5z" />
    <glyph glyph-name="Edotaccent" unicode="&#x116;" horiz-adv-x="590" 
d="M86 0v705h456v-76h-366v-233h343v-76h-343v-244h366v-76h-456zM280 804v94h98v-94h-98z" />
    <glyph glyph-name="edotaccent" unicode="&#x117;" horiz-adv-x="545" 
d="M305 -9q-120 0 -189.5 69t-69.5 190q0 80 30.5 138.5t84.5 91t126 32.5q69 0 117 -29.5t73 -83.5t25 -128v-30h-385v54h323l-17 -13q0 78 -34.5 121t-101.5 43q-73 0 -113 -50.5t-40 -137.5v-9q0 -92 45.5 -139t126.5 -47q45 0 84 13t75 43l30 -63q-34 -31 -84.5 -48
t-105.5 -17zM238 606v94h98v-94h-98z" />
    <glyph glyph-name="Eogonek" unicode="&#x118;" horiz-adv-x="590" 
d="M86 0v705h456v-76h-366v-233h343v-76h-343v-244h366v-76h-456zM486 -193q-49 0 -78.5 27t-29.5 72q0 40 26 75.5t71 55.5l31 -37q-16 -7 -31 -19t-25 -28.5t-10 -36.5q0 -27 17 -41t41 -14q14 0 27 3t27 9l14 -49q-15 -8 -35 -12.5t-45 -4.5z" />
    <glyph glyph-name="eogonek" unicode="&#x119;" horiz-adv-x="545" 
d="M305 -9q-120 0 -189.5 69t-69.5 190q0 80 30.5 138.5t84.5 91t126 32.5q69 0 117 -29.5t73 -83.5t25 -128v-30h-385v54h323l-17 -13q0 78 -34.5 121t-101.5 43q-73 0 -113 -50.5t-40 -137.5v-9q0 -92 45.5 -139t126.5 -47q45 0 84 13t75 43l30 -63q-34 -31 -84.5 -48
t-105.5 -17zM353 -193q-49 0 -78.5 27t-29.5 72q0 40 26 75.5t71 55.5l31 -37q-16 -7 -31 -19t-25 -28.5t-10 -36.5q0 -27 17 -41t41 -14q14 0 27 3t27 9l14 -49q-15 -8 -35 -12.5t-45 -4.5z" />
    <glyph glyph-name="Ecaron" unicode="&#x11a;" horiz-adv-x="590" 
d="M86 0v705h456v-76h-366v-233h343v-76h-343v-244h366v-76h-456zM287 765l-122 172h66l98 -115l98 115h66l-122 -172h-84z" />
    <glyph glyph-name="ecaron" unicode="&#x11b;" horiz-adv-x="545" 
d="M305 -9q-120 0 -189.5 69t-69.5 190q0 80 30.5 138.5t84.5 91t126 32.5q69 0 117 -29.5t73 -83.5t25 -128v-30h-385v54h323l-17 -13q0 78 -34.5 121t-101.5 43q-73 0 -113 -50.5t-40 -137.5v-9q0 -92 45.5 -139t126.5 -47q45 0 84 13t75 43l30 -63q-34 -31 -84.5 -48
t-105.5 -17zM245 552l-110 202h61l91 -144l91 144h61l-110 -202h-84z" />
    <glyph glyph-name="Gcircumflex" unicode="&#x11c;" horiz-adv-x="733" 
d="M413 -9q-116 0 -195 43.5t-118.5 124.5t-39.5 193t42 193t120.5 125t188.5 44q77 0 134 -22t102 -64l-35 -74q-32 28 -62 45t-62.5 24.5t-76.5 7.5q-123 0 -188 -73t-65 -207q0 -136 63 -207t196 -71q47 0 92 9t86 26l-19 -47v239h-177v72h257v-330q-45 -23 -111 -37
t-132 -14zM238 765l122 172h84l122 -172h-66l-98 115l-98 -115h-66z" />
    <glyph glyph-name="gcircumflex" unicode="&#x11d;" horiz-adv-x="608" 
d="M300 -224q-66 0 -121 16t-99 49l24 67q31 -21 61 -34t62.5 -19t67.5 -6q74 0 111 38t37 108v141h10q-16 -57 -65.5 -90.5t-116.5 -33.5q-68 0 -118.5 30.5t-78.5 87t-28 132.5q0 77 28 133t78.5 86.5t118.5 30.5q67 0 116 -33t65 -91l-9 9l9 106h88q-3 -30 -5.5 -60
t-2.5 -59v-378q0 -112 -58.5 -171t-173.5 -59zM291 84q69 0 110 47t41 131q0 85 -41 131t-110 46q-70 0 -111.5 -46t-41.5 -131q0 -84 41.5 -131t111.5 -47zM155 552l110 202h84l110 -202h-61l-91 144l-91 -144h-61z" />
    <glyph glyph-name="Gbreve" unicode="&#x11e;" horiz-adv-x="733" 
d="M413 -9q-116 0 -195 43.5t-118.5 124.5t-39.5 193t42 193t120.5 125t188.5 44q77 0 134 -22t102 -64l-35 -74q-32 28 -62 45t-62.5 24.5t-76.5 7.5q-123 0 -188 -73t-65 -207q0 -136 63 -207t196 -71q47 0 92 9t86 26l-19 -47v239h-177v72h257v-330q-45 -23 -111 -37
t-132 -14zM402 760q-72 0 -119 45.5t-53 123.5l55 7q5 -55 35.5 -86t80.5 -31q51 0 82.5 31t35.5 86l55 -7q-6 -78 -53 -123.5t-119 -45.5z" />
    <glyph glyph-name="gbreve" unicode="&#x11f;" horiz-adv-x="608" 
d="M300 -224q-66 0 -121 16t-99 49l24 67q31 -21 61 -34t62.5 -19t67.5 -6q74 0 111 38t37 108v141h10q-16 -57 -65.5 -90.5t-116.5 -33.5q-68 0 -118.5 30.5t-78.5 87t-28 132.5q0 77 28 133t78.5 86.5t118.5 30.5q67 0 116 -33t65 -91l-9 9l9 106h88q-3 -30 -5.5 -60
t-2.5 -59v-378q0 -112 -58.5 -171t-173.5 -59zM291 84q69 0 110 47t41 131q0 85 -41 131t-110 46q-70 0 -111.5 -46t-41.5 -131q0 -84 41.5 -131t111.5 -47zM307 549q-46 0 -80.5 23.5t-54 66t-22.5 101.5l55 6q4 -66 30.5 -101.5t71.5 -35.5t71.5 35.5t30.5 101.5l55 -6
q-2 -59 -22 -101.5t-54.5 -66t-80.5 -23.5z" />
    <glyph glyph-name="Gdotaccent" unicode="&#x120;" horiz-adv-x="733" 
d="M413 -9q-116 0 -195 43.5t-118.5 124.5t-39.5 193t42 193t120.5 125t188.5 44q77 0 134 -22t102 -64l-35 -74q-32 28 -62 45t-62.5 24.5t-76.5 7.5q-123 0 -188 -73t-65 -207q0 -136 63 -207t196 -71q47 0 92 9t86 26l-19 -47v239h-177v72h257v-330q-45 -23 -111 -37
t-132 -14zM353 804v94h98v-94h-98z" />
    <glyph glyph-name="gdotaccent" unicode="&#x121;" horiz-adv-x="608" 
d="M300 -224q-66 0 -121 16t-99 49l24 67q31 -21 61 -34t62.5 -19t67.5 -6q74 0 111 38t37 108v141h10q-16 -57 -65.5 -90.5t-116.5 -33.5q-68 0 -118.5 30.5t-78.5 87t-28 132.5q0 77 28 133t78.5 86.5t118.5 30.5q67 0 116 -33t65 -91l-9 9l9 106h88q-3 -30 -5.5 -60
t-2.5 -59v-378q0 -112 -58.5 -171t-173.5 -59zM291 84q69 0 110 47t41 131q0 85 -41 131t-110 46q-70 0 -111.5 -46t-41.5 -131q0 -84 41.5 -131t111.5 -47zM258 606v94h98v-94h-98z" />
    <glyph glyph-name="uni0122" unicode="&#x122;" horiz-adv-x="733" 
d="M413 -9q-116 0 -195 43.5t-118.5 124.5t-39.5 193t42 193t120.5 125t188.5 44q77 0 134 -22t102 -64l-35 -74q-32 28 -62 45t-62.5 24.5t-76.5 7.5q-123 0 -188 -73t-65 -207q0 -136 63 -207t196 -71q47 0 92 9t86 26l-19 -47v239h-177v72h257v-330q-45 -23 -111 -37
t-132 -14zM415 -270l-39 27q23 24 30.5 45t7.5 45l22 -12h-74v87h106v-62q0 -38 -12.5 -71t-40.5 -59z" />
    <glyph glyph-name="uni0123" unicode="&#x123;" horiz-adv-x="608" 
d="M300 -224q-66 0 -121 16t-99 49l24 67q31 -21 61 -34t62.5 -19t67.5 -6q74 0 111 38t37 108v141h10q-16 -57 -65.5 -90.5t-116.5 -33.5q-68 0 -118.5 30.5t-78.5 87t-28 132.5q0 77 28 133t78.5 86.5t118.5 30.5q67 0 116 -33t65 -91l-9 9l9 106h88q-3 -30 -5.5 -60
t-2.5 -59v-378q0 -112 -58.5 -171t-173.5 -59zM291 84q69 0 110 47t41 131q0 85 -41 131t-110 46q-70 0 -111.5 -46t-41.5 -131q0 -84 41.5 -131t111.5 -47zM254 566v62q0 38 12.5 71t40.5 59l39 -27q-23 -23 -30.5 -44.5t-7.5 -44.5l-23 11h75v-87h-106z" />
    <glyph glyph-name="Hcircumflex" unicode="&#x124;" horiz-adv-x="768" 
d="M86 0v705h93v-308h410v308h94v-705h-94v318h-410v-318h-93zM221 765l122 172h84l122 -172h-66l-98 115l-98 -115h-66z" />
    <glyph glyph-name="hcircumflex" unicode="&#x125;" horiz-adv-x="589" 
d="M76 0v736h91v-342h-13q22 58 71 88t113 30q91 0 134.5 -49t43.5 -148v-315h-91v310q0 67 -26 97.5t-85 30.5q-66 0 -106.5 -41t-40.5 -109v-288h-91zM135 774l122 172h84l122 -172h-66l-98 115l-98 -115h-66z" />
    <glyph glyph-name="Hbar" unicode="&#x126;" horiz-adv-x="799" 
d="M102 0v518h-92v71h92v116h93v-116h409v116h93v-116h92v-71h-92v-518h-93v311h-409v-311h-93zM195 391h409v127h-409v-127z" />
    <glyph glyph-name="hbar" unicode="&#x127;" horiz-adv-x="589" 
d="M76 0v579h-94v67h94v90h91v-90h199v-67h-199v-191h-13q22 57 71 87.5t113 30.5q90 0 134 -49t44 -149v-308h-91v303q0 68 -26.5 98t-84.5 30q-66 0 -106.5 -40.5t-40.5 -108.5v-282h-91z" />
    <glyph glyph-name="Itilde" unicode="&#x128;" horiz-adv-x="264" 
d="M86 0v705h93v-705h-93zM-30 780l-50 3q6 66 39.5 101.5t83.5 35.5q23 0 46.5 -9.5t56.5 -30.5q30 -18 47 -25.5t31 -7.5q29 0 46.5 19.5t23.5 56.5l50 -3q-6 -65 -39 -101t-83 -36q-23 0 -47.5 10t-59.5 32q-28 19 -44 25.5t-31 6.5q-29 0 -46.5 -19.5t-23.5 -57.5z" />
    <glyph glyph-name="itilde" unicode="&#x129;" horiz-adv-x="243" 
d="M76 0v503h91v-503h-91zM-12 589l-49 3q5 65 35 101t75 36q21 0 40 -10t43 -31q21 -18 34.5 -25.5t26.5 -7.5q51 0 63 77l49 -3q-4 -66 -34 -101.5t-75 -35.5q-21 0 -40 10t-45 31q-20 18 -33 25t-27 7q-27 0 -42 -20t-21 -56z" />
    <glyph glyph-name="Imacron" unicode="&#x12a;" horiz-adv-x="264" 
d="M86 0v705h93v-705h-93zM-34 813v59h332v-59h-332z" />
    <glyph glyph-name="imacron" unicode="&#x12b;" horiz-adv-x="243" 
d="M76 0v503h91v-503h-91zM-29 623v59h302v-59h-302z" />
    <glyph glyph-name="Ibreve" unicode="&#x12c;" horiz-adv-x="264" 
d="M86 0v705h93v-705h-93zM132 760q-72 0 -119 45.5t-53 123.5l55 7q5 -55 35.5 -86t80.5 -31q51 0 82.5 31t35.5 86l55 -7q-6 -78 -53 -123.5t-119 -45.5z" />
    <glyph glyph-name="ibreve" unicode="&#x12d;" horiz-adv-x="243" 
d="M76 0v503h91v-503h-91zM122 549q-46 0 -80.5 23.5t-54 66t-22.5 101.5l55 6q4 -66 30.5 -101.5t71.5 -35.5t71.5 35.5t30.5 101.5l55 -6q-2 -59 -22 -101.5t-54.5 -66t-80.5 -23.5z" />
    <glyph glyph-name="Iogonek" unicode="&#x12e;" horiz-adv-x="264" 
d="M86 0v705h93v-705h-93zM143 -193q-49 0 -78.5 27t-29.5 72q0 40 26 75.5t71 55.5l31 -37q-16 -7 -31 -19t-25 -28.5t-10 -36.5q0 -27 17 -41t41 -14q14 0 27 3t27 9l14 -49q-15 -8 -35 -12.5t-45 -4.5z" />
    <glyph glyph-name="iogonek" unicode="&#x12f;" horiz-adv-x="243" 
d="M76 0v503h91v-503h-91zM68 604v98h108v-98h-108zM133 -193q-49 0 -78.5 27t-29.5 72q0 40 26 75.5t71 55.5l31 -37q-16 -7 -31 -19t-25 -28.5t-10 -36.5q0 -27 17 -41t41 -14q14 0 27 3t27 9l14 -49q-15 -8 -35 -12.5t-45 -4.5z" />
    <glyph glyph-name="Idotaccent" unicode="&#x130;" horiz-adv-x="264" 
d="M86 0v705h93v-705h-93zM83 804v94h98v-94h-98z" />
    <glyph glyph-name="dotlessi" unicode="&#x131;" horiz-adv-x="243" 
d="M76 0v503h91v-503h-91z" />
    <glyph glyph-name="IJ" unicode="&#x132;" horiz-adv-x="601" 
d="M86 0v705h93v-705h-93zM346 -187q-17 0 -38 2t-43 7v76q19 -4 36 -6t29 -2q46 0 68.5 28t22.5 89v698h94v-699q0 -63 -18 -106t-55 -65t-96 -22z" />
    <glyph glyph-name="Jcircumflex" unicode="&#x134;" horiz-adv-x="337" 
d="M82 -187q-17 0 -38 2t-43 7v76q19 -4 36 -6t29 -2q46 0 68.5 28t22.5 89v698h94v-699q0 -63 -18 -106t-55 -65t-96 -22zM41 765l122 172h84l122 -172h-66l-98 115l-98 -115h-66z" />
    <glyph glyph-name="jcircumflex" unicode="&#x135;" horiz-adv-x="243" 
d="M15 -220q-15 0 -36.5 3t-35.5 9v75q12 -4 27.5 -7.5t29.5 -3.5q40 0 61 25.5t21 83.5v538h91v-546q0 -87 -39 -132t-119 -45zM-25 552l110 202h84l110 -202h-61l-91 144l-91 -144h-61z" />
    <glyph glyph-name="uni0136" unicode="&#x136;" horiz-adv-x="641" 
d="M86 0v705h93v-319h2l331 319h117l-384 -365l1 45l410 -385h-121l-354 331h-2v-331h-93zM327 -270l-39 27q23 24 30.5 45t7.5 45l22 -12h-74v87h106v-62q0 -38 -12.5 -71t-40.5 -59z" />
    <glyph glyph-name="uni0137" unicode="&#x137;" horiz-adv-x="523" 
d="M76 0v736h91v-455h2l227 222h113l-270 -264l1 43l293 -282h-116l-248 234h-2v-234h-91zM261 -270l-39 27q23 24 30.5 45t7.5 45l22 -12h-74v87h106v-62q0 -38 -12.5 -71t-40.5 -59z" />
    <glyph glyph-name="kgreenlandic" unicode="&#x138;" horiz-adv-x="523" 
d="M76 0v503h91v-222h2l227 222h113l-270 -264l1 43l293 -282h-116l-248 234h-2v-234h-91z" />
    <glyph glyph-name="Lacute" unicode="&#x139;" horiz-adv-x="549" 
d="M86 0v705h93v-625h351v-80h-444zM98 765l118 172h100l-150 -172h-68z" />
    <glyph glyph-name="lacute" unicode="&#x13a;" horiz-adv-x="243" 
d="M76 0v736h91v-736h-91zM88 774l118 172h100l-150 -172h-68z" />
    <glyph glyph-name="uni013B" unicode="&#x13b;" horiz-adv-x="549" 
d="M86 0v705h93v-625h351v-80h-444zM309 -270l-39 27q23 24 30.5 45t7.5 45l22 -12h-74v87h106v-62q0 -38 -12.5 -71t-40.5 -59z" />
    <glyph glyph-name="uni013C" unicode="&#x13c;" horiz-adv-x="243" 
d="M76 0v736h91v-736h-91zM122 -270l-39 27q23 24 30.5 45t7.5 45l22 -12h-74v87h106v-62q0 -38 -12.5 -71t-40.5 -59z" />
    <glyph glyph-name="Lcaron" unicode="&#x13d;" horiz-adv-x="549" 
d="M86 0v705h93v-625h351v-80h-444zM289 477v228h77l-21 -228h-56z" />
    <glyph glyph-name="lcaron" unicode="&#x13e;" horiz-adv-x="243" 
d="M76 0v736h91v-736h-91zM213 546v190h70l-25 -190h-45z" />
    <glyph glyph-name="Ldot" unicode="&#x13f;" horiz-adv-x="549" 
d="M86 0v705h93v-625h351v-80h-444zM355 340v100h111v-100h-111z" />
    <glyph glyph-name="ldot" unicode="&#x140;" horiz-adv-x="243" 
d="M76 0v736h91v-736h-91zM220 305v100h111v-100h-111z" />
    <glyph glyph-name="Lslash" unicode="&#x141;" horiz-adv-x="549" 
d="M86 0v705h93v-625h351v-80h-444zM12 249l-36 64l369 212l36 -64z" />
    <glyph glyph-name="lslash" unicode="&#x142;" horiz-adv-x="243" 
d="M76 0v736h91v-736h-91zM4 253l-37 63l273 158l37 -63z" />
    <glyph glyph-name="Nacute" unicode="&#x143;" horiz-adv-x="748" 
d="M86 0v705h72l442 -584h-24v584h87v-705h-71l-442 584h23v-584h-87zM342 765l118 172h100l-150 -172h-68z" />
    <glyph glyph-name="nacute" unicode="&#x144;" horiz-adv-x="589" 
d="M76 0v384q0 29 -2 59t-6 60h88l10 -108h-12q23 57 71 87t112 30q89 0 134 -48.5t45 -150.5v-313h-91v308q0 69 -27 99.5t-84 30.5q-68 0 -107.5 -41t-39.5 -111v-286h-91zM263 552l103 202h95l-134 -202h-64z" />
    <glyph glyph-name="uni0145" unicode="&#x145;" horiz-adv-x="748" 
d="M86 0v705h72l442 -584h-24v584h87v-705h-71l-442 584h23v-584h-87zM376 -270l-39 27q23 24 30.5 45t7.5 45l22 -12h-74v87h106v-62q0 -38 -12.5 -71t-40.5 -59z" />
    <glyph glyph-name="uni0146" unicode="&#x146;" horiz-adv-x="589" 
d="M76 0v384q0 29 -2 59t-6 60h88l10 -108h-12q23 57 71 87t112 30q89 0 134 -48.5t45 -150.5v-313h-91v308q0 69 -27 99.5t-84 30.5q-68 0 -107.5 -41t-39.5 -111v-286h-91zM295 -270l-39 27q23 24 30.5 45t7.5 45l22 -12h-74v87h106v-62q0 -38 -12.5 -71t-40.5 -59z" />
    <glyph glyph-name="Ncaron" unicode="&#x147;" horiz-adv-x="748" 
d="M86 0v705h72l442 -584h-24v584h87v-705h-71l-442 584h23v-584h-87zM334 765l-122 172h66l98 -115l98 115h66l-122 -172h-84z" />
    <glyph glyph-name="ncaron" unicode="&#x148;" horiz-adv-x="589" 
d="M76 0v384q0 29 -2 59t-6 60h88l10 -108h-12q23 57 71 87t112 30q89 0 134 -48.5t45 -150.5v-313h-91v308q0 69 -27 99.5t-84 30.5q-68 0 -107.5 -41t-39.5 -111v-286h-91zM253 552l-110 202h61l91 -144l91 144h61l-110 -202h-84z" />
    <glyph glyph-name="napostrophe" unicode="&#x149;" horiz-adv-x="678" 
d="M121 570l-38 27q22 22 28.5 42t6.5 40l25 -11h-76v90h105v-62q0 -36 -10.5 -67t-40.5 -59zM164 0v384q0 29 -2 59t-6 60h88l10 -108h-12q23 57 71 87t112 30q89 0 134 -48.5t45 -150.5v-313h-91v308q0 69 -27 99.5t-84 30.5q-68 0 -107.5 -41t-39.5 -111v-286h-91z" />
    <glyph glyph-name="Eng" unicode="&#x14a;" horiz-adv-x="748" 
d="M441 -193l-7 69l48 4q46 4 70 30.5t24 76.5v54l16 -41l-442 584h23v-584h-87v705h72l442 -584h-24v584h87v-708q0 -59 -19 -99.5t-58 -62t-100 -25.5z" />
    <glyph glyph-name="eng" unicode="&#x14b;" horiz-adv-x="589" 
d="M76 0v384q0 29 -2 59t-6 60h88l10 -108h-12q23 57 71.5 87t111.5 30q89 0 134 -48.5t45 -150.5v-352q0 -87 -41.5 -134t-126.5 -47q-19 0 -38 3t-34 9v75q13 -4 26 -7.5t31 -3.5q45 0 68.5 27.5t23.5 85.5v339q0 69 -26.5 99.5t-83.5 30.5q-68 0 -108 -41t-40 -111v-286
h-91z" />
    <glyph glyph-name="Omacron" unicode="&#x14c;" horiz-adv-x="776" 
d="M60 353q0 111 39 192t112.5 125t175.5 44q101 0 174.5 -44t113.5 -125t40 -191q0 -111 -40 -192.5t-113.5 -126t-174.5 -44.5q-102 0 -175 44.5t-112.5 126t-39.5 191.5zM158 353q0 -132 58 -206t171 -74q109 0 169.5 73.5t60.5 206.5t-60 206t-170 73q-113 0 -171 -73
t-58 -206zM221 813v59h332v-59h-332z" />
    <glyph glyph-name="omacron" unicode="&#x14d;" horiz-adv-x="576" 
d="M288 -9q-74 0 -128 31.5t-84 90t-30 139.5q0 80 30 138.5t84 90t128 31.5t128.5 -31.5t84 -90t29.5 -138.5q0 -81 -29.5 -139.5t-84 -90t-128.5 -31.5zM288 63q68 0 109 48t41 141t-41 140t-109 47q-69 0 -109.5 -47t-40.5 -140t40.5 -141t109.5 -48zM138 623v59h302v-59
h-302z" />
    <glyph glyph-name="Obreve" unicode="&#x14e;" horiz-adv-x="776" 
d="M60 353q0 111 39 192t112.5 125t175.5 44q101 0 174.5 -44t113.5 -125t40 -191q0 -111 -40 -192.5t-113.5 -126t-174.5 -44.5q-102 0 -175 44.5t-112.5 126t-39.5 191.5zM158 353q0 -132 58 -206t171 -74q109 0 169.5 73.5t60.5 206.5t-60 206t-170 73q-113 0 -171 -73
t-58 -206zM387 760q-72 0 -119 45.5t-53 123.5l55 7q5 -55 35.5 -86t80.5 -31q51 0 82.5 31t35.5 86l55 -7q-6 -78 -53 -123.5t-119 -45.5z" />
    <glyph glyph-name="obreve" unicode="&#x14f;" horiz-adv-x="576" 
d="M288 -9q-74 0 -128 31.5t-84 90t-30 139.5q0 80 30 138.5t84 90t128 31.5t128.5 -31.5t84 -90t29.5 -138.5q0 -81 -29.5 -139.5t-84 -90t-128.5 -31.5zM288 63q68 0 109 48t41 141t-41 140t-109 47q-69 0 -109.5 -47t-40.5 -140t40.5 -141t109.5 -48zM289 549
q-46 0 -80.5 23.5t-54 66t-22.5 101.5l55 6q4 -66 30.5 -101.5t71.5 -35.5t71.5 35.5t30.5 101.5l55 -6q-2 -59 -22 -101.5t-54.5 -66t-80.5 -23.5z" />
    <glyph glyph-name="Ohungarumlaut" unicode="&#x150;" horiz-adv-x="776" 
d="M60 353q0 111 39 192t112.5 125t175.5 44q101 0 174.5 -44t113.5 -125t40 -191q0 -111 -40 -192.5t-113.5 -126t-174.5 -44.5q-102 0 -175 44.5t-112.5 126t-39.5 191.5zM158 353q0 -132 58 -206t171 -74q109 0 169.5 73.5t60.5 206.5t-60 206t-170 73q-113 0 -171 -73
t-58 -206zM295 765l85 172h88l-120 -172h-53zM426 765l91 172h88l-126 -172h-53z" />
    <glyph glyph-name="ohungarumlaut" unicode="&#x151;" horiz-adv-x="576" 
d="M288 -9q-74 0 -128 31.5t-84 90t-30 139.5q0 80 30 138.5t84 90t128 31.5t128.5 -31.5t84 -90t29.5 -138.5q0 -81 -29.5 -139.5t-84 -90t-128.5 -31.5zM288 63q68 0 109 48t41 141t-41 140t-109 47q-69 0 -109.5 -47t-40.5 -140t40.5 -141t109.5 -48zM329 552l53 202h82
l-85 -202h-50zM197 552l52 202h83l-85 -202h-50z" />
    <glyph glyph-name="OE" unicode="&#x152;" horiz-adv-x="1056" 
d="M556 0v705h452v-76h-362v-233h340v-76h-340v-244h362v-76h-452zM381 -9q-100 0 -172 44.5t-110.5 126t-38.5 191.5q0 111 38 192t110 125t173 44q56 0 105 -12.5t85 -44.5v-104q-29 43 -75 61t-109 18q-113 0 -171 -73t-58 -206q0 -132 58 -206t171 -74q64 0 111.5 21
t76.5 66v-102q-24 -22 -54.5 -37t-66 -22.5t-73.5 -7.5z" />
    <glyph glyph-name="oe" unicode="&#x153;" horiz-adv-x="933" 
d="M288 -9q-74 0 -128.5 31.5t-84 90.5t-29.5 139q0 81 29.5 139.5t84 89.5t128.5 31q77 0 130.5 -38.5t78.5 -110.5h-26q25 72 79 110.5t129 38.5q98 0 154.5 -64t56.5 -175v-31h-379v54h318l-18 -12q0 76 -34.5 119t-99.5 43q-71 0 -109.5 -50.5t-38.5 -136.5v-6
q0 -95 43.5 -142.5t126.5 -47.5q42 0 80 14t73 42l31 -63q-22 -21 -52.5 -36t-64 -22t-64.5 -7q-90 0 -148 38.5t-83 111.5h25q-24 -73 -77.5 -111.5t-130.5 -38.5zM289 63q68 0 109 48t41 141q0 92 -41 139.5t-109 47.5q-69 0 -110 -47.5t-41 -139.5q0 -93 41 -141t110 -48
z" />
    <glyph glyph-name="Racute" unicode="&#x154;" horiz-adv-x="695" 
d="M86 0v705h292q113 0 174.5 -53t61.5 -148q0 -63 -28 -107t-78.5 -67t-117.5 -23l17 14h24q41 0 73 -20.5t53 -66.5l100 -234h-103l-97 232q-17 43 -49.5 56t-81.5 13h-147v-301h-93zM179 373h185q77 0 117.5 33t40.5 96q0 62 -40.5 94.5t-117.5 32.5h-185v-256zM313 765
l118 172h100l-150 -172h-68z" />
    <glyph glyph-name="racute" unicode="&#x155;" horiz-adv-x="370" 
d="M75 0v380q0 30 -1.5 61.5t-5.5 61.5h88l11 -126l-15 -1q10 46 34.5 76.5t59 45t71.5 14.5q16 0 27 -1t22 -5l-2 -81q-15 6 -27.5 7.5t-30.5 1.5q-44 0 -75.5 -20t-48 -53t-16.5 -71v-290h-91zM194 552l103 202h95l-134 -202h-64z" />
    <glyph glyph-name="uni0156" unicode="&#x156;" horiz-adv-x="695" 
d="M86 0v705h292q113 0 174.5 -53t61.5 -148q0 -63 -28 -107t-78.5 -67t-117.5 -23l17 14h24q41 0 73 -20.5t53 -66.5l100 -234h-103l-97 232q-17 43 -49.5 56t-81.5 13h-147v-301h-93zM179 373h185q77 0 117.5 33t40.5 96q0 62 -40.5 94.5t-117.5 32.5h-185v-256zM348 -270
l-39 27q23 24 30.5 45t7.5 45l22 -12h-74v87h106v-62q0 -38 -12.5 -71t-40.5 -59z" />
    <glyph glyph-name="uni0157" unicode="&#x157;" horiz-adv-x="370" 
d="M75 0v380q0 30 -1.5 61.5t-5.5 61.5h88l11 -126l-15 -1q10 46 34.5 76.5t59 45t71.5 14.5q16 0 27 -1t22 -5l-2 -81q-15 6 -27.5 7.5t-30.5 1.5q-44 0 -75.5 -20t-48 -53t-16.5 -71v-290h-91zM121 -270l-39 27q23 24 30.5 45t7.5 45l22 -12h-74v87h106v-62
q0 -38 -12.5 -71t-40.5 -59z" />
    <glyph glyph-name="Rcaron" unicode="&#x158;" horiz-adv-x="695" 
d="M86 0v705h292q113 0 174.5 -53t61.5 -148q0 -63 -28 -107t-78.5 -67t-117.5 -23l17 14h24q41 0 73 -20.5t53 -66.5l100 -234h-103l-97 232q-17 43 -49.5 56t-81.5 13h-147v-301h-93zM179 373h185q77 0 117.5 33t40.5 96q0 62 -40.5 94.5t-117.5 32.5h-185v-256zM305 765
l-122 172h66l98 -115l98 115h66l-122 -172h-84z" />
    <glyph glyph-name="rcaron" unicode="&#x159;" horiz-adv-x="370" 
d="M75 0v380q0 30 -1.5 61.5t-5.5 61.5h88l11 -126l-15 -1q10 46 34.5 76.5t59 45t71.5 14.5q16 0 27 -1t22 -5l-2 -81q-15 6 -27.5 7.5t-30.5 1.5q-44 0 -75.5 -20t-48 -53t-16.5 -71v-290h-91zM184 552l-110 202h61l91 -144l91 144h61l-110 -202h-84z" />
    <glyph glyph-name="Sacute" unicode="&#x15a;" horiz-adv-x="628" 
d="M319 -9q-85 0 -153 22t-118 62l32 74q35 -26 71 -43.5t77.5 -26t90.5 -8.5q87 0 128.5 31.5t41.5 83.5q0 45 -29 69t-101 38l-107 22q-97 20 -144.5 65.5t-47.5 123.5q0 63 33.5 110.5t93 73.5t139.5 26q74 0 137 -22t106 -65l-32 -71q-45 41 -96.5 59.5t-116.5 18.5
q-79 0 -125 -34t-46 -92q0 -46 29 -72.5t96 -40.5l107 -21q102 -20 149.5 -63t47.5 -119q0 -60 -32 -105.5t-91 -70.5t-140 -25zM290 765l118 172h100l-150 -172h-68z" />
    <glyph glyph-name="sacute" unicode="&#x15b;" horiz-adv-x="497" 
d="M246 -9q-61 0 -113.5 16t-86.5 46l29 63q37 -28 81.5 -42.5t91.5 -14.5q57 0 86.5 21t29.5 56q0 28 -19 45t-60 25l-95 19q-64 15 -96.5 48.5t-32.5 86.5q0 44 24 78.5t68.5 54t104.5 19.5q55 0 102.5 -16t78.5 -47l-30 -61q-31 27 -69.5 41.5t-78.5 14.5
q-58 0 -86 -22.5t-28 -58.5q0 -27 17 -44.5t55 -26.5l95 -19q67 -14 101 -46t34 -85q0 -47 -25.5 -81t-71 -52t-106.5 -18zM222 552l103 202h95l-134 -202h-64z" />
    <glyph glyph-name="Scircumflex" unicode="&#x15c;" horiz-adv-x="628" 
d="M319 -9q-85 0 -153 22t-118 62l32 74q35 -26 71 -43.5t77.5 -26t90.5 -8.5q87 0 128.5 31.5t41.5 83.5q0 45 -29 69t-101 38l-107 22q-97 20 -144.5 65.5t-47.5 123.5q0 63 33.5 110.5t93 73.5t139.5 26q74 0 137 -22t106 -65l-32 -71q-45 41 -96.5 59.5t-116.5 18.5
q-79 0 -125 -34t-46 -92q0 -46 29 -72.5t96 -40.5l107 -21q102 -20 149.5 -63t47.5 -119q0 -60 -32 -105.5t-91 -70.5t-140 -25zM160 765l122 172h84l122 -172h-66l-98 115l-98 -115h-66z" />
    <glyph glyph-name="scircumflex" unicode="&#x15d;" horiz-adv-x="497" 
d="M246 -9q-61 0 -113.5 16t-86.5 46l29 63q37 -28 81.5 -42.5t91.5 -14.5q57 0 86.5 21t29.5 56q0 28 -19 45t-60 25l-95 19q-64 15 -96.5 48.5t-32.5 86.5q0 44 24 78.5t68.5 54t104.5 19.5q55 0 102.5 -16t78.5 -47l-30 -61q-31 27 -69.5 41.5t-78.5 14.5
q-58 0 -86 -22.5t-28 -58.5q0 -27 17 -44.5t55 -26.5l95 -19q67 -14 101 -46t34 -85q0 -47 -25.5 -81t-71 -52t-106.5 -18zM102 552l110 202h84l110 -202h-61l-91 144l-91 -144h-61z" />
    <glyph glyph-name="Scedilla" unicode="&#x15e;" horiz-adv-x="628" 
d="M319 -9q-85 0 -153 22t-118 62l32 74q35 -26 71 -43.5t77.5 -26t90.5 -8.5q87 0 128.5 31.5t41.5 83.5q0 45 -29 69t-101 38l-107 22q-97 20 -144.5 65.5t-47.5 123.5q0 63 33.5 110.5t93 73.5t139.5 26q74 0 137 -22t106 -65l-32 -71q-45 41 -96.5 59.5t-116.5 18.5
q-79 0 -125 -34t-46 -92q0 -46 29 -72.5t96 -40.5l107 -21q102 -20 149.5 -63t47.5 -119q0 -60 -32 -105.5t-91 -70.5t-140 -25zM328 -193q-27 0 -51.5 5.5t-41.5 14.5l14 47q19 -9 35.5 -13t38.5 -4q27 0 42.5 9t15.5 27q0 26 -38 26q-11 0 -21 -1.5t-25 -5.5l-17 16l14 92
h55l-13 -76l-26 8q11 3 23.5 5t22.5 2q37 0 61 -18t24 -51q0 -37 -31.5 -60t-81.5 -23z" />
    <glyph glyph-name="scedilla" unicode="&#x15f;" horiz-adv-x="497" 
d="M246 -9q-61 0 -113.5 16t-86.5 46l29 63q37 -28 81.5 -42.5t91.5 -14.5q57 0 86.5 21t29.5 56q0 28 -19 45t-60 25l-95 19q-64 15 -96.5 48.5t-32.5 86.5q0 44 24 78.5t68.5 54t104.5 19.5q55 0 102.5 -16t78.5 -47l-30 -61q-31 27 -69.5 41.5t-78.5 14.5
q-58 0 -86 -22.5t-28 -58.5q0 -27 17 -44.5t55 -26.5l95 -19q67 -14 101 -46t34 -85q0 -47 -25.5 -81t-71 -52t-106.5 -18zM249 -193q-27 0 -51.5 5.5t-41.5 14.5l14 47q19 -9 35.5 -13t38.5 -4q27 0 42.5 9t15.5 27q0 26 -38 26q-11 0 -21 -1.5t-25 -5.5l-17 16l14 92h55
l-13 -76l-26 8q11 3 23.5 5t22.5 2q37 0 61 -18t24 -51q0 -37 -31.5 -60t-81.5 -23z" />
    <glyph glyph-name="Scaron" unicode="&#x160;" horiz-adv-x="628" 
d="M319 -9q-85 0 -153 22t-118 62l32 74q35 -26 71 -43.5t77.5 -26t90.5 -8.5q87 0 128.5 31.5t41.5 83.5q0 45 -29 69t-101 38l-107 22q-97 20 -144.5 65.5t-47.5 123.5q0 63 33.5 110.5t93 73.5t139.5 26q74 0 137 -22t106 -65l-32 -71q-45 41 -96.5 59.5t-116.5 18.5
q-79 0 -125 -34t-46 -92q0 -46 29 -72.5t96 -40.5l107 -21q102 -20 149.5 -63t47.5 -119q0 -60 -32 -105.5t-91 -70.5t-140 -25zM282 765l-122 172h66l98 -115l98 115h66l-122 -172h-84z" />
    <glyph glyph-name="scaron" unicode="&#x161;" horiz-adv-x="497" 
d="M246 -9q-61 0 -113.5 16t-86.5 46l29 63q37 -28 81.5 -42.5t91.5 -14.5q57 0 86.5 21t29.5 56q0 28 -19 45t-60 25l-95 19q-64 15 -96.5 48.5t-32.5 86.5q0 44 24 78.5t68.5 54t104.5 19.5q55 0 102.5 -16t78.5 -47l-30 -61q-31 27 -69.5 41.5t-78.5 14.5
q-58 0 -86 -22.5t-28 -58.5q0 -27 17 -44.5t55 -26.5l95 -19q67 -14 101 -46t34 -85q0 -47 -25.5 -81t-71 -52t-106.5 -18zM212 552l-110 202h61l91 -144l91 144h61l-110 -202h-84z" />
    <glyph glyph-name="uni0162" unicode="&#x162;" horiz-adv-x="607" 
d="M255 0v626h-244v79h583v-79h-245v-626h-94zM307 -193q-27 0 -51.5 5.5t-41.5 14.5l14 47q19 -9 35.5 -13t38.5 -4q27 0 42.5 9t15.5 27q0 26 -38 26q-11 0 -21 -1.5t-25 -5.5l-17 16l14 92h55l-13 -76l-26 8q11 3 23.5 5t22.5 2q37 0 61 -18t24 -51q0 -37 -31.5 -60
t-81.5 -23z" />
    <glyph glyph-name="uni0163" unicode="&#x163;" horiz-adv-x="356" 
d="M264 -9q-79 0 -119.5 43.5t-40.5 131.5v267h-98v70h98v135l91 25v-160h142v-70h-142v-259q0 -58 20.5 -82.5t59.5 -24.5q20 0 34.5 3.5t26.5 8.5v-75q-15 -6 -34.5 -9.5t-37.5 -3.5zM231 -193q-27 0 -51.5 5.5t-41.5 14.5l14 47q19 -9 35.5 -13t38.5 -4q27 0 42.5 9
t15.5 27q0 26 -38 26q-11 0 -21 -1.5t-25 -5.5l-17 16l14 92h55l-13 -76l-26 8q11 3 23.5 5t22.5 2q37 0 61 -18t24 -51q0 -37 -31.5 -60t-81.5 -23z" />
    <glyph glyph-name="Tcaron" unicode="&#x164;" horiz-adv-x="607" 
d="M255 0v626h-244v79h583v-79h-245v-626h-94zM262 765l-122 172h66l98 -115l98 115h66l-122 -172h-84z" />
    <glyph glyph-name="tcaron" unicode="&#x165;" horiz-adv-x="356" 
d="M264 -9q-79 0 -119.5 43.5t-40.5 131.5v267h-98v70h98v135l91 25v-160h142v-70h-142v-259q0 -58 20.5 -82.5t59.5 -24.5q20 0 34.5 3.5t26.5 8.5v-75q-15 -6 -34.5 -9.5t-37.5 -3.5zM264 542v172h69l-24 -172h-45z" />
    <glyph glyph-name="Tbar" unicode="&#x166;" horiz-adv-x="607" 
d="M255 0v626h-244v79h583v-79h-245v-626h-94zM116 322v71h376v-71h-376z" />
    <glyph glyph-name="tbar" unicode="&#x167;" horiz-adv-x="356" 
d="M264 -9q-79 0 -119.5 43.5t-40.5 131.5v267h-98v70h98v135l91 25v-160h142v-70h-142v-259q0 -58 20.5 -82.5t59.5 -24.5q20 0 34.5 3.5t26.5 8.5v-75q-15 -6 -34.5 -9.5t-37.5 -3.5zM34 244v60h281v-60h-281z" />
    <glyph glyph-name="Utilde" unicode="&#x168;" horiz-adv-x="733" 
d="M367 -9q-145 0 -215.5 73.5t-70.5 216.5v424h94v-421q0 -105 46 -158t146 -53q96 0 144.5 53t48.5 158v421h92v-424q0 -143 -72 -216.5t-213 -73.5zM205 780l-50 3q6 66 39.5 101.5t83.5 35.5q23 0 46.5 -9.5t56.5 -30.5q30 -18 47 -25.5t31 -7.5q29 0 46.5 19.5
t23.5 56.5l50 -3q-6 -65 -39 -101t-83 -36q-23 0 -47.5 10t-59.5 32q-28 19 -44 25.5t-31 6.5q-29 0 -46.5 -19.5t-23.5 -57.5z" />
    <glyph glyph-name="utilde" unicode="&#x169;" horiz-adv-x="582" 
d="M255 -9q-91 0 -136.5 49t-45.5 151v312h91v-310q0 -66 27 -97t84 -31q62 0 100.5 41.5t38.5 110.5v286h91v-503h-88v111h13q-21 -57 -67 -88.5t-108 -31.5zM157 590l-49 3q5 65 35 101t75 36q21 0 40 -10t43 -31q21 -18 34.5 -25.5t26.5 -7.5q51 0 63 77l49 -3
q-4 -66 -34 -101.5t-75 -35.5q-21 0 -40 10t-45 31q-20 18 -33 25t-27 7q-27 0 -42 -20t-21 -56z" />
    <glyph glyph-name="Umacron" unicode="&#x16a;" horiz-adv-x="733" 
d="M367 -9q-145 0 -215.5 73.5t-70.5 216.5v424h94v-421q0 -105 46 -158t146 -53q96 0 144.5 53t48.5 158v421h92v-424q0 -143 -72 -216.5t-213 -73.5zM201 813v59h332v-59h-332z" />
    <glyph glyph-name="umacron" unicode="&#x16b;" horiz-adv-x="582" 
d="M255 -9q-91 0 -136.5 49t-45.5 151v312h91v-310q0 -66 27 -97t84 -31q62 0 100.5 41.5t38.5 110.5v286h91v-503h-88v111h13q-21 -57 -67 -88.5t-108 -31.5zM140 624v59h302v-59h-302z" />
    <glyph glyph-name="Ubreve" unicode="&#x16c;" horiz-adv-x="733" 
d="M367 -9q-145 0 -215.5 73.5t-70.5 216.5v424h94v-421q0 -105 46 -158t146 -53q96 0 144.5 53t48.5 158v421h92v-424q0 -143 -72 -216.5t-213 -73.5zM367 760q-72 0 -119 45.5t-53 123.5l55 7q5 -55 35.5 -86t80.5 -31q51 0 82.5 31t35.5 86l55 -7q-6 -78 -53 -123.5
t-119 -45.5z" />
    <glyph glyph-name="ubreve" unicode="&#x16d;" horiz-adv-x="582" 
d="M255 -9q-91 0 -136.5 49t-45.5 151v312h91v-310q0 -66 27 -97t84 -31q62 0 100.5 41.5t38.5 110.5v286h91v-503h-88v111h13q-21 -57 -67 -88.5t-108 -31.5zM291 550q-46 0 -80.5 23.5t-54 66t-22.5 101.5l55 6q4 -66 30.5 -101.5t71.5 -35.5t71.5 35.5t30.5 101.5l55 -6
q-2 -59 -22 -101.5t-54.5 -66t-80.5 -23.5z" />
    <glyph glyph-name="Uring" unicode="&#x16e;" horiz-adv-x="733" 
d="M367 -9q-145 0 -215.5 73.5t-70.5 216.5v424h94v-421q0 -105 46 -158t146 -53q96 0 144.5 53t48.5 158v421h92v-424q0 -143 -72 -216.5t-213 -73.5zM367 757q-33 0 -60.5 16t-43.5 43t-16 59q0 33 16 59.5t43 42t61 15.5t61 -15.5t43 -42t16 -59.5t-16 -59.5t-42.5 -42.5
t-61.5 -16zM367 804q31 0 50.5 20.5t19.5 50.5t-19 50t-51 20q-30 0 -50 -20.5t-20 -49.5q0 -30 19.5 -50.5t50.5 -20.5z" />
    <glyph glyph-name="uring" unicode="&#x16f;" horiz-adv-x="582" 
d="M255 -9q-91 0 -136.5 49t-45.5 151v312h91v-310q0 -66 27 -97t84 -31q62 0 100.5 41.5t38.5 110.5v286h91v-503h-88v111h13q-21 -57 -67 -88.5t-108 -31.5zM291 547q-33 0 -60.5 16t-43.5 42.5t-16 59.5t16 59t43 42t61 16t61 -16t43 -42t16 -60q0 -32 -16 -58.5
t-42.5 -42.5t-61.5 -16zM291 594q31 0 50.5 20.5t19.5 49.5q0 31 -19 51t-51 20q-30 0 -50 -20t-20 -50q0 -31 19.5 -51t50.5 -20z" />
    <glyph glyph-name="Uhungarumlaut" unicode="&#x170;" horiz-adv-x="733" 
d="M367 -9q-145 0 -215.5 73.5t-70.5 216.5v424h94v-421q0 -105 46 -158t146 -53q96 0 144.5 53t48.5 158v421h92v-424q0 -143 -72 -216.5t-213 -73.5zM275 765l85 172h88l-120 -172h-53zM406 765l91 172h88l-126 -172h-53z" />
    <glyph glyph-name="uhungarumlaut" unicode="&#x171;" horiz-adv-x="582" 
d="M255 -9q-91 0 -136.5 49t-45.5 151v312h91v-310q0 -66 27 -97t84 -31q62 0 100.5 41.5t38.5 110.5v286h91v-503h-88v111h13q-21 -57 -67 -88.5t-108 -31.5zM331 553l53 202h82l-85 -202h-50zM199 553l52 202h83l-85 -202h-50z" />
    <glyph glyph-name="Uogonek" unicode="&#x172;" horiz-adv-x="733" 
d="M367 -9q-145 0 -215.5 73.5t-70.5 216.5v424h94v-421q0 -105 46 -158t146 -53q96 0 144.5 53t48.5 158v421h92v-424q0 -143 -72 -216.5t-213 -73.5zM428 -193q-49 0 -78.5 27t-29.5 72q0 40 26 75.5t71 55.5l31 -37q-16 -7 -31 -19t-25 -28.5t-10 -36.5q0 -27 17 -41
t41 -14q14 0 27 3t27 9l14 -49q-15 -8 -35 -12.5t-45 -4.5z" />
    <glyph glyph-name="uogonek" unicode="&#x173;" horiz-adv-x="582" 
d="M255 -9q-91 0 -136.5 49t-45.5 151v312h91v-310q0 -66 27 -97t84 -31q62 0 100.5 41.5t38.5 110.5v286h91v-503h-88v111h13q-21 -57 -67 -88.5t-108 -31.5zM468 -193q-49 0 -78.5 27t-29.5 72q0 40 26 75.5t71 55.5l31 -37q-16 -7 -31 -19t-25 -28.5t-10 -36.5
q0 -27 17 -41t41 -14q14 0 27 3t27 9l14 -49q-15 -8 -35 -12.5t-45 -4.5z" />
    <glyph glyph-name="Wcircumflex" unicode="&#x174;" horiz-adv-x="1114" 
d="M279 0l-247 705h98l209 -622h-36l222 622h73l208 -622h-32l216 622h92l-249 -705h-81l-203 595h21l-211 -595h-80zM393 765l122 172h84l122 -172h-66l-98 115l-98 -115h-66z" />
    <glyph glyph-name="wcircumflex" unicode="&#x175;" horiz-adv-x="872" 
d="M212 0l-188 503h95l152 -431h-26l156 431h74l155 -431h-25l153 431h91l-189 -503h-86l-160 438h44l-159 -438h-87zM284 552l110 202h84l110 -202h-61l-91 144l-91 -144h-61z" />
    <glyph glyph-name="Ycircumflex" unicode="&#x176;" horiz-adv-x="612" 
d="M259 0v330l20 -61l-294 436h108l226 -344h-23l226 344h105l-294 -436l19 61v-330h-93zM142 765l122 172h84l122 -172h-66l-98 115l-98 -115h-66z" />
    <glyph glyph-name="ycircumflex" unicode="&#x177;" horiz-adv-x="534" 
d="M59 -227l-21 74q47 11 78 25.5t52 37.5t37 58l25 60l-2 -38l-219 513h98l175 -431h-26l175 431h94l-231 -542q-21 -49 -45.5 -82t-53 -54t-62.5 -33t-74 -19zM114 552l110 202h84l110 -202h-61l-91 144l-91 -144h-61z" />
    <glyph glyph-name="Ydieresis" unicode="&#x178;" horiz-adv-x="612" 
d="M259 0v330l20 -61l-294 436h108l226 -344h-23l226 344h105l-294 -436l19 61v-330h-93zM348 802v93h93v-93h-93zM171 802v93h93v-93h-93z" />
    <glyph glyph-name="Zacute" unicode="&#x179;" horiz-adv-x="599" 
d="M44 0v69l419 590v-33h-419v79h508v-68l-420 -591v33h432v-79h-520zM270 765l118 172h100l-150 -172h-68z" />
    <glyph glyph-name="zacute" unicode="&#x17a;" horiz-adv-x="520" 
d="M49 0v61l334 395v-23h-334v70h418v-61l-336 -397l-1 25h348v-70h-429zM228 552l103 202h95l-134 -202h-64z" />
    <glyph glyph-name="Zdotaccent" unicode="&#x17b;" horiz-adv-x="599" 
d="M44 0v69l419 590v-33h-419v79h508v-68l-420 -591v33h432v-79h-520zM255 804v94h98v-94h-98z" />
    <glyph glyph-name="zdotaccent" unicode="&#x17c;" horiz-adv-x="520" 
d="M49 0v61l334 395v-23h-334v70h418v-61l-336 -397l-1 25h348v-70h-429zM211 606v94h98v-94h-98z" />
    <glyph glyph-name="Zcaron" unicode="&#x17d;" horiz-adv-x="599" 
d="M44 0v69l419 590v-33h-419v79h508v-68l-420 -591v33h432v-79h-520zM262 765l-122 172h66l98 -115l98 115h66l-122 -172h-84z" />
    <glyph glyph-name="zcaron" unicode="&#x17e;" horiz-adv-x="520" 
d="M49 0v61l334 395v-23h-334v70h418v-61l-336 -397l-1 25h348v-70h-429zM218 552l-110 202h61l91 -144l91 144h61l-110 -202h-84z" />
    <glyph glyph-name="uni0181" unicode="&#x181;" horiz-adv-x="818" 
d="M220 0v635h-32q-57 0 -83.5 -25.5t-26.5 -79.5v-46h-79v49q0 87 48.5 129.5t149.5 42.5h311q113 0 174 -48t61 -135q0 -66 -39 -110t-107 -59v15q77 -9 120.5 -54.5t43.5 -118.5q0 -94 -63 -144.5t-178 -50.5h-300zM311 74h200q80 0 119.5 30t39.5 93q0 62 -39 92.5
t-120 30.5h-200v-246zM311 394h183q78 0 117.5 30.5t39.5 88.5t-39.5 88.5t-117.5 30.5h-183v-238z" />
    <glyph glyph-name="uni018A" unicode="&#x18a;" horiz-adv-x="885" 
d="M220 0v635h-32q-57 0 -83.5 -25.5t-26.5 -79.5v-46h-79v49q0 87 48 129.5t144 42.5h269q175 0 270 -90.5t95 -261.5t-95 -262t-270 -91h-240zM313 79h140q140 0 208.5 68t68.5 206t-68.5 205.5t-208.5 67.5h-140v-547z" />
    <glyph glyph-name="uni018F" unicode="&#x18f;" horiz-adv-x="754" 
d="M375 -9q-112 0 -181 45.5t-101.5 127t-32.5 190.5v39h556v-75h-485l24 35q0 -92 20.5 -155t68.5 -95.5t127 -32.5q110 0 168.5 73.5t58.5 210.5q0 134 -63 206t-189 72q-46 0 -84 -8t-70.5 -25.5t-67.5 -45.5l-35 72q50 44 114.5 66.5t152.5 22.5q107 0 182.5 -43
t115 -124t39.5 -194q0 -111 -38.5 -192.5t-110 -125.5t-169.5 -44z" />
    <glyph glyph-name="florin" unicode="&#x192;" horiz-adv-x="600" 
d="M39 -189v73h50q42 0 68.5 23t38.5 79l94 441l17 -10h-137v70h148l-19 -15l15 70q16 83 65 127.5t130 44.5h51v-75h-44q-46 0 -73 -22t-39 -79l-14 -66l-14 15h139v-70h-153l19 11l-96 -446q-17 -82 -64.5 -126.5t-126.5 -44.5h-55z" />
    <glyph glyph-name="Ohorn" unicode="&#x1a0;" horiz-adv-x="776" 
d="M60 353q0 111 39 192t112.5 125t175.5 44q101 0 174.5 -44t113.5 -125t40 -191q0 -111 -40 -192.5t-113.5 -126t-174.5 -44.5q-102 0 -175 44.5t-112.5 126t-39.5 191.5zM158 353q0 -132 58 -206t171 -74q109 0 169.5 73.5t60.5 206.5t-60 206t-170 73q-113 0 -171 -73
t-58 -206zM497 652l-48 57q25 -1 43.5 -2.5t36.5 -1.5q41 0 64.5 11t33.5 36t10 65v17h80v-30q0 -45 -17.5 -79t-49.5 -53.5t-76 -19.5h-77z" />
    <glyph glyph-name="ohorn" unicode="&#x1a1;" horiz-adv-x="576" 
d="M288 -9q-74 0 -128 31.5t-84 90t-30 139.5q0 80 30 138.5t84 90t128 31.5t128.5 -31.5t84 -90t29.5 -138.5q0 -81 -29.5 -139.5t-84 -90t-128.5 -31.5zM288 63q68 0 109 48t41 141t-41 140t-109 47q-69 0 -109.5 -47t-40.5 -140t40.5 -141t109.5 -48zM389 450l-49 31v22
q41 1 64.5 12t33.5 36t10 64v17h80v-30q0 -45 -16.5 -77.5t-47.5 -52t-75 -22.5z" />
    <glyph glyph-name="Uhorn" unicode="&#x1af;" horiz-adv-x="733" 
d="M367 -9q-145 0 -215.5 73.5t-70.5 216.5v424h94v-421q0 -105 46 -158t146 -53q96 0 144.5 53t48.5 158v421h92v-424q0 -143 -72 -216.5t-213 -73.5zM638 652l-48 32v21q41 1 64.5 12t33 36t9.5 64v17h81v-30q0 -45 -16.5 -77.5t-48 -52t-75.5 -22.5z" />
    <glyph glyph-name="uhorn" unicode="&#x1b0;" horiz-adv-x="582" 
d="M255 -9q-91 0 -136.5 49t-45.5 151v312h91v-310q0 -66 27 -97t84 -31q62 0 100.5 41.5t38.5 110.5v286h91v-503h-88v111h13q-21 -57 -67 -88.5t-108 -31.5zM482 450l-49 31v22q41 1 64.5 12t33.5 36t10 64v17h80v-30q0 -45 -16.5 -77.5t-47.5 -52t-75 -22.5z" />
    <glyph glyph-name="uni01B3" unicode="&#x1b3;" horiz-adv-x="612" 
d="M259 0v364l20 -61l-294 402h108l226 -310h-22l167 236q30 43 67.5 63t85.5 20q19 0 34.5 -2.5t28.5 -8.5v-67q-10 4 -22.5 5.5t-26.5 1.5q-26 0 -48.5 -11t-42.5 -39l-207 -290l19 61v-364h-93z" />
    <glyph glyph-name="uni01B4" unicode="&#x1b4;" horiz-adv-x="575" 
d="M59 -227l-21 74q47 11 78 25.5t52 37.5t37 58l25 60l-2 -38l-219 513h98l175 -431h-26l132 326q24 58 60 86t97 28q19 0 35 -2.5t29 -6.5l-12 -70q-10 3 -20 4.5t-19 1.5q-32 0 -53.5 -17t-42.5 -65l-168 -396q-21 -49 -45.5 -82t-53 -54t-62.5 -33t-74 -19z" />
    <glyph glyph-name="uni01C4" unicode="&#x1c4;" horiz-adv-x="1334" 
d="M86 0v705h239q118 0 199.5 -41t123.5 -119.5t42 -191.5t-42 -192t-123.5 -120t-199.5 -41h-239zM179 79h139q141 0 209 68t68 206t-68 205.5t-209 67.5h-139v-547zM779 0v69l419 590v-33h-419v79h508v-68l-420 -591v33h432v-79h-520zM997 765l-122 172h66l98 -115l98 115
h66l-122 -172h-84z" />
    <glyph glyph-name="uni01C5" unicode="&#x1c5;" horiz-adv-x="1270" 
d="M86 0v705h239q118 0 199.5 -41t123.5 -119.5t42 -191.5t-42 -192t-123.5 -120t-199.5 -41h-239zM179 79h139q141 0 209 68t68 206t-68 205.5t-209 67.5h-139v-547zM799 0v61l334 395v-23h-334v70h418v-61l-336 -397l-1 25h348v-70h-429zM969 552l-110 202h61l91 -144
l91 144h61l-110 -202h-84z" />
    <glyph glyph-name="uni01C6" unicode="&#x1c6;" horiz-adv-x="1125" 
d="M268 -9q-66 0 -116 31t-78 90t-28 140t28 139.5t78 89.5t116 31t115.5 -33t66.5 -91h-12v348h91v-736h-90v117h11q-16 -59 -65.5 -92.5t-116.5 -33.5zM289 63q68 0 109.5 48t41.5 141t-41.5 140t-109.5 47t-109.5 -47t-41.5 -140t41.5 -141t109.5 -48zM654 0v61l334 395
v-23h-334v70h418v-61l-336 -397l-1 25h348v-70h-429zM823 552l-110 202h61l91 -144l91 144h61l-110 -202h-84z" />
    <glyph glyph-name="uni01C7" unicode="&#x1c7;" horiz-adv-x="925" 
d="M86 0v705h93v-625h351v-80h-444zM671 -187q-17 0 -38 2t-43 7v76q19 -4 36 -6t29 -2q46 0 68.5 28t22.5 89v698h94v-699q0 -63 -18 -106t-55 -65t-96 -22z" />
    <glyph glyph-name="uni01C8" unicode="&#x1c8;" horiz-adv-x="792" 
d="M86 0v705h93v-625h351v-80h-444zM563 -220q-15 0 -36.5 3t-35.5 9v75q12 -4 28 -7.5t29 -3.5q41 0 61.5 25.5t20.5 83.5v538h91v-546q0 -87 -39 -132t-119 -45zM621 613v98h108v-98h-108z" />
    <glyph glyph-name="uni01C9" unicode="&#x1c9;" horiz-adv-x="486" 
d="M76 0v736h91v-736h-91zM257 -220q-15 0 -36.5 3t-35.5 9v75q12 -4 28 -7.5t29 -3.5q41 0 61.5 25.5t20.5 83.5v538h91v-546q0 -87 -39 -132t-119 -45zM315 613v98h108v-98h-108z" />
    <glyph glyph-name="uni01CA" unicode="&#x1ca;" horiz-adv-x="1085" 
d="M86 0v705h72l442 -584h-24v584h87v-705h-71l-442 584h23v-584h-87zM830 -187q-17 0 -38 2t-43 7v76q19 -4 36 -6t29 -2q46 0 68.5 28t22.5 89v698h94v-699q0 -63 -18 -106t-55 -65t-96 -22z" />
    <glyph glyph-name="uni01CB" unicode="&#x1cb;" horiz-adv-x="992" 
d="M86 0v705h72l442 -584h-24v584h87v-705h-71l-442 584h23v-584h-87zM762 -220q-15 0 -36.5 3t-35.5 9v75q12 -4 28 -7.5t29 -3.5q41 0 61.5 25.5t20.5 83.5v538h91v-546q0 -87 -39 -132t-119 -45zM820 613v98h108v-98h-108z" />
    <glyph glyph-name="uni01CC" unicode="&#x1cc;" horiz-adv-x="832" 
d="M76 0v384q0 29 -2 59t-6 60h88l10 -108h-12q23 57 71 87t112 30q89 0 134 -48.5t45 -150.5v-313h-91v308q0 69 -27 99.5t-84 30.5q-68 0 -107.5 -41t-39.5 -111v-286h-91zM603 -220q-15 0 -36.5 3t-35.5 9v75q12 -4 28 -7.5t29 -3.5q41 0 61.5 25.5t20.5 83.5v538h91
v-546q0 -87 -39 -132t-119 -45zM661 613v98h108v-98h-108z" />
    <glyph glyph-name="uni01CD" unicode="&#x1cd;" horiz-adv-x="738" 
d="M14 0l312 705h81l317 -705h-96l-87 200l40 -24h-429l44 24l-87 -200h-95zM365 601l-156 -370l-24 21h363l-19 -21l-160 370h-4zM325 765l-122 172h66l98 -115l98 115h66l-122 -172h-84z" />
    <glyph glyph-name="uni01CE" unicode="&#x1ce;" horiz-adv-x="605" 
d="M268 -9q-66 0 -116 31t-78 90t-28 140t28 139.5t78 89.5t116 31q67 0 116.5 -33.5t65.5 -91.5h-12l11 116h88q-3 -30 -5.5 -60t-2.5 -59v-384h-91v115h11q-16 -57 -65.5 -90.5t-115.5 -33.5zM289 63q68 0 109 48t41 141t-41 140t-109 47t-109.5 -47t-41.5 -140t41 -141
t110 -48zM255 552l-110 202h61l91 -144l91 144h61l-110 -202h-84z" />
    <glyph glyph-name="uni01D4" unicode="&#x1d4;" horiz-adv-x="582" 
d="M255 -9q-91 0 -136.5 49t-45.5 151v312h91v-310q0 -66 27 -97t84 -31q62 0 100.5 41.5t38.5 110.5v286h91v-503h-88v111h13q-21 -57 -67 -88.5t-108 -31.5zM249 553l-110 202h61l91 -144l91 144h61l-110 -202h-84z" />
    <glyph glyph-name="uni01E5" unicode="&#x1e5;" horiz-adv-x="608" 
d="M300 -223q-67 0 -121.5 15.5t-99.5 48.5l24 68q31 -21 61 -35t63 -21t68 -7q114 0 140 90l8 -10h-132v48h142l-12 -15q1 8 1.5 15.5t0.5 15.5v158h10q-16 -57 -66 -89.5t-116 -32.5q-68 0 -118.5 29.5t-78.5 84.5t-28 129q0 75 28 129.5t78.5 84t118.5 29.5
q66 0 115.5 -32.5t65.5 -90.5l-14 -1l11 115h88q-3 -30 -5.5 -60t-2.5 -59l2 -377v-22t-2 -21l-10 10h81v-48h-87l12 11q-16 -79 -73 -119.5t-152 -40.5zM290 97q70 0 110.5 45t40.5 126q0 82 -40.5 126.5t-110.5 44.5t-111 -44.5t-41 -126.5t41 -126.5t111 -44.5z" />
    <glyph glyph-name="Gcaron" unicode="&#x1e6;" horiz-adv-x="733" 
d="M413 -9q-116 0 -195 43.5t-118.5 124.5t-39.5 193t42 193t120.5 125t188.5 44q77 0 134 -22t102 -64l-35 -74q-32 28 -62 45t-62.5 24.5t-76.5 7.5q-123 0 -188 -73t-65 -207q0 -136 63 -207t196 -71q47 0 92 9t86 26l-19 -47v239h-177v72h257v-330q-45 -23 -111 -37
t-132 -14zM360 765l-122 172h66l98 -115l98 115h66l-122 -172h-84z" />
    <glyph glyph-name="gcaron" unicode="&#x1e7;" horiz-adv-x="608" 
d="M300 -224q-66 0 -121 16t-99 49l24 67q31 -21 61 -34t62.5 -19t67.5 -6q74 0 111 38t37 108v141h10q-16 -57 -65.5 -90.5t-116.5 -33.5q-68 0 -118.5 30.5t-78.5 87t-28 132.5q0 77 28 133t78.5 86.5t118.5 30.5q67 0 116 -33t65 -91l-9 9l9 106h88q-3 -30 -5.5 -60
t-2.5 -59v-378q0 -112 -58.5 -171t-173.5 -59zM291 84q69 0 110 47t41 131q0 85 -41 131t-110 46q-70 0 -111.5 -46t-41.5 -131q0 -84 41.5 -131t111.5 -47zM265 552l-110 202h61l91 -144l91 144h61l-110 -202h-84z" />
    <glyph glyph-name="uni01E9" unicode="&#x1e9;" horiz-adv-x="523" 
d="M76 0v736h91v-455h2l227 222h113l-270 -264l1 43l293 -282h-116l-248 234h-2v-234h-91zM225 774l-122 172h66l98 -115l98 115h66l-122 -172h-84z" />
    <glyph glyph-name="uni01EA" unicode="&#x1ea;" horiz-adv-x="776" 
d="M60 353q0 111 39 192t112.5 125t175.5 44q101 0 174.5 -44t113.5 -125t40 -191q0 -111 -40 -192.5t-113.5 -126t-174.5 -44.5q-102 0 -175 44.5t-112.5 126t-39.5 191.5zM158 353q0 -132 58 -206t171 -74q109 0 169.5 73.5t60.5 206.5t-60 206t-170 73q-113 0 -171 -73
t-58 -206zM430 -193q-49 0 -78.5 27t-29.5 72q0 40 26 75.5t71 55.5l31 -37q-16 -7 -31 -19t-25 -28.5t-10 -36.5q0 -27 17 -41t41 -14q14 0 27 3t27 9l14 -49q-15 -8 -35 -12.5t-45 -4.5z" />
    <glyph glyph-name="uni01EB" unicode="&#x1eb;" horiz-adv-x="576" 
d="M288 -9q-74 0 -128 31.5t-84 90t-30 139.5q0 80 30 138.5t84 90t128 31.5t128.5 -31.5t84 -90t29.5 -138.5q0 -81 -29.5 -139.5t-84 -90t-128.5 -31.5zM288 63q68 0 109 48t41 141t-41 140t-109 47q-69 0 -109.5 -47t-40.5 -140t40.5 -141t109.5 -48zM324 -193
q-49 0 -78.5 27t-29.5 72q0 40 26 75.5t71 55.5l31 -37q-16 -7 -31 -19t-25 -28.5t-10 -36.5q0 -27 17 -41t41 -14q14 0 27 3t27 9l14 -49q-15 -8 -35 -12.5t-45 -4.5z" />
    <glyph glyph-name="Aringacute" unicode="&#x1fa;" horiz-adv-x="738" 
d="M14 0l312 705h81l317 -705h-96l-87 200l40 -24h-429l44 24l-87 -200h-95zM365 601l-156 -370l-24 21h363l-19 -21l-160 370h-4zM367 757q-33 0 -59.5 15.5t-42 41.5t-15.5 58t15.5 57.5t42 41t59.5 15.5q19 0 35.5 -5t30.5 -14l69 64h84l-118 -101q16 -26 16 -58
t-15.5 -58t-42 -41.5t-59.5 -15.5zM367 801q31 0 50.5 20.5t19.5 50.5t-19 50t-51 20q-30 0 -50 -20t-20 -50t19.5 -50.5t50.5 -20.5z" />
    <glyph glyph-name="aringacute" unicode="&#x1fb;" horiz-adv-x="605" 
d="M268 -9q-66 0 -116 31t-78 90t-28 140t28 139.5t78 89.5t116 31q67 0 116.5 -33.5t65.5 -91.5h-12l11 116h88q-3 -30 -5.5 -60t-2.5 -59v-384h-91v115h11q-16 -57 -65.5 -90.5t-115.5 -33.5zM289 63q68 0 109 48t41 141t-41 140t-109 47t-109.5 -47t-41.5 -140t41 -141
t110 -48zM297 543q-33 0 -59.5 15.5t-42 41.5t-15.5 58t15.5 58t42 41t59.5 15q19 0 35.5 -5t30.5 -14l69 64h84l-118 -100q16 -27 16 -59t-15.5 -58t-42 -41.5t-59.5 -15.5zM297 587q31 0 50.5 20.5t19.5 50.5t-19.5 50t-50.5 20q-30 0 -50 -20t-20 -50t20 -50.5t50 -20.5z
" />
    <glyph glyph-name="AEacute" unicode="&#x1fc;" horiz-adv-x="1008" 
d="M-6 0l433 705h533v-76h-394l22 23l25 -281l-18 25h344v-76h-338l15 10l25 -278l-12 24h331v-76h-401l-17 196l26 -20h-381l31 25l-122 -201h-102zM473 628l-238 -398l-10 22h323l-8 -24l-36 400h-31zM483 765l118 172h100l-150 -172h-68z" />
    <glyph glyph-name="aeacute" unicode="&#x1fd;" horiz-adv-x="879" 
d="M239 -9q-54 0 -95.5 21t-64.5 56t-23 78q0 58 26.5 91.5t90.5 47.5t174 14h50v-54h-50q-80 0 -124.5 -8.5t-63 -29t-18.5 -57.5q0 -40 29.5 -66t79.5 -26q40 0 71 18t49 51.5t18 77.5v121q0 60 -28 87t-85 27q-46 0 -86 -12t-82 -39l-30 66q39 27 92 42t108 15
q77 0 120.5 -30.5t58.5 -90.5h-26q30 59 79 90t116 31q98 0 154.5 -63.5t56.5 -175.5v-29h-373v55h311l-17 -15q0 76 -34.5 119t-98.5 43q-69 0 -109 -45t-40 -133v-7q0 -95 42.5 -146.5t124.5 -51.5q43 0 82 13.5t75 43.5l30 -63q-34 -32 -85 -49t-104 -17
q-89 0 -146.5 39.5t-81.5 114.5h23q-16 -73 -68 -113.5t-128 -40.5zM403 552l103 202h95l-134 -202h-64z" />
    <glyph glyph-name="Oslashacute" unicode="&#x1fe;" horiz-adv-x="776" 
d="M60 353q0 111 39 192t112.5 125t175.5 44q101 0 174.5 -44t113.5 -125t40 -191q0 -111 -40 -192.5t-113.5 -126t-174.5 -44.5q-102 0 -175 44.5t-112.5 126t-39.5 191.5zM158 353q0 -132 58 -206t171 -74q109 0 169.5 73.5t60.5 206.5t-60 206t-170 73q-113 0 -171 -73
t-58 -206zM254 47l-56 -97l-62 37l56 96l29 41l289 494l17 41l56 96l63 -37l-56 -96l-30 -41l-288 -494zM353 765l118 172h100l-150 -172h-68z" />
    <glyph glyph-name="oslashacute" unicode="&#x1ff;" horiz-adv-x="576" 
d="M288 -9q-74 0 -128 31.5t-84 90t-30 139.5q0 80 30 138.5t84 90t128 31.5t128.5 -31.5t84 -90t29.5 -138.5q0 -81 -29.5 -139.5t-84 -90t-128.5 -31.5zM288 63q73 0 114.5 49t41.5 140t-41.5 139t-114.5 48t-114.5 -48t-41.5 -139t41.5 -140t114.5 -49zM150 -42l-47 29
l324 558l48 -29zM256 552l103 202h95l-134 -202h-64z" />
    <glyph glyph-name="uni0200" unicode="&#x200;" horiz-adv-x="738" 
d="M14 0l312 705h81l317 -705h-96l-87 200l40 -24h-429l44 24l-87 -200h-95zM365 601l-156 -370l-24 21h363l-19 -21l-160 370h-4zM406 765l-120 172h88l85 -172h-53zM275 765l-126 172h88l91 -172h-53z" />
    <glyph glyph-name="uni0201" unicode="&#x201;" horiz-adv-x="605" 
d="M268 -9q-66 0 -116 31t-78 90t-28 140t28 139.5t78 89.5t116 31q67 0 116.5 -33.5t65.5 -91.5h-12l11 116h88q-3 -30 -5.5 -60t-2.5 -59v-384h-91v115h11q-16 -57 -65.5 -90.5t-115.5 -33.5zM289 63q68 0 109 48t41 141t-41 140t-109 47t-109.5 -47t-41.5 -140t41 -141
t110 -48zM339 552l-85 202h83l52 -202h-50zM207 552l-85 202h82l53 -202h-50z" />
    <glyph glyph-name="uni0202" unicode="&#x202;" horiz-adv-x="738" 
d="M14 0l312 705h81l317 -705h-96l-87 200l40 -24h-429l44 24l-87 -200h-95zM365 601l-156 -370l-24 21h363l-19 -21l-160 370h-4zM250 760l-55 7q6 79 53 124t119 45t119 -45t53 -124l-55 -7q-4 56 -35.5 86.5t-82.5 30.5q-50 0 -80.5 -30.5t-35.5 -86.5z" />
    <glyph glyph-name="uni0203" unicode="&#x203;" horiz-adv-x="605" 
d="M268 -9q-66 0 -116 31t-78 90t-28 140t28 139.5t78 89.5t116 31q67 0 116.5 -33.5t65.5 -91.5h-12l11 116h88q-3 -30 -5.5 -60t-2.5 -59v-384h-91v115h11q-16 -57 -65.5 -90.5t-115.5 -33.5zM289 63q68 0 109 48t41 141t-41 140t-109 47t-109.5 -47t-41.5 -140t41 -141
t110 -48zM195 545l-55 6q3 59 22.5 101.5t54 66t80.5 23.5t80.5 -23.5t54.5 -66t22 -101.5l-55 -6q-4 66 -30.5 101.5t-71.5 35.5t-71.5 -35.5t-30.5 -101.5z" />
    <glyph glyph-name="uni0204" unicode="&#x204;" horiz-adv-x="590" 
d="M86 0v705h456v-76h-366v-233h343v-76h-343v-244h366v-76h-456zM368 765l-120 172h88l85 -172h-53zM237 765l-126 172h88l91 -172h-53z" />
    <glyph glyph-name="uni0205" unicode="&#x205;" horiz-adv-x="545" 
d="M305 -9q-120 0 -189.5 69t-69.5 190q0 80 30.5 138.5t84.5 91t126 32.5q69 0 117 -29.5t73 -83.5t25 -128v-30h-385v54h323l-17 -13q0 78 -34.5 121t-101.5 43q-73 0 -113 -50.5t-40 -137.5v-9q0 -92 45.5 -139t126.5 -47q45 0 84 13t75 43l30 -63q-34 -31 -84.5 -48
t-105.5 -17zM329 552l-85 202h83l52 -202h-50zM197 552l-85 202h82l53 -202h-50z" />
    <glyph glyph-name="uni0206" unicode="&#x206;" horiz-adv-x="590" 
d="M86 0v705h456v-76h-366v-233h343v-76h-343v-244h366v-76h-456zM212 760l-55 7q6 79 53 124t119 45t119 -45t53 -124l-55 -7q-4 56 -35.5 86.5t-82.5 30.5q-50 0 -80.5 -30.5t-35.5 -86.5z" />
    <glyph glyph-name="uni0207" unicode="&#x207;" horiz-adv-x="545" 
d="M305 -9q-120 0 -189.5 69t-69.5 190q0 80 30.5 138.5t84.5 91t126 32.5q69 0 117 -29.5t73 -83.5t25 -128v-30h-385v54h323l-17 -13q0 78 -34.5 121t-101.5 43q-73 0 -113 -50.5t-40 -137.5v-9q0 -92 45.5 -139t126.5 -47q45 0 84 13t75 43l30 -63q-34 -31 -84.5 -48
t-105.5 -17zM185 545l-55 6q3 59 22.5 101.5t54 66t80.5 23.5t80.5 -23.5t54.5 -66t22 -101.5l-55 -6q-4 66 -30.5 101.5t-71.5 35.5t-71.5 -35.5t-30.5 -101.5z" />
    <glyph glyph-name="uni0208" unicode="&#x208;" horiz-adv-x="264" 
d="M86 0v705h93v-705h-93zM171 765l-120 172h88l85 -172h-53zM40 765l-126 172h88l91 -172h-53z" />
    <glyph glyph-name="uni0209" unicode="&#x209;" horiz-adv-x="243" 
d="M76 0v503h91v-503h-91zM164 552l-85 202h83l52 -202h-50zM32 552l-85 202h82l53 -202h-50z" />
    <glyph glyph-name="uni020A" unicode="&#x20a;" horiz-adv-x="264" 
d="M86 0v705h93v-705h-93zM15 760l-55 7q6 79 53 124t119 45t119 -45t53 -124l-55 -7q-4 56 -35.5 86.5t-82.5 30.5q-50 0 -80.5 -30.5t-35.5 -86.5z" />
    <glyph glyph-name="uni020B" unicode="&#x20b;" horiz-adv-x="243" 
d="M76 0v503h91v-503h-91zM20 545l-55 6q3 59 22.5 101.5t54 66t80.5 23.5t80.5 -23.5t54.5 -66t22 -101.5l-55 -6q-4 66 -30.5 101.5t-71.5 35.5t-71.5 -35.5t-30.5 -101.5z" />
    <glyph glyph-name="uni020C" unicode="&#x20c;" horiz-adv-x="776" 
d="M60 353q0 111 39 192t112.5 125t175.5 44q101 0 174.5 -44t113.5 -125t40 -191q0 -111 -40 -192.5t-113.5 -126t-174.5 -44.5q-102 0 -175 44.5t-112.5 126t-39.5 191.5zM158 353q0 -132 58 -206t171 -74q109 0 169.5 73.5t60.5 206.5t-60 206t-170 73q-113 0 -171 -73
t-58 -206zM426 765l-120 172h88l85 -172h-53zM295 765l-126 172h88l91 -172h-53z" />
    <glyph glyph-name="uni020D" unicode="&#x20d;" horiz-adv-x="576" 
d="M288 -9q-74 0 -128 31.5t-84 90t-30 139.5q0 80 30 138.5t84 90t128 31.5t128.5 -31.5t84 -90t29.5 -138.5q0 -81 -29.5 -139.5t-84 -90t-128.5 -31.5zM288 63q68 0 109 48t41 141t-41 140t-109 47q-69 0 -109.5 -47t-40.5 -140t40.5 -141t109.5 -48zM331 552l-85 202h83
l52 -202h-50zM199 552l-85 202h82l53 -202h-50z" />
    <glyph glyph-name="uni020E" unicode="&#x20e;" horiz-adv-x="776" 
d="M60 353q0 111 39 192t112.5 125t175.5 44q101 0 174.5 -44t113.5 -125t40 -191q0 -111 -40 -192.5t-113.5 -126t-174.5 -44.5q-102 0 -175 44.5t-112.5 126t-39.5 191.5zM158 353q0 -132 58 -206t171 -74q109 0 169.5 73.5t60.5 206.5t-60 206t-170 73q-113 0 -171 -73
t-58 -206zM270 760l-55 7q6 79 53 124t119 45t119 -45t53 -124l-55 -7q-4 56 -35.5 86.5t-82.5 30.5q-50 0 -80.5 -30.5t-35.5 -86.5z" />
    <glyph glyph-name="uni020F" unicode="&#x20f;" horiz-adv-x="576" 
d="M288 -9q-74 0 -128 31.5t-84 90t-30 139.5q0 80 30 138.5t84 90t128 31.5t128.5 -31.5t84 -90t29.5 -138.5q0 -81 -29.5 -139.5t-84 -90t-128.5 -31.5zM288 63q68 0 109 48t41 141t-41 140t-109 47q-69 0 -109.5 -47t-40.5 -140t40.5 -141t109.5 -48zM187 545l-55 6
q3 59 22.5 101.5t54 66t80.5 23.5t80.5 -23.5t54.5 -66t22 -101.5l-55 -6q-4 66 -30.5 101.5t-71.5 35.5t-71.5 -35.5t-30.5 -101.5z" />
    <glyph glyph-name="uni0210" unicode="&#x210;" horiz-adv-x="695" 
d="M86 0v705h292q113 0 174.5 -53t61.5 -148q0 -63 -28 -107t-78.5 -67t-117.5 -23l17 14h24q41 0 73 -20.5t53 -66.5l100 -234h-103l-97 232q-17 43 -49.5 56t-81.5 13h-147v-301h-93zM179 373h185q77 0 117.5 33t40.5 96q0 62 -40.5 94.5t-117.5 32.5h-185v-256zM386 765
l-120 172h88l85 -172h-53zM255 765l-126 172h88l91 -172h-53z" />
    <glyph glyph-name="uni0211" unicode="&#x211;" horiz-adv-x="370" 
d="M75 0v380q0 30 -1.5 61.5t-5.5 61.5h88l11 -126l-15 -1q10 46 34.5 76.5t59 45t71.5 14.5q16 0 27 -1t22 -5l-2 -81q-15 6 -27.5 7.5t-30.5 1.5q-44 0 -75.5 -20t-48 -53t-16.5 -71v-290h-91zM268 552l-85 202h83l52 -202h-50zM136 552l-85 202h82l53 -202h-50z" />
    <glyph glyph-name="uni0212" unicode="&#x212;" horiz-adv-x="695" 
d="M86 0v705h292q113 0 174.5 -53t61.5 -148q0 -63 -28 -107t-78.5 -67t-117.5 -23l17 14h24q41 0 73 -20.5t53 -66.5l100 -234h-103l-97 232q-17 43 -49.5 56t-81.5 13h-147v-301h-93zM179 373h185q77 0 117.5 33t40.5 96q0 62 -40.5 94.5t-117.5 32.5h-185v-256zM230 760
l-55 7q6 79 53 124t119 45t119 -45t53 -124l-55 -7q-4 56 -35.5 86.5t-82.5 30.5q-50 0 -80.5 -30.5t-35.5 -86.5z" />
    <glyph glyph-name="uni0213" unicode="&#x213;" horiz-adv-x="370" 
d="M75 0v380q0 30 -1.5 61.5t-5.5 61.5h88l11 -126l-15 -1q10 46 34.5 76.5t59 45t71.5 14.5q16 0 27 -1t22 -5l-2 -81q-15 6 -27.5 7.5t-30.5 1.5q-44 0 -75.5 -20t-48 -53t-16.5 -71v-290h-91zM124 545l-55 6q3 59 22.5 101.5t54 66t80.5 23.5t80.5 -23.5t54.5 -66
t22 -101.5l-55 -6q-4 66 -30.5 101.5t-71.5 35.5t-71.5 -35.5t-30.5 -101.5z" />
    <glyph glyph-name="uni0214" unicode="&#x214;" horiz-adv-x="733" 
d="M367 -9q-145 0 -215.5 73.5t-70.5 216.5v424h94v-421q0 -105 46 -158t146 -53q96 0 144.5 53t48.5 158v421h92v-424q0 -143 -72 -216.5t-213 -73.5zM406 765l-120 172h88l85 -172h-53zM275 765l-126 172h88l91 -172h-53z" />
    <glyph glyph-name="uni0215" unicode="&#x215;" horiz-adv-x="582" 
d="M255 -9q-91 0 -136.5 49t-45.5 151v312h91v-310q0 -66 27 -97t84 -31q62 0 100.5 41.5t38.5 110.5v286h91v-503h-88v111h13q-21 -57 -67 -88.5t-108 -31.5zM333 553l-85 202h83l52 -202h-50zM201 553l-85 202h82l53 -202h-50z" />
    <glyph glyph-name="uni0216" unicode="&#x216;" horiz-adv-x="733" 
d="M367 -9q-145 0 -215.5 73.5t-70.5 216.5v424h94v-421q0 -105 46 -158t146 -53q96 0 144.5 53t48.5 158v421h92v-424q0 -143 -72 -216.5t-213 -73.5zM250 760l-55 7q6 79 53 124t119 45t119 -45t53 -124l-55 -7q-4 56 -35.5 86.5t-82.5 30.5q-50 0 -80.5 -30.5
t-35.5 -86.5z" />
    <glyph glyph-name="uni0217" unicode="&#x217;" horiz-adv-x="582" 
d="M255 -9q-91 0 -136.5 49t-45.5 151v312h91v-310q0 -66 27 -97t84 -31q62 0 100.5 41.5t38.5 110.5v286h91v-503h-88v111h13q-21 -57 -67 -88.5t-108 -31.5zM189 546l-55 6q3 59 22.5 101.5t54 66t80.5 23.5t80.5 -23.5t54.5 -66t22 -101.5l-55 -6q-4 66 -30.5 101.5
t-71.5 35.5t-71.5 -35.5t-30.5 -101.5z" />
    <glyph glyph-name="uni0218" unicode="&#x218;" horiz-adv-x="628" 
d="M319 -9q-85 0 -153 22t-118 62l32 74q35 -26 71 -43.5t77.5 -26t90.5 -8.5q87 0 128.5 31.5t41.5 83.5q0 45 -29 69t-101 38l-107 22q-97 20 -144.5 65.5t-47.5 123.5q0 63 33.5 110.5t93 73.5t139.5 26q74 0 137 -22t106 -65l-32 -71q-45 41 -96.5 59.5t-116.5 18.5
q-79 0 -125 -34t-46 -92q0 -46 29 -72.5t96 -40.5l107 -21q102 -20 149.5 -63t47.5 -119q0 -60 -32 -105.5t-91 -70.5t-140 -25zM325 -270l-39 27q23 24 30.5 45t7.5 45l22 -12h-74v87h106v-62q0 -38 -12.5 -71t-40.5 -59z" />
    <glyph glyph-name="uni0219" unicode="&#x219;" horiz-adv-x="497" 
d="M246 -9q-61 0 -113.5 16t-86.5 46l29 63q37 -28 81.5 -42.5t91.5 -14.5q57 0 86.5 21t29.5 56q0 28 -19 45t-60 25l-95 19q-64 15 -96.5 48.5t-32.5 86.5q0 44 24 78.5t68.5 54t104.5 19.5q55 0 102.5 -16t78.5 -47l-30 -61q-31 27 -69.5 41.5t-78.5 14.5
q-58 0 -86 -22.5t-28 -58.5q0 -27 17 -44.5t55 -26.5l95 -19q67 -14 101 -46t34 -85q0 -47 -25.5 -81t-71 -52t-106.5 -18zM246 -270l-39 27q23 24 30.5 45t7.5 45l22 -12h-74v87h106v-62q0 -38 -12.5 -71t-40.5 -59z" />
    <glyph glyph-name="uni021A" unicode="&#x21a;" horiz-adv-x="607" 
d="M255 0v626h-244v79h583v-79h-245v-626h-94zM304 -270l-39 27q23 24 30.5 45t7.5 45l22 -12h-74v87h106v-62q0 -38 -12.5 -71t-40.5 -59z" />
    <glyph glyph-name="uni021B" unicode="&#x21b;" horiz-adv-x="356" 
d="M264 -9q-79 0 -119.5 43.5t-40.5 131.5v267h-98v70h98v135l91 25v-160h142v-70h-142v-259q0 -58 20.5 -82.5t59.5 -24.5q20 0 34.5 3.5t26.5 8.5v-75q-15 -6 -34.5 -9.5t-37.5 -3.5zM228 -270l-39 27q23 24 30.5 45t7.5 45l22 -12h-74v87h106v-62q0 -38 -12.5 -71
t-40.5 -59z" />
    <glyph glyph-name="uni021F" unicode="&#x21f;" horiz-adv-x="589" 
d="M76 0v736h91v-342h-13q22 58 71 88t113 30q91 0 134.5 -49t43.5 -148v-315h-91v310q0 67 -26 97.5t-85 30.5q-66 0 -106.5 -41t-40.5 -109v-288h-91zM257 774l-122 172h66l98 -115l98 115h66l-122 -172h-84z" />
    <glyph glyph-name="uni0226" unicode="&#x226;" horiz-adv-x="738" 
d="M14 0l312 705h81l317 -705h-96l-87 200l40 -24h-429l44 24l-87 -200h-95zM365 601l-156 -370l-24 21h363l-19 -21l-160 370h-4zM318 804v94h98v-94h-98z" />
    <glyph glyph-name="uni0227" unicode="&#x227;" horiz-adv-x="605" 
d="M268 -9q-66 0 -116 31t-78 90t-28 140t28 139.5t78 89.5t116 31q67 0 116.5 -33.5t65.5 -91.5h-12l11 116h88q-3 -30 -5.5 -60t-2.5 -59v-384h-91v115h11q-16 -57 -65.5 -90.5t-115.5 -33.5zM289 63q68 0 109 48t41 141t-41 140t-109 47t-109.5 -47t-41.5 -140t41 -141
t110 -48zM248 606v94h98v-94h-98z" />
    <glyph glyph-name="uni0228" unicode="&#x228;" horiz-adv-x="590" 
d="M86 0v705h456v-76h-366v-233h343v-76h-343v-244h366v-76h-456zM332 -193q-27 0 -51.5 5.5t-41.5 14.5l14 47q19 -9 35.5 -13t38.5 -4q27 0 42.5 9t15.5 27q0 26 -38 26q-11 0 -21 -1.5t-25 -5.5l-17 16l14 92h55l-13 -76l-26 8q11 3 23.5 5t22.5 2q37 0 61 -18t24 -51
q0 -37 -31.5 -60t-81.5 -23z" />
    <glyph glyph-name="uni022A" unicode="&#x22a;" horiz-adv-x="776" 
d="M60 353q0 111 39 192t112.5 125t175.5 44q101 0 174.5 -44t113.5 -125t40 -191q0 -111 -40 -192.5t-113.5 -126t-174.5 -44.5q-102 0 -175 44.5t-112.5 126t-39.5 191.5zM158 353q0 -132 58 -206t171 -74q109 0 169.5 73.5t60.5 206.5t-60 206t-170 73q-113 0 -171 -73
t-58 -206zM236 925v59h302v-59h-302zM252 795v76h93v-76h-93zM429 795v76h93v-76h-93z" />
    <glyph glyph-name="uni022B" unicode="&#x22b;" horiz-adv-x="576" 
d="M288 -9q-74 0 -128 31.5t-84 90t-30 139.5q0 80 30 138.5t84 90t128 31.5t128.5 -31.5t84 -90t29.5 -138.5q0 -81 -29.5 -139.5t-84 -90t-128.5 -31.5zM288 63q68 0 109 48t41 141t-41 140t-109 47q-69 0 -109.5 -47t-40.5 -140t40.5 -141t109.5 -48zM138 707v59h302v-59
h-302zM154 577v76h93v-76h-93zM331 577v76h93v-76h-93z" />
    <glyph glyph-name="uni022C" unicode="&#x22c;" horiz-adv-x="776" 
d="M60 353q0 111 39 192t112.5 125t175.5 44q101 0 174.5 -44t113.5 -125t40 -191q0 -111 -40 -192.5t-113.5 -126t-174.5 -44.5q-102 0 -175 44.5t-112.5 126t-39.5 191.5zM158 353q0 -132 58 -206t171 -74q109 0 169.5 73.5t60.5 206.5t-60 206t-170 73q-113 0 -171 -73
t-58 -206zM236 925v59h302v-59h-302zM453 767q-19 0 -37 7.5t-40 21.5q-19 14 -30.5 18t-21.5 4q-22 0 -34 -12.5t-17 -39.5l-47 3q4 51 30 77t66 26q17 0 33 -6t39 -21q21 -14 33.5 -19t22.5 -5q23 0 34.5 12.5t16.5 39.5l47 -3q-4 -51 -29.5 -77t-65.5 -26z" />
    <glyph glyph-name="uni022D" unicode="&#x22d;" horiz-adv-x="576" 
d="M288 -9q-74 0 -128 31.5t-84 90t-30 139.5q0 80 30 138.5t84 90t128 31.5t128.5 -31.5t84 -90t29.5 -138.5q0 -81 -29.5 -139.5t-84 -90t-128.5 -31.5zM288 63q68 0 109 48t41 141t-41 140t-109 47q-69 0 -109.5 -47t-40.5 -140t40.5 -141t109.5 -48zM138 707v59h302v-59
h-302zM175 548l-47 3q4 51 30 77t66 26q18 0 35.5 -7t37.5 -21q19 -12 31 -17.5t24 -5.5q23 0 34.5 12.5t16.5 39.5l47 -3q-4 -51 -29.5 -77t-65.5 -26q-19 0 -37 7.5t-39 21.5q-17 11 -29.5 16.5t-23.5 5.5q-22 0 -34 -12.5t-17 -39.5z" />
    <glyph glyph-name="uni0230" unicode="&#x230;" horiz-adv-x="776" 
d="M60 353q0 111 39 192t112.5 125t175.5 44q101 0 174.5 -44t113.5 -125t40 -191q0 -111 -40 -192.5t-113.5 -126t-174.5 -44.5q-102 0 -175 44.5t-112.5 126t-39.5 191.5zM158 353q0 -132 58 -206t171 -74q109 0 169.5 73.5t60.5 206.5t-60 206t-170 73q-113 0 -171 -73
t-58 -206zM236 925v59h302v-59h-302zM341 795v76h93v-76h-93z" />
    <glyph glyph-name="uni0231" unicode="&#x231;" horiz-adv-x="576" 
d="M288 -9q-74 0 -128 31.5t-84 90t-30 139.5q0 80 30 138.5t84 90t128 31.5t128.5 -31.5t84 -90t29.5 -138.5q0 -81 -29.5 -139.5t-84 -90t-128.5 -31.5zM288 63q68 0 109 48t41 141t-41 140t-109 47q-69 0 -109.5 -47t-40.5 -140t40.5 -141t109.5 -48zM138 707v59h302v-59
h-302zM243 577v76h93v-76h-93z" />
    <glyph glyph-name="uni0232" unicode="&#x232;" horiz-adv-x="612" 
d="M259 0v330l20 -61l-294 436h108l226 -344h-23l226 344h105l-294 -436l19 61v-330h-93zM140 813v59h332v-59h-332z" />
    <glyph glyph-name="uni0233" unicode="&#x233;" horiz-adv-x="534" 
d="M59 -227l-21 74q47 11 78 25.5t52 37.5t37 58l25 60l-2 -38l-219 513h98l175 -431h-26l175 431h94l-231 -542q-21 -49 -45.5 -82t-53 -54t-62.5 -33t-74 -19zM115 623v59h302v-59h-302z" />
    <glyph glyph-name="uni0237" unicode="&#x237;" horiz-adv-x="243" 
d="M15 -220q-15 0 -36.5 3t-35.5 9v75q12 -4 27.5 -7.5t29.5 -3.5q40 0 61 25.5t21 83.5v538h91v-546q0 -87 -39 -132t-119 -45z" />
    <glyph glyph-name="uni0253" unicode="&#x253;" horiz-adv-x="605" 
d="M338 -9q-67 0 -116.5 33.5t-65.5 92.5h11v-117h-91v570q0 84 46 129.5t132 45.5q16 0 31.5 -2t27.5 -7l-11 -70q-12 4 -20.5 5t-19.5 1q-47 0 -71 -26.5t-24 -75.5v-182h-11q17 58 66 91t116 33t116.5 -31t77 -89.5t27.5 -139.5t-27.5 -140t-77.5 -90t-116 -31zM317 63
q68 0 109 48t41 141t-41 140t-109 47q-69 0 -110 -47t-41 -140t41 -141t110 -48z" />
    <glyph glyph-name="uni0257" unicode="&#x257;" horiz-adv-x="604" 
d="M268 -9q-67 0 -116.5 31t-77.5 90t-28 140t28 139.5t77.5 89.5t116.5 31t116 -33t65 -91h-11v184q0 54 20 93t59.5 59.5t98.5 20.5q15 0 30.5 -2t28.5 -7l-11 -70q-13 4 -21.5 5t-18.5 1q-45 0 -70 -25t-25 -77v-570h-90v117h11q-17 -59 -66 -92.5t-116 -33.5zM289 63
q68 0 109 48t41 141t-41 140t-109 47q-69 0 -110 -47t-41 -140t41 -141t110 -48z" />
    <glyph glyph-name="uni0259" unicode="&#x259;" horiz-adv-x="545" 
d="M258 -9q-101 0 -157.5 63t-56.5 172v35h384v-55h-323l17 15q0 -77 35 -120t102 -43q73 0 112.5 49.5t39.5 131.5v12q0 95 -45 141.5t-130 46.5q-41 0 -80 -12.5t-75 -42.5l-27 64q33 32 84 48t109 16q78 0 134 -31t87 -89t31 -139q0 -79 -30 -137.5t-84 -91.5t-127 -33z
" />
    <glyph glyph-name="uni02B9" unicode="&#x2b9;" horiz-adv-x="226" 
d="M83 425l-23 280h107l-23 -280h-61z" />
    <glyph glyph-name="uni02BA" unicode="&#x2ba;" horiz-adv-x="405" 
d="M83 425l-23 280h107l-23 -280h-61zM261 425l-23 280h107l-23 -280h-61z" />
    <glyph glyph-name="uni02BB" unicode="&#x2bb;" horiz-adv-x="500" 
d="M197 566v63q0 37 11 68t40 58l39 -28q-22 -21 -28.5 -41t-6.5 -40l-25 11h75v-91h-105z" />
    <glyph glyph-name="uni02BC" unicode="&#x2bc;" horiz-adv-x="330" 
d="M166 570l-38 27q22 22 28.5 42t6.5 40l25 -11h-76v90h105v-62q0 -36 -10.5 -67t-40.5 -59z" />
    <glyph glyph-name="uni02BE" unicode="&#x2be;" horiz-adv-x="500" 
d="M250 554v46q24 0 38 16t14 37q0 23 -14 38.5t-38 15.5v47q44 0 73.5 -29t29.5 -71q0 -43 -29 -71.5t-74 -28.5z" />
    <glyph glyph-name="uni02BF" unicode="&#x2bf;" horiz-adv-x="500" 
d="M250 554q-44 0 -73 28.5t-29 70.5q0 43 29 72t73 29v-47q-23 0 -37.5 -15.5t-14.5 -37.5t14.5 -38t37.5 -16v-46z" />
    <glyph glyph-name="circumflex" unicode="&#x2c6;" horiz-adv-x="500" 
d="M98 552l110 202h84l110 -202h-61l-91 144l-91 -144h-61z" />
    <glyph glyph-name="caron" unicode="&#x2c7;" horiz-adv-x="500" 
d="M208 552l-110 202h61l91 -144l91 144h61l-110 -202h-84z" />
    <glyph glyph-name="uni02C8" unicode="&#x2c8;" horiz-adv-x="500" 
d="M218 595v201h65v-201h-65z" />
    <glyph glyph-name="uni02C9" unicode="&#x2c9;" horiz-adv-x="500" 
d="M100 623v59h301v-59h-301z" />
    <glyph glyph-name="uni02CA" unicode="&#x2ca;" horiz-adv-x="500" 
d="M218 552l103 202h95l-134 -202h-64z" />
    <glyph glyph-name="uni02CB" unicode="&#x2cb;" horiz-adv-x="500" 
d="M218 552l-133 202h94l103 -202h-64z" />
    <glyph glyph-name="uni02CC" unicode="&#x2cc;" horiz-adv-x="500" 
d="M218 -270v201h65v-201h-65z" />
    <glyph glyph-name="breve" unicode="&#x2d8;" horiz-adv-x="500" 
d="M250 549q-46 0 -80.5 23.5t-54 66t-22.5 101.5l55 6q4 -66 30.5 -101.5t71.5 -35.5t71.5 35.5t30.5 101.5l55 -6q-2 -59 -22 -101.5t-54.5 -66t-80.5 -23.5z" />
    <glyph glyph-name="dotaccent" unicode="&#x2d9;" horiz-adv-x="500" 
d="M201 606v94h98v-94h-98z" />
    <glyph glyph-name="ring" unicode="&#x2da;" horiz-adv-x="500" 
d="M250 546q-33 0 -60.5 16t-43.5 42.5t-16 59.5t16 59t43 42t61 16t61 -16t43 -42t16 -60q0 -32 -16 -58.5t-42.5 -42.5t-61.5 -16zM250 593q31 0 50.5 20.5t19.5 49.5q0 31 -19 51t-51 20q-30 0 -50 -20t-20 -50q0 -31 19.5 -51t50.5 -20z" />
    <glyph glyph-name="ogonek" unicode="&#x2db;" horiz-adv-x="500" 
d="M230 -193q-49 0 -78.5 27t-29.5 72q0 40 26 75.5t71 55.5l31 -37q-16 -7 -31 -19t-25 -28.5t-10 -36.5q0 -27 17 -41t41 -14q14 0 27 3t27 9l14 -49q-15 -8 -35 -12.5t-45 -4.5z" />
    <glyph glyph-name="tilde" unicode="&#x2dc;" horiz-adv-x="500" 
d="M116 589l-49 3q5 65 35 101t75 36q21 0 40 -10t43 -31q21 -18 34.5 -25.5t26.5 -7.5q51 0 63 77l49 -3q-4 -66 -34 -101.5t-75 -35.5q-21 0 -40 10t-45 31q-20 18 -33 25t-27 7q-27 0 -42 -20t-21 -56z" />
    <glyph glyph-name="hungarumlaut" unicode="&#x2dd;" horiz-adv-x="500" 
d="M290 552l53 202h82l-85 -202h-50zM158 552l52 202h83l-85 -202h-50z" />
    <glyph glyph-name="gravecomb" unicode="&#x300;" 
d="M-32 552l-134 202h95l103 -202h-64z" />
    <glyph glyph-name="acutecomb" unicode="&#x301;" 
d="M-32 552l103 202h95l-134 -202h-64z" />
    <glyph glyph-name="uni0302" unicode="&#x302;" 
d="M-152 552l110 202h84l110 -202h-61l-91 144l-91 -144h-61z" />
    <glyph glyph-name="tildecomb" unicode="&#x303;" 
d="M-134 589l-49 3q5 65 35 101t75 36q21 0 40 -10t43 -31q21 -18 34.5 -25.5t26.5 -7.5q51 0 63 77l49 -3q-4 -66 -34 -101.5t-75 -35.5q-21 0 -40 10t-45 31q-20 18 -33 25t-27 7q-27 0 -42 -20t-21 -56z" />
    <glyph glyph-name="uni0304" unicode="&#x304;" 
d="M-151 623v59h302v-59h-302z" />
    <glyph glyph-name="uni0306" unicode="&#x306;" 
d="M0 549q-46 0 -80.5 23.5t-54 66t-22.5 101.5l55 6q4 -66 30.5 -101.5t71.5 -35.5t71.5 35.5t30.5 101.5l55 -6q-2 -59 -22 -101.5t-54.5 -66t-80.5 -23.5z" />
    <glyph glyph-name="uni0307" unicode="&#x307;" 
d="M-49 606v94h98v-94h-98z" />
    <glyph glyph-name="uni0308" unicode="&#x308;" 
d="M42 606v93h93v-93h-93zM-135 606v93h93v-93h-93z" />
    <glyph glyph-name="hookabovecomb" unicode="&#x309;" 
d="M-30 552v21q0 22 9.5 36.5t21 25.5t21 21.5t9.5 24.5t-11 21t-34 7q-15 0 -30 -3.5t-32 -12.5l-15 45q19 12 43 17t52 5q47 0 73.5 -17.5t26.5 -51.5q0 -25 -11.5 -40t-26 -26t-25.5 -24t-11 -33v-16h-60z" />
    <glyph glyph-name="uni030A" unicode="&#x30a;" 
d="M0 546q-33 0 -60.5 16t-43.5 42.5t-16 59.5t16 59t43 42t61 16t61 -16t43 -42t16 -60q0 -32 -16 -58.5t-42.5 -42.5t-61.5 -16zM0 593q31 0 50.5 20.5t19.5 49.5q0 31 -19 51t-51 20q-30 0 -50 -20t-20 -50q0 -31 19.5 -51t50.5 -20z" />
    <glyph glyph-name="uni030B" unicode="&#x30b;" 
d="M40 552l53 202h82l-85 -202h-50zM-92 552l52 202h83l-85 -202h-50z" />
    <glyph glyph-name="uni030C" unicode="&#x30c;" 
d="M-42 552l-110 202h61l91 -144l91 144h61l-110 -202h-84z" />
    <glyph glyph-name="uni030F" unicode="&#x30f;" 
d="M42 552l-85 202h83l52 -202h-50zM-90 552l-85 202h82l53 -202h-50z" />
    <glyph glyph-name="uni0311" unicode="&#x311;" 
d="M-102 549l-55 6q3 59 22.5 101.5t54 66t80.5 23.5t80.5 -23.5t54.5 -66t22 -101.5l-55 -6q-4 66 -30.5 101.5t-71.5 35.5t-71.5 -35.5t-30.5 -101.5z" />
    <glyph glyph-name="uni0312" unicode="&#x312;" 
d="M-53 566v62q0 38 12.5 71t40.5 59l39 -27q-23 -23 -30.5 -44.5t-7.5 -44.5l-23 11h75v-87h-106z" />
    <glyph glyph-name="uni031B" unicode="&#x31b;" 
d="M48 434l-49 31v22q41 1 64.5 12t33.5 36t10 64v17h80v-30q0 -45 -16.5 -77.5t-47.5 -52t-75 -22.5z" />
    <glyph glyph-name="dotbelowcomb" unicode="&#x323;" 
d="M-49 -191v94h98v-94h-98z" />
    <glyph glyph-name="uni0324" unicode="&#x324;" 
d="M42 -183v91h93v-91h-93zM-135 -183v91h93v-91h-93z" />
    <glyph glyph-name="uni0326" unicode="&#x326;" 
d="M0 -270l-39 27q23 24 30.5 45t7.5 45l22 -12h-74v87h106v-62q0 -38 -12.5 -71t-40.5 -59z" />
    <glyph glyph-name="uni0327" unicode="&#x327;" 
d="M3 -193q-27 0 -51.5 5.5t-41.5 14.5l14 47q19 -9 35.5 -13t38.5 -4q27 0 42.5 9t15.5 27q0 26 -38 26q-11 0 -21 -1.5t-25 -5.5l-17 16l14 92h55l-13 -76l-26 8q11 3 23.5 5t22.5 2q37 0 61 -18t24 -51q0 -37 -31.5 -60t-81.5 -23z" />
    <glyph glyph-name="uni0328" unicode="&#x328;" 
d="M-20 -193q-49 0 -78.5 27t-29.5 72q0 40 26 75.5t71 55.5l31 -37q-16 -7 -31 -19t-25 -28.5t-10 -36.5q0 -27 17 -41t41 -14q14 0 27 3t27 9l14 -49q-15 -8 -35 -12.5t-45 -4.5z" />
    <glyph glyph-name="uni032E" unicode="&#x32e;" 
d="M0 -215q-68 0 -111 40.5t-46 110.5l55 5q4 -46 30.5 -72t71.5 -26t71.5 26t30.5 72l55 -5q-3 -70 -45.5 -110.5t-111.5 -40.5z" />
    <glyph glyph-name="uni0331" unicode="&#x331;" 
d="M-151 -158v59h302v-59h-302z" />
    <glyph glyph-name="uni0335" unicode="&#x335;" 
d="M-187 527v67h374v-67h-374z" />
    <glyph glyph-name="uni0337" unicode="&#x337;" 
d="M-118 247l-37 63l273 158l37 -63z" />
    <glyph glyph-name="uni0338" unicode="&#x338;" 
d="M159 -48l-47 29l324 558l48 -29z" />
    <glyph glyph-name="uni0394" unicode="&#x394;" horiz-adv-x="732" 
d="M34 0v55l293 650h78l293 -650v-55h-664zM365 602l-247 -561v35h497v-35l-248 561h-2z" />
    <glyph glyph-name="Sigma" unicode="&#x3a3;" horiz-adv-x="609" 
d="M51 -180v66l279 393v-32l-279 392v66h510v-79h-410v23l254 -359v-55l-254 -359v23h410v-79h-510z" />
    <glyph glyph-name="uni03A9" unicode="&#x3a9;" horiz-adv-x="791" 
d="M39 0v77h243v-23q-118 64 -173.5 149.5t-55.5 195.5q0 98 42 168.5t119.5 108.5t181.5 38q76 0 139 -21.5t108.5 -62.5t70 -99t24.5 -132q0 -110 -55.5 -195.5t-173.5 -149.5v23h244v-77h-301v74q99 66 144 144t45 171q0 117 -65.5 180t-179.5 63q-118 0 -182 -63.5
t-64 -179.5q0 -93 45.5 -171t143.5 -144v-74h-300z" />
    <glyph glyph-name="uni03BC" unicode="&#x3bc;" horiz-adv-x="582" 
d="M73 -216v719h91v-310q0 -66 27 -97t83 -31q63 0 101.5 41.5t38.5 110.5v286h91v-503h-88v111h7q-16 -57 -57 -88.5t-94 -31.5q-44 0 -75 15.5t-49 56.5h10l5 -279h-91z" />
    <glyph glyph-name="pi" unicode="&#x3c0;" horiz-adv-x="599" 
d="M35 0q23 66 38.5 134.5t24 142.5t9.5 156h-102v70h557v-70h-115v-251q0 -53 26 -81t80 -33l41 -3l-7 -72l-47 3q-49 3 -84 16t-57 37t-32.5 59t-10.5 82v243h-159q-1 -91 -8.5 -167.5t-22.5 -142t-36 -123.5h-95z" />
    <glyph glyph-name="uni0400" unicode="&#x400;" horiz-adv-x="590" 
d="M86 0v705h456v-76h-366v-233h343v-76h-343v-244h366v-76h-456zM301 765l-150 172h100l118 -172h-68z" />
    <glyph glyph-name="uni0401" unicode="&#x401;" horiz-adv-x="590" 
d="M86 0v705h456v-76h-366v-233h343v-76h-343v-244h366v-76h-456zM377 802v93h93v-93h-93zM200 802v93h93v-93h-93z" />
    <glyph glyph-name="uni0402" unicode="&#x402;" horiz-adv-x="862" 
d="M587 -189q-35 0 -66.5 5.5t-53.5 15.5l18 70q19 -8 43 -12t51 -4q65 0 99 41t34 122v93q0 110 -51 162t-154 52q-46 0 -85.5 -9.5t-72.5 -27.5v-319h-94v626h-244v79h583v-79h-245v-224q28 16 73.5 25.5t93.5 9.5q142 0 215.5 -72t73.5 -217v-96q0 -78 -26 -132
t-74.5 -81.5t-117.5 -27.5z" />
    <glyph glyph-name="uni0403" unicode="&#x403;" horiz-adv-x="559" 
d="M86 0v705h459v-78h-366v-627h-93zM250 765l118 172h100l-150 -172h-68z" />
    <glyph glyph-name="uni0404" unicode="&#x404;" horiz-adv-x="692" 
d="M400 -9q-108 0 -184 44t-116 125.5t-40 192.5t40 192t116 125t184 44q75 0 136.5 -23t105.5 -67l-34 -74q-47 42 -95.5 61.5t-110.5 19.5q-117 0 -178.5 -69t-65.5 -192l-28 26h389v-76h-390l28 22q4 -128 66 -198t179 -70q62 0 110.5 19.5t95.5 61.5l34 -74
q-44 -43 -105.5 -66.5t-136.5 -23.5z" />
    <glyph glyph-name="uni0405" unicode="&#x405;" horiz-adv-x="628" 
d="M319 -9q-85 0 -153 22t-118 62l32 74q35 -26 71 -43.5t77.5 -26t90.5 -8.5q87 0 128.5 31.5t41.5 83.5q0 45 -29 69t-101 38l-107 22q-97 20 -144.5 65.5t-47.5 123.5q0 63 33.5 110.5t93 73.5t139.5 26q74 0 137 -22t106 -65l-32 -71q-45 41 -96.5 59.5t-116.5 18.5
q-79 0 -125 -34t-46 -92q0 -46 29 -72.5t96 -40.5l107 -21q102 -20 149.5 -63t47.5 -119q0 -60 -32 -105.5t-91 -70.5t-140 -25z" />
    <glyph glyph-name="uni0406" unicode="&#x406;" horiz-adv-x="264" 
d="M86 0v705h93v-705h-93z" />
    <glyph glyph-name="uni0407" unicode="&#x407;" horiz-adv-x="264" 
d="M86 0v705h93v-705h-93zM174 802v93h93v-93h-93zM-3 802v93h93v-93h-93z" />
    <glyph glyph-name="uni0408" unicode="&#x408;" horiz-adv-x="337" 
d="M82 -187q-17 0 -38 2t-43 7v76q19 -4 36 -6t29 -2q46 0 68.5 28t22.5 89v698h94v-699q0 -63 -18 -106t-55 -65t-96 -22z" />
    <glyph glyph-name="uni0409" unicode="&#x409;" horiz-adv-x="1165" 
d="M61 -15l-45 71q42 22 75 53t55 79t33.5 122t11.5 182v213h473v-308h216q115 0 178 -49.5t63 -147.5t-63 -149t-178 -51h-309v627h-294v-158q0 -107 -14 -187t-41.5 -137.5t-68 -96t-92.5 -63.5zM664 74h207q81 0 120 31t39 94t-39 93.5t-120 30.5h-207v-249z" />
    <glyph glyph-name="uni040A" unicode="&#x40a;" horiz-adv-x="1182" 
d="M86 0v705h92v-308h410v308h92v-308h216q115 0 178.5 -49.5t63.5 -147.5t-63.5 -149t-178.5 -51h-308v319h-410v-319h-92zM680 74h207q81 0 120 31t39 94t-39 93.5t-120 30.5h-207v-249z" />
    <glyph glyph-name="uni040B" unicode="&#x40b;" horiz-adv-x="867" 
d="M255 0v626h-244v79h583v-79h-245v-224q32 17 79.5 26t95.5 9q140 0 213 -72t73 -217v-148h-93v142q0 112 -51 163.5t-151 51.5q-44 0 -86 -8.5t-80 -29.5v-319h-94z" />
    <glyph glyph-name="uni040C" unicode="&#x40c;" horiz-adv-x="664" 
d="M86 0v705h92v-311h138l-25 -16l221 327h105l-238 -343l-34 28q64 -7 108.5 -43t78.5 -101l123 -246h-101l-100 206q-29 60 -67 85t-95 25h-114v-316h-92zM303 765l118 172h100l-150 -172h-68z" />
    <glyph glyph-name="uni040D" unicode="&#x40d;" horiz-adv-x="748" 
d="M86 0v705h86v-586h-23l442 586h72v-705h-87v586h23l-443 -586h-70zM342 765l-150 172h100l118 -172h-68z" />
    <glyph glyph-name="uni040E" unicode="&#x40e;" horiz-adv-x="666" 
d="M200 0l122 230l2 -34l-328 509h101l273 -426h-20l225 426h97l-374 -705h-98zM334 760q-47 0 -86.5 15t-67.5 45t-42 73l51 19q20 -50 55.5 -73.5t89.5 -23.5q55 0 90 22t60 74l50 -18q-27 -71 -79.5 -102t-120.5 -31z" />
    <glyph glyph-name="uni040F" unicode="&#x40f;" horiz-adv-x="767" 
d="M342 -159v159h-256v705h93v-626h410v626h92v-705h-256v-159h-83z" />
    <glyph glyph-name="uni0410" unicode="&#x410;" horiz-adv-x="738" 
d="M14 0l312 705h81l317 -705h-96l-87 200l40 -24h-429l44 24l-87 -200h-95zM365 601l-156 -370l-24 21h363l-19 -21l-160 370h-4z" />
    <glyph glyph-name="uni0411" unicode="&#x411;" horiz-adv-x="680" 
d="M86 0v705h481v-75h-391v-233h219q114 0 177.5 -49.5t63.5 -147.5t-63.5 -149t-177.5 -51h-309zM176 74h209q82 0 120.5 31t38.5 94t-38.5 93.5t-120.5 30.5h-209v-249z" />
    <glyph glyph-name="uni0412" unicode="&#x412;" horiz-adv-x="683" 
d="M86 0v705h287q114 0 175 -48t61 -135q0 -66 -39.5 -110t-107.5 -59v15q78 -9 121.5 -54t43.5 -119q0 -94 -63 -144.5t-178 -50.5h-300zM176 74h201q74 0 116.5 28.5t42.5 94.5q0 67 -42.5 95t-116.5 28h-201v-246zM176 394h184q79 0 118 30.5t39 88.5t-39 88.5t-118 30.5
h-184v-238z" />
    <glyph glyph-name="uni0413" unicode="&#x413;" horiz-adv-x="559" 
d="M86 0v705h459v-78h-366v-627h-93z" />
    <glyph glyph-name="uni0414" unicode="&#x414;" horiz-adv-x="807" 
d="M16 -159v235h72q54 64 79.5 174t25.5 273v182h487v-629h104v-235h-83v159h-601v-159h-84zM184 76h404v554h-309v-114q0 -159 -23 -264.5t-72 -175.5z" />
    <glyph glyph-name="uni0415" unicode="&#x415;" horiz-adv-x="590" 
d="M86 0v705h456v-76h-366v-233h343v-76h-343v-244h366v-76h-456z" />
    <glyph glyph-name="uni0416" unicode="&#x416;" horiz-adv-x="1006" 
d="M9 0l123 246q33 65 78 101t110 43l-34 -28l-237 343h103l222 -327l-23 16h108v311h89v-311h110l-25 -16l222 327h103l-237 -343l-34 28q65 -7 109.5 -43t76.5 -101l124 -246h-100l-101 206q-29 59 -67 84.5t-95 25.5h-86v-316h-89v316h-86q-58 0 -96.5 -25.5t-66.5 -84.5
l-100 -206h-101z" />
    <glyph glyph-name="uni0417" unicode="&#x417;" horiz-adv-x="651" 
d="M318 -9q-91 0 -162.5 24t-118.5 65l33 71q48 -40 107 -60t136 -20q98 0 144 32.5t46 95.5q0 62 -39.5 91t-120.5 29h-178v76h163q78 0 118 30t40 88q0 56 -43 88.5t-129 32.5q-65 0 -122.5 -19t-104.5 -59l-33 71q47 43 118 65t149 22q127 0 192 -52t65 -139
q0 -66 -39.5 -110.5t-106.5 -58.5v14q76 -10 119.5 -55t43.5 -119q0 -62 -30.5 -108t-92 -70.5t-154.5 -24.5z" />
    <glyph glyph-name="uni0418" unicode="&#x418;" horiz-adv-x="748" 
d="M86 0v705h86v-586h-23l442 586h72v-705h-87v586h23l-443 -586h-70z" />
    <glyph glyph-name="uni0419" unicode="&#x419;" horiz-adv-x="748" 
d="M86 0v705h86v-586h-23l442 586h72v-705h-87v586h23l-443 -586h-70zM375 760q-47 0 -86.5 15t-67.5 45t-42 73l51 19q20 -50 55.5 -73.5t89.5 -23.5q55 0 90 22t60 74l50 -18q-27 -71 -79.5 -102t-120.5 -31z" />
    <glyph glyph-name="uni041A" unicode="&#x41a;" horiz-adv-x="664" 
d="M86 0v705h92v-311h138l-25 -16l221 327h105l-238 -343l-34 28q64 -7 108.5 -43t78.5 -101l123 -246h-101l-100 206q-29 60 -67 85t-95 25h-114v-316h-92z" />
    <glyph glyph-name="uni041B" unicode="&#x41b;" horiz-adv-x="764" 
d="M61 -15l-45 71q42 22 75 53t55 79t33.5 122t11.5 182v213h488v-705h-93v627h-309v-158q0 -107 -14 -187t-41.5 -137.5t-68 -96t-92.5 -63.5z" />
    <glyph glyph-name="uni041C" unicode="&#x41c;" horiz-adv-x="861" 
d="M86 0v705h82l278 -626h-30l278 626h81v-705h-85v581h31l-261 -581h-59l-261 581h31v-581h-85z" />
    <glyph glyph-name="uni041D" unicode="&#x41d;" horiz-adv-x="768" 
d="M86 0v705h93v-308h410v308h94v-705h-94v318h-410v-318h-93z" />
    <glyph glyph-name="uni041E" unicode="&#x41e;" horiz-adv-x="776" 
d="M60 353q0 111 39 192t112.5 125t175.5 44q101 0 174.5 -44t113.5 -125t40 -191q0 -111 -40 -192.5t-113.5 -126t-174.5 -44.5q-102 0 -175 44.5t-112.5 126t-39.5 191.5zM158 353q0 -132 58 -206t171 -74q109 0 169.5 73.5t60.5 206.5t-60 206t-170 73q-113 0 -171 -73
t-58 -206z" />
    <glyph glyph-name="uni041F" unicode="&#x41f;" horiz-adv-x="767" 
d="M86 0v705h595v-705h-92v627h-411v-627h-92z" />
    <glyph glyph-name="uni0420" unicode="&#x420;" horiz-adv-x="655" 
d="M86 0v705h292q113 0 173 -54t60 -149t-60 -149.5t-173 -54.5h-199v-298h-93zM179 374h190q74 0 112 33.5t38 94.5t-38 94t-112 33h-190v-255z" />
    <glyph glyph-name="uni0421" unicode="&#x421;" horiz-adv-x="685" 
d="M397 -9q-106 0 -181.5 44t-115.5 125.5t-40 192.5t40 192t115.5 125t181.5 44q76 0 135 -22.5t103 -65.5l-34 -75q-48 42 -94.5 60.5t-107.5 18.5q-117 0 -179 -72t-62 -205t62 -205.5t179 -72.5q61 0 107.5 18.5t94.5 60.5l34 -74q-44 -43 -103.5 -66t-134.5 -23z" />
    <glyph glyph-name="uni0422" unicode="&#x422;" horiz-adv-x="607" 
d="M255 0v626h-244v79h583v-79h-245v-626h-94z" />
    <glyph glyph-name="uni0423" unicode="&#x423;" horiz-adv-x="666" 
d="M200 0l122 230l2 -34l-328 509h101l273 -426h-20l225 426h97l-374 -705h-98z" />
    <glyph glyph-name="uni0424" unicode="&#x424;" horiz-adv-x="877" 
d="M392 -23v99l24 -20h-27q-102 0 -176 36.5t-113.5 104t-39.5 161.5q0 143 86 222.5t243 79.5h27l-24 -20v93h93v-93l-25 20h27q158 0 244 -79.5t86 -222.5q0 -94 -39.5 -161.5t-113.5 -104t-177 -36.5h-27l25 20v-99h-93zM392 110v495l22 -18h-37q-102 0 -161.5 -59
t-59.5 -170q0 -72 27.5 -123.5t77.5 -78.5t116 -27h37zM485 110l-23 19h38q66 0 116 27t77.5 78.5t27.5 123.5q0 111 -59.5 170t-161.5 59h-38l23 18v-495z" />
    <glyph glyph-name="uni0425" unicode="&#x425;" horiz-adv-x="657" 
d="M5 0l284 378v-36l-272 363h110l217 -296h-29l214 296h111l-272 -363v36l284 -378h-111l-230 314h35l-231 -314h-110z" />
    <glyph glyph-name="uni0426" unicode="&#x426;" horiz-adv-x="807" 
d="M701 -159v159h-615v705h92v-626h411v626h92v-626h103v-238h-83z" />
    <glyph glyph-name="uni0427" unicode="&#x427;" horiz-adv-x="696" 
d="M518 0v293q-31 -16 -79.5 -25t-96.5 -9q-139 0 -212 72t-73 217v157h92v-151q0 -112 50.5 -163t151.5 -51q45 0 87.5 8.5t79.5 28.5v328h93v-705h-93z" />
    <glyph glyph-name="uni0428" unicode="&#x428;" horiz-adv-x="1085" 
d="M86 0v705h91v-626h320v626h92v-626h319v626h92v-705h-914z" />
    <glyph glyph-name="uni0429" unicode="&#x429;" horiz-adv-x="1126" 
d="M1020 -159v159h-934v705h91v-626h320v626h92v-626h319v626h92v-626h103v-238h-83z" />
    <glyph glyph-name="uni042A" unicode="&#x42a;" horiz-adv-x="825" 
d="M231 0v627h-220v78h313v-308h216q115 0 178 -49.5t63 -147.5t-63 -149t-178 -51h-309zM324 74h207q81 0 120 31t39 94t-39 93.5t-120 30.5h-207v-249z" />
    <glyph glyph-name="uni042B" unicode="&#x42b;" horiz-adv-x="884" 
d="M86 0v705h93v-308h185q114 0 177.5 -49.5t63.5 -147.5t-63.5 -149t-177.5 -51h-278zM179 74h175q82 0 120.5 31t38.5 94t-38.5 93.5t-120.5 30.5h-175v-249zM706 0v705h93v-705h-93z" />
    <glyph glyph-name="uni042C" unicode="&#x42c;" horiz-adv-x="680" 
d="M86 0v705h93v-308h216q114 0 177.5 -49.5t63.5 -147.5t-63.5 -149t-177.5 -51h-309zM179 74h206q82 0 120.5 31t38.5 94t-38.5 93.5t-120.5 30.5h-206v-249z" />
    <glyph glyph-name="uni042D" unicode="&#x42d;" horiz-adv-x="692" 
d="M291 -9q-74 0 -135.5 23.5t-105.5 66.5l34 74q48 -42 96 -61.5t110 -19.5q117 0 179.5 70t64.5 198l29 -22h-390v76h388l-27 -26q-4 123 -65.5 192t-176.5 69q-62 0 -110.5 -19t-97.5 -62l-34 74q46 44 107.5 67t136.5 23q107 0 182.5 -44t115 -125t39.5 -192
t-39.5 -192.5t-115.5 -125.5t-185 -44z" />
    <glyph glyph-name="uni042E" unicode="&#x42e;" horiz-adv-x="1049" 
d="M660 -9q-94 0 -164.5 40t-112 113.5t-48.5 174.5h-156v-319h-93v705h93v-309h157q9 99 50.5 170t111 109.5t162.5 38.5q101 0 174.5 -44t113.5 -125t40 -192t-40 -192.5t-114 -125.5t-174 -44zM660 72q110 0 170.5 74t60.5 207t-60.5 206.5t-170.5 73.5
q-109 0 -169.5 -73.5t-60.5 -206.5t60.5 -207t169.5 -74z" />
    <glyph glyph-name="uni042F" unicode="&#x42f;" horiz-adv-x="692" 
d="M37 0l128 227q24 44 54.5 64t71.5 20h27l-4 -14q-116 0 -180 53.5t-64 150.5q0 98 62.5 151t179.5 53h295v-705h-93v294h-119q-49 0 -78 -14t-52 -55l-126 -225h-102zM326 366h188v264h-188q-165 0 -165 -132t165 -132z" />
    <glyph glyph-name="uni0430" unicode="&#x430;" horiz-adv-x="616" 
d="M273 -9q-66 0 -116 31t-78 90t-28 140t28 139.5t78 89.5t116 31q67 0 116.5 -33.5t65.5 -91.5h-12l11 116h88q-3 -30 -5.5 -60t-2.5 -59v-384h-91v115h11q-16 -57 -65.5 -90.5t-115.5 -33.5zM294 63q68 0 109 48t41 141t-41 140t-109 47t-109.5 -47t-41.5 -140t41 -141
t110 -48z" />
    <glyph glyph-name="uni0431" unicode="&#x431;" horiz-adv-x="587" 
d="M297 -9q-113 0 -179 71t-66 208v87q0 140 59 226t183 116l184 46l27 -74l-204 -49q-55 -13 -91 -47t-53.5 -80t-17.5 -98v-43h-14q12 45 38.5 78t66.5 50.5t88 17.5q65 0 114 -30t76.5 -86.5t27.5 -134.5q0 -80 -29.5 -138t-83.5 -89t-126 -31zM294 63q70 0 110.5 46
t40.5 137q0 89 -40.5 136t-110.5 47t-110.5 -46t-40.5 -131q0 -95 40.5 -142t110.5 -47z" />
    <glyph glyph-name="uni0432" unicode="&#x432;" horiz-adv-x="563" 
d="M78 0v503h248q89 0 132.5 -34t43.5 -98q0 -48 -33 -80.5t-86 -39.5v13q63 -2 99.5 -36.5t36.5 -88.5q0 -64 -48.5 -101.5t-135.5 -37.5h-257zM164 60h165q51 0 78 21.5t27 61.5q0 41 -27 62t-78 21h-165v-166zM164 286h154q47 0 73 21t26 58q0 38 -26 58t-73 20h-154
v-157z" />
    <glyph glyph-name="uni0433" unicode="&#x433;" horiz-adv-x="450" 
d="M78 0v503h357v-73h-266v-430h-91z" />
    <glyph glyph-name="uni0434" unicode="&#x434;" horiz-adv-x="614" 
d="M26 -130v201h55q34 51 49.5 120t15.5 164v148h361v-432h80v-201h-78v130h-404v-130h-79zM167 70h255v363h-196v-94q0 -76 -15 -147.5t-44 -121.5z" />
    <glyph glyph-name="uni0435" unicode="&#x435;" horiz-adv-x="556" 
d="M310 -9q-120 0 -189.5 69t-69.5 190q0 80 30.5 138.5t84.5 91t126 32.5q69 0 117 -29.5t73 -83.5t25 -128v-30h-385v54h323l-17 -13q0 78 -34.5 121t-101.5 43q-73 0 -113 -50.5t-40 -137.5v-9q0 -92 45.5 -139t126.5 -47q45 0 84 13t75 43l30 -63q-34 -31 -84.5 -48
t-105.5 -17z" />
    <glyph glyph-name="uni0436" unicode="&#x436;" horiz-adv-x="817" 
d="M0 0l104 179q23 37 42 59t40.5 33.5t50.5 14.5l-22 -28l-191 245h100l163 -208h77v208h90v-208h76l162 208h101l-191 -245l-23 28q29 -3 50.5 -14.5t41.5 -33.5t42 -59l104 -179h-97l-91 155q-16 27 -31 42t-33.5 21t-46.5 6h-64v-224h-90v224h-65q-28 0 -46.5 -6
t-33 -21t-31.5 -42l-90 -155h-98z" />
    <glyph glyph-name="uni0437" unicode="&#x437;" horiz-adv-x="513" 
d="M249 -9q-66 0 -123 17t-94 48l30 63q37 -30 84 -45t102 -15q72 0 104.5 21.5t32.5 62.5q0 39 -27 59t-79 20h-122v66h111q47 0 73.5 20.5t26.5 56.5q0 37 -30 58.5t-92 21.5q-52 0 -95 -13.5t-82 -40.5l-29 59q41 32 96 47t120 15q95 0 145.5 -36.5t50.5 -103.5
q0 -47 -32 -80.5t-85 -40.5v13q60 -3 97 -36.5t37 -88.5q0 -67 -56 -107.5t-164 -40.5z" />
    <glyph glyph-name="uni0438" unicode="&#x438;" horiz-adv-x="600" 
d="M78 0v503h83v-417h-27l312 417h76v-503h-83v418h28l-313 -418h-76z" />
    <glyph glyph-name="uni0439" unicode="&#x439;" horiz-adv-x="600" 
d="M78 0v503h83v-417h-27l312 417h76v-503h-83v418h28l-313 -418h-76zM300 549q-43 0 -79 15t-61.5 43.5t-38.5 71.5l52 19q18 -48 49 -70.5t78 -22.5q48 0 79 21t54 71l49 -18q-25 -68 -72.5 -99t-109.5 -31z" />
    <glyph glyph-name="uni043A" unicode="&#x43a;" horiz-adv-x="545" 
d="M78 0v503h90v-208h91l162 208h99l-188 -245l-24 28q29 -3 50 -14.5t40.5 -33.5t42.5 -59l104 -179h-98l-91 155q-15 27 -30 42t-33.5 21t-46.5 6h-78v-224h-90z" />
    <glyph glyph-name="uni043B" unicode="&#x43b;" horiz-adv-x="592" 
d="M54 -12l-32 71q35 16 58.5 38.5t37 57.5t19.5 87t6 126v135h371v-503h-90v432h-197v-66q0 -116 -17.5 -191.5t-55 -119.5t-100.5 -67z" />
    <glyph glyph-name="uni043C" unicode="&#x43c;" horiz-adv-x="678" 
d="M78 0v503h76l185 -329l186 329h75v-503h-80v401h22l-180 -320h-45l-180 321h21v-402h-80z" />
    <glyph glyph-name="uni043D" unicode="&#x43d;" horiz-adv-x="602" 
d="M78 0v503h90v-208h266v208h90v-503h-90v223h-266v-223h-90z" />
    <glyph glyph-name="uni043E" unicode="&#x43e;" horiz-adv-x="587" 
d="M293 -9q-74 0 -128 31.5t-84 90t-30 139.5q0 80 30 138.5t84 90t128 31.5t128.5 -31.5t84 -90t29.5 -138.5q0 -81 -29.5 -139.5t-84 -90t-128.5 -31.5zM293 63q68 0 109 48t41 141t-41 140t-109 47q-69 0 -109.5 -47t-40.5 -140t40.5 -141t109.5 -48z" />
    <glyph glyph-name="uni043F" unicode="&#x43f;" horiz-adv-x="599" 
d="M78 0v503h443v-503h-90v432h-263v-432h-90z" />
    <glyph glyph-name="uni0440" unicode="&#x440;" horiz-adv-x="616" 
d="M81 -216v600q0 29 -2 59t-6 60h88l11 -116h-11q15 58 64 91.5t117 33.5q67 0 117 -31t77.5 -89.5t27.5 -139.5t-27.5 -140t-77.5 -90t-117 -31t-115.5 33.5t-65.5 90.5h11v-331h-91zM321 63q69 0 110 48t41 141t-41 140t-110 47t-109.5 -47t-40.5 -140t40.5 -141
t109.5 -48z" />
    <glyph glyph-name="uni0441" unicode="&#x441;" horiz-adv-x="508" 
d="M297 -9q-75 0 -130 31.5t-85.5 91t-30.5 141.5q0 81 31 138.5t86 88t129 30.5q49 0 95 -16.5t75 -47.5l-31 -64q-29 28 -64 41.5t-69 13.5q-74 0 -116 -47.5t-42 -137.5q0 -91 42 -140t116 -49q33 0 68 13t65 41l31 -63q-30 -32 -76.5 -48.5t-93.5 -16.5z" />
    <glyph glyph-name="uni0442" unicode="&#x442;" horiz-adv-x="462" 
d="M186 0v430h-181v73h452v-73h-181v-430h-90z" />
    <glyph glyph-name="uni0443" unicode="&#x443;" horiz-adv-x="544" 
d="M64 -227l-21 74q47 11 78 25.5t52 37.5t37 58l25 60l-2 -38l-219 513h98l175 -431h-26l175 431h94l-231 -542q-21 -49 -45.5 -82t-53 -54t-62.5 -33t-74 -19z" />
    <glyph glyph-name="uni0444" unicode="&#x444;" horiz-adv-x="826" 
d="M368 -216v325h10q-15 -57 -52.5 -87.5t-91.5 -30.5t-95.5 32t-64.5 90.5t-23 138.5t22.5 138.5t64 90t96.5 31.5q54 0 91.5 -30.5t52.5 -86.5h-10v341h90v-341h-10q16 56 53 86.5t91 30.5q55 0 96.5 -31.5t64 -90t22.5 -138.5t-22.5 -138.5t-63.5 -90.5t-97 -32
q-53 0 -90.5 30.5t-53.5 87.5h10v-325h-90zM256 62q53 0 83.5 48t30.5 142q0 92 -31 141t-83 49q-53 0 -83.5 -49t-30.5 -141q0 -94 30.5 -142t83.5 -48zM570 62q53 0 84 48t31 142q0 92 -31 141t-84 49t-83 -49t-30 -141q0 -94 30 -142t83 -48z" />
    <glyph glyph-name="uni0445" unicode="&#x445;" horiz-adv-x="549" 
d="M11 0l228 282v-45l-215 266h109l157 -201h-33l157 201h108l-212 -264v41l225 -280h-110l-168 215h33l-170 -215h-109z" />
    <glyph glyph-name="uni0446" unicode="&#x446;" horiz-adv-x="616" 
d="M513 -130v130h-435v503h90v-432h252v432h90v-432h80v-201h-77z" />
    <glyph glyph-name="uni0447" unicode="&#x447;" horiz-adv-x="568" 
d="M401 0v199q-29 -16 -62 -24.5t-70 -8.5q-108 0 -159.5 50.5t-51.5 152.5v134h90v-127q0 -71 32.5 -102.5t101.5 -31.5q35 0 63 7.5t54 24.5v229h91v-503h-89z" />
    <glyph glyph-name="uni0448" unicode="&#x448;" horiz-adv-x="824" 
d="M78 0v503h86v-432h205v432h86v-432h204v432h87v-503h-668z" />
    <glyph glyph-name="uni0449" unicode="&#x449;" horiz-adv-x="852" 
d="M748 -130v130h-670v503h86v-432h205v432h86v-432h204v432h87v-432h79v-201h-77z" />
    <glyph glyph-name="uni044A" unicode="&#x44a;" horiz-adv-x="636" 
d="M162 0v430h-157v73h247v-178h147q98 0 148 -41.5t50 -119.5q0 -50 -23 -87t-67 -57t-108 -20h-237zM252 63h138q58 0 89.5 24.5t31.5 75.5t-31 75t-90 24h-138v-199z" />
    <glyph glyph-name="uni044B" unicode="&#x44b;" horiz-adv-x="754" 
d="M78 0v503h90v-178h148q98 0 147.5 -41.5t49.5 -119.5q0 -50 -23 -87t-67 -57t-107 -20h-238zM168 63h138q60 0 90.5 24.5t30.5 75.5t-30.5 75t-90.5 24h-138v-199zM586 0v503h90v-503h-90z" />
    <glyph glyph-name="uni044C" unicode="&#x44c;" horiz-adv-x="552" 
d="M78 0v503h90v-178h148q98 0 147.5 -41.5t49.5 -119.5q0 -50 -23 -87t-67 -57t-107 -20h-238zM168 63h138q59 0 90 24.5t31 75.5t-30.5 75t-90.5 24h-138v-199z" />
    <glyph glyph-name="uni044D" unicode="&#x44d;" horiz-adv-x="524" 
d="M224 -9q-55 0 -105.5 17.5t-78.5 48.5l30 60q29 -28 68.5 -42.5t79.5 -14.5q77 0 121.5 47t47.5 135l11 -19h-264v66h265l-12 -19q-3 52 -22 91t-55 61t-92 22q-39 0 -78.5 -14t-69.5 -43l-30 60q31 30 81.5 47.5t103.5 17.5q76 0 132 -30.5t86 -88.5t30 -140
q0 -81 -30.5 -140.5t-86.5 -90.5t-132 -31z" />
    <glyph glyph-name="uni044E" unicode="&#x44e;" horiz-adv-x="798" 
d="M504 -9q-103 0 -166.5 61.5t-72.5 170.5h-98v-223h-89v503h89v-208h99q13 102 76 159.5t162 57.5q74 0 128.5 -31t84.5 -89.5t30 -139.5t-30 -139.5t-84.5 -90t-128.5 -31.5zM504 63q69 0 110 47.5t41 141.5q0 93 -41 140.5t-110 47.5t-110 -47.5t-41 -140.5
q0 -94 41 -141.5t110 -47.5z" />
    <glyph glyph-name="uni044F" unicode="&#x44f;" horiz-adv-x="554" 
d="M38 0l79 137q19 33 48 53.5t61 20.5h16l-1 -9q-85 0 -133 38.5t-48 111.5q0 72 47 111.5t140 39.5h229v-503h-84v190h-72q-39 0 -67 -19.5t-46 -51.5l-68 -119h-101zM263 253h129v188h-129q-59 0 -87.5 -25t-28.5 -69q0 -45 28.5 -69.5t87.5 -24.5z" />
    <glyph glyph-name="uni0450" unicode="&#x450;" horiz-adv-x="556" 
d="M310 -9q-120 0 -189.5 69t-69.5 190q0 80 30.5 138.5t84.5 91t126 32.5q69 0 117 -29.5t73 -83.5t25 -128v-30h-385v54h323l-17 -13q0 78 -34.5 121t-101.5 43q-73 0 -113 -50.5t-40 -137.5v-9q0 -92 45.5 -139t126.5 -47q45 0 84 13t75 43l30 -63q-34 -31 -84.5 -48
t-105.5 -17zM260 552l-134 202h95l103 -202h-64z" />
    <glyph glyph-name="uni0451" unicode="&#x451;" horiz-adv-x="556" 
d="M310 -9q-120 0 -189.5 69t-69.5 190q0 80 30.5 138.5t84.5 91t126 32.5q69 0 117 -29.5t73 -83.5t25 -128v-30h-385v54h323l-17 -13q0 78 -34.5 121t-101.5 43q-73 0 -113 -50.5t-40 -137.5v-9q0 -92 45.5 -139t126.5 -47q45 0 84 13t75 43l30 -63q-34 -31 -84.5 -48
t-105.5 -17zM334 606v93h93v-93h-93zM157 606v93h93v-93h-93z" />
    <glyph glyph-name="uni0452" unicode="&#x452;" horiz-adv-x="598" 
d="M327 -186l-26 69q52 12 80 33t39 55t11 84v244q0 70 -28 99.5t-84 29.5q-67 0 -106.5 -40.5t-39.5 -108.5v-279h-91v579h-95v67h95v90h91v-90h199v-67h-199v-190h-12q21 54 69.5 84t110.5 30q90 0 135.5 -48.5t45.5 -150.5v-246q0 -66 -18 -114.5t-60 -80.5t-117 -49z
" />
    <glyph glyph-name="uni0453" unicode="&#x453;" horiz-adv-x="450" 
d="M78 0v503h357v-73h-266v-430h-91zM209 552l103 202h95l-134 -202h-64z" />
    <glyph glyph-name="uni0454" unicode="&#x454;" horiz-adv-x="530" 
d="M301 -9q-76 0 -132 31.5t-86.5 91t-30.5 141.5q0 81 31 138.5t87.5 88t133.5 30.5q54 0 103.5 -17.5t77.5 -47.5l-30 -60q-30 29 -69.5 43t-78.5 14q-55 0 -92 -22t-56 -61t-22 -91l-11 19h264v-66h-264l11 20q4 -89 47.5 -136t122.5 -47q39 0 78.5 14t69.5 42l30 -59
q-29 -32 -79.5 -49t-104.5 -17z" />
    <glyph glyph-name="uni0455" unicode="&#x455;" horiz-adv-x="508" 
d="M251 -9q-61 0 -113.5 16t-86.5 46l29 63q37 -28 81.5 -42.5t91.5 -14.5q57 0 86.5 21t29.5 56q0 28 -19 45t-60 25l-95 19q-64 15 -96.5 48.5t-32.5 86.5q0 44 24 78.5t68.5 54t104.5 19.5q55 0 102.5 -16t78.5 -47l-30 -61q-31 27 -69.5 41.5t-78.5 14.5
q-58 0 -86 -22.5t-28 -58.5q0 -27 17 -44.5t55 -26.5l95 -19q67 -14 101 -46t34 -85q0 -47 -25.5 -81t-71 -52t-106.5 -18z" />
    <glyph glyph-name="uni0456" unicode="&#x456;" horiz-adv-x="254" 
d="M81 0v503h91v-503h-91zM73 613v98h108v-98h-108z" />
    <glyph glyph-name="uni0457" unicode="&#x457;" horiz-adv-x="254" 
d="M81 0v503h91v-503h-91zM169 606v93h93v-93h-93zM-8 606v93h93v-93h-93z" />
    <glyph glyph-name="uni0458" unicode="&#x458;" horiz-adv-x="254" 
d="M19 -220q-15 0 -36.5 3t-35.5 9v75q12 -4 28 -7.5t29 -3.5q41 0 61.5 25.5t20.5 83.5v538h91v-546q0 -87 -39 -132t-119 -45zM77 613v98h108v-98h-108z" />
    <glyph glyph-name="uni0459" unicode="&#x459;" horiz-adv-x="897" 
d="M54 -12l-32 71q35 16 58.5 38.5t37 57.5t19.5 87t6 126v135h369v-178h148q98 0 148 -41.5t50 -119.5q0 -50 -23 -87t-67.5 -57t-107.5 -20h-236v432h-197v-66q0 -116 -17.5 -191.5t-55 -119.5t-100.5 -67zM512 63h139q58 0 89 24.5t31 75.5t-30.5 75t-89.5 24h-139v-199z
" />
    <glyph glyph-name="uni045A" unicode="&#x45a;" horiz-adv-x="908" 
d="M78 0v503h90v-208h267v208h89v-178h148q98 0 147.5 -41.5t49.5 -119.5q0 -50 -22.5 -87t-67 -57t-107.5 -20h-237v223h-267v-223h-90zM524 63h139q59 0 89.5 24.5t30.5 75.5t-30.5 75t-89.5 24h-139v-199z" />
    <glyph glyph-name="uni045B" unicode="&#x45b;" horiz-adv-x="600" 
d="M81 0v579h-94v67h94v90h91v-90h199v-67h-199v-191h-13q22 57 71 87.5t113 30.5q90 0 134 -49t44 -149v-308h-91v303q0 68 -26.5 98t-84.5 30q-66 0 -106.5 -40.5t-40.5 -108.5v-282h-91z" />
    <glyph glyph-name="uni045C" unicode="&#x45c;" horiz-adv-x="545" 
d="M78 0v503h90v-208h91l162 208h99l-188 -245l-24 28q29 -3 50 -14.5t40.5 -33.5t42.5 -59l104 -179h-98l-91 155q-15 27 -30 42t-33.5 21t-46.5 6h-78v-224h-90zM267 552l103 202h95l-134 -202h-64z" />
    <glyph glyph-name="uni045D" unicode="&#x45d;" horiz-adv-x="600" 
d="M78 0v503h83v-417h-27l312 417h76v-503h-83v418h28l-313 -418h-76zM268 552l-134 202h95l103 -202h-64z" />
    <glyph glyph-name="uni045E" unicode="&#x45e;" horiz-adv-x="544" 
d="M64 -227l-21 74q47 11 78 25.5t52 37.5t37 58l25 60l-2 -38l-219 513h98l175 -431h-26l175 431h94l-231 -542q-21 -49 -45.5 -82t-53 -54t-62.5 -33t-74 -19zM270 549q-43 0 -79 15t-61.5 43.5t-38.5 71.5l52 19q18 -48 49 -70.5t78 -22.5q48 0 79 21t54 71l49 -18
q-25 -68 -72.5 -99t-109.5 -31z" />
    <glyph glyph-name="uni045F" unicode="&#x45f;" horiz-adv-x="599" 
d="M260 -130v130h-182v503h90v-432h263v432h90v-503h-183v-130h-78z" />
    <glyph glyph-name="uni0462" unicode="&#x462;" horiz-adv-x="750" 
d="M159 0v533h-179v71h179v101h90v-101h245v-71h-245v-136h216q114 0 177.5 -49.5t63.5 -147.5t-63.5 -149t-177.5 -51h-306zM249 74h207q81 0 120 31t39 94t-39 93.5t-120 30.5h-207v-249z" />
    <glyph glyph-name="uni0463" unicode="&#x463;" horiz-adv-x="636" 
d="M162 0v438h-157v65h157v233h90v-233h168v-65h-168v-124h152q94 0 143.5 -40t49.5 -116t-50 -117t-143 -41h-242zM252 59h140q58 0 88.5 24.5t30.5 74.5t-30.5 73.5t-88.5 23.5h-140v-196z" />
    <glyph glyph-name="uni046A" unicode="&#x46a;" horiz-adv-x="991" 
d="M9 0l124 248q23 44 54.5 76.5t76.5 50.5t108 18h57l-6 -22l-297 334h740l-297 -334l-6 22h57q63 0 108 -18t76.5 -50.5t53.5 -76.5l124 -248h-100l-101 206q-29 58 -65.5 84t-94.5 26h-79v-316h-92v316h-78q-59 0 -95.5 -26t-65.5 -84l-102 -206h-100zM495 394h2l241 275
v-32h-485v32z" />
    <glyph glyph-name="uni046B" unicode="&#x46b;" horiz-adv-x="816" 
d="M0 0l104 172q27 44 50 69t52 36t73 11h72l-12 -23l-207 238h552l-206 -238l-13 23h73q45 0 74 -11t52 -36.5t49 -68.5l103 -172h-97l-91 147q-16 28 -31 43t-33 21t-46 6h-65v-217h-90v217h-65q-27 0 -45.5 -6t-33 -21t-31.5 -43l-91 -147h-97zM408 284h2l154 184v-27
h-312v27z" />
    <glyph glyph-name="uni0472" unicode="&#x472;" horiz-adv-x="776" 
d="M109 322v72h569v-72h-569zM60 353q0 111 39 192t112.5 125t175.5 44q101 0 174.5 -44t113.5 -125t40 -191q0 -111 -40 -192.5t-113.5 -126t-174.5 -44.5q-102 0 -175 44.5t-112.5 126t-39.5 191.5zM158 353q0 -132 58 -206t171 -74q109 0 169.5 73.5t60.5 206.5t-60 206
t-170 73q-113 0 -171 -73t-58 -206z" />
    <glyph glyph-name="uni0473" unicode="&#x473;" horiz-adv-x="587" 
d="M293 -9q-74 0 -128 31.5t-83.5 90t-29.5 139.5q0 80 29.5 138.5t84 90t127.5 31.5q74 0 128.5 -31.5t84.5 -90t30 -138.5q0 -81 -30 -139.5t-84.5 -90t-128.5 -31.5zM293 63q73 0 114.5 49t41.5 140t-41.5 139t-114.5 48t-114 -48t-41 -139t41 -140t114 -49zM106 221v62
h376v-62h-376z" />
    <glyph glyph-name="uni0474" unicode="&#x474;" horiz-adv-x="772" 
d="M306 0l-306 705h101l266 -628h-34l195 446q23 53 47 90t53 59t67 32t90 10l8 -76q-48 0 -79.5 -13t-55.5 -44.5t-49 -87.5l-219 -493h-84z" />
    <glyph glyph-name="uni0475" unicode="&#x475;" horiz-adv-x="572" 
d="M229 0l-215 503h98l175 -432h-28l131 318q19 47 42.5 74t58.5 38t87 11l7 -73q-49 0 -75 -19.5t-47 -69.5l-150 -350h-84z" />
    <glyph glyph-name="uni048A" unicode="&#x48a;" horiz-adv-x="770" 
d="M610 -159l55 159h-89v76h195l-81 -235h-80zM86 0v705h86v-586h-23l442 586h72v-705h-87v586h23l-443 -586h-70zM376 760q-47 0 -87 15t-68 45t-42 73l51 19q20 -50 55.5 -73.5t89.5 -23.5q55 0 90 22t60 74l50 -18q-27 -71 -79.5 -102t-119.5 -31z" />
    <glyph glyph-name="uni048B" unicode="&#x48b;" horiz-adv-x="627" 
d="M461 -130l47 130h-68v71h170l-72 -201h-77zM78 0v503h83v-417h-27l312 417h76v-503h-83v418h28l-313 -418h-76zM300 549q-43 0 -79 15t-61.5 43.5t-38.5 71.5l52 19q17 -48 48.5 -70.5t78.5 -22.5q48 0 79 21t53 71l49 -18q-25 -68 -72 -99t-109 -31z" />
    <glyph glyph-name="uni048C" unicode="&#x48c;" horiz-adv-x="738" 
d="M148 0v534h-148v70h148v101h89v-101h147v-70h-147v-137h215q114 0 178 -49.5t64 -147.5t-64 -149t-178 -51h-304zM237 74h205q82 0 122 31t40 94t-40 93.5t-122 30.5h-205v-249z" />
    <glyph glyph-name="uni048D" unicode="&#x48d;" horiz-adv-x="636" 
d="M162 0v438h-157v65h157v233h90v-233h168v-65h-168v-124h152q94 0 143.5 -40t49.5 -116t-50 -117t-143 -41h-242zM252 59h140q58 0 88.5 24.5t30.5 74.5t-30.5 73.5t-88.5 23.5h-140v-196z" />
    <glyph glyph-name="uni048E" unicode="&#x48e;" horiz-adv-x="655" 
d="M86 0v705h286q117 0 178 -55.5t61 -157.5q0 -73 -33 -123.5t-94 -71.5l4 15l58 -84l-48 -33l-69 102l20 -11q-16 -4 -35 -6t-42 -2h-194v-278h-92zM178 353h183q12 0 27 1t26 4l-17 -13l-55 81l46 31l68 -98l-19 6q83 29 83 127q0 138 -162 138h-180v-277z" />
    <glyph glyph-name="uni048F" unicode="&#x48f;" horiz-adv-x="615" 
d="M82 -216v600q0 29 -2.5 59t-5.5 60h87l11 -116h-12q17 58 66 91.5t116 33.5t116.5 -31t77.5 -89.5t28 -139.5q0 -75 -23.5 -131t-66.5 -88l4 14l51 -63l-41 -31l-53 67l15 -1q-45 -28 -108 -28q-67 0 -116 33.5t-65 90.5h12v-331h-91zM321 439q-68 0 -109 -47t-41 -140
t41 -141.5t109 -47.5q45 2 77 21l-3 -12l-58 73l41 30l60 -77l-15 6q49 47 49 148q0 93 -41 140t-110 47z" />
    <glyph glyph-name="uni0490" unicode="&#x490;" horiz-adv-x="559" 
d="M86 0v705h376v156h83v-234h-366v-627h-93z" />
    <glyph glyph-name="uni0491" unicode="&#x491;" horiz-adv-x="450" 
d="M78 0v503h279v115h78v-188h-267v-430h-90z" />
    <glyph glyph-name="uni0492" unicode="&#x492;" horiz-adv-x="599" 
d="M125 0v317h-100v70h100v318h459v-78h-366v-240h190v-70h-190v-317h-93z" />
    <glyph glyph-name="uni0493" unicode="&#x493;" horiz-adv-x="474" 
d="M103 0v208h-98v66h98v229h356v-72h-266v-157h150v-66h-150v-208h-90z" />
    <glyph glyph-name="uni0494" unicode="&#x494;" horiz-adv-x="691" 
d="M420 -189q-29 0 -57 3.5t-47 10.5v77q19 -8 42.5 -12.5t50.5 -4.5q64 0 98.5 42t34.5 123v92q0 111 -50.5 162.5t-154.5 51.5q-46 0 -86 -9.5t-73 -27.5v-319h-92v705h460v-78h-368v-225q28 16 74 25.5t95 9.5q142 0 215 -72t73 -217v-95q0 -78 -26 -132t-74 -82
t-115 -28z" />
    <glyph glyph-name="uni0495" unicode="&#x495;" horiz-adv-x="568" 
d="M330 -186l-26 69q53 12 80.5 33.5t38 55t10.5 83.5v70q0 71 -26.5 102.5t-87.5 31.5q-68 0 -109.5 -41t-41.5 -109v-109h-90v503h357v-68h-267v-222l-15 -1q22 57 72 89t117 32q91 0 136 -50t45 -153v-72q0 -66 -17 -114.5t-59 -80.5t-117 -49z" />
    <glyph glyph-name="uni0496" unicode="&#x496;" horiz-adv-x="1017" 
d="M967 -159v159h-49v76h133v-235h-84zM9 0l123 246q33 65 78 101t110 43l-34 -28l-237 343h103l222 -327l-23 16h108v311h89v-311h110l-25 -16l222 327h103l-237 -343l-34 28q65 -7 109.5 -43t76.5 -101l124 -246h-100l-101 206q-29 59 -67 84.5t-95 25.5h-86v-316h-89v316
h-86q-58 0 -96.5 -25.5t-66.5 -84.5l-100 -206h-101z" />
    <glyph glyph-name="uni0497" unicode="&#x497;" horiz-adv-x="861" 
d="M764 -130v130h-38v71h118v-201h-80zM0 0l104 179q23 37 42 59t40.5 33.5t50.5 14.5l-22 -28l-191 245h100l163 -208h77v208h90v-208h76l162 208h101l-191 -245l-23 28q29 -3 50.5 -14.5t41.5 -33.5t42 -59l104 -179h-97l-91 155q-16 27 -31 42t-33.5 21t-46.5 6h-64v-224
h-90v224h-65q-28 0 -46.5 -6t-33 -21t-31.5 -42l-90 -155h-98z" />
    <glyph glyph-name="uni0498" unicode="&#x498;" horiz-adv-x="651" 
d="M283 -159v200h82v-200h-82zM318 -9q-91 0 -162.5 24t-118.5 65l33 71q48 -40 107 -60t136 -20q98 0 144 32.5t46 95.5q0 62 -39.5 91t-120.5 29h-178v76h163q78 0 118 30t40 88q0 56 -43 88.5t-129 32.5q-65 0 -122.5 -19t-104.5 -59l-33 71q47 43 118 65t149 22
q127 0 192 -52t65 -139q0 -66 -39.5 -110.5t-106.5 -58.5v14q76 -10 119.5 -55t43.5 -119q0 -62 -30.5 -108t-92 -70.5t-154.5 -24.5z" />
    <glyph glyph-name="uni0499" unicode="&#x499;" horiz-adv-x="513" 
d="M218 -130v172h75v-172h-75zM249 -9q-66 0 -123 17t-94 48l30 63q37 -30 84 -45t102 -15q72 0 104.5 21.5t32.5 62.5q0 39 -27 59t-79 20h-122v66h111q47 0 73.5 20.5t26.5 56.5q0 37 -30 58.5t-92 21.5q-52 0 -95 -13.5t-82 -40.5l-29 59q41 32 96 47t120 15
q95 0 145.5 -36.5t50.5 -103.5q0 -47 -32 -80.5t-85 -40.5v13q60 -3 97 -36.5t37 -88.5q0 -67 -56 -107.5t-164 -40.5z" />
    <glyph glyph-name="uni049A" unicode="&#x49a;" horiz-adv-x="694" 
d="M623 -159v159h-49v76h133v-235h-84zM86 0v705h92v-311h138l-25 -16l221 327h105l-238 -343l-34 28q64 -7 108.5 -43t78.5 -101l123 -246h-101l-100 206q-29 60 -67 85t-95 25h-114v-316h-92z" />
    <glyph glyph-name="uni049B" unicode="&#x49b;" horiz-adv-x="590" 
d="M492 -130v130h-38v71h118v-201h-80zM78 0v503h90v-208h91l162 208h99l-188 -245l-24 28q29 -3 50 -14.5t40.5 -33.5t42.5 -59l104 -179h-98l-91 155q-15 27 -30 42t-33.5 21t-46.5 6h-78v-224h-90z" />
    <glyph glyph-name="uni049C" unicode="&#x49c;" horiz-adv-x="699" 
d="M86 0v705h93v-311h72v167h58v-167h27l211 311h103l-236 -343l-35 28q64 -7 109 -43t78 -101l124 -246h-102l-100 206q-28 60 -66.5 85.5t-94.5 25.5h-30l12 9v-175h-58v166h-72v-317h-93z" />
    <glyph glyph-name="uni049D" unicode="&#x49d;" horiz-adv-x="583" 
d="M78 0v503h90v-208h56v115h59v-115h14l161 208h100l-188 -245l-25 28q28 -3 49.5 -14.5t41.5 -33.5t43 -59l104 -179h-98l-91 155q-16 27 -31 42t-33.5 21t-45.5 6h-16l15 12v-138h-59v126h-56v-224h-90z" />
    <glyph glyph-name="uni049E" unicode="&#x49e;" horiz-adv-x="715" 
d="M133 0v538h-145v67h145v100h92v-100h142v-67h-142v-144h149l-29 -23l229 334h104l-244 -350l-26 30q53 -7 95 -40.5t75 -98.5l124 -246h-101l-100 206q-28 60 -66.5 85t-94.5 25h-115v-316h-92z" />
    <glyph glyph-name="uni049F" unicode="&#x49f;" horiz-adv-x="549" 
d="M82 0v579h-95v67h95v90h91v-90h199v-67h-199v-287h91l159 202h100l-188 -241l-20 28q28 -3 48 -13.5t39 -32.5t42 -60l105 -175h-98l-91 153q-16 27 -31 42t-33 21t-46 6h-77v-222h-91z" />
    <glyph glyph-name="uni04A0" unicode="&#x4a0;" horiz-adv-x="808" 
d="M11 627v78h311v-78h-311zM230 0v705h92v-311h138l-25 -16l221 327h105l-238 -343l-34 28q64 -7 108.5 -43t77.5 -101l124 -246h-101l-100 206q-29 60 -67 85t-95 25h-114v-316h-92z" />
    <glyph glyph-name="uni04A1" unicode="&#x4a1;" horiz-adv-x="629" 
d="M162 0v430h-157v73h247v-208h91l162 208h99l-188 -245l-24 28q29 -3 50 -14.5t40.5 -33.5t42.5 -59l104 -179h-98l-91 155q-16 27 -31 42t-33.5 21t-45.5 6h-78v-224h-90z" />
    <glyph glyph-name="uni04A2" unicode="&#x4a2;" horiz-adv-x="811" 
d="M719 -159v159h-108v76h191v-235h-83zM86 0v705h93v-308h410v308h94v-705h-94v318h-410v-318h-93z" />
    <glyph glyph-name="uni04A3" unicode="&#x4a3;" horiz-adv-x="604" 
d="M527 -130v130h-88v71h166v-201h-78zM78 0v503h90v-208h266v208h90v-503h-90v223h-266v-223h-90z" />
    <glyph glyph-name="uni04A4" unicode="&#x4a4;" horiz-adv-x="955" 
d="M86 0v705h92v-308h411v308h353v-78h-261v-627h-92v319h-411v-319h-92z" />
    <glyph glyph-name="uni04A5" unicode="&#x4a5;" horiz-adv-x="762" 
d="M78 0v503h90v-208h261v208h318v-73h-227v-430h-91v223h-261v-223h-90z" />
    <glyph glyph-name="uni04A8" unicode="&#x4a8;" horiz-adv-x="840" 
d="M399 -9q-106 0 -181.5 43t-116.5 123.5t-41 192.5q0 115 40.5 196.5t115.5 124.5t180 43q22 0 40 -1.5t31 -4.5l-11 -77q-17 2 -31.5 3.5t-27.5 1.5q-114 0 -177 -73.5t-63 -209.5q0 -139 63 -214t183 -75q85 0 143.5 31.5t89 90t30.5 139.5q0 74 -31 114t-85 40
q-53 0 -84 -40t-31 -114q0 -81 30.5 -139.5t89 -90t143.5 -31.5q37 0 70.5 8.5t64.5 24.5l23 -71q-29 -18 -69 -26.5t-90 -8.5q-76 0 -139.5 24.5t-110.5 70t-72.5 107t-25.5 134.5q0 71 25 122t70 78.5t106 27.5q62 0 107 -27.5t69.5 -78.5t24.5 -122q0 -72 -26 -133.5
t-73 -107t-111 -70.5t-142 -25z" />
    <glyph glyph-name="uni04A9" unicode="&#x4a9;" horiz-adv-x="672" 
d="M322 -9q-128 0 -199 70.5t-71 193.5q0 79 30.5 137t85.5 89t129 31q31 0 58 -5t45 -15l-19 -65q-15 8 -37 12t-46 4q-73 0 -115 -50t-42 -138q0 -95 49 -146.5t136 -51.5q92 0 140 43.5t48 119.5q0 48 -20.5 75.5t-57.5 27.5q-35 0 -56.5 -27.5t-21.5 -75.5q0 -53 22 -90
t64.5 -55t102.5 -18q33 0 62.5 7.5t54.5 21.5l18 -65q-57 -30 -130 -30q-57 0 -106.5 17t-85.5 48t-56.5 74t-20.5 92q0 76 42 120.5t111 44.5q70 0 111.5 -44.5t41.5 -120.5q0 -50 -20.5 -93t-57.5 -73.5t-85 -47.5t-104 -17z" />
    <glyph glyph-name="uni04AA" unicode="&#x4aa;" horiz-adv-x="685" 
d="M358 -159v200h82v-200h-82zM397 -9q-106 0 -181.5 44t-115.5 125.5t-40 192.5t40 192t115.5 125t181.5 44q76 0 135 -22.5t103 -65.5l-34 -75q-48 42 -94.5 60.5t-107.5 18.5q-117 0 -179 -72t-62 -205t62 -205.5t179 -72.5q61 0 107.5 18.5t94.5 60.5l34 -74
q-44 -43 -103.5 -66t-134.5 -23z" />
    <glyph glyph-name="uni04AB" unicode="&#x4ab;" horiz-adv-x="507" 
d="M254 -130v172h75v-172h-75zM298 -9q-75 0 -130.5 31.5t-85.5 91t-30 141.5q0 81 30.5 138.5t85.5 88t130 30.5q48 0 94 -16.5t76 -47.5l-31 -64q-29 28 -64 41.5t-69 13.5q-75 0 -117 -47.5t-42 -137.5q0 -91 42 -140t117 -49q32 0 67.5 13t65.5 41l31 -63
q-31 -32 -77 -48.5t-93 -16.5z" />
    <glyph glyph-name="uni04AC" unicode="&#x4ac;" horiz-adv-x="607" 
d="M368 -159v159h-113v626h-244v79h583v-79h-245v-549h102v-236h-83z" />
    <glyph glyph-name="uni04AD" unicode="&#x4ad;" horiz-adv-x="463" 
d="M278 -130v130h-88v71h166v-201h-78zM186 0v430h-181v73h452v-73h-181v-430h-90z" />
    <glyph glyph-name="uni04AE" unicode="&#x4ae;" horiz-adv-x="612" 
d="M259 0v330l20 -61l-294 436h108l226 -344h-23l226 344h105l-294 -436l19 61v-330h-93z" />
    <glyph glyph-name="uni04AF" unicode="&#x4af;" horiz-adv-x="540" 
d="M223 -216v221l-213 498h97l176 -432h-28l178 432h93l-213 -494v-225h-90z" />
    <glyph glyph-name="uni04B0" unicode="&#x4b0;" horiz-adv-x="612" 
d="M259 0v330l20 -61l-294 436h108l226 -344h-23l226 344h105l-294 -436l19 61v-330h-93zM96 287v58h422v-58h-422z" />
    <glyph glyph-name="uni04B1" unicode="&#x4b1;" horiz-adv-x="540" 
d="M223 -191v146h-127v66h130v-23l-216 505h97l176 -432h-28l178 432h93l-215 -501l-1 19h130v-66h-127v-146h-90z" />
    <glyph glyph-name="uni04B2" unicode="&#x4b2;" horiz-adv-x="686" 
d="M616 -159v159h-50v76h133v-235h-83zM5 0l284 378v-36l-272 363h110l217 -296h-29l214 296h111l-272 -363v36l284 -378h-111l-230 314h35l-231 -314h-110z" />
    <glyph glyph-name="uni04B3" unicode="&#x4b3;" horiz-adv-x="576" 
d="M490 -130v130h-38v71h118v-201h-80zM12 0l227 282v-45l-215 266h109l157 -201h-32l156 201h109l-213 -264v41l226 -280h-110l-169 215h33l-170 -215h-108z" />
    <glyph glyph-name="uni04B4" unicode="&#x4b4;" horiz-adv-x="953" 
d="M846 -159v159h-615v627h-220v78h521v-78h-209v-548h411v626h93v-626h103v-238h-84z" />
    <glyph glyph-name="uni04B5" unicode="&#x4b5;" horiz-adv-x="719" 
d="M614 -130v130h-452v430h-157v73h402v-73h-155v-359h270v432h90v-432h80v-201h-78z" />
    <glyph glyph-name="uni04B6" unicode="&#x4b6;" horiz-adv-x="739" 
d="M630 -159v159h-109v76h192v-235h-83zM518 0v293q-31 -16 -79.5 -25t-96.5 -9q-139 0 -212 72t-73 217v157h92v-151q0 -112 50.5 -163t151.5 -51q45 0 87.5 8.5t79.5 28.5v328h93v-705h-93z" />
    <glyph glyph-name="uni04B7" unicode="&#x4b7;" horiz-adv-x="569" 
d="M492 -130v130h-88v71h166v-201h-78zM401 0v199q-29 -16 -62 -24.5t-70 -8.5q-108 0 -159.5 50.5t-51.5 152.5v134h90v-127q0 -71 32.5 -102.5t101.5 -31.5q35 0 63 7.5t54 24.5v229h91v-503h-89z" />
    <glyph glyph-name="uni04B8" unicode="&#x4b8;" horiz-adv-x="696" 
d="M519 0v293q-32 -16 -76 -25t-87 -9l16 15v-164h-61v164l14 -15q-129 6 -198.5 75.5t-69.5 213.5v157h92v-151q0 -106 46 -157t135 -56l-19 -11v182h61v-182l-19 10q43 0 87 9t79 28v328h92v-705h-92z" />
    <glyph glyph-name="uni04B9" unicode="&#x4b9;" horiz-adv-x="587" 
d="M419 0v200q-27 -14 -58 -22.5t-59 -9.5l16 16v-116h-59v116l20 -17q-112 0 -166.5 51t-54.5 151v134h90v-128q0 -70 33 -101.5t98 -32.5l-20 -12v140h59v-140l-17 11q32 1 61 8.5t57 24.5v230h90v-503h-90z" />
    <glyph glyph-name="uni04BA" unicode="&#x4ba;" horiz-adv-x="696" 
d="M86 0v705h93v-293q31 17 79 26t96 9q140 0 213 -72t73 -218v-157h-92v151q0 112 -51 163.5t-152 51.5q-44 0 -86.5 -8t-79.5 -29v-329h-93z" />
    <glyph glyph-name="uni04BB" unicode="&#x4bb;" horiz-adv-x="600" 
d="M81 0v736h91v-342h-13q22 58 71 88t113 30q91 0 134.5 -49t43.5 -148v-315h-91v310q0 67 -26 97.5t-85 30.5q-66 0 -106.5 -41t-40.5 -109v-288h-91z" />
    <glyph glyph-name="uni04BC" unicode="&#x4bc;" horiz-adv-x="918" 
d="M568 -9q-160 0 -249 91t-94 250l21 -20h-43q-93 0 -138.5 44.5t-45.5 130.5v56h90v-54q0 -54 24.5 -77.5t76.5 -23.5h28l-13 -18q3 107 42.5 184t110 118.5t165.5 41.5q112 0 181 -45t101.5 -127t32.5 -191v-39h-556l18 33q1 -132 65 -202t193 -70q49 0 84.5 8t66 26
t65.5 46l35 -73q-35 -29 -72.5 -49t-83 -30t-105.5 -10zM546 635q-108 0 -166.5 -71.5t-59.5 -204.5l-18 28h485l-24 -35q0 92 -21 155.5t-68.5 95.5t-127.5 32z" />
    <glyph glyph-name="uni04BD" unicode="&#x4bd;" horiz-adv-x="663" 
d="M421 -9q-120 0 -190 69.5t-69 196.5l8 -16h-19q-70 0 -102 33.5t-32 96.5v37h75v-37q0 -39 15 -57.5t53 -18.5h27l-25 -26q4 74 35.5 128.5t84 84.5t121.5 30q70 0 117.5 -29.5t72.5 -83.5t25 -128v-30h-379l11 18q-1 -99 43.5 -147.5t128.5 -48.5q45 0 84 13t75 43
l30 -63q-34 -31 -84.5 -48t-105.5 -17zM403 446q-48 0 -81.5 -22.5t-51 -61.5t-19.5 -90l-12 23h317l-17 -13q0 78 -34.5 121t-101.5 43z" />
    <glyph glyph-name="uni04BE" unicode="&#x4be;" horiz-adv-x="918" 
d="M568 -9q-160 0 -249 91t-94 250l21 -20h-43q-93 0 -138.5 44.5t-45.5 130.5v56h90v-54q0 -54 24.5 -77.5t76.5 -23.5h28l-13 -18q3 107 42.5 184t110 118.5t165.5 41.5q112 0 181 -45t101.5 -127t32.5 -191v-39h-556l18 33q1 -132 65 -202t193 -70q49 0 84.5 8t66 26
t65.5 46l35 -73q-35 -29 -72.5 -49t-83 -30t-105.5 -10zM546 635q-108 0 -166.5 -71.5t-59.5 -204.5l-18 28h485l-24 -35q0 92 -21 155.5t-68.5 95.5t-127.5 32zM610 -193q-49 0 -78.5 27t-29.5 72q0 40 26 75.5t71 55.5l31 -37q-16 -7 -31 -19t-25 -28.5t-10 -36.5
q0 -27 17 -41t41 -14q14 0 27 3t27 9l14 -49q-15 -8 -35 -12.5t-45 -4.5z" />
    <glyph glyph-name="uni04BF" unicode="&#x4bf;" horiz-adv-x="663" 
d="M421 -9q-120 0 -190 69.5t-69 196.5l8 -16h-19q-70 0 -102 33.5t-32 96.5v37h75v-37q0 -39 15 -57.5t53 -18.5h27l-25 -26q4 74 35.5 128.5t84 84.5t121.5 30q70 0 117.5 -29.5t72.5 -83.5t25 -128v-30h-379l11 18q-1 -99 43.5 -147.5t128.5 -48.5q45 0 84 13t75 43
l30 -63q-34 -31 -84.5 -48t-105.5 -17zM403 446q-48 0 -81.5 -22.5t-51 -61.5t-19.5 -90l-12 23h317l-17 -13q0 78 -34.5 121t-101.5 43zM469 -193q-49 0 -78.5 27t-29.5 72q0 40 26 75.5t71 55.5l31 -37q-16 -7 -31 -19t-25 -28.5t-10 -36.5q0 -27 17 -41t41 -14q14 0 27 3
t27 9l14 -49q-15 -8 -35 -12.5t-45 -4.5z" />
    <glyph glyph-name="uni04C0" unicode="&#x4c0;" horiz-adv-x="264" 
d="M86 0v705h93v-705h-93z" />
    <glyph glyph-name="uni04C1" unicode="&#x4c1;" horiz-adv-x="1006" 
d="M9 0l123 246q33 65 78 101t110 43l-34 -28l-237 343h103l222 -327l-23 16h108v311h89v-311h110l-25 -16l222 327h103l-237 -343l-34 28q65 -7 109.5 -43t76.5 -101l124 -246h-100l-101 206q-29 59 -67 84.5t-95 25.5h-86v-316h-89v316h-86q-58 0 -96.5 -25.5t-66.5 -84.5
l-100 -206h-101zM502 760q-47 0 -86.5 15t-67.5 45t-42 73l51 19q20 -50 55.5 -73.5t89.5 -23.5q55 0 90 22t60 74l50 -18q-27 -71 -79.5 -102t-120.5 -31z" />
    <glyph glyph-name="uni04C2" unicode="&#x4c2;" horiz-adv-x="817" 
d="M0 0l104 179q23 37 42 59t40.5 33.5t50.5 14.5l-22 -28l-191 245h100l163 -208h77v208h90v-208h76l162 208h101l-191 -245l-23 28q29 -3 50.5 -14.5t41.5 -33.5t42 -59l104 -179h-97l-91 155q-16 27 -31 42t-33.5 21t-46.5 6h-64v-224h-90v224h-65q-28 0 -46.5 -6
t-33 -21t-31.5 -42l-90 -155h-98zM408 549q-43 0 -79 15t-61.5 43.5t-38.5 71.5l52 19q18 -48 49 -70.5t78 -22.5q48 0 79 21t54 71l49 -18q-25 -68 -72.5 -99t-109.5 -31z" />
    <glyph glyph-name="uni04C3" unicode="&#x4c3;" horiz-adv-x="691" 
d="M420 -189q-29 0 -57 3.5t-47 10.5v77q19 -8 42.5 -12.5t50.5 -4.5q65 0 99 41.5t34 122.5v54q0 114 -53.5 165.5t-163.5 51.5h-147v-320h-92v705h92v-308h145l-28 -19l222 327h103l-237 -343l-12 32q130 -6 197 -76.5t67 -208.5v-57q0 -78 -26 -132t-74 -81.5t-115 -27.5
z" />
    <glyph glyph-name="uni04C4" unicode="&#x4c4;" horiz-adv-x="558" 
d="M319 -186l-26 69q53 12 80.5 33t38 54.5t10.5 81.5v30q0 74 -35.5 108t-104.5 34h-114v-224h-90v503h90v-208h91l162 208h99l-191 -245l-35 35q102 0 160 -51.5t58 -154.5v-34q0 -64 -17 -111t-59 -79t-117 -49z" />
    <glyph glyph-name="uni04C5" unicode="&#x4c5;" horiz-adv-x="786" 
d="M624 -159l54 159h-88v76h194l-81 -235h-79zM61 -15l-45 71q42 22 75 53t55 79t33.5 122t11.5 182v213h488v-705h-93v627h-309v-158q0 -107 -14 -187t-41.5 -137.5t-68 -96t-92.5 -63.5z" />
    <glyph glyph-name="uni04C6" unicode="&#x4c6;" horiz-adv-x="619" 
d="M450 -130l47 130h-68v71h170l-72 -201h-77zM54 -12l-32 71q35 16 58.5 38.5t37 57.5t19.5 87t6 126v135h371v-503h-90v432h-197v-66q0 -116 -17.5 -191.5t-55 -119.5t-100.5 -67z" />
    <glyph glyph-name="uni04C7" unicode="&#x4c7;" horiz-adv-x="768" 
d="M513 -187q-17 0 -38 2t-43 7v76q20 -4 36.5 -6t29.5 -2q46 0 68.5 27.5t22.5 88.5v312h-410v-318h-93v705h93v-308h410v308h94v-699q0 -63 -18 -106t-55.5 -65t-96.5 -22z" />
    <glyph glyph-name="uni04C8" unicode="&#x4c8;" horiz-adv-x="602" 
d="M303 -193l-6 69l46 4q46 4 69 30.5t23 76.5v236h-267v-223h-90v503h90v-208h267v208h89v-506q0 -59 -18 -99t-57 -62t-101 -26z" />
    <glyph glyph-name="uni04C9" unicode="&#x4c9;" horiz-adv-x="790" 
d="M645 -159l54 159h-88v76h194l-81 -235h-79zM86 0v705h93v-308h410v308h94v-705h-94v318h-410v-318h-93z" />
    <glyph glyph-name="uni04CA" unicode="&#x4ca;" horiz-adv-x="625" 
d="M460 -130l47 130h-68v71h171l-72 -201h-78zM78 0v503h90v-208h266v208h90v-503h-90v223h-266v-223h-90z" />
    <glyph glyph-name="uni04CB" unicode="&#x4cb;" horiz-adv-x="696" 
d="M507 -159h-85v235h146v-76h-61v-159zM518 0v293q-31 -16 -79.5 -25t-96.5 -9q-139 0 -212 72t-73 217v157h92v-151q0 -112 50.5 -163t151.5 -51q45 0 87.5 8.5t79.5 28.5v328h93v-705h-93z" />
    <glyph glyph-name="uni04CC" unicode="&#x4cc;" horiz-adv-x="591" 
d="M399 -130h-78v186h149v-56h-71v-130zM401 0v199q-29 -16 -62 -24.5t-70 -8.5q-108 0 -159.5 50.5t-51.5 152.5v134h90v-127q0 -71 32.5 -102.5t101.5 -31.5q35 0 63 7.5t54 24.5v229h91v-503h-89z" />
    <glyph glyph-name="uni04CD" unicode="&#x4cd;" horiz-adv-x="883" 
d="M746 -159l54 159h-88v76h194l-81 -235h-79zM86 0v705h82l278 -626h-30l278 626h81v-705h-85v581h31l-261 -581h-59l-261 581h31v-581h-85z" />
    <glyph glyph-name="uni04CE" unicode="&#x4ce;" horiz-adv-x="705" 
d="M541 -130l47 130h-68v71h170l-72 -201h-77zM78 0v503h76l185 -329l186 329h75v-503h-80v401h22l-180 -320h-45l-180 321h21v-402h-80z" />
    <glyph glyph-name="uni04CF" unicode="&#x4cf;" horiz-adv-x="254" 
d="M81 0v736h91v-736h-91z" />
    <glyph glyph-name="uni04D0" unicode="&#x4d0;" horiz-adv-x="738" 
d="M14 0l312 705h81l317 -705h-96l-87 200l40 -24h-429l44 24l-87 -200h-95zM365 601l-156 -370l-24 21h363l-19 -21l-160 370h-4zM368 760q-47 0 -86.5 15t-67.5 45t-42 73l51 19q20 -50 55.5 -73.5t89.5 -23.5q55 0 90 22t60 74l50 -18q-27 -71 -79.5 -102t-120.5 -31z
" />
    <glyph glyph-name="uni04D1" unicode="&#x4d1;" horiz-adv-x="616" 
d="M273 -9q-66 0 -116 31t-78 90t-28 140t28 139.5t78 89.5t116 31q67 0 116.5 -33.5t65.5 -91.5h-12l11 116h88q-3 -30 -5.5 -60t-2.5 -59v-384h-91v115h11q-16 -57 -65.5 -90.5t-115.5 -33.5zM294 63q68 0 109 48t41 141t-41 140t-109 47t-109.5 -47t-41.5 -140t41 -141
t110 -48zM301 549q-43 0 -79 15t-61.5 43.5t-38.5 71.5l52 19q18 -48 49 -70.5t78 -22.5q48 0 79 21t54 71l49 -18q-25 -68 -72.5 -99t-109.5 -31z" />
    <glyph glyph-name="uni04D2" unicode="&#x4d2;" horiz-adv-x="738" 
d="M14 0l312 705h81l317 -705h-96l-87 200l40 -24h-429l44 24l-87 -200h-95zM365 601l-156 -370l-24 21h363l-19 -21l-160 370h-4zM411 802v93h93v-93h-93zM234 802v93h93v-93h-93z" />
    <glyph glyph-name="uni04D3" unicode="&#x4d3;" horiz-adv-x="616" 
d="M273 -9q-66 0 -116 31t-78 90t-28 140t28 139.5t78 89.5t116 31q67 0 116.5 -33.5t65.5 -91.5h-12l11 116h88q-3 -30 -5.5 -60t-2.5 -59v-384h-91v115h11q-16 -57 -65.5 -90.5t-115.5 -33.5zM294 63q68 0 109 48t41 141t-41 140t-109 47t-109.5 -47t-41.5 -140t41 -141
t110 -48zM344 606v93h93v-93h-93zM167 606v93h93v-93h-93z" />
    <glyph glyph-name="uni04D4" unicode="&#x4d4;" horiz-adv-x="1008" 
d="M-6 0l433 705h533v-76h-394l22 23l25 -281l-18 25h344v-76h-338l15 10l25 -278l-12 24h331v-76h-401l-17 196l26 -20h-381l31 25l-122 -201h-102zM473 628l-238 -398l-10 22h323l-8 -24l-36 400h-31z" />
    <glyph glyph-name="uni04D5" unicode="&#x4d5;" horiz-adv-x="890" 
d="M244 -9q-54 0 -95.5 21t-64.5 56t-23 78q0 58 26.5 91.5t90.5 47.5t174 14h50v-54h-50q-80 0 -124.5 -8.5t-63 -29t-18.5 -57.5q0 -40 29.5 -66t79.5 -26q40 0 71 18t49 51.5t18 77.5v121q0 60 -28 87t-85 27q-46 0 -86 -12t-82 -39l-30 66q39 27 92 42t108 15
q77 0 120.5 -30.5t58.5 -90.5h-26q30 59 79 90t116 31q98 0 154.5 -63.5t56.5 -175.5v-29h-373v55h311l-17 -15q0 76 -34.5 119t-98.5 43q-69 0 -109 -45t-40 -133v-7q0 -95 42.5 -146.5t124.5 -51.5q43 0 82 13.5t75 43.5l30 -63q-34 -32 -85 -49t-104 -17
q-89 0 -146.5 39.5t-81.5 114.5h23q-16 -73 -68 -113.5t-128 -40.5z" />
    <glyph glyph-name="uni04D6" unicode="&#x4d6;" horiz-adv-x="590" 
d="M86 0v705h456v-76h-366v-233h343v-76h-343v-244h366v-76h-456zM334 760q-47 0 -86.5 15t-67.5 45t-42 73l51 19q20 -50 55.5 -73.5t89.5 -23.5q55 0 90 22t60 74l50 -18q-27 -71 -79.5 -102t-120.5 -31z" />
    <glyph glyph-name="uni04D7" unicode="&#x4d7;" horiz-adv-x="556" 
d="M310 -9q-120 0 -189.5 69t-69.5 190q0 80 30.5 138.5t84.5 91t126 32.5q69 0 117 -29.5t73 -83.5t25 -128v-30h-385v54h323l-17 -13q0 78 -34.5 121t-101.5 43q-73 0 -113 -50.5t-40 -137.5v-9q0 -92 45.5 -139t126.5 -47q45 0 84 13t75 43l30 -63q-34 -31 -84.5 -48
t-105.5 -17zM292 549q-43 0 -79 15t-61.5 43.5t-38.5 71.5l52 19q18 -48 49 -70.5t78 -22.5q48 0 79 21t54 71l49 -18q-25 -68 -72.5 -99t-109.5 -31z" />
    <glyph glyph-name="uni04D8" unicode="&#x4d8;" horiz-adv-x="754" 
d="M375 -9q-112 0 -181 45.5t-101.5 127t-32.5 190.5v39h556v-75h-485l24 35q0 -92 20.5 -155t68.5 -95.5t127 -32.5q110 0 168.5 73.5t58.5 210.5q0 134 -63 206t-189 72q-46 0 -84 -8t-70.5 -25.5t-67.5 -45.5l-35 72q50 44 114.5 66.5t152.5 22.5q107 0 182.5 -43
t115 -124t39.5 -194q0 -111 -38.5 -192.5t-110 -125.5t-169.5 -44z" />
    <glyph glyph-name="uni04D9" unicode="&#x4d9;" horiz-adv-x="556" 
d="M263 -9q-101 0 -157.5 63t-56.5 172v35h384v-55h-323l17 15q0 -77 35 -120t102 -43q73 0 112.5 49.5t39.5 131.5v12q0 95 -45 141.5t-130 46.5q-41 0 -80 -12.5t-75 -42.5l-27 64q33 32 84 48t109 16q78 0 134 -31t87 -89t31 -139q0 -79 -30 -137.5t-84 -91.5t-127 -33z
" />
    <glyph glyph-name="uni04DA" unicode="&#x4da;" horiz-adv-x="754" 
d="M375 -9q-112 0 -181 45.5t-101.5 127t-32.5 190.5v39h556v-75h-485l24 35q0 -92 20.5 -155t68.5 -95.5t127 -32.5q110 0 168.5 73.5t58.5 210.5q0 134 -63 206t-189 72q-46 0 -84 -8t-70.5 -25.5t-67.5 -45.5l-35 72q50 44 114.5 66.5t152.5 22.5q107 0 182.5 -43
t115 -124t39.5 -194q0 -111 -38.5 -192.5t-110 -125.5t-169.5 -44zM420 802v93h93v-93h-93zM243 802v93h93v-93h-93z" />
    <glyph glyph-name="uni04DB" unicode="&#x4db;" horiz-adv-x="556" 
d="M263 -9q-101 0 -157.5 63t-56.5 172v35h384v-55h-323l17 15q0 -77 35 -120t102 -43q73 0 112.5 49.5t39.5 131.5v12q0 95 -45 141.5t-130 46.5q-41 0 -80 -12.5t-75 -42.5l-27 64q33 32 84 48t109 16q78 0 134 -31t87 -89t31 -139q0 -79 -30 -137.5t-84 -91.5t-127 -33z
M313 606v93h93v-93h-93zM136 606v93h93v-93h-93z" />
    <glyph glyph-name="uni04DC" unicode="&#x4dc;" horiz-adv-x="1006" 
d="M9 0l123 246q33 65 78 101t110 43l-34 -28l-237 343h103l222 -327l-23 16h108v311h89v-311h110l-25 -16l222 327h103l-237 -343l-34 28q65 -7 109.5 -43t76.5 -101l124 -246h-100l-101 206q-29 59 -67 84.5t-95 25.5h-86v-316h-89v316h-86q-58 0 -96.5 -25.5t-66.5 -84.5
l-100 -206h-101zM545 802v93h93v-93h-93zM368 802v93h93v-93h-93z" />
    <glyph glyph-name="uni04DD" unicode="&#x4dd;" horiz-adv-x="817" 
d="M0 0l104 179q23 37 42 59t40.5 33.5t50.5 14.5l-22 -28l-191 245h100l163 -208h77v208h90v-208h76l162 208h101l-191 -245l-23 28q29 -3 50.5 -14.5t41.5 -33.5t42 -59l104 -179h-97l-91 155q-16 27 -31 42t-33.5 21t-46.5 6h-64v-224h-90v224h-65q-28 0 -46.5 -6
t-33 -21t-31.5 -42l-90 -155h-98zM450 606v93h93v-93h-93zM273 606v93h93v-93h-93z" />
    <glyph glyph-name="uni04DE" unicode="&#x4de;" horiz-adv-x="651" 
d="M318 -9q-91 0 -162.5 24t-118.5 65l33 71q48 -40 107 -60t136 -20q98 0 144 32.5t46 95.5q0 62 -39.5 91t-120.5 29h-178v76h163q78 0 118 30t40 88q0 56 -43 88.5t-129 32.5q-65 0 -122.5 -19t-104.5 -59l-33 71q47 43 118 65t149 22q127 0 192 -52t65 -139
q0 -66 -39.5 -110.5t-106.5 -58.5v14q76 -10 119.5 -55t43.5 -119q0 -62 -30.5 -108t-92 -70.5t-154.5 -24.5zM363 802v93h93v-93h-93zM186 802v93h93v-93h-93z" />
    <glyph glyph-name="uni04DF" unicode="&#x4df;" horiz-adv-x="513" 
d="M249 -9q-66 0 -123 17t-94 48l30 63q37 -30 84 -45t102 -15q72 0 104.5 21.5t32.5 62.5q0 39 -27 59t-79 20h-122v66h111q47 0 73.5 20.5t26.5 56.5q0 37 -30 58.5t-92 21.5q-52 0 -95 -13.5t-82 -40.5l-29 59q41 32 96 47t120 15q95 0 145.5 -36.5t50.5 -103.5
q0 -47 -32 -80.5t-85 -40.5v13q60 -3 97 -36.5t37 -88.5q0 -67 -56 -107.5t-164 -40.5zM296 609v93h93v-93h-93zM119 609v93h93v-93h-93z" />
    <glyph glyph-name="uni04E0" unicode="&#x4e0;" horiz-adv-x="651" 
d="M318 -9q-91 0 -163 24t-118 65l35 71q48 -40 108 -60t133 -20q98 0 144 32.5t46 94.5q0 63 -42 92t-135 29h-112v62l263 274v-28h-424v78h512v-65l-263 -273l-12 26h60q116 0 180.5 -49t64.5 -143q0 -99 -69 -154.5t-208 -55.5z" />
    <glyph glyph-name="uni04E1" unicode="&#x4e1;" horiz-adv-x="512" 
d="M234 -189q-68 0 -124.5 16.5t-94.5 46.5l30 65q37 -28 82 -42t99 -14q82 0 123 36.5t41 106.5q0 63 -40.5 96.5t-116.5 33.5h-105v44l236 253v-22h-330v72h415v-60l-230 -246l-22 24h61q105 0 164 -50t59 -141q0 -68 -29.5 -117t-85 -75.5t-132.5 -26.5z" />
    <glyph glyph-name="uni04E2" unicode="&#x4e2;" horiz-adv-x="748" 
d="M86 0v705h86v-586h-23l442 586h72v-705h-87v586h23l-443 -586h-70zM210 813v59h332v-59h-332z" />
    <glyph glyph-name="uni04E3" unicode="&#x4e3;" horiz-adv-x="600" 
d="M78 0v503h83v-417h-27l312 417h76v-503h-83v418h28l-313 -418h-76zM149 623v59h302v-59h-302z" />
    <glyph glyph-name="uni04E4" unicode="&#x4e4;" horiz-adv-x="748" 
d="M86 0v705h86v-586h-23l442 586h72v-705h-87v586h23l-443 -586h-70zM418 802v93h93v-93h-93zM241 802v93h93v-93h-93z" />
    <glyph glyph-name="uni04E5" unicode="&#x4e5;" horiz-adv-x="600" 
d="M78 0v503h83v-417h-27l312 417h76v-503h-83v418h28l-313 -418h-76zM342 606v93h93v-93h-93zM165 606v93h93v-93h-93z" />
    <glyph glyph-name="uni04E6" unicode="&#x4e6;" horiz-adv-x="776" 
d="M60 353q0 111 39 192t112.5 125t175.5 44q101 0 174.5 -44t113.5 -125t40 -191q0 -111 -40 -192.5t-113.5 -126t-174.5 -44.5q-102 0 -175 44.5t-112.5 126t-39.5 191.5zM158 353q0 -132 58 -206t171 -74q109 0 169.5 73.5t60.5 206.5t-60 206t-170 73q-113 0 -171 -73
t-58 -206zM438 802v93h93v-93h-93zM261 802v93h93v-93h-93z" />
    <glyph glyph-name="uni04E7" unicode="&#x4e7;" horiz-adv-x="587" 
d="M293 -9q-74 0 -128 31.5t-84 90t-30 139.5q0 80 30 138.5t84 90t128 31.5t128.5 -31.5t84 -90t29.5 -138.5q0 -81 -29.5 -139.5t-84 -90t-128.5 -31.5zM293 63q68 0 109 48t41 141t-41 140t-109 47q-69 0 -109.5 -47t-40.5 -140t40.5 -141t109.5 -48zM336 606v93h93v-93
h-93zM159 606v93h93v-93h-93z" />
    <glyph glyph-name="uni04E8" unicode="&#x4e8;" horiz-adv-x="776" 
d="M109 322v72h569v-72h-569zM60 353q0 111 39 192t112.5 125t175.5 44q101 0 174.5 -44t113.5 -125t40 -191q0 -111 -40 -192.5t-113.5 -126t-174.5 -44.5q-102 0 -175 44.5t-112.5 126t-39.5 191.5zM158 353q0 -132 58 -206t171 -74q109 0 169.5 73.5t60.5 206.5t-60 206
t-170 73q-113 0 -171 -73t-58 -206z" />
    <glyph glyph-name="uni04E9" unicode="&#x4e9;" horiz-adv-x="587" 
d="M293 -9q-74 0 -128 31.5t-83.5 90t-29.5 139.5q0 80 29.5 138.5t84 90t127.5 31.5q74 0 128.5 -31.5t84.5 -90t30 -138.5q0 -81 -30 -139.5t-84.5 -90t-128.5 -31.5zM293 63q73 0 114.5 49t41.5 140t-41.5 139t-114.5 48t-114 -48t-41 -139t41 -140t114 -49zM106 221v62
h376v-62h-376z" />
    <glyph glyph-name="uni04EA" unicode="&#x4ea;" horiz-adv-x="776" 
d="M109 322v72h569v-72h-569zM60 353q0 111 39 192t112.5 125t175.5 44q101 0 174.5 -44t113.5 -125t40 -191q0 -111 -40 -192.5t-113.5 -126t-174.5 -44.5q-102 0 -175 44.5t-112.5 126t-39.5 191.5zM158 353q0 -132 58 -206t171 -74q109 0 169.5 73.5t60.5 206.5t-60 206
t-170 73q-113 0 -171 -73t-58 -206zM433 802v93h93v-93h-93zM256 802v93h93v-93h-93z" />
    <glyph glyph-name="uni04EB" unicode="&#x4eb;" horiz-adv-x="587" 
d="M293 -9q-74 0 -128 31.5t-83.5 90t-29.5 139.5q0 80 29.5 138.5t84 90t127.5 31.5q74 0 128.5 -31.5t84.5 -90t30 -138.5q0 -81 -30 -139.5t-84.5 -90t-128.5 -31.5zM293 63q73 0 114.5 49t41.5 140t-41.5 139t-114.5 48t-114 -48t-41 -139t41 -140t114 -49zM106 221v62
h376v-62h-376zM336 606v93h93v-93h-93zM159 606v93h93v-93h-93z" />
    <glyph glyph-name="uni04EC" unicode="&#x4ec;" horiz-adv-x="692" 
d="M291 -9q-74 0 -135.5 23.5t-105.5 66.5l34 74q48 -42 96 -61.5t110 -19.5q117 0 179.5 70t64.5 198l29 -22h-390v76h388l-27 -26q-4 123 -65.5 192t-176.5 69q-62 0 -110.5 -19t-97.5 -62l-34 74q46 44 107.5 67t136.5 23q107 0 182.5 -44t115 -125t39.5 -192
t-39.5 -192.5t-115.5 -125.5t-185 -44zM357 802v93h93v-93h-93zM180 802v93h93v-93h-93z" />
    <glyph glyph-name="uni04ED" unicode="&#x4ed;" horiz-adv-x="524" 
d="M224 -9q-55 0 -105.5 17.5t-78.5 48.5l30 60q29 -28 68.5 -42.5t79.5 -14.5q77 0 121.5 47t47.5 135l11 -19h-264v66h265l-12 -19q-3 52 -22 91t-55 61t-92 22q-39 0 -78.5 -14t-69.5 -43l-30 60q31 30 81.5 47.5t103.5 17.5q76 0 132 -30.5t86 -88.5t30 -140
q0 -81 -30.5 -140.5t-86.5 -90.5t-132 -31zM281 606v93h93v-93h-93zM104 606v93h93v-93h-93z" />
    <glyph glyph-name="uni04EE" unicode="&#x4ee;" horiz-adv-x="666" 
d="M200 0l122 230l2 -34l-328 509h101l273 -426h-20l225 426h97l-374 -705h-98zM169 813v59h332v-59h-332z" />
    <glyph glyph-name="uni04EF" unicode="&#x4ef;" horiz-adv-x="543" 
d="M64 -227l-21 74q47 11 78 25.5t52 37.5t37 58l25 60l-2 -38l-219 513h98l175 -431h-26l175 431h94l-231 -542q-21 -49 -45.5 -82t-53 -54t-62.5 -33t-74 -19zM111 623v59h302v-59h-302z" />
    <glyph glyph-name="uni04F0" unicode="&#x4f0;" horiz-adv-x="666" 
d="M200 0l122 230l2 -34l-328 509h101l273 -426h-20l225 426h97l-374 -705h-98zM377 802v93h93v-93h-93zM200 802v93h93v-93h-93z" />
    <glyph glyph-name="uni04F1" unicode="&#x4f1;" horiz-adv-x="543" 
d="M64 -227l-21 74q47 11 78 25.5t52 37.5t37 58l25 60l-2 -38l-219 513h98l175 -431h-26l175 431h94l-231 -542q-21 -49 -45.5 -82t-53 -54t-62.5 -33t-74 -19zM304 606v93h93v-93h-93zM127 606v93h93v-93h-93z" />
    <glyph glyph-name="uni04F2" unicode="&#x4f2;" horiz-adv-x="666" 
d="M200 0l122 230l2 -34l-328 509h101l273 -426h-20l225 426h97l-374 -705h-98zM243 765l85 172h88l-120 -172h-53zM374 765l91 172h88l-126 -172h-53z" />
    <glyph glyph-name="uni04F3" unicode="&#x4f3;" horiz-adv-x="543" 
d="M64 -227l-21 74q47 11 78 25.5t52 37.5t37 58l25 60l-2 -38l-219 513h98l175 -431h-26l175 431h94l-231 -542q-21 -49 -45.5 -82t-53 -54t-62.5 -33t-74 -19zM302 552l53 202h82l-85 -202h-50zM170 552l52 202h83l-85 -202h-50z" />
    <glyph glyph-name="uni04F4" unicode="&#x4f4;" horiz-adv-x="696" 
d="M518 0v293q-31 -16 -79.5 -25t-96.5 -9q-139 0 -212 72t-73 217v157h92v-151q0 -112 50.5 -163t151.5 -51q45 0 87.5 8.5t79.5 28.5v328h93v-705h-93zM370 802v93h93v-93h-93zM193 802v93h93v-93h-93z" />
    <glyph glyph-name="uni04F5" unicode="&#x4f5;" horiz-adv-x="568" 
d="M401 0v199q-29 -16 -62 -24.5t-70 -8.5q-108 0 -159.5 50.5t-51.5 152.5v134h90v-127q0 -71 32.5 -102.5t101.5 -31.5q35 0 63 7.5t54 24.5v229h91v-503h-89zM316 606v93h93v-93h-93zM139 606v93h93v-93h-93z" />
    <glyph glyph-name="uni04F6" unicode="&#x4f6;" horiz-adv-x="559" 
d="M201 -159v159h-109v76h192v-235h-83zM86 0v705h459v-78h-366v-627h-93z" />
    <glyph glyph-name="uni04F7" unicode="&#x4f7;" horiz-adv-x="451" 
d="M171 -130v130h-88v71h166v-201h-78zM78 0v503h357v-73h-266v-430h-91z" />
    <glyph glyph-name="uni04F8" unicode="&#x4f8;" horiz-adv-x="884" 
d="M86 0v705h93v-308h185q114 0 177.5 -49.5t63.5 -147.5t-63.5 -149t-177.5 -51h-278zM179 74h175q82 0 120.5 31t38.5 94t-38.5 93.5t-120.5 30.5h-175v-249zM706 0v705h93v-705h-93zM484 802v93h93v-93h-93zM307 802v93h93v-93h-93z" />
    <glyph glyph-name="uni04F9" unicode="&#x4f9;" horiz-adv-x="754" 
d="M78 0v503h90v-178h148q98 0 147.5 -41.5t49.5 -119.5q0 -50 -23 -87t-67 -57t-107 -20h-238zM168 63h138q60 0 90.5 24.5t30.5 75.5t-30.5 75t-90.5 24h-138v-199zM586 0v503h90v-503h-90zM420 606v93h93v-93h-93zM243 606v93h93v-93h-93z" />
    <glyph glyph-name="uni04FA" unicode="&#x4fa;" horiz-adv-x="599" 
d="M94 -183l-7 65l46 5q56 5 79.5 32.5t23.5 80.5h-111v317h-100v70h100v318h459v-78h-366v-240h190v-70h-190v-241h102v-63q0 -93 -42.5 -140t-132.5 -53z" />
    <glyph glyph-name="uni04FB" unicode="&#x4fb;" horiz-adv-x="474" 
d="M75 -183l-5 66l47 5q42 3 59.5 31t17.5 81h-91v214h-98v64h98v225h356v-72h-265v-153h149v-64h-149v-157h81v-44q0 -93 -39.5 -140t-108.5 -52z" />
    <glyph glyph-name="uni04FC" unicode="&#x4fc;" horiz-adv-x="657" 
d="M408 -185l-5 74q60 7 87.5 29.5t27.5 67.5q0 25 -16.5 58t-46.5 74l-144 196h35l-231 -314h-110l284 378v-36l-272 363h110l217 -296h-29l214 296h111l-272 -363v36l170 -227q39 -51 57 -92t18 -77q0 -73 -50 -115t-155 -52z" />
    <glyph glyph-name="uni04FD" unicode="&#x4fd;" horiz-adv-x="549" 
d="M336 -185l-15 66q54 6 80.5 24.5t26.5 54.5q0 25 -15.5 51.5t-52.5 72.5l-103 132h32l-171 -216h-106l226 282v-45l-214 266h108l157 -201h-31l156 201h107l-212 -264v40l124 -153q31 -38 49.5 -66t26.5 -51.5t8 -50.5q0 -40 -20 -70.5t-60 -49t-101 -23.5z" />
    <glyph glyph-name="uni04FE" unicode="&#x4fe;" horiz-adv-x="657" 
d="M5 0l284 378v-36l-272 363h110l217 -296h-29l214 296h111l-272 -363v36l284 -378h-111l-230 314h35l-231 -314h-110zM118 334v58h422v-58h-422z" />
    <glyph glyph-name="uni04FF" unicode="&#x4ff;" horiz-adv-x="549" 
d="M11 0l228 282v-45l-215 266h109l157 -201h-33l157 201h108l-212 -264v41l225 -280h-110l-168 215h33l-170 -215h-109zM62 227v58h422v-58h-422z" />
    <glyph glyph-name="uni0510" unicode="&#x510;" horiz-adv-x="651" 
d="M333 -9q-93 0 -154.5 24.5t-92 70.5t-30.5 108q0 74 43.5 119t119.5 55v-14q-67 14 -106.5 58.5t-39.5 110.5q0 58 30.5 101t88.5 66.5t142 23.5q79 0 147.5 -22t115.5 -65l-33 -71q-46 40 -103.5 59t-123.5 19q-85 0 -128 -32.5t-43 -88.5q0 -58 40 -88t117 -30h163v-76
h-178q-80 0 -120.5 -29t-40.5 -91q0 -63 46.5 -95.5t144.5 -32.5q77 0 136 20t107 60l33 -71q-46 -41 -118 -65t-163 -24z" />
    <glyph glyph-name="uni0511" unicode="&#x511;" horiz-adv-x="513" 
d="M264 -9q-108 0 -164 40.5t-56 107.5q0 55 37.5 88.5t97.5 36.5l-1 -13q-52 7 -84 40t-32 81q0 67 55.5 103.5t148.5 36.5q59 0 112.5 -15t94.5 -47l-29 -60q-38 27 -80.5 40.5t-90.5 13.5q-62 0 -94 -21.5t-32 -59.5q0 -35 25.5 -55t71.5 -20h112v-66h-121
q-52 0 -79 -19.5t-27 -58.5q0 -40 32.5 -62.5t103.5 -22.5q54 0 102 15t84 44l29 -62q-35 -31 -92 -48t-124 -17z" />
    <glyph glyph-name="uni0512" unicode="&#x512;" horiz-adv-x="764" 
d="M509 -187q-16 0 -37 2t-43 7v76q19 -4 35.5 -6t30.5 -2q45 0 68 27t23 88v622h-309v-158q0 -107 -14 -187t-41.5 -137.5t-68 -96t-92.5 -63.5l-45 71q42 22 75 53t55 79t33.5 122t11.5 182v213h488v-699q0 -63 -18 -106t-55.5 -65t-96.5 -22z" />
    <glyph glyph-name="uni0513" unicode="&#x513;" horiz-adv-x="592" 
d="M293 -193l-6 69l45 4q46 4 69 30.5t23 76.5v445h-197v-66q0 -116 -17.5 -191.5t-55 -119.5t-100.5 -67l-32 71q35 16 58.5 38.5t37 57.5t19.5 87t6 126v135h371v-506q0 -59 -18.5 -99t-57.5 -62t-100 -26z" />
    <glyph glyph-name="uni051A" unicode="&#x51a;" horiz-adv-x="776" 
d="M577 -192q-29 19 -60.5 49t-59 67t-47.5 75l79 30q26 -52 67.5 -94.5t84.5 -72.5zM60 353q0 111 39 192t112.5 125t175.5 44q101 0 174.5 -44t113.5 -125t40 -191q0 -111 -40 -192.5t-113.5 -126t-174.5 -44.5q-102 0 -175 44.5t-112.5 126t-39.5 191.5zM158 353
q0 -132 58 -206t171 -74q109 0 169.5 73.5t60.5 206.5t-60 206t-170 73q-113 0 -171 -73t-58 -206z" />
    <glyph glyph-name="uni051B" unicode="&#x51b;" horiz-adv-x="616" 
d="M443 -216v331h11q-16 -57 -65.5 -90.5t-115.5 -33.5t-116 31t-78 90t-28 140t28 139.5t78 89.5t116 31q67 0 116.5 -33.5t65.5 -91.5h-12l11 116h88q-3 -30 -5.5 -60t-2.5 -59v-600h-91zM294 63q68 0 109 48t41 141t-41 140t-109 47t-109.5 -47t-41.5 -140t41 -141
t110 -48z" />
    <glyph glyph-name="uni051C" unicode="&#x51c;" horiz-adv-x="1114" 
d="M279 0l-247 705h98l209 -622h-36l222 622h73l208 -622h-32l216 622h92l-249 -705h-81l-203 595h21l-211 -595h-80z" />
    <glyph glyph-name="uni051D" unicode="&#x51d;" horiz-adv-x="883" 
d="M217 0l-188 503h95l152 -431h-26l156 431h74l155 -431h-25l153 431h91l-189 -503h-86l-160 438h44l-159 -438h-87z" />
    <glyph glyph-name="uni0524" unicode="&#x524;" horiz-adv-x="810" 
d="M701 -159v159h-108v76h191v-235h-83zM86 0v705h595v-705h-92v627h-411v-627h-92z" />
    <glyph glyph-name="uni0525" unicode="&#x525;" horiz-adv-x="601" 
d="M523 -130v130h-87v71h165v-201h-78zM78 0v503h443v-503h-90v432h-263v-432h-90z" />
    <glyph glyph-name="uni0526" unicode="&#x526;" horiz-adv-x="739" 
d="M660 -159v159h-109v76h192v-235h-83zM86 0v705h93v-293q31 17 79 26t96 9q140 0 213 -72t73 -218v-157h-92v151q0 112 -51 163.5t-152 51.5q-44 0 -86.5 -8t-79.5 -29v-329h-93z" />
    <glyph glyph-name="uni0527" unicode="&#x527;" horiz-adv-x="612" 
d="M523 -130v130h-88v71h166v-201h-78zM82 0v736h91v-342h-14q22 58 71.5 88t113.5 30q90 0 134 -49t44 -148v-315h-91v310q0 67 -26.5 97.5t-85.5 30.5q-66 0 -106 -41t-40 -109v-288h-91z" />
    <glyph glyph-name="uni0528" unicode="&#x528;" horiz-adv-x="768" 
d="M10 -187q-17 0 -38 2t-43 7v76q19 -4 36 -6t30 -2q46 0 69 27.5t23 88.5v699h93v-308h410v308h93v-705h-93v319h-410v-313q0 -63 -18 -106t-55.5 -65t-96.5 -22z" />
    <glyph glyph-name="uni0529" unicode="&#x529;" horiz-adv-x="602" 
d="M-53 -193l-6 69l45 4q46 4 69 30.5t23 76.5v516h90v-208h267v208h89v-503h-89v223h-267v-226q0 -59 -18.5 -99t-57.5 -62t-100 -26z" />
    <glyph glyph-name="uni052E" unicode="&#x52e;" horiz-adv-x="807" 
d="M699 -159v159h-109v76h191v-235h-82zM61 -15l-45 71q42 22 75 53t55 79t33.5 122t11.5 182v213h488v-705h-93v627h-309v-158q0 -107 -14 -187t-41.5 -137.5t-68 -96t-92.5 -63.5z" />
    <glyph glyph-name="uni052F" unicode="&#x52f;" horiz-adv-x="594" 
d="M517 -130v130h-88v71h166v-201h-78zM54 -12l-32 71q35 16 58.5 38.5t37 57.5t19.5 87t6 126v135h371v-503h-90v432h-197v-66q0 -116 -17.5 -191.5t-55 -119.5t-100.5 -67z" />
    <glyph glyph-name="uni1E08" unicode="&#x1e08;" horiz-adv-x="685" 
d="M397 -9q-106 0 -181.5 44t-115.5 125.5t-40 192.5t40 192t115.5 125t181.5 44q76 0 135 -22.5t103 -65.5l-34 -75q-48 42 -94.5 60.5t-107.5 18.5q-117 0 -179 -72t-62 -205t62 -205.5t179 -72.5q61 0 107.5 18.5t94.5 60.5l34 -74q-44 -43 -103.5 -66t-134.5 -23z
M395 -193q-27 0 -51.5 5.5t-41.5 14.5l14 47q19 -9 35.5 -13t38.5 -4q27 0 42.5 9t15.5 27q0 26 -38 26q-11 0 -21 -1.5t-25 -5.5l-17 16l14 92h55l-13 -76l-26 8q11 3 23.5 5t22.5 2q37 0 61 -18t24 -51q0 -37 -31.5 -60t-81.5 -23zM359 765l118 172h100l-150 -172h-68z
" />
    <glyph glyph-name="uni1E09" unicode="&#x1e09;" horiz-adv-x="497" 
d="M292 -9q-75 0 -130 31.5t-85.5 91t-30.5 141.5q0 81 31 138.5t86 88t129 30.5q49 0 95 -16.5t75 -47.5l-31 -64q-29 28 -64 41.5t-69 13.5q-74 0 -116 -47.5t-42 -137.5q0 -91 42 -140t116 -49q33 0 68 13t65 41l31 -63q-30 -32 -76.5 -48.5t-93.5 -16.5zM291 -193
q-27 0 -51.5 5.5t-41.5 14.5l14 47q19 -9 35.5 -13t38.5 -4q27 0 42.5 9t15.5 27q0 26 -38 26q-11 0 -21 -1.5t-25 -5.5l-17 16l14 92h55l-13 -76l-26 8q11 3 23.5 5t22.5 2q37 0 61 -18t24 -51q0 -37 -31.5 -60t-81.5 -23zM256 552l103 202h95l-134 -202h-64z" />
    <glyph glyph-name="uni1E0C" unicode="&#x1e0c;" horiz-adv-x="750" 
d="M86 0v705h239q118 0 199.5 -41t123.5 -119.5t42 -191.5t-42 -192t-123.5 -120t-199.5 -41h-239zM179 79h139q141 0 209 68t68 206t-68 205.5t-209 67.5h-139v-547zM332 -191v94h98v-94h-98z" />
    <glyph glyph-name="uni1E0D" unicode="&#x1e0d;" horiz-adv-x="605" 
d="M268 -9q-66 0 -116 31t-78 90t-28 140t28 139.5t78 89.5t116 31t115.5 -33t66.5 -91h-12v348h91v-736h-90v117h11q-16 -59 -65.5 -92.5t-116.5 -33.5zM289 63q68 0 109.5 48t41.5 141t-41.5 140t-109.5 47t-109.5 -47t-41.5 -140t41.5 -141t109.5 -48zM256 -191v94h98
v-94h-98z" />
    <glyph glyph-name="uni1E0E" unicode="&#x1e0e;" horiz-adv-x="750" 
d="M86 0v705h239q118 0 199.5 -41t123.5 -119.5t42 -191.5t-42 -192t-123.5 -120t-199.5 -41h-239zM179 79h139q141 0 209 68t68 206t-68 205.5t-209 67.5h-139v-547zM230 -158v59h302v-59h-302z" />
    <glyph glyph-name="uni1E0F" unicode="&#x1e0f;" horiz-adv-x="605" 
d="M268 -9q-66 0 -116 31t-78 90t-28 140t28 139.5t78 89.5t116 31t115.5 -33t66.5 -91h-12v348h91v-736h-90v117h11q-16 -59 -65.5 -92.5t-116.5 -33.5zM289 63q68 0 109.5 48t41.5 141t-41.5 140t-109.5 47t-109.5 -47t-41.5 -140t41.5 -141t109.5 -48zM154 -158v59h302
v-59h-302z" />
    <glyph glyph-name="uni1E14" unicode="&#x1e14;" horiz-adv-x="590" 
d="M86 0v705h456v-76h-366v-233h343v-76h-343v-244h366v-76h-456zM299 885l-116 139h93l83 -139h-60zM178 788v60h302v-60h-302z" />
    <glyph glyph-name="uni1E15" unicode="&#x1e15;" horiz-adv-x="545" 
d="M305 -9q-120 0 -189.5 69t-69.5 190q0 80 30.5 138.5t84.5 91t126 32.5q69 0 117 -29.5t73 -83.5t25 -128v-30h-385v54h323l-17 -13q0 78 -34.5 121t-101.5 43q-73 0 -113 -50.5t-40 -137.5v-9q0 -92 45.5 -139t126.5 -47q45 0 84 13t75 43l30 -63q-34 -31 -84.5 -48
t-105.5 -17zM136 570v60h302v-60h-302zM257 667l-116 139h93l83 -139h-60z" />
    <glyph glyph-name="uni1E16" unicode="&#x1e16;" horiz-adv-x="590" 
d="M86 0v705h456v-76h-366v-233h343v-76h-343v-244h366v-76h-456zM178 788v60h302v-60h-302zM299 885l83 139h93l-116 -139h-60z" />
    <glyph glyph-name="uni1E17" unicode="&#x1e17;" horiz-adv-x="545" 
d="M305 -9q-120 0 -189.5 69t-69.5 190q0 80 30.5 138.5t84.5 91t126 32.5q69 0 117 -29.5t73 -83.5t25 -128v-30h-385v54h323l-17 -13q0 78 -34.5 121t-101.5 43q-73 0 -113 -50.5t-40 -137.5v-9q0 -92 45.5 -139t126.5 -47q45 0 84 13t75 43l30 -63q-34 -31 -84.5 -48
t-105.5 -17zM136 570v60h302v-60h-302zM257 667l83 139h93l-116 -139h-60z" />
    <glyph glyph-name="uni1E1C" unicode="&#x1e1c;" horiz-adv-x="590" 
d="M86 0v705h456v-76h-366v-233h343v-76h-343v-244h366v-76h-456zM332 -193q-27 0 -51.5 5.5t-41.5 14.5l14 47q19 -9 35.5 -13t38.5 -4q27 0 42.5 9t15.5 27q0 26 -38 26q-11 0 -21 -1.5t-25 -5.5l-17 16l14 92h55l-13 -76l-26 8q11 3 23.5 5t22.5 2q37 0 61 -18t24 -51
q0 -37 -31.5 -60t-81.5 -23zM329 760q-72 0 -119 45.5t-53 123.5l55 7q5 -55 35.5 -86t80.5 -31q51 0 82.5 31t35.5 86l55 -7q-6 -78 -53 -123.5t-119 -45.5z" />
    <glyph glyph-name="uni1E1D" unicode="&#x1e1d;" horiz-adv-x="545" 
d="M305 -9q-120 0 -189.5 69t-69.5 190q0 80 30.5 138.5t84.5 91t126 32.5q69 0 117 -29.5t73 -83.5t25 -128v-30h-385v54h323l-17 -13q0 78 -34.5 121t-101.5 43q-73 0 -113 -50.5t-40 -137.5v-9q0 -92 45.5 -139t126.5 -47q45 0 84 13t75 43l30 -63q-34 -31 -84.5 -48
t-105.5 -17zM293 -193q-27 0 -51.5 5.5t-41.5 14.5l14 47q19 -9 35.5 -13t38.5 -4q27 0 42.5 9t15.5 27q0 26 -38 26q-11 0 -21 -1.5t-25 -5.5l-17 16l14 92h55l-13 -76l-26 8q11 3 23.5 5t22.5 2q37 0 61 -18t24 -51q0 -37 -31.5 -60t-81.5 -23zM287 549q-46 0 -80.5 23.5
t-54 66t-22.5 101.5l55 6q4 -66 30.5 -101.5t71.5 -35.5t71.5 35.5t30.5 101.5l55 -6q-2 -59 -22 -101.5t-54.5 -66t-80.5 -23.5z" />
    <glyph glyph-name="uni1E20" unicode="&#x1e20;" horiz-adv-x="733" 
d="M413 -9q-116 0 -195 43.5t-118.5 124.5t-39.5 193t42 193t120.5 125t188.5 44q77 0 134 -22t102 -64l-35 -74q-32 28 -62 45t-62.5 24.5t-76.5 7.5q-123 0 -188 -73t-65 -207q0 -136 63 -207t196 -71q47 0 92 9t86 26l-19 -47v239h-177v72h257v-330q-45 -23 -111 -37
t-132 -14zM236 813v59h332v-59h-332z" />
    <glyph glyph-name="uni1E21" unicode="&#x1e21;" horiz-adv-x="608" 
d="M300 -224q-66 0 -121 16t-99 49l24 67q31 -21 61 -34t62.5 -19t67.5 -6q74 0 111 38t37 108v141h10q-16 -57 -65.5 -90.5t-116.5 -33.5q-68 0 -118.5 30.5t-78.5 87t-28 132.5q0 77 28 133t78.5 86.5t118.5 30.5q67 0 116 -33t65 -91l-9 9l9 106h88q-3 -30 -5.5 -60
t-2.5 -59v-378q0 -112 -58.5 -171t-173.5 -59zM291 84q69 0 110 47t41 131q0 85 -41 131t-110 46q-70 0 -111.5 -46t-41.5 -131q0 -84 41.5 -131t111.5 -47zM156 623v59h302v-59h-302z" />
    <glyph glyph-name="uni1E24" unicode="&#x1e24;" horiz-adv-x="768" 
d="M86 0v705h93v-308h410v308h94v-705h-94v318h-410v-318h-93zM336 -191v94h98v-94h-98z" />
    <glyph glyph-name="uni1E25" unicode="&#x1e25;" horiz-adv-x="589" 
d="M76 0v736h91v-342h-13q22 58 71 88t113 30q91 0 134.5 -49t43.5 -148v-315h-91v310q0 67 -26 97.5t-85 30.5q-66 0 -106.5 -41t-40.5 -109v-288h-91zM247 -191v94h98v-94h-98z" />
    <glyph glyph-name="uni1E2A" unicode="&#x1e2a;" horiz-adv-x="768" 
d="M86 0v705h93v-308h410v308h94v-705h-94v318h-410v-318h-93zM385 -215q-68 0 -111 40.5t-46 110.5l55 5q4 -46 30.5 -72t71.5 -26t71.5 26t30.5 72l55 -5q-3 -70 -45.5 -110.5t-111.5 -40.5z" />
    <glyph glyph-name="uni1E2B" unicode="&#x1e2b;" horiz-adv-x="589" 
d="M76 0v736h91v-342h-13q22 58 71 88t113 30q91 0 134.5 -49t43.5 -148v-315h-91v310q0 67 -26 97.5t-85 30.5q-66 0 -106.5 -41t-40.5 -109v-288h-91zM296 -215q-68 0 -111 40.5t-46 110.5l55 5q4 -46 30.5 -72t71.5 -26t71.5 26t30.5 72l55 -5q-3 -70 -45.5 -110.5
t-111.5 -40.5z" />
    <glyph glyph-name="uni1E2E" unicode="&#x1e2e;" horiz-adv-x="264" 
d="M86 0v705h93v-705h-93zM102 885l83 139h93l-116 -139h-60zM-3 770v77h93v-77h-93zM174 770v77h93v-77h-93z" />
    <glyph glyph-name="uni1E2F" unicode="&#x1e2f;" horiz-adv-x="243" 
d="M76 0v503h91v-503h-91zM92 667l83 139h93l-116 -139h-60zM-13 552v77h93v-77h-93zM164 552v77h93v-77h-93z" />
    <glyph glyph-name="uni1E36" unicode="&#x1e36;" horiz-adv-x="549" 
d="M86 0v705h93v-625h351v-80h-444zM260 -191v94h98v-94h-98z" />
    <glyph glyph-name="uni1E37" unicode="&#x1e37;" horiz-adv-x="243" 
d="M76 0v736h91v-736h-91zM73 -191v94h98v-94h-98z" />
    <glyph glyph-name="uni1E3A" unicode="&#x1e3a;" horiz-adv-x="549" 
d="M86 0v705h93v-625h351v-80h-444zM158 -158v59h302v-59h-302z" />
    <glyph glyph-name="uni1E3B" unicode="&#x1e3b;" horiz-adv-x="243" 
d="M76 0v736h91v-736h-91zM-29 -158v59h302v-59h-302z" />
    <glyph glyph-name="uni1E42" unicode="&#x1e42;" horiz-adv-x="861" 
d="M86 0v705h82l278 -626h-30l278 626h81v-705h-85v581h31l-261 -581h-59l-261 581h31v-581h-85zM381 -191v94h98v-94h-98z" />
    <glyph glyph-name="uni1E43" unicode="&#x1e43;" horiz-adv-x="883" 
d="M76 0v384q0 29 -2 59t-6 60h88l10 -108h-12q20 56 64 86.5t105 30.5q62 0 102 -29.5t54 -92.5h-15q19 56 67 89t112 33q83 0 125 -48.5t42 -150.5v-313h-91v308q0 69 -24 99.5t-76 30.5q-61 0 -96 -41.5t-35 -112.5v-284h-91v308q0 69 -23.5 99.5t-76.5 30.5
q-61 0 -95.5 -41.5t-34.5 -112.5v-284h-91zM393 -191v94h98v-94h-98z" />
    <glyph glyph-name="uni1E44" unicode="&#x1e44;" horiz-adv-x="748" 
d="M86 0v705h72l442 -584h-24v584h87v-705h-71l-442 584h23v-584h-87zM327 804v94h98v-94h-98z" />
    <glyph glyph-name="uni1E45" unicode="&#x1e45;" horiz-adv-x="589" 
d="M76 0v384q0 29 -2 59t-6 60h88l10 -108h-12q23 57 71 87t112 30q89 0 134 -48.5t45 -150.5v-313h-91v308q0 69 -27 99.5t-84 30.5q-68 0 -107.5 -41t-39.5 -111v-286h-91zM246 606v94h98v-94h-98z" />
    <glyph glyph-name="uni1E46" unicode="&#x1e46;" horiz-adv-x="748" 
d="M86 0v705h72l442 -584h-24v584h87v-705h-71l-442 584h23v-584h-87zM327 -191v94h98v-94h-98z" />
    <glyph glyph-name="uni1E47" unicode="&#x1e47;" horiz-adv-x="589" 
d="M76 0v384q0 29 -2 59t-6 60h88l10 -108h-12q23 57 71 87t112 30q89 0 134 -48.5t45 -150.5v-313h-91v308q0 69 -27 99.5t-84 30.5q-68 0 -107.5 -41t-39.5 -111v-286h-91zM246 -191v94h98v-94h-98z" />
    <glyph glyph-name="uni1E48" unicode="&#x1e48;" horiz-adv-x="748" 
d="M86 0v705h72l442 -584h-24v584h87v-705h-71l-442 584h23v-584h-87zM225 -158v59h302v-59h-302z" />
    <glyph glyph-name="uni1E49" unicode="&#x1e49;" horiz-adv-x="589" 
d="M76 0v384q0 29 -2 59t-6 60h88l10 -108h-12q23 57 71 87t112 30q89 0 134 -48.5t45 -150.5v-313h-91v308q0 69 -27 99.5t-84 30.5q-68 0 -107.5 -41t-39.5 -111v-286h-91zM144 -158v59h302v-59h-302z" />
    </font>
</defs>
</svg>
