<?xml version="1.0" standalone="no"?>
<!DOCTYPE svg PUBLIC "-//W3C//DTD SVG 1.1//EN" "http://www.w3.org/Graphics/SVG/1.1/DTD/svg11.dtd" >
<svg xmlns="http://www.w3.org/2000/svg" xmlns:xlink="http://www.w3.org/1999/xlink" version="1.1">
<metadata>
Created by FontForge 20201107 at Thu Sep 30 21:20:51 2021
 By 
Copyright 2016 The Mulish Project Authors (https://github.com/googlefonts/mulish)
</metadata>
<defs>
<font id="Mulish-Italic" horiz-adv-x="600" >
  <font-face 
    font-family="Mulish"
    font-weight="400"
    font-style="italic"
    font-stretch="normal"
    units-per-em="1000"
    panose-1="0 0 0 0 0 0 0 0 0 0"
    ascent="800"
    descent="-200"
    x-height="502"
    cap-height="705"
    bbox="-293 -270 1353 1043"
    underline-thickness="44"
    underline-position="-107"
    slope="-9"
    unicode-range="U+000D-FB02"
  />
<missing-glyph horiz-adv-x="500" 
 />
    <glyph glyph-name="fi" unicode="fi" horiz-adv-x="574" 
d="M65 0l69 439h-98l10 63h120l-25 -21l15 91q14 82 62.5 125t127.5 43q19 0 40.5 -3.5t34.5 -9.5l-11 -67q-11 5 -28 8.5t-35 3.5q-46 0 -75 -28t-38 -86l-11 -73l-11 17h323l-80 -502h-81l70 439h-229l-69 -439h-81zM462 616l15 91h100l-15 -91h-100z" />
    <glyph glyph-name="fl" unicode="fl" horiz-adv-x="576" 
d="M65 0l69 439h-98l10 63h120l-25 -21l15 91q13 82 62.5 125t132.5 43q19 0 39 -3.5t33 -9.5l-11 -67q-11 5 -26.5 8.5t-33.5 3.5q-31 0 -55.5 -12.5t-40.5 -37.5t-22 -64l-11 -73l-11 17h154l-11 -63h-140l-69 -439h-81zM377 0l117 736h81l-117 -736h-81z" />
    <glyph glyph-name=".notdef" horiz-adv-x="500" 
 />
    <glyph glyph-name="uni0000" horiz-adv-x="0" 
 />
    <glyph glyph-name="uni0000" horiz-adv-x="0" 
 />
    <glyph glyph-name="nonmarkingreturn" horiz-adv-x="333" 
 />
    <glyph glyph-name="CR" unicode="&#xd;" horiz-adv-x="261" 
 />
    <glyph glyph-name="space" unicode=" " horiz-adv-x="261" 
 />
    <glyph glyph-name="exclam" unicode="!" horiz-adv-x="228" 
d="M79 184l57 521h100l-107 -521h-50zM23 0l16 102h103l-17 -102h-102z" />
    <glyph glyph-name="quotedbl" unicode="&#x22;" horiz-adv-x="392" 
d="M112 428l23 277h95l-63 -277h-55zM283 428l23 277h95l-63 -277h-55z" />
    <glyph glyph-name="numbersign" unicode="#" 
d="M46 0l65 182h-93l10 59h104l84 231h-130l9 59h142l62 174h64l-63 -174h158l62 174h64l-63 -174h93l-9 -59h-105l-84 -231h131l-9 -59h-143l-65 -182h-65l66 182h-156l-64 -182h-65zM196 241h157l83 231h-157z" />
    <glyph glyph-name="dollar" unicode="$" 
d="M218 -115l19 127l18 -17q-43 3 -86.5 11.5t-82 24.5t-66.5 39l37 64q41 -31 93.5 -48.5t128.5 -17.5q80 0 126 32.5t55 83.5q7 46 -19 74.5t-95 39.5l-92 18q-57 11 -93.5 37.5t-51.5 67t-7 93.5q9 59 44 101.5t90 66.5t124 27l-15 -14l21 125h68l-20 -125l-11 14
q51 -2 101 -21.5t84 -54.5l-36 -63q-33 33 -78.5 50t-104.5 17q-78 0 -128.5 -34t-59.5 -93q-8 -49 16 -79.5t86 -41.5l92 -18q96 -17 137 -65.5t28 -125.5q-12 -80 -80 -128.5t-173 -55.5l20 17l-21 -128h-68z" />
    <glyph glyph-name="percent" unicode="%" horiz-adv-x="937" 
d="M260 0h-77l526 705h78zM239 282q-83 0 -123.5 59.5t-24.5 166.5q16 96 68 150.5t130 54.5q83 0 123.5 -59t23.5 -166q-15 -96 -66.5 -151t-130.5 -55zM242 340q49 0 81 39t45 117q12 80 -11 120t-71 40t-80 -38.5t-44 -116.5q-13 -80 9 -120.5t71 -40.5zM681 -9
q-84 0 -125 59t-23 168q15 95 67 149.5t130 54.5q83 0 124 -59t24 -165q-16 -97 -67.5 -152t-129.5 -55zM683 49q50 0 81.5 39t44.5 117q13 80 -10 120t-72 40q-48 0 -80 -38.5t-44 -116.5q-12 -80 10 -120.5t70 -40.5z" />
    <glyph glyph-name="ampersand" unicode="&#x26;" horiz-adv-x="671" 
d="M611 -9q-44 21 -79 51.5t-59 59.5l25 -1q-50 -52 -115 -81t-137 -29t-121.5 24.5t-71.5 67.5t-14 98q10 62 55.5 106.5t119.5 87.5l48 28l-16 -15q-39 50 -54 92t-7 91q6 40 30 72.5t64 51.5t96 19q47 0 82.5 -17.5t53.5 -50.5t11 -80q-5 -33 -24.5 -64.5t-57.5 -62.5
t-102 -67v22l160 -210h-14q32 41 56.5 101.5t37.5 127.5h73q-16 -83 -47.5 -154.5t-73.5 -126.5l-6 24q22 -28 54 -56.5t71 -48.5zM256 57q60 0 109.5 24t90.5 70l-6 -23l-181 232l33 -4l-44 -27q-63 -36 -96.5 -67.5t-41.5 -77.5q-8 -58 26.5 -92.5t109.5 -34.5zM372 653
q-45 0 -74.5 -24.5t-35.5 -60.5q-4 -26 -1 -47t16 -43.5t38 -56.5l-18 -3q77 42 113 75.5t42 72.5q7 40 -15 63.5t-65 23.5z" />
    <glyph glyph-name="quotesingle" unicode="'" horiz-adv-x="221" 
d="M112 428l23 277h95l-63 -277h-55z" />
    <glyph glyph-name="parenleft" unicode="(" horiz-adv-x="318" 
d="M146 -180q-26 74 -39 150t-13 149q0 112 25 217.5t69.5 199.5t99.5 169h73q-79 -131 -131 -283t-52 -323q0 -64 9.5 -135.5t25.5 -143.5h-67z" />
    <glyph glyph-name="parenright" unicode=")" horiz-adv-x="318" 
d="M33 -180h-73q79 131 131 283.5t52 322.5q0 64 -9 135.5t-26 143.5h67q26 -74 39 -149.5t13 -149.5q0 -111 -25.5 -216.5t-69 -199.5t-99.5 -170z" />
    <glyph glyph-name="asterisk" unicode="*" horiz-adv-x="454" 
d="M174 366l-48 35l109 126l-153 47l22 57l148 -56l8 161h61l-18 -161l156 56l15 -57l-159 -47l89 -126l-48 -35l-79 134z" />
    <glyph glyph-name="plus" unicode="+" 
d="M235 40l34 216h-216l10 62h216l33 210h64l-33 -210h214l-10 -62h-214l-34 -216h-64z" />
    <glyph glyph-name="comma" unicode="," horiz-adv-x="228" 
d="M51 -114l-33 35q30 27 40.5 48.5t14.5 47.5l23 -17h-74l17 102h102l-13 -80q-4 -27 -12 -50t-23 -44t-42 -42z" />
    <glyph glyph-name="hyphen" unicode="-" horiz-adv-x="428" 
d="M70 241l11 67h284l-10 -67h-285z" />
    <glyph glyph-name="period" unicode="." horiz-adv-x="228" 
d="M23 0l16 102h103l-17 -102h-102z" />
    <glyph glyph-name="slash" unicode="/" horiz-adv-x="286" 
d="M2 -55h-73l390 803h73z" />
    <glyph glyph-name="zero" unicode="0" 
d="M268 -9q-127 0 -177 97.5t-22 276.5q29 179 104 264t192 85q125 0 175.5 -95.5t21.5 -276.5q-28 -179 -104 -265t-190 -86zM272 63q82 0 134.5 68t75.5 221q16 102 8 166t-41 94.5t-89 30.5q-83 0 -134.5 -67t-75.5 -220q-16 -101 -7.5 -166t41 -96t88.5 -31z" />
    <glyph glyph-name="one" unicode="1" 
d="M87 0l12 71h165l90 563l43 -1l-213 -121l13 84l191 109h60l-101 -634h156l-11 -71h-405z" />
    <glyph glyph-name="two" unicode="2" 
d="M46 0l10 62l300 273q54 50 83 90t37 90q10 62 -23 94t-103 32q-58 0 -109 -18t-101 -58l-30 64q47 39 114.5 62t132.5 23q73 0 121.5 -23.5t70 -68.5t11.5 -107q-10 -64 -48.5 -117.5t-104.5 -113.5l-266 -236l-1 23h378l-11 -71h-461z" />
    <glyph glyph-name="three" unicode="3" 
d="M265 -9q-71 0 -132.5 22t-100.5 63l35 64q43 -40 93 -58t108 -18q76 0 122.5 30t56.5 98q20 131 -143 131h-108l11 69h99q70 0 117 34t57 96q9 58 -25 88.5t-104 30.5q-59 0 -110.5 -18.5t-101.5 -58.5l-29 64q49 42 114.5 64t134.5 22q108 0 162 -50t40 -141
q-9 -59 -53 -105.5t-110 -62.5l1 11q72 -12 105.5 -61.5t21.5 -125.5q-13 -92 -83.5 -140t-177.5 -48z" />
    <glyph glyph-name="four" unicode="4" 
d="M346 0l24 153h-337l10 60l427 492h69l-78 -485h109l-11 -67h-109l-23 -153h-81zM381 220l62 387h26l-354 -408l-2 21h268z" />
    <glyph glyph-name="five" unicode="5" 
d="M281 -9q-46 0 -88.5 10t-78 29t-61.5 46l33 64q42 -39 92 -57.5t106 -18.5q74 0 124 37.5t61 110.5q11 70 -23.5 114t-108.5 44q-51 0 -94.5 -20.5t-80.5 -63.5h-60l66 419h418l-12 -70h-338l-44 -281h-23q34 43 83.5 65t105.5 22q67 0 114 -28.5t68 -81t9 -126.5
q-10 -67 -46 -115t-92.5 -73.5t-129.5 -25.5z" />
    <glyph glyph-name="six" unicode="6" 
d="M290 -9q-83 0 -139 39.5t-77 120t-1 204.5q19 122 65.5 201.5t116.5 118.5t157 39q59 0 110 -19.5t82 -58.5l-36 -61q-34 35 -73.5 50.5t-86.5 15.5q-102 0 -166.5 -69.5t-89.5 -220.5l-16 -93h-10q23 85 82 134.5t147 49.5q66 0 112.5 -29t68 -82.5t9.5 -126.5
q-10 -65 -43.5 -112.5t-87 -74t-124.5 -26.5zM290 61q80 0 123 41t54 107q12 76 -25.5 120t-106.5 44q-72 0 -119.5 -43t-58.5 -111q-12 -71 25 -114.5t108 -43.5z" />
    <glyph glyph-name="seven" unicode="7" 
d="M68 0l454 670l-2 -36h-395l13 71h469l-10 -62l-433 -643h-96z" />
    <glyph glyph-name="eight" unicode="8" 
d="M268 -9q-126 0 -185.5 57t-44.5 151q12 74 63 117t127 53l-2 -15q-65 15 -96 66t-21 116q13 83 79.5 130.5t180.5 47.5q75 0 125 -25t72 -69t13 -104q-10 -65 -54.5 -109t-113.5 -56l2 14q48 -9 79.5 -33.5t45 -63t4.5 -89.5q-14 -91 -85.5 -139.5t-188.5 -48.5zM272 59
q86 0 134.5 33t58.5 99q11 66 -27.5 99t-126.5 33t-136 -31.5t-58 -94.5q-10 -64 28 -101t127 -37zM322 391q77 0 122.5 30.5t54.5 92.5q10 63 -25 97.5t-112 34.5q-79 0 -122.5 -32.5t-52.5 -87.5q-9 -59 25.5 -97t109.5 -38z" />
    <glyph glyph-name="nine" unicode="9" 
d="M220 -9q-58 0 -109 20t-83 58l37 61q33 -35 73 -50.5t87 -15.5q101 0 166.5 70t89.5 220l15 93h11q-23 -85 -82 -134.5t-147 -49.5q-65 0 -112 29t-68 83t-10 127q10 64 43.5 111.5t88 74t125.5 26.5q83 0 138 -39.5t76 -120t1 -204.5q-19 -121 -66 -201t-116.5 -119
t-157.5 -39zM297 332q74 0 121 43.5t58 111.5q11 70 -25 114t-107 44q-79 0 -123.5 -41t-54.5 -108q-11 -75 25.5 -119.5t105.5 -44.5z" />
    <glyph glyph-name="colon" unicode=":" horiz-adv-x="228" 
d="M86 400l17 102h102l-16 -102h-103zM22 0l17 102h102l-17 -102h-102z" />
    <glyph glyph-name="semicolon" unicode=";" horiz-adv-x="228" 
d="M50 -114l-34 29q32 28 44.5 52.5t15.5 49.5l16 -17h-66l16 102h102l-13 -79q-5 -40 -23.5 -73.5t-57.5 -63.5zM86 400l16 102h103l-16 -102h-103z" />
    <glyph glyph-name="less" unicode="&#x3c;" 
d="M511 35l-458 220l10 64l528 220l-11 -72l-493 -204l7 40l428 -203z" />
    <glyph glyph-name="equal" unicode="=" 
d="M69 356l10 62h493l-10 -62h-493zM38 157l10 61h493l-10 -61h-493z" />
    <glyph glyph-name="greater" unicode="&#x3e;" 
d="M19 35l12 72l492 204l-7 -41l-427 204l10 65l458 -220l-10 -64z" />
    <glyph glyph-name="question" unicode="?" horiz-adv-x="448" 
d="M161 184l5 29q6 34 18 63.5t37 61.5t66 71q22 21 43.5 46t35.5 53.5t14 58.5q0 36 -27.5 56t-76.5 20q-40 0 -77 -10.5t-72 -28.5l12 75q35 18 76.5 26.5t80.5 8.5q51 0 89 -16.5t58.5 -46t20.5 -70.5q0 -44 -18 -81.5t-47 -68.5t-60 -58q-58 -52 -84 -88.5t-35 -75.5
l-7 -25h-52zM106 0l17 102h102l-16 -102h-103z" />
    <glyph glyph-name="at" unicode="@" horiz-adv-x="969" 
d="M505 -163q-95 0 -174.5 30.5t-137.5 87.5t-89.5 137.5t-31.5 180.5q0 98 33 179t93 139.5t142 90.5t178 32q87 0 159.5 -26.5t126 -75.5t83 -117t29.5 -151q0 -87 -26.5 -151t-72 -99t-102.5 -35q-60 0 -90.5 34.5t-25.5 93.5l18 -5q-25 -60 -71 -91.5t-96 -31.5
q-78 0 -120.5 48.5t-42.5 133.5q0 73 28 130.5t77 90.5t111 33q55 0 89.5 -27t45.5 -76h-12l16 94h66l-44 -259q-3 -13 -4 -25t-1 -22q0 -33 15 -50t45 -17q38 0 69.5 29t51 81t19.5 121q0 71 -25 129t-71 99t-108.5 63t-137.5 22q-83 0 -153 -27.5t-121 -78t-79 -121.5
t-28 -157q0 -119 46 -204t129.5 -130.5t193.5 -45.5q81 0 146.5 25.5t108.5 71.5l33 -48q-49 -51 -123 -78t-165 -27zM459 117q44 0 79 27t54.5 74t19.5 107q0 56 -25 84t-76 28q-44 0 -79.5 -25t-55.5 -69t-20 -102q0 -60 27 -92t76 -32z" />
    <glyph glyph-name="A" unicode="A" horiz-adv-x="735" 
d="M-22 0l423 705h72l204 -705h-82l-56 201l33 -21h-430l43 21l-118 -201h-89zM424 610l-221 -380l-21 18h371l-21 -18l-105 380h-3z" />
    <glyph glyph-name="B" unicode="B" horiz-adv-x="680" 
d="M48 0l112 705h287q109 0 161 -49t38 -140q-11 -68 -57 -109.5t-118 -55.5l2 14q76 -9 112.5 -57.5t24.5 -123.5q-14 -92 -82.5 -138t-182.5 -46h-297zM139 67h207q76 0 125 28.5t58 90.5q9 52 -6.5 82t-48.5 43t-81 13h-214zM190 390h191q82 0 127.5 30.5t53.5 85.5
q11 67 -22 100t-106 33h-205z" />
    <glyph glyph-name="C" unicode="C" horiz-adv-x="684" 
d="M372 -9q-115 0 -186 47t-97.5 131.5t-9.5 195.5q18 112 69 189.5t130 118.5t181 41q72 0 127.5 -21t94.5 -60l-34 -68q-43 41 -87.5 57.5t-104.5 16.5q-118 0 -193 -74t-96 -209q-14 -87 4 -152.5t70.5 -101.5t138.5 -36q56 0 109.5 19t100.5 62l29 -66
q-47 -43 -112 -66.5t-134 -23.5z" />
    <glyph glyph-name="D" unicode="D" horiz-adv-x="747" 
d="M48 0l112 705h226q123 0 198 -43.5t104 -125t11 -195.5q-28 -171 -134.5 -256t-280.5 -85h-236zM142 71h145q144 0 225.5 68.5t103.5 210.5q22 144 -37.5 214.5t-203.5 70.5h-144z" />
    <glyph glyph-name="E" unicode="E" horiz-adv-x="588" 
d="M48 0l112 705h450l-11 -68h-370l-38 -245h347l-11 -69h-347l-41 -254h370l-11 -69h-450z" />
    <glyph glyph-name="F" unicode="F" horiz-adv-x="562" 
d="M48 0l112 705h440l-12 -68h-357l-38 -247h335l-11 -68h-335l-51 -322h-83z" />
    <glyph glyph-name="G" unicode="G" horiz-adv-x="731" 
d="M381 -9q-121 0 -194 46t-99 130t-8 197q18 112 70 190t134 119t188 41q77 0 130.5 -20t91.5 -57l-35 -67q-41 37 -83 53.5t-108 16.5q-125 0 -203 -75t-99 -212q-22 -135 30.5 -212t190.5 -77q51 0 97 10t92 29l-27 -47l39 248h-180l10 65h252l-52 -325
q-29 -16 -69.5 -28t-84 -18.5t-83.5 -6.5z" />
    <glyph glyph-name="H" unicode="H" horiz-adv-x="766" 
d="M48 0l112 705h83l-50 -312h425l50 312h82l-112 -705h-82l51 322h-425l-51 -322h-83z" />
    <glyph glyph-name="I" unicode="I" horiz-adv-x="259" 
d="M48 0l112 705h83l-112 -705h-83z" />
    <glyph glyph-name="J" unicode="J" horiz-adv-x="329" 
d="M10 -186q-17 0 -37 2t-41 9l11 69q19 -7 35 -9.5t30 -2.5q46 0 73.5 28.5t36.5 90.5l112 704h83l-113 -710q-9 -60 -33 -100.5t-62.5 -60.5t-94.5 -20z" />
    <glyph glyph-name="K" unicode="K" horiz-adv-x="634" 
d="M48 0l112 705h83l-51 -320h2l385 320h110l-442 -364l-2 42l360 -383h-106l-313 332h-2l-53 -332h-83z" />
    <glyph glyph-name="L" unicode="L" horiz-adv-x="545" 
d="M48 0l112 705h83l-101 -633h357l-12 -72h-439z" />
    <glyph glyph-name="M" unicode="M" horiz-adv-x="858" 
d="M49 0l112 705h72l182 -639h-30l385 639h72l-112 -705h-76l95 598h32l-364 -598h-53l-174 598h29l-95 -598h-75z" />
    <glyph glyph-name="N" unicode="N" horiz-adv-x="747" 
d="M48 0l112 705h65l353 -603l-19 3l95 600h77l-112 -705h-64l-353 603l18 -3l-95 -600h-77z" />
    <glyph glyph-name="O" unicode="O" horiz-adv-x="772" 
d="M80 365q18 112 67.5 189.5t126.5 118.5t176 41q105 0 172.5 -47.5t93.5 -131.5t8 -195q-17 -111 -67.5 -189t-127 -119t-176.5 -41q-104 0 -171 47t-93 131.5t-9 195.5zM166 355q-15 -90 3 -155t66.5 -100.5t124.5 -35.5q115 0 186 76t93 210q14 90 -4.5 155.5
t-66.5 100.5t-124 35q-116 0 -186 -75.5t-92 -210.5z" />
    <glyph glyph-name="P" unicode="P" horiz-adv-x="651" 
d="M48 0l112 705h278q115 0 168.5 -57t36.5 -156q-9 -61 -42 -103.5t-86.5 -65t-124.5 -22.5h-211l-48 -301h-83zM189 370h196q78 0 122.5 32t54.5 96q11 68 -23.5 103.5t-112.5 35.5h-195z" />
    <glyph glyph-name="Q" unicode="Q" horiz-adv-x="772" 
d="M506 -191q-26 19 -52.5 49t-48 67t-35.5 74l77 27q18 -52 52 -94.5t71 -73.5zM80 365q18 112 67.5 189.5t126.5 118.5t176 41q105 0 172.5 -47.5t93.5 -131.5t8 -195q-17 -111 -67.5 -189t-127 -119t-176.5 -41q-104 0 -171 47t-93 131.5t-9 195.5zM166 355
q-15 -90 3 -155t66.5 -100.5t124.5 -35.5q115 0 186 76t93 210q14 90 -4.5 155.5t-66.5 100.5t-124 35q-116 0 -186 -75.5t-92 -210.5z" />
    <glyph glyph-name="R" unicode="R" horiz-adv-x="692" 
d="M48 0l112 705h280q117 0 170.5 -55t37.5 -154q-9 -58 -43 -100t-87 -63.5t-117 -21.5l6 13h19q41 0 69 -20.5t42 -66.5l73 -237h-87l-70 233q-13 45 -44 58.5t-82 13.5h-148l-48 -305h-83zM189 370h202q76 0 120.5 34t54.5 96q11 68 -25.5 102.5t-115.5 34.5h-194z" />
    <glyph glyph-name="S" unicode="S" horiz-adv-x="623" 
d="M285 -9q-84 0 -149.5 20.5t-109.5 52.5l34 66q48 -31 101.5 -48.5t128.5 -17.5q87 0 135 32.5t57 85.5q8 49 -18 78.5t-97 38.5l-94 15q-98 14 -140.5 66.5t-29.5 133.5q9 60 46.5 104.5t99.5 70t142 25.5q72 0 130.5 -20.5t95.5 -53.5l-33 -66q-39 33 -88 50t-113 17
q-84 0 -136 -35t-62 -94q-8 -52 18 -84t98 -42l94 -14q99 -14 140.5 -62t28.5 -131q-8 -53 -44.5 -96t-96 -67.5t-138.5 -24.5z" />
    <glyph glyph-name="T" unicode="T" horiz-adv-x="604" 
d="M219 0l100 635h-248l11 70h580l-12 -70h-248l-100 -635h-83z" />
    <glyph glyph-name="U" unicode="U" horiz-adv-x="730" 
d="M334 -9q-92 0 -152 32.5t-84.5 97t-9.5 160.5l68 424h82l-67 -423q-17 -109 22 -163.5t148 -54.5q96 0 153.5 51t76.5 168l67 422h82l-68 -428q-16 -99 -56.5 -162.5t-106 -93.5t-155.5 -30z" />
    <glyph glyph-name="V" unicode="V" horiz-adv-x="698" 
d="M270 0l-195 705h85l172 -639h-30l375 639h90l-421 -705h-76z" />
    <glyph glyph-name="W" unicode="W" horiz-adv-x="1112" 
d="M240 0l-134 705h83l114 -635h-35l327 635h66l113 -635h-32l322 635h86l-360 -705h-74l-111 611h20l-313 -611h-72z" />
    <glyph glyph-name="X" unicode="X" horiz-adv-x="652" 
d="M-34 0l341 376v-31l-212 360h94l172 -301h-25l266 301h103l-325 -360l-1 31l222 -376h-95l-183 319h32l-286 -319h-103z" />
    <glyph glyph-name="Y" unicode="Y" horiz-adv-x="607" 
d="M222 0l52 329l9 -56l-222 432h91l176 -351h-21l287 351h96l-360 -434l27 58l-52 -329h-83z" />
    <glyph glyph-name="Z" unicode="Z" horiz-adv-x="596" 
d="M3 0l10 61l517 605l-5 -32h-421l11 71h506l-10 -61l-518 -604l5 31h433l-11 -71h-517z" />
    <glyph glyph-name="bracketleft" unicode="[" horiz-adv-x="317" 
d="M37 -180l140 885h203l-11 -64h-122l-119 -757h122l-10 -64h-203z" />
    <glyph glyph-name="backslash" unicode="\" horiz-adv-x="286" 
d="M193 -55l-137 803h68l138 -803h-69z" />
    <glyph glyph-name="bracketright" unicode="]" horiz-adv-x="317" 
d="M-60 -180l9 64h123l119 757h-121l10 64h202l-140 -885h-202z" />
    <glyph glyph-name="asciicircum" unicode="^" 
d="M28 140l299 488h64l145 -488h-63l-136 455h40l-279 -455h-70z" />
    <glyph glyph-name="underscore" unicode="_" horiz-adv-x="505" 
d="M-41 -53l9 53h489l-8 -53h-490z" />
    <glyph glyph-name="grave" unicode="`" horiz-adv-x="500" 
d="M310 551l-141 202h85l114 -202h-58z" />
    <glyph glyph-name="a" unicode="a" 
d="M237 -9q-69 0 -116 32.5t-66 93.5t-6 147q20 121 90 184t168 63q66 0 111 -34t55 -92l-11 -2l29 119h78q-7 -29 -14.5 -58.5t-11.5 -57.5l-61 -386h-81l19 120h15q-26 -60 -76.5 -94.5t-121.5 -34.5zM259 57q69 0 119 49t65 143q16 98 -20 147.5t-109 49.5
q-70 0 -119.5 -49t-64.5 -143q-15 -98 20 -147.5t109 -49.5z" />
    <glyph glyph-name="b" unicode="b" 
d="M294 -9q-67 0 -111.5 34t-54.5 93l10 2l-19 -120h-80l117 736h81l-56 -351l-15 -2q26 59 76.5 93.5t121.5 34.5q70 0 116.5 -32.5t65.5 -93t5 -146.5q-19 -121 -89 -184.5t-168 -63.5zM287 57q70 0 119 49t64 143q16 98 -19 147.5t-109 49.5q-69 0 -119 -49t-65 -143
q-15 -98 20.5 -147.5t108.5 -49.5z" />
    <glyph glyph-name="c" unicode="c" horiz-adv-x="495" 
d="M258 -9q-75 0 -127 32.5t-73.5 94t-8.5 146.5q20 121 93 184t179 63q48 0 90.5 -15t69.5 -44l-32 -56q-26 25 -59.5 37t-65.5 12q-75 0 -126.5 -48t-66.5 -141q-15 -95 22.5 -146.5t114.5 -51.5q35 0 73 13t70 43l29 -58q-32 -30 -82.5 -47.5t-99.5 -17.5z" />
    <glyph glyph-name="d" unicode="d" 
d="M237 -9q-69 0 -116 32.5t-66 93.5t-6 147q20 121 90 184t168 63q66 0 111 -34t55 -92h-11l56 351h81l-117 -736h-80l19 120h14q-26 -60 -76.5 -94.5t-121.5 -34.5zM259 57q69 0 119 49t65 143q16 98 -20 147.5t-109 49.5q-70 0 -119.5 -49t-64.5 -143q-15 -98 20 -147.5
t109 -49.5z" />
    <glyph glyph-name="e" unicode="e" horiz-adv-x="544" 
d="M273 -9q-83 0 -137.5 33.5t-76.5 96t-9 146.5q13 77 48.5 131.5t91 83.5t126.5 29q69 0 114.5 -30t64 -83.5t7.5 -124.5l-4 -29h-389l8 51h336l-18 -14q12 82 -19 126t-104 44q-53 0 -91 -23.5t-61 -64t-31 -91.5l-3 -24q-13 -92 26.5 -141.5t128.5 -49.5q44 0 86 13.5
t78 44.5l28 -57q-40 -32 -92 -49.5t-108 -17.5z" />
    <glyph glyph-name="f" unicode="f" horiz-adv-x="338" 
d="M65 0l69 439h-98l10 63h120l-25 -21l15 91q13 82 62.5 125t132.5 43q19 0 39 -3.5t33 -9.5l-11 -67q-11 5 -26.5 8.5t-33.5 3.5q-31 0 -55.5 -12.5t-40.5 -37.5t-22 -64l-11 -73l-11 17h154l-11 -63h-140l-69 -439h-81z" />
    <glyph glyph-name="g" unicode="g" horiz-adv-x="603" 
d="M228 -223q-64 0 -116 16t-91 49l29 61q27 -22 55 -35t59 -19.5t67 -6.5q76 0 119 39t55 111l23 147h11q-24 -59 -76.5 -93t-120.5 -34q-69 0 -116.5 32.5t-67 91.5t-7.5 138q19 115 88.5 176t169.5 61q69 0 114 -34t53 -94l-8 10l27 109h78q-8 -29 -15 -58.5t-11 -57.5
l-61 -383q-17 -112 -82 -169t-176 -57zM261 77q73 0 122.5 48.5t62.5 135.5q14 89 -21 137t-107 48q-73 0 -123 -48t-64 -136t21.5 -136.5t108.5 -48.5z" />
    <glyph glyph-name="h" unicode="h" horiz-adv-x="586" 
d="M39 0l117 736h81l-56 -345h-14q30 59 82.5 89.5t119.5 30.5q93 0 129 -52.5t20 -152.5l-48 -306h-81l48 305q12 75 -12 107.5t-85 32.5q-71 0 -117 -43t-57 -113l-46 -289h-81z" />
    <glyph glyph-name="i" unicode="i" horiz-adv-x="238" 
d="M39 0l79 502h81l-79 -502h-81zM127 616l15 91h99l-15 -91h-99z" />
    <glyph glyph-name="j" unicode="j" horiz-adv-x="238" 
d="M-62 -220q-14 0 -34 3t-34 9l12 68q11 -4 26.5 -7.5t28.5 -3.5q42 0 67 26.5t34 86.5l86 540h81l-87 -548q-14 -86 -59 -130t-121 -44zM132 616l15 91h99l-14 -91h-100z" />
    <glyph glyph-name="k" unicode="k" horiz-adv-x="515" 
d="M39 0l117 736h81l-73 -457h2l264 223h106l-312 -262v41l259 -281h-101l-223 236h-2l-37 -236h-81z" />
    <glyph glyph-name="l" unicode="l" horiz-adv-x="238" 
d="M39 0l117 736h81l-117 -736h-81z" />
    <glyph glyph-name="m" unicode="m" horiz-adv-x="878" 
d="M39 0l61 386q4 28 6.5 57.5t3.5 58.5h79l-8 -110h-14q29 59 76.5 89t109.5 30t99 -31t39 -92h-14q27 55 79 89t115 34q84 0 120.5 -49.5t19.5 -157.5l-48 -304h-81l49 309q11 71 -9.5 103.5t-76.5 32.5q-63 0 -105 -43.5t-54 -116.5l-45 -285h-81l49 309q11 71 -9 103.5
t-77 32.5q-63 0 -104.5 -43.5t-53.5 -116.5l-45 -285h-81z" />
    <glyph glyph-name="n" unicode="n" horiz-adv-x="586" 
d="M39 0l61 386q4 28 6.5 57.5t3.5 58.5h79l-8 -110l-14 -1q30 59 82.5 89.5t119.5 30.5q93 0 129 -52.5t20 -152.5l-48 -306h-81l48 305q12 75 -12.5 107.5t-84.5 32.5q-71 0 -117 -43t-57 -113l-46 -289h-81z" />
    <glyph glyph-name="o" unicode="o" horiz-adv-x="571" 
d="M252 -9q-75 0 -125 32t-70.5 93t-7.5 148q13 80 50.5 135.5t93.5 83.5t126 28q76 0 125.5 -32t70 -92.5t6.5 -147.5q-13 -80 -50.5 -135.5t-93 -84t-125.5 -28.5zM258 57q69 0 118.5 49t64.5 143q16 98 -20 147.5t-108 49.5q-70 0 -119 -49t-64 -143q-15 -98 19.5 -147.5
t108.5 -49.5z" />
    <glyph glyph-name="p" unicode="p" 
d="M5 -216l95 602q4 28 6.5 57.5t3.5 58.5h79l-9 -119h-14q26 59 76.5 93.5t121.5 34.5q70 0 116.5 -32.5t65.5 -93t5 -146.5q-19 -121 -89 -184.5t-168 -63.5q-67 0 -111.5 34t-54.5 93h11l-53 -334h-81zM287 57q70 0 119 49t64 143q16 98 -19 147.5t-109 49.5
q-69 0 -119 -49t-65 -143q-15 -98 20.5 -147.5t108.5 -49.5z" />
    <glyph glyph-name="q" unicode="q" 
d="M367 -216l53 334l15 2q-26 -60 -76.5 -94.5t-121.5 -34.5q-69 0 -116 32.5t-66 93.5t-6 147q20 121 90 184t168 63q66 0 111 -34t55 -92l-11 -2l29 119h78q-7 -29 -14.5 -58.5t-11.5 -57.5l-95 -602h-81zM259 57q69 0 119 49t65 143q16 98 -20 147.5t-109 49.5
q-70 0 -119.5 -49t-64.5 -143q-15 -98 20 -147.5t109 -49.5z" />
    <glyph glyph-name="r" unicode="r" horiz-adv-x="363" 
d="M37 0l61 381q5 30 8 61t4 60h79l-8 -122l-16 -1q17 45 45.5 74t65.5 43.5t75 14.5q13 0 24.5 -1t22.5 -4l-14 -73q-12 5 -24.5 6.5t-28.5 1.5q-45 0 -80 -19t-57 -52t-28 -74l-47 -296h-82z" />
    <glyph glyph-name="s" unicode="s" horiz-adv-x="496" 
d="M213 -9q-57 0 -107 15.5t-79 41.5l29 57q33 -24 74.5 -37.5t87.5 -13.5q58 0 92 21t40 57q5 31 -12.5 51.5t-59.5 27.5l-72 11q-74 12 -103 52t-20 98q7 44 35.5 75t72.5 47.5t97 16.5q55 0 99.5 -14.5t70.5 -38.5l-31 -56q-26 22 -62.5 34.5t-76.5 12.5q-57 0 -90 -23
t-39 -58q-5 -32 10 -53.5t54 -27.5l74 -13q76 -13 106.5 -49.5t21.5 -93.5q-6 -43 -34.5 -74.5t-73.5 -48.5t-104 -17z" />
    <glyph glyph-name="t" unicode="t" horiz-adv-x="350" 
d="M224 -9q-81 0 -113.5 43t-19.5 128l43 277h-98l10 63h99l22 137l84 23l-25 -160h144l-11 -63h-144l-41 -267q-10 -59 6.5 -85.5t57.5 -26.5q19 0 34 3.5t28 8.5l-10 -68q-16 -6 -32 -9.5t-34 -3.5z" />
    <glyph glyph-name="u" unicode="u" horiz-adv-x="577" 
d="M223 -9q-88 0 -130 50t-26 155l48 306h81l-48 -302q-11 -75 13 -108.5t84 -33.5q68 0 112 43.5t55 115.5l45 285h81l-79 -502h-79l17 113h15q-28 -58 -77.5 -90t-111.5 -32z" />
    <glyph glyph-name="v" unicode="v" horiz-adv-x="531" 
d="M187 0l-135 502h84l111 -442h-28l253 442h86l-294 -502h-77z" />
    <glyph glyph-name="w" unicode="w" horiz-adv-x="869" 
d="M173 0l-106 502h82l85 -442h-26l231 442h69l87 -442h-25l227 442h84l-266 -502h-78l-92 449h42l-235 -449h-79z" />
    <glyph glyph-name="x" unicode="x" horiz-adv-x="535" 
d="M-32 0l270 279l-1 -40l-172 263h92l129 -205h-29l192 205h102l-252 -262l2 37l179 -277h-95l-137 219h30l-208 -219h-102z" />
    <glyph glyph-name="y" unicode="y" horiz-adv-x="531" 
d="M-15 -227l-15 67q49 11 83 25.5t59 38.5t47 60l34 59l-4 -34l-138 513h85l111 -441h-26l250 441h87l-317 -544q-29 -48 -57.5 -80.5t-59.5 -53t-65 -32.5t-74 -19z" />
    <glyph glyph-name="z" unicode="z" horiz-adv-x="519" 
d="M10 0l8 54l398 406l-3 -21h-334l10 63h414l-9 -54l-399 -408l3 23h348l-11 -63h-425z" />
    <glyph glyph-name="braceleft" unicode="{" horiz-adv-x="355" 
d="M202 -180q-41 0 -67 12.5t-35.5 35.5t-4.5 55l35 226q6 41 -5.5 59.5t-52.5 20.5l-29 3l10 62l30 2q40 3 58 21.5t25 58.5l36 226q9 51 37.5 77t76.5 26h103l-11 -64h-75q-22 0 -35 -11t-17 -34l-36 -228q-5 -36 -23 -60t-41 -35.5t-44 -11.5v4q21 0 40 -11.5t29.5 -35.5
t4.5 -60l-35 -229q-4 -23 4.5 -34t31.5 -11h77l-10 -64h-77z" />
    <glyph glyph-name="bar" unicode="|" horiz-adv-x="264" 
d="M23 -180l140 885h81l-140 -885h-81z" />
    <glyph glyph-name="braceright" unicode="}" horiz-adv-x="355" 
d="M-61 -180l10 64h76q21 0 34.5 11t17.5 34l36 228q6 37 23.5 60.5t40.5 35t44 11.5l1 -4q-21 0 -40 12t-29 36t-5 60l35 228q4 23 -5.5 34t-30.5 11h-77l10 64h76q43 0 68.5 -12.5t35.5 -35.5t4 -55l-35 -226q-6 -41 5.5 -59.5t51.5 -20.5l28 -2l-9 -63l-29 -2
q-41 -2 -59 -21t-24 -59l-36 -226q-9 -51 -37.5 -77t-76.5 -26h-104z" />
    <glyph glyph-name="asciitilde" unicode="~" 
d="M420 217q-34 0 -66 14t-60 29q-27 16 -50.5 26.5t-46.5 10.5q-33 0 -56 -18.5t-40 -46.5l-46 30q26 46 58.5 71t77.5 25q35 0 68.5 -14.5t61.5 -30.5q27 -14 49 -25t44 -11q34 0 57.5 19t39.5 47l46 -31q-26 -45 -59 -70t-78 -25z" />
    <glyph glyph-name="uni00A0" unicode="&#xa0;" horiz-adv-x="261" 
 />
    <glyph glyph-name="exclamdown" unicode="&#xa1;" horiz-adv-x="228" 
d="M-5 -180l105 499h50l-55 -499h-100zM86 400l16 102h103l-16 -102h-103z" />
    <glyph glyph-name="cent" unicode="&#xa2;" 
d="M224 -115l20 131l14 -21q-91 13 -137.5 77.5t-27.5 178.5q18 110 82 170t161 69l-21 -26l23 142h69l-23 -139l-13 24q46 -1 87 -15.5t66 -42.5l-31 -55q-27 25 -60 36t-65 11q-75 0 -126.5 -46t-66.5 -133q-10 -59 3.5 -101t47.5 -64.5t86 -22.5q35 0 72.5 12.5
t70.5 40.5l28 -57q-33 -30 -86 -47t-107 -16l22 22l-20 -128h-68z" />
    <glyph glyph-name="sterling" unicode="&#xa3;" 
d="M6 0l9 58q51 19 82.5 46.5t37.5 70.5l25 151h-103l9 55h102l21 129q17 101 79 152.5t163 51.5q61 0 109 -18t80 -54l-35 -59q-32 30 -66.5 45.5t-85.5 15.5q-70 0 -110 -33.5t-51 -104.5l-21 -125h185l-9 -55h-184l-21 -127q-8 -55 -36 -87t-69 -48l1 6h416l-11 -70h-517
z" />
    <glyph glyph-name="currency" unicode="&#xa4;" 
d="M112 -26l-42 44l73 75q-23 32 -36 71t-13 81q0 43 13 82t36 70l-73 76l42 43l74 -76q31 25 69 39t80 14q41 0 78.5 -13.5t67.5 -37.5l72 75l45 -45l-74 -74q25 -32 38 -71t13 -82t-13.5 -82t-37.5 -71l73 -74l-43 -43l-72 74q-31 -24 -68 -38t-79 -14t-80 14t-69 38z
M334 67q47 0 84.5 24t60 64.5t22.5 89.5t-22.5 89.5t-60 65t-84.5 23.5q-46 0 -84 -24t-60.5 -64.5t-22.5 -89.5t22.5 -89.5t60.5 -64.5t84 -24z" />
    <glyph glyph-name="yen" unicode="&#xa5;" 
d="M219 0l28 178h-186l8 54h187l15 99h-186l8 54h161l-2 -11l-185 331h88l174 -315h-22l274 315h96l-290 -331l2 11h160l-9 -54h-186l-16 -99h187l-9 -54h-186l-29 -178h-82z" />
    <glyph glyph-name="brokenbar" unicode="&#xa6;" horiz-adv-x="264" 
d="M110 372l53 333h81l-53 -333h-81zM23 -180l53 333h81l-53 -333h-81z" />
    <glyph glyph-name="section" unicode="&#xa7;" horiz-adv-x="542" 
d="M201 -189q-67 0 -121 17.5t-93 49.5l33 56q22 -21 49.5 -34t60.5 -20t69 -7q69 0 108 35t39 87q0 39 -18 61.5t-60 46.5l-102 60q-57 34 -87.5 73t-30.5 83q0 45 23.5 84t66.5 67l-3 -12q-7 17 -10.5 33t-3.5 35q0 57 30.5 99t81.5 65.5t114 23.5q57 0 107.5 -16
t87.5 -50l-29 -55q-29 28 -74 43.5t-90 15.5q-70 0 -109 -35t-39 -87q0 -39 17.5 -62.5t60.5 -48.5l99 -57q60 -35 90 -73.5t30 -82.5q0 -45 -23.5 -84.5t-66.5 -66.5l2 14q9 -16 12.5 -33t3.5 -36q0 -57 -30.5 -99.5t-81 -66t-113.5 -23.5zM123 332q0 -32 23 -58.5
t67 -52.5l90 -53q28 -18 49.5 -34.5t34.5 -36.5l-11 2q24 21 36 46t12 48q0 32 -23.5 58t-69.5 53l-86 50q-28 18 -49.5 34.5t-34.5 37.5l11 2q-24 -21 -36.5 -46.5t-12.5 -49.5z" />
    <glyph glyph-name="dieresis" unicode="&#xa8;" horiz-adv-x="500" 
d="M350 609l13 86h87l-14 -86h-86zM176 609l13 86h86l-12 -86h-87z" />
    <glyph glyph-name="copyright" unicode="&#xa9;" horiz-adv-x="815" 
d="M429 -9q-76 0 -142.5 27.5t-115.5 76.5t-76.5 115.5t-27.5 142.5q0 77 27.5 142.5t76.5 114.5t115 76.5t143 27.5t143 -27.5t114.5 -76.5t76 -114.5t27.5 -142.5q0 -76 -27.5 -142.5t-76.5 -115.5t-114.5 -76.5t-142.5 -27.5zM442 137q-97 0 -152.5 60t-55.5 158
q0 99 55.5 156t152.5 57q40 0 79 -14t64 -39l-24 -52q-27 24 -56.5 35t-59.5 11q-65 0 -102 -40.5t-37 -114.5q0 -72 37 -114.5t102 -42.5q30 0 59.5 11t56.5 35l24 -53q-25 -24 -65 -38.5t-78 -14.5zM429 35q67 0 124.5 24t100 67.5t66.5 101t24 125.5t-24 125.5
t-66.5 100.5t-100 67t-124.5 24q-68 0 -125.5 -24t-100 -67t-66.5 -100.5t-24 -125.5t24 -125.5t66.5 -101t100.5 -67.5t125 -24z" />
    <glyph glyph-name="ordfeminine" unicode="&#xaa;" horiz-adv-x="326" 
d="M160 411q-33 0 -55.5 12t-33.5 33.5t-7 49.5q5 31 25.5 48.5t53 25t73.5 7.5h76l-6 -36h-76q-82 0 -89 -46q-3 -23 9.5 -37.5t43.5 -14.5q39 0 68 24.5t36 68.5l9 57q5 33 -10.5 49.5t-54.5 16.5q-25 0 -53.5 -7t-52.5 -22l-15 42q26 15 61 23.5t68 8.5q64 0 92.5 -30
t17.5 -93l-28 -175h-53l9 54h-3q-19 -31 -45 -45t-60 -14z" />
    <glyph glyph-name="guillemotleft" unicode="&#xab;" horiz-adv-x="445" 
d="M130 88l-101 179l160 181h79l-162 -187l96 -173h-72zM313 88l-101 179l160 181h79l-162 -187l96 -173h-72z" />
    <glyph glyph-name="logicalnot" unicode="&#xac;" 
d="M467 149l33 209h-430l10 62h493l-42 -271h-64z" />
    <glyph glyph-name="uni00AD" unicode="&#xad;" horiz-adv-x="428" 
d="M70 241l11 67h284l-10 -67h-285z" />
    <glyph glyph-name="registered" unicode="&#xae;" horiz-adv-x="815" 
d="M429 -9q-76 0 -142.5 27.5t-115.5 76.5t-76.5 115.5t-27.5 142.5q0 77 27.5 142.5t76.5 114.5t115 76.5t143 27.5t143 -27.5t114.5 -76.5t76 -114.5t27.5 -142.5q0 -76 -27.5 -142.5t-76.5 -115.5t-114.5 -76.5t-142.5 -27.5zM429 35q67 0 124.5 24t100 67.5t66.5 101
t24 125.5t-24 125.5t-66.5 100.5t-100 67t-124.5 24q-68 0 -125.5 -24t-100 -67t-66.5 -100.5t-24 -125.5t24 -125.5t66.5 -101t100.5 -67.5t125 -24zM284 142v422h172q68 0 104.5 -32.5t36.5 -89.5q0 -58 -36.5 -88.5t-102.5 -30.5l12 10q31 0 51.5 -13.5t32.5 -49.5
l48 -128h-69l-48 130q-10 25 -28 33.5t-44 8.5h-75l13 10v-182h-67zM351 368h96q43 0 64 17t21 54t-20.5 54t-64.5 17h-96v-142z" />
    <glyph glyph-name="macron" unicode="&#xaf;" horiz-adv-x="500" 
d="M161 625l8 55h297l-9 -55h-296z" />
    <glyph glyph-name="degree" unicode="&#xb0;" horiz-adv-x="371" 
d="M236 416q-42 0 -75.5 19.5t-53 53t-19.5 75.5t19.5 75t53 52.5t75.5 19.5q43 0 75.5 -19t52 -52.5t19.5 -75.5t-19.5 -76t-52 -53t-75.5 -19zM236 471q40 0 64.5 26t24.5 67t-24.5 67t-64.5 26q-39 0 -64 -26t-25 -67t25 -67t64 -26z" />
    <glyph glyph-name="plusminus" unicode="&#xb1;" 
d="M249 127l27 170h-216l10 62h216l27 170h64l-27 -170h211l-8 -62h-213l-27 -170h-64zM13 0l10 62h493l-10 -62h-493z" />
    <glyph glyph-name="uni00B2" unicode="&#xb2;" horiz-adv-x="380" 
d="M57 282l8 50l166 146q34 31 51 54.5t20 44.5q6 37 -11.5 55t-53.5 18q-29 0 -61 -11t-58 -33l-20 52q31 25 70 38t82 13q64 0 100 -33t26 -95q-4 -26 -23.5 -57.5t-59.5 -67.5l-144 -125l-4 10h212l-10 -59h-290z" />
    <glyph glyph-name="uni00B3" unicode="&#xb3;" horiz-adv-x="380" 
d="M200 278q-49 0 -87 13t-61 37l23 50q21 -20 52.5 -31.5t68.5 -11.5q38 0 64.5 16.5t31.5 52.5q6 34 -16 49.5t-64 15.5h-78l9 54h68q41 0 67 17t32 51q4 29 -13.5 45.5t-56.5 16.5q-33 0 -67.5 -12t-57.5 -34l-19 52q31 23 71.5 36.5t85.5 13.5q67 0 100.5 -30.5
t25.5 -83.5q-6 -39 -35 -65.5t-67 -36.5l2 8q42 -6 64.5 -34t14.5 -75q-8 -53 -53 -83.5t-105 -30.5z" />
    <glyph glyph-name="acute" unicode="&#xb4;" horiz-adv-x="500" 
d="M268 551l134 202h88l-163 -202h-59z" />
    <glyph glyph-name="uni00B5" unicode="&#xb5;" horiz-adv-x="570" 
d="M1 -216l112 718h81l-46 -305q-11 -71 12.5 -105t79.5 -34q71 0 113.5 46t54.5 123l42 275h81l-77 -502h-79l17 112h8q-22 -56 -65 -88.5t-101 -32.5q-43 0 -74.5 16.5t-46.5 48.5l5 2l-35 -274h-82z" />
    <glyph glyph-name="paragraph" unicode="&#xb6;" horiz-adv-x="599" 
d="M182 -180l77 489q-54 0 -93.5 22.5t-60.5 61.5t-21 87q0 68 30 118.5t82.5 78.5t120.5 28h265l-140 -885h-65l130 822h-130l-130 -822h-65z" />
    <glyph glyph-name="periodcentered" unicode="&#xb7;" horiz-adv-x="231" 
d="M60 223l16 102h103l-16 -102h-103z" />
    <glyph glyph-name="cedilla" unicode="&#xb8;" horiz-adv-x="500" 
d="M184 -192q-26 0 -49 5t-39 14l18 44q17 -8 33 -12t39 -4q28 0 45 10t17 29q0 12 -9 19t-26 7q-10 0 -21 -1.5t-27 -7.5l-15 16l30 93h51l-25 -75l-24 6q13 3 24.5 5t21.5 2q34 0 55 -16t21 -47q0 -39 -34 -63t-86 -24z" />
    <glyph glyph-name="uni00B9" unicode="&#xb9;" horiz-adv-x="380" 
d="M87 282l9 59h98l47 305l31 -2l-131 -71l11 69l115 63h52l-57 -364h85l-9 -59h-251z" />
    <glyph glyph-name="ordmasculine" unicode="&#xba;" horiz-adv-x="341" 
d="M202 411q-67 0 -103 41t-25 117q11 70 55.5 107.5t108.5 37.5q66 0 102.5 -40.5t24.5 -116.5q-11 -69 -55 -107.5t-108 -38.5zM204 457q40 0 68 27.5t36 78.5t-11.5 78t-61.5 27q-40 0 -68 -26.5t-36 -78.5t12 -79t61 -27z" />
    <glyph glyph-name="guillemotright" unicode="&#xbb;" horiz-adv-x="445" 
d="M90 88h-79l162 188l-96 172h72l101 -179zM271 88h-79l162 188l-96 172h72l101 -179z" />
    <glyph glyph-name="onequarter" unicode="&#xbc;" horiz-adv-x="896" 
d="M87 282l9 59h98l47 305l31 -2l-131 -71l11 69l115 63h52l-57 -364h85l-9 -59h-251zM256 -9h-75l539 723h76zM710 0l14 85h-202l8 50l254 288h57l-45 -283h65l-9 -55h-65l-13 -85h-64zM734 140l32 208h14l-196 -223l-1 15h151z" />
    <glyph glyph-name="onehalf" unicode="&#xbd;" horiz-adv-x="940" 
d="M87 282l9 59h98l47 305l31 -2l-131 -71l11 69l115 63h52l-57 -364h85l-9 -59h-251zM256 -9h-75l539 723h76zM572 0l8 50l166 146q34 31 51 54.5t20 44.5q6 37 -11.5 55t-53.5 18q-29 0 -61 -11t-58 -33l-20 52q31 25 70 38t82 13q64 0 100 -33t26 -95q-4 -26 -23.5 -57.5
t-59.5 -67.5l-144 -125l-4 10h212l-10 -59h-290z" />
    <glyph glyph-name="threequarters" unicode="&#xbe;" horiz-adv-x="896" 
d="M200 278q-49 0 -87 13t-61 37l23 50q21 -20 52.5 -31.5t68.5 -11.5q38 0 64.5 16.5t31.5 52.5q6 34 -16 49.5t-64 15.5h-78l9 54h68q41 0 67 17t32 51q4 29 -13.5 45.5t-56.5 16.5q-33 0 -67.5 -12t-57.5 -34l-19 52q31 23 71.5 36.5t85.5 13.5q67 0 100.5 -30.5
t25.5 -83.5q-6 -39 -35 -65.5t-67 -36.5l2 8q42 -6 64.5 -34t14.5 -75q-8 -53 -53 -83.5t-105 -30.5zM256 -9h-75l539 723h76zM710 0l14 85h-202l8 50l254 288h57l-45 -283h65l-9 -55h-65l-13 -85h-64zM734 140l32 208h14l-196 -223l-1 15h151z" />
    <glyph glyph-name="questiondown" unicode="&#xbf;" horiz-adv-x="448" 
d="M152 -208q-51 0 -89 16.5t-59 46.5t-21 70q0 44 18.5 81.5t47.5 69t60 57.5q58 52 83.5 89t35.5 75l7 22h51l-4 -26q-5 -33 -17.5 -63t-37 -62t-66.5 -71q-22 -21 -43.5 -46t-35.5 -53t-14 -59q0 -36 27.5 -56t75.5 -20q41 0 78 11t72 28l-12 -75q-35 -18 -76.5 -26.5
t-80.5 -8.5zM342 502l-17 -102h-102l16 102h103z" />
    <glyph glyph-name="Agrave" unicode="&#xc0;" horiz-adv-x="735" 
d="M-22 0l423 705h72l204 -705h-82l-56 201l33 -21h-430l43 21l-118 -201h-89zM424 610l-221 -380l-21 18h371l-21 -18l-105 380h-3zM417 765l-133 172h90l105 -172h-62z" />
    <glyph glyph-name="Aacute" unicode="&#xc1;" horiz-adv-x="735" 
d="M-22 0l423 705h72l204 -705h-82l-56 201l33 -21h-430l43 21l-118 -201h-89zM424 610l-221 -380l-21 18h371l-21 -18l-105 380h-3zM417 765l131 172h92l-161 -172h-62z" />
    <glyph glyph-name="Acircumflex" unicode="&#xc2;" horiz-adv-x="735" 
d="M-22 0l423 705h72l204 -705h-82l-56 201l33 -21h-430l43 21l-118 -201h-89zM424 610l-221 -380l-21 18h371l-21 -18l-105 380h-3zM278 765l141 172h76l105 -172h-61l-86 119l-114 -119h-61z" />
    <glyph glyph-name="Atilde" unicode="&#xc3;" horiz-adv-x="735" 
d="M-22 0l423 705h72l204 -705h-82l-56 201l33 -21h-430l43 21l-118 -201h-89zM424 610l-221 -380l-21 18h371l-21 -18l-105 380h-3zM283 783l-46 3q11 64 44 98.5t83 34.5q29 0 54.5 -13t48.5 -29q20 -13 38 -23.5t37 -10.5q58 0 77 79l46 -3q-11 -64 -44 -98.5t-82 -34.5
q-29 0 -55 13.5t-49 28.5q-19 13 -38 23.5t-37 10.5q-58 0 -77 -79z" />
    <glyph glyph-name="Adieresis" unicode="&#xc4;" horiz-adv-x="735" 
d="M-22 0l423 705h72l204 -705h-82l-56 201l33 -21h-430l43 21l-118 -201h-89zM424 610l-221 -380l-21 18h371l-21 -18l-105 380h-3zM497 806l14 86h86l-14 -86h-86zM323 806l14 86h86l-14 -86h-86z" />
    <glyph glyph-name="Aring" unicode="&#xc5;" horiz-adv-x="735" 
d="M-22 0l423 705h72l204 -705h-82l-56 201l33 -21h-430l43 21l-118 -201h-89zM424 610l-221 -380l-21 18h371l-21 -18l-105 380h-3zM463 758q-33 0 -60.5 15.5t-43 42t-15.5 58.5q0 33 15.5 58.5t42.5 41t60 15.5q34 0 61 -15.5t42.5 -41t15.5 -58.5q0 -32 -15.5 -58.5
t-42 -42t-60.5 -15.5zM462 801q33 0 52.5 21t19.5 52q0 30 -19.5 51t-51.5 21t-52 -21t-20 -51q0 -31 20 -52t51 -21z" />
    <glyph glyph-name="AE" unicode="&#xc6;" horiz-adv-x="1006" 
d="M-42 0l542 705h528l-12 -68h-399l25 22l-19 -289l-14 22h348l-11 -69h-341l14 10l-18 -288l-8 24h334l-11 -69h-396l13 196l24 -16h-385l36 22l-154 -202h-96zM534 636l-307 -407l-9 20h330l-12 -22l28 409h-30z" />
    <glyph glyph-name="Ccedilla" unicode="&#xc7;" horiz-adv-x="684" 
d="M372 -9q-115 0 -186 47t-97.5 131.5t-9.5 195.5q18 112 69 189.5t130 118.5t181 41q72 0 127.5 -21t94.5 -60l-34 -68q-43 41 -87.5 57.5t-104.5 16.5q-118 0 -193 -74t-96 -209q-14 -87 4 -152.5t70.5 -101.5t138.5 -36q56 0 109.5 19t100.5 62l29 -66
q-47 -43 -112 -66.5t-134 -23.5zM331 -192q-26 0 -49 5t-39 14l18 44q17 -8 33 -12t39 -4q28 0 45 10t17 29q0 12 -9 19t-26 7q-10 0 -21 -1.5t-27 -7.5l-15 16l30 93h51l-25 -75l-24 6q13 3 24.5 5t21.5 2q34 0 55 -16t21 -47q0 -39 -34 -63t-86 -24z" />
    <glyph glyph-name="Egrave" unicode="&#xc8;" horiz-adv-x="588" 
d="M48 0l112 705h450l-11 -68h-370l-38 -245h347l-11 -69h-347l-41 -254h370l-11 -69h-450zM379 765l-133 172h90l105 -172h-62z" />
    <glyph glyph-name="Eacute" unicode="&#xc9;" horiz-adv-x="588" 
d="M48 0l112 705h450l-11 -68h-370l-38 -245h347l-11 -69h-347l-41 -254h370l-11 -69h-450zM379 765l131 172h92l-161 -172h-62z" />
    <glyph glyph-name="Ecircumflex" unicode="&#xca;" horiz-adv-x="588" 
d="M48 0l112 705h450l-11 -68h-370l-38 -245h347l-11 -69h-347l-41 -254h370l-11 -69h-450zM241 765l141 172h76l105 -172h-61l-86 119l-114 -119h-61z" />
    <glyph glyph-name="Edieresis" unicode="&#xcb;" horiz-adv-x="588" 
d="M48 0l112 705h450l-11 -68h-370l-38 -245h347l-11 -69h-347l-41 -254h370l-11 -69h-450zM459 806l14 86h86l-14 -86h-86zM285 806l14 86h86l-14 -86h-86z" />
    <glyph glyph-name="Igrave" unicode="&#xcc;" horiz-adv-x="259" 
d="M48 0l112 705h83l-112 -705h-83zM180 765l-133 172h90l105 -172h-62z" />
    <glyph glyph-name="Iacute" unicode="&#xcd;" horiz-adv-x="259" 
d="M48 0l112 705h83l-112 -705h-83zM180 765l131 172h92l-161 -172h-62z" />
    <glyph glyph-name="Icircumflex" unicode="&#xce;" horiz-adv-x="259" 
d="M48 0l112 705h83l-112 -705h-83zM42 765l141 172h76l105 -172h-61l-86 119l-114 -119h-61z" />
    <glyph glyph-name="Idieresis" unicode="&#xcf;" horiz-adv-x="259" 
d="M48 0l112 705h83l-112 -705h-83zM261 806l14 86h86l-14 -86h-86zM87 806l14 86h86l-14 -86h-86z" />
    <glyph glyph-name="Eth" unicode="&#xd0;" horiz-adv-x="747" 
d="M48 0l112 705h226q123 0 198 -43.5t104 -125t11 -195.5q-28 -171 -134.5 -256t-280.5 -85h-236zM142 71h145q144 0 225.5 68.5t103.5 210.5q22 144 -37.5 214.5t-203.5 70.5h-144zM14 326l10 64h367l-10 -64h-367z" />
    <glyph glyph-name="Ntilde" unicode="&#xd1;" horiz-adv-x="747" 
d="M48 0l112 705h65l353 -603l-19 3l95 600h77l-112 -705h-64l-353 603l18 -3l-95 -600h-77zM293 783l-46 3q11 64 44 98.5t83 34.5q29 0 54.5 -13t48.5 -29q20 -13 38 -23.5t37 -10.5q58 0 77 79l46 -3q-11 -64 -44 -98.5t-82 -34.5q-29 0 -55 13.5t-49 28.5
q-19 13 -38 23.5t-37 10.5q-58 0 -77 -79z" />
    <glyph glyph-name="Ograve" unicode="&#xd2;" horiz-adv-x="772" 
d="M80 365q18 112 67.5 189.5t126.5 118.5t176 41q105 0 172.5 -47.5t93.5 -131.5t8 -195q-17 -111 -67.5 -189t-127 -119t-176.5 -41q-104 0 -171 47t-93 131.5t-9 195.5zM166 355q-15 -90 3 -155t66.5 -100.5t124.5 -35.5q115 0 186 76t93 210q14 90 -4.5 155.5
t-66.5 100.5t-124 35q-116 0 -186 -75.5t-92 -210.5zM437 765l-133 172h90l105 -172h-62z" />
    <glyph glyph-name="Oacute" unicode="&#xd3;" horiz-adv-x="772" 
d="M80 365q18 112 67.5 189.5t126.5 118.5t176 41q105 0 172.5 -47.5t93.5 -131.5t8 -195q-17 -111 -67.5 -189t-127 -119t-176.5 -41q-104 0 -171 47t-93 131.5t-9 195.5zM166 355q-15 -90 3 -155t66.5 -100.5t124.5 -35.5q115 0 186 76t93 210q14 90 -4.5 155.5
t-66.5 100.5t-124 35q-116 0 -186 -75.5t-92 -210.5zM437 765l131 172h92l-161 -172h-62z" />
    <glyph glyph-name="Ocircumflex" unicode="&#xd4;" horiz-adv-x="772" 
d="M80 365q18 112 67.5 189.5t126.5 118.5t176 41q105 0 172.5 -47.5t93.5 -131.5t8 -195q-17 -111 -67.5 -189t-127 -119t-176.5 -41q-104 0 -171 47t-93 131.5t-9 195.5zM166 355q-15 -90 3 -155t66.5 -100.5t124.5 -35.5q115 0 186 76t93 210q14 90 -4.5 155.5
t-66.5 100.5t-124 35q-116 0 -186 -75.5t-92 -210.5zM299 765l141 172h76l105 -172h-61l-86 119l-114 -119h-61z" />
    <glyph glyph-name="Otilde" unicode="&#xd5;" horiz-adv-x="772" 
d="M80 365q18 112 67.5 189.5t126.5 118.5t176 41q105 0 172.5 -47.5t93.5 -131.5t8 -195q-17 -111 -67.5 -189t-127 -119t-176.5 -41q-104 0 -171 47t-93 131.5t-9 195.5zM166 355q-15 -90 3 -155t66.5 -100.5t124.5 -35.5q115 0 186 76t93 210q14 90 -4.5 155.5
t-66.5 100.5t-124 35q-116 0 -186 -75.5t-92 -210.5zM304 783l-46 3q11 64 44 98.5t83 34.5q29 0 54.5 -13t48.5 -29q20 -13 38 -23.5t37 -10.5q58 0 77 79l46 -3q-11 -64 -44 -98.5t-82 -34.5q-29 0 -55 13.5t-49 28.5q-19 13 -38 23.5t-37 10.5q-58 0 -77 -79z" />
    <glyph glyph-name="Odieresis" unicode="&#xd6;" horiz-adv-x="772" 
d="M80 365q18 112 67.5 189.5t126.5 118.5t176 41q105 0 172.5 -47.5t93.5 -131.5t8 -195q-17 -111 -67.5 -189t-127 -119t-176.5 -41q-104 0 -171 47t-93 131.5t-9 195.5zM166 355q-15 -90 3 -155t66.5 -100.5t124.5 -35.5q115 0 186 76t93 210q14 90 -4.5 155.5
t-66.5 100.5t-124 35q-116 0 -186 -75.5t-92 -210.5zM517 806l14 86h86l-14 -86h-86zM343 806l14 86h86l-14 -86h-86z" />
    <glyph glyph-name="multiply" unicode="&#xd7;" 
d="M108 50l-44 44l209 192l-172 188l45 45l173 -190l207 190l43 -45l-208 -191l171 -189l-44 -44l-173 190z" />
    <glyph glyph-name="Oslash" unicode="&#xd8;" horiz-adv-x="772" 
d="M80 365q18 112 67.5 189.5t126.5 118.5t176 41q105 0 172.5 -47.5t93.5 -131.5t8 -195q-17 -111 -67.5 -189t-127 -119t-176.5 -41q-104 0 -171 47t-93 131.5t-9 195.5zM166 355q-15 -90 3 -155t66.5 -100.5t124.5 -35.5q115 0 186 76t93 210q14 90 -4.5 155.5
t-66.5 100.5t-124 35q-116 0 -186 -75.5t-92 -210.5zM224 58l-68 -93l-53 37l69 93l32 37l357 479l23 37l69 92l52 -37l-69 -92l-31 -37l-358 -480z" />
    <glyph glyph-name="Ugrave" unicode="&#xd9;" horiz-adv-x="730" 
d="M334 -9q-92 0 -152 32.5t-84.5 97t-9.5 160.5l68 424h82l-67 -423q-17 -109 22 -163.5t148 -54.5q96 0 153.5 51t76.5 168l67 422h82l-68 -428q-16 -99 -56.5 -162.5t-106 -93.5t-155.5 -30zM417 765l-133 172h90l105 -172h-62z" />
    <glyph glyph-name="Uacute" unicode="&#xda;" horiz-adv-x="730" 
d="M334 -9q-92 0 -152 32.5t-84.5 97t-9.5 160.5l68 424h82l-67 -423q-17 -109 22 -163.5t148 -54.5q96 0 153.5 51t76.5 168l67 422h82l-68 -428q-16 -99 -56.5 -162.5t-106 -93.5t-155.5 -30zM417 765l131 172h92l-161 -172h-62z" />
    <glyph glyph-name="Ucircumflex" unicode="&#xdb;" horiz-adv-x="730" 
d="M334 -9q-92 0 -152 32.5t-84.5 97t-9.5 160.5l68 424h82l-67 -423q-17 -109 22 -163.5t148 -54.5q96 0 153.5 51t76.5 168l67 422h82l-68 -428q-16 -99 -56.5 -162.5t-106 -93.5t-155.5 -30zM279 765l141 172h76l105 -172h-61l-86 119l-114 -119h-61z" />
    <glyph glyph-name="Udieresis" unicode="&#xdc;" horiz-adv-x="730" 
d="M334 -9q-92 0 -152 32.5t-84.5 97t-9.5 160.5l68 424h82l-67 -423q-17 -109 22 -163.5t148 -54.5q96 0 153.5 51t76.5 168l67 422h82l-68 -428q-16 -99 -56.5 -162.5t-106 -93.5t-155.5 -30zM498 806l14 86h86l-14 -86h-86zM324 806l14 86h86l-14 -86h-86z" />
    <glyph glyph-name="Yacute" unicode="&#xdd;" horiz-adv-x="607" 
d="M222 0l52 329l9 -56l-222 432h91l176 -351h-21l287 351h96l-360 -434l27 58l-52 -329h-83zM355 765l131 172h92l-161 -172h-62z" />
    <glyph glyph-name="Thorn" unicode="&#xde;" horiz-adv-x="652" 
d="M48 0l112 705h83l-22 -135h196q115 0 168 -57t37 -157q-9 -60 -42 -102.5t-86.5 -65t-124.5 -22.5h-212l-26 -166h-83zM168 235h195q78 0 122.5 32t55.5 96q11 68 -23.5 103.5t-112.5 35.5h-195z" />
    <glyph glyph-name="germandbls" unicode="&#xdf;" horiz-adv-x="634" 
d="M39 0l78 493q20 125 86 187t183 62q62 0 105.5 -20.5t63.5 -60.5t10 -98q-5 -39 -27 -75t-64.5 -68t-112.5 -58v17q86 -25 138.5 -57.5t74 -75t12.5 -97.5q-8 -49 -36 -84.5t-72.5 -54.5t-101.5 -19q-58 0 -102.5 15t-73.5 39l27 58q34 -24 70 -36.5t78 -12.5
q56 0 91 26.5t42 75.5q6 36 -10.5 66.5t-66 58t-142.5 52.5l11 65q68 23 107.5 49t58.5 55.5t23 61.5q9 54 -18.5 84.5t-90.5 30.5q-78 0 -122 -43.5t-59 -133.5l-79 -502h-81z" />
    <glyph glyph-name="agrave" unicode="&#xe0;" 
d="M237 -9q-69 0 -116 32.5t-66 93.5t-6 147q20 121 90 184t168 63q66 0 111 -34t55 -92l-11 -2l29 119h78q-7 -29 -14.5 -58.5t-11.5 -57.5l-61 -386h-81l19 120h15q-26 -60 -76.5 -94.5t-121.5 -34.5zM259 57q69 0 119 49t65 143q16 98 -20 147.5t-109 49.5
q-70 0 -119.5 -49t-64.5 -143q-15 -98 20 -147.5t109 -49.5zM311 551l-141 202h85l114 -202h-58z" />
    <glyph glyph-name="aacute" unicode="&#xe1;" 
d="M237 -9q-69 0 -116 32.5t-66 93.5t-6 147q20 121 90 184t168 63q66 0 111 -34t55 -92l-11 -2l29 119h78q-7 -29 -14.5 -58.5t-11.5 -57.5l-61 -386h-81l19 120h15q-26 -60 -76.5 -94.5t-121.5 -34.5zM259 57q69 0 119 49t65 143q16 98 -20 147.5t-109 49.5
q-70 0 -119.5 -49t-64.5 -143q-15 -98 20 -147.5t109 -49.5zM312 551l134 202h88l-163 -202h-59z" />
    <glyph glyph-name="acircumflex" unicode="&#xe2;" 
d="M237 -9q-69 0 -116 32.5t-66 93.5t-6 147q20 121 90 184t168 63q66 0 111 -34t55 -92l-11 -2l29 119h78q-7 -29 -14.5 -58.5t-11.5 -57.5l-61 -386h-81l19 120h15q-26 -60 -76.5 -94.5t-121.5 -34.5zM259 57q69 0 119 49t65 143q16 98 -20 147.5t-109 49.5
q-70 0 -119.5 -49t-64.5 -143q-15 -98 20 -147.5t109 -49.5zM191 551l131 202h77l89 -202h-56l-75 148l-109 -148h-57z" />
    <glyph glyph-name="atilde" unicode="&#xe3;" 
d="M237 -9q-69 0 -116 32.5t-66 93.5t-6 147q20 121 90 184t168 63q66 0 111 -34t55 -92l-11 -2l29 119h78q-7 -29 -14.5 -58.5t-11.5 -57.5l-61 -386h-81l19 120h15q-26 -60 -76.5 -94.5t-121.5 -34.5zM259 57q69 0 119 49t65 143q16 98 -20 147.5t-109 49.5
q-70 0 -119.5 -49t-64.5 -143q-15 -98 20 -147.5t109 -49.5zM213 590l-46 3q11 64 41 98.5t75 34.5q27 0 44.5 -13t33.5 -28q14 -14 28 -24.5t30 -10.5q51 0 69 79l47 -3q-10 -64 -40.5 -98.5t-74.5 -34.5q-26 0 -45 13.5t-35 28.5q-13 13 -26.5 23.5t-30.5 10.5
q-52 0 -70 -79z" />
    <glyph glyph-name="adieresis" unicode="&#xe4;" 
d="M237 -9q-69 0 -116 32.5t-66 93.5t-6 147q20 121 90 184t168 63q66 0 111 -34t55 -92l-11 -2l29 119h78q-7 -29 -14.5 -58.5t-11.5 -57.5l-61 -386h-81l19 120h15q-26 -60 -76.5 -94.5t-121.5 -34.5zM259 57q69 0 119 49t65 143q16 98 -20 147.5t-109 49.5
q-70 0 -119.5 -49t-64.5 -143q-15 -98 20 -147.5t109 -49.5zM395 609l13 86h87l-14 -86h-86zM221 609l13 86h86l-12 -86h-87z" />
    <glyph glyph-name="aring" unicode="&#xe5;" 
d="M237 -9q-69 0 -116 32.5t-66 93.5t-6 147q20 121 90 184t168 63q66 0 111 -34t55 -92l-11 -2l29 119h78q-7 -29 -14.5 -58.5t-11.5 -57.5l-61 -386h-81l19 120h15q-26 -60 -76.5 -94.5t-121.5 -34.5zM259 57q69 0 119 49t65 143q16 98 -20 147.5t-109 49.5
q-70 0 -119.5 -49t-64.5 -143q-15 -98 20 -147.5t109 -49.5zM360 547q-33 0 -60 15t-43 41.5t-16 58.5q0 33 16 59t43 41.5t60 15.5q34 0 60.5 -15.5t42.5 -41.5t16 -59q0 -32 -16 -58.5t-42.5 -41.5t-60.5 -15zM360 590q32 0 52 21t20 51q0 31 -20 51.5t-52 20.5
q-31 0 -51.5 -20.5t-20.5 -51.5q0 -30 20.5 -51t51.5 -21z" />
    <glyph glyph-name="ae" unicode="&#xe6;" horiz-adv-x="882" 
d="M209 -9q-59 0 -98.5 22.5t-56.5 60.5t-10 84q10 53 48.5 82.5t105.5 41.5t160 12h51l-7 -51h-53q-68 0 -117 -7.5t-77.5 -27.5t-34.5 -57q-7 -44 19.5 -71.5t80.5 -27.5q66 0 110.5 43t55.5 111l18 115q10 66 -18 95.5t-81 29.5q-49 0 -91 -12t-88 -39l-26 58
q29 19 63.5 32t71.5 19.5t73 6.5q81 0 120 -32.5t43 -92.5h-27q35 61 91 93t123 32q68 0 112 -30t62.5 -83.5t8.5 -124.5l-5 -29h-380l7 51h328l-18 -14q12 82 -18.5 126t-101.5 44q-50 0 -87.5 -23.5t-60.5 -64t-30 -91.5l-3 -24q-13 -92 26 -141.5t125 -49.5
q42 0 82.5 13.5t77.5 44.5l28 -57q-38 -32 -90.5 -49.5t-105.5 -17.5q-89 0 -142.5 41t-69.5 116h22q-27 -73 -82.5 -115t-133.5 -42z" />
    <glyph glyph-name="ccedilla" unicode="&#xe7;" horiz-adv-x="495" 
d="M258 -9q-75 0 -127 32.5t-73.5 94t-8.5 146.5q20 121 93 184t179 63q48 0 90.5 -15t69.5 -44l-32 -56q-26 25 -59.5 37t-65.5 12q-75 0 -126.5 -48t-66.5 -141q-15 -95 22.5 -146.5t114.5 -51.5q35 0 73 13t70 43l29 -58q-32 -30 -82.5 -47.5t-99.5 -17.5zM227 -192
q-26 0 -49 5t-39 14l18 44q17 -8 33 -12t39 -4q28 0 45 10t17 29q0 12 -9 19t-26 7q-10 0 -21 -1.5t-27 -7.5l-15 16l30 93h51l-25 -75l-24 6q13 3 24.5 5t21.5 2q34 0 55 -16t21 -47q0 -39 -34 -63t-86 -24z" />
    <glyph glyph-name="egrave" unicode="&#xe8;" horiz-adv-x="544" 
d="M273 -9q-83 0 -137.5 33.5t-76.5 96t-9 146.5q13 77 48.5 131.5t91 83.5t126.5 29q69 0 114.5 -30t64 -83.5t7.5 -124.5l-4 -29h-389l8 51h336l-18 -14q12 82 -19 126t-104 44q-53 0 -91 -23.5t-61 -64t-31 -91.5l-3 -24q-13 -92 26.5 -141.5t128.5 -49.5q44 0 86 13.5
t78 44.5l28 -57q-40 -32 -92 -49.5t-108 -17.5zM303 551l-141 202h85l114 -202h-58z" />
    <glyph glyph-name="eacute" unicode="&#xe9;" horiz-adv-x="544" 
d="M273 -9q-83 0 -137.5 33.5t-76.5 96t-9 146.5q13 77 48.5 131.5t91 83.5t126.5 29q69 0 114.5 -30t64 -83.5t7.5 -124.5l-4 -29h-389l8 51h336l-18 -14q12 82 -19 126t-104 44q-53 0 -91 -23.5t-61 -64t-31 -91.5l-3 -24q-13 -92 26.5 -141.5t128.5 -49.5q44 0 86 13.5
t78 44.5l28 -57q-40 -32 -92 -49.5t-108 -17.5zM304 551l134 202h88l-163 -202h-59z" />
    <glyph glyph-name="ecircumflex" unicode="&#xea;" horiz-adv-x="544" 
d="M273 -9q-83 0 -137.5 33.5t-76.5 96t-9 146.5q13 77 48.5 131.5t91 83.5t126.5 29q69 0 114.5 -30t64 -83.5t7.5 -124.5l-4 -29h-389l8 51h336l-18 -14q12 82 -19 126t-104 44q-53 0 -91 -23.5t-61 -64t-31 -91.5l-3 -24q-13 -92 26.5 -141.5t128.5 -49.5q44 0 86 13.5
t78 44.5l28 -57q-40 -32 -92 -49.5t-108 -17.5zM183 551l131 202h77l89 -202h-56l-75 148l-109 -148h-57z" />
    <glyph glyph-name="edieresis" unicode="&#xeb;" horiz-adv-x="544" 
d="M273 -9q-83 0 -137.5 33.5t-76.5 96t-9 146.5q13 77 48.5 131.5t91 83.5t126.5 29q69 0 114.5 -30t64 -83.5t7.5 -124.5l-4 -29h-389l8 51h336l-18 -14q12 82 -19 126t-104 44q-53 0 -91 -23.5t-61 -64t-31 -91.5l-3 -24q-13 -92 26.5 -141.5t128.5 -49.5q44 0 86 13.5
t78 44.5l28 -57q-40 -32 -92 -49.5t-108 -17.5zM387 609l13 86h87l-14 -86h-86zM213 609l13 86h86l-12 -86h-87z" />
    <glyph glyph-name="igrave" unicode="&#xec;" horiz-adv-x="238" 
d="M39 0l79 502h81l-79 -502h-81zM136 551l-141 202h85l114 -202h-58z" />
    <glyph glyph-name="iacute" unicode="&#xed;" horiz-adv-x="238" 
d="M39 0l79 502h81l-79 -502h-81zM137 551l134 202h88l-163 -202h-59z" />
    <glyph glyph-name="icircumflex" unicode="&#xee;" horiz-adv-x="238" 
d="M39 0l79 502h81l-79 -502h-81zM16 551l131 202h77l89 -202h-56l-75 148l-109 -148h-57z" />
    <glyph glyph-name="idieresis" unicode="&#xef;" horiz-adv-x="238" 
d="M39 0l79 502h81l-79 -502h-81zM220 609l13 86h87l-14 -86h-86zM46 609l13 86h86l-12 -86h-87z" />
    <glyph glyph-name="eth" unicode="&#xf0;" horiz-adv-x="576" 
d="M252 -9q-73 0 -123.5 30t-72.5 86t-10 131q10 66 45.5 116t90 77.5t121.5 27.5q75 0 123.5 -38t55.5 -116h-23q14 88 -8 166.5t-81 134.5h23l-210 -83l-18 42l182 72v-13q-28 21 -61 37.5t-71 26.5l23 55q58 -13 103.5 -35.5t80.5 -51.5l-21 3l125 49l18 -42l-105 -41
l2 13q42 -46 66 -104.5t30 -125t-6 -138.5q-21 -136 -93.5 -207.5t-185.5 -71.5zM256 57q72 0 121 45t61 122q13 79 -22 124t-108 45q-72 0 -120 -43t-62 -124q-13 -80 23 -124.5t107 -44.5z" />
    <glyph glyph-name="ntilde" unicode="&#xf1;" horiz-adv-x="586" 
d="M39 0l61 386q4 28 6.5 57.5t3.5 58.5h79l-8 -110l-14 -1q30 59 82.5 89.5t119.5 30.5q93 0 129 -52.5t20 -152.5l-48 -306h-81l48 305q12 75 -12.5 107.5t-84.5 32.5q-71 0 -117 -43t-57 -113l-46 -289h-81zM211 590l-46 3q11 64 41 98.5t75 34.5q27 0 44.5 -13t33.5 -28
q14 -14 28 -24.5t30 -10.5q51 0 69 79l47 -3q-10 -64 -40.5 -98.5t-74.5 -34.5q-26 0 -45 13.5t-35 28.5q-13 13 -26.5 23.5t-30.5 10.5q-52 0 -70 -79z" />
    <glyph glyph-name="ograve" unicode="&#xf2;" horiz-adv-x="571" 
d="M252 -9q-75 0 -125 32t-70.5 93t-7.5 148q13 80 50.5 135.5t93.5 83.5t126 28q76 0 125.5 -32t70 -92.5t6.5 -147.5q-13 -80 -50.5 -135.5t-93 -84t-125.5 -28.5zM258 57q69 0 118.5 49t64.5 143q16 98 -20 147.5t-108 49.5q-70 0 -119 -49t-64 -143q-15 -98 19.5 -147.5
t108.5 -49.5zM303 551l-141 202h85l114 -202h-58z" />
    <glyph glyph-name="oacute" unicode="&#xf3;" horiz-adv-x="571" 
d="M252 -9q-75 0 -125 32t-70.5 93t-7.5 148q13 80 50.5 135.5t93.5 83.5t126 28q76 0 125.5 -32t70 -92.5t6.5 -147.5q-13 -80 -50.5 -135.5t-93 -84t-125.5 -28.5zM258 57q69 0 118.5 49t64.5 143q16 98 -20 147.5t-108 49.5q-70 0 -119 -49t-64 -143q-15 -98 19.5 -147.5
t108.5 -49.5zM304 551l134 202h88l-163 -202h-59z" />
    <glyph glyph-name="ocircumflex" unicode="&#xf4;" horiz-adv-x="571" 
d="M252 -9q-75 0 -125 32t-70.5 93t-7.5 148q13 80 50.5 135.5t93.5 83.5t126 28q76 0 125.5 -32t70 -92.5t6.5 -147.5q-13 -80 -50.5 -135.5t-93 -84t-125.5 -28.5zM258 57q69 0 118.5 49t64.5 143q16 98 -20 147.5t-108 49.5q-70 0 -119 -49t-64 -143q-15 -98 19.5 -147.5
t108.5 -49.5zM183 551l131 202h77l89 -202h-56l-75 148l-109 -148h-57z" />
    <glyph glyph-name="otilde" unicode="&#xf5;" horiz-adv-x="571" 
d="M252 -9q-75 0 -125 32t-70.5 93t-7.5 148q13 80 50.5 135.5t93.5 83.5t126 28q76 0 125.5 -32t70 -92.5t6.5 -147.5q-13 -80 -50.5 -135.5t-93 -84t-125.5 -28.5zM258 57q69 0 118.5 49t64.5 143q16 98 -20 147.5t-108 49.5q-70 0 -119 -49t-64 -143q-15 -98 19.5 -147.5
t108.5 -49.5zM205 590l-46 3q11 64 41 98.5t75 34.5q27 0 44.5 -13t33.5 -28q14 -14 28 -24.5t30 -10.5q51 0 69 79l47 -3q-10 -64 -40.5 -98.5t-74.5 -34.5q-26 0 -45 13.5t-35 28.5q-13 13 -26.5 23.5t-30.5 10.5q-52 0 -70 -79z" />
    <glyph glyph-name="odieresis" unicode="&#xf6;" horiz-adv-x="571" 
d="M252 -9q-75 0 -125 32t-70.5 93t-7.5 148q13 80 50.5 135.5t93.5 83.5t126 28q76 0 125.5 -32t70 -92.5t6.5 -147.5q-13 -80 -50.5 -135.5t-93 -84t-125.5 -28.5zM258 57q69 0 118.5 49t64.5 143q16 98 -20 147.5t-108 49.5q-70 0 -119 -49t-64 -143q-15 -98 19.5 -147.5
t108.5 -49.5zM387 609l13 86h87l-14 -86h-86zM213 609l13 86h86l-12 -86h-87z" />
    <glyph glyph-name="divide" unicode="&#xf7;" 
d="M53 256l10 62h494l-10 -62h-494zM218 45l14 86h86l-14 -86h-86zM282 443l13 86h86l-13 -86h-86z" />
    <glyph glyph-name="oslash" unicode="&#xf8;" horiz-adv-x="571" 
d="M252 -9q-75 0 -125 32t-70.5 93t-7.5 148q13 80 50.5 135.5t93.5 83.5t126 28q76 0 125.5 -32t70 -92.5t6.5 -147.5q-13 -80 -50.5 -135.5t-93 -84t-125.5 -28.5zM258 57q72 0 122.5 49t65.5 144q16 95 -21 145.5t-112 50.5q-73 0 -123 -49t-64 -144q-15 -94 19.5 -145
t112.5 -51zM112 -32l-42 31l392 534l41 -30z" />
    <glyph glyph-name="ugrave" unicode="&#xf9;" horiz-adv-x="577" 
d="M223 -9q-88 0 -130 50t-26 155l48 306h81l-48 -302q-11 -75 13 -108.5t84 -33.5q68 0 112 43.5t55 115.5l45 285h81l-79 -502h-79l17 113h15q-28 -58 -77.5 -90t-111.5 -32zM306 552l-141 202h85l114 -202h-58z" />
    <glyph glyph-name="uacute" unicode="&#xfa;" horiz-adv-x="577" 
d="M223 -9q-88 0 -130 50t-26 155l48 306h81l-48 -302q-11 -75 13 -108.5t84 -33.5q68 0 112 43.5t55 115.5l45 285h81l-79 -502h-79l17 113h15q-28 -58 -77.5 -90t-111.5 -32zM307 552l134 202h88l-163 -202h-59z" />
    <glyph glyph-name="ucircumflex" unicode="&#xfb;" horiz-adv-x="577" 
d="M223 -9q-88 0 -130 50t-26 155l48 306h81l-48 -302q-11 -75 13 -108.5t84 -33.5q68 0 112 43.5t55 115.5l45 285h81l-79 -502h-79l17 113h15q-28 -58 -77.5 -90t-111.5 -32zM186 552l131 202h77l89 -202h-56l-75 148l-109 -148h-57z" />
    <glyph glyph-name="udieresis" unicode="&#xfc;" horiz-adv-x="577" 
d="M223 -9q-88 0 -130 50t-26 155l48 306h81l-48 -302q-11 -75 13 -108.5t84 -33.5q68 0 112 43.5t55 115.5l45 285h81l-79 -502h-79l17 113h15q-28 -58 -77.5 -90t-111.5 -32zM390 610l13 86h87l-14 -86h-86zM216 610l13 86h86l-12 -86h-87z" />
    <glyph glyph-name="yacute" unicode="&#xfd;" horiz-adv-x="531" 
d="M-15 -227l-15 67q49 11 83 25.5t59 38.5t47 60l34 59l-4 -34l-138 513h85l111 -441h-26l250 441h87l-317 -544q-29 -48 -57.5 -80.5t-59.5 -53t-65 -32.5t-74 -19zM283 551l134 202h88l-163 -202h-59z" />
    <glyph glyph-name="thorn" unicode="&#xfe;" 
d="M5 -216l151 952h81l-56 -351l-15 -2q26 59 76.5 93.5t121.5 34.5q70 0 116.5 -32.5t65.5 -93t5 -146.5q-19 -121 -89 -184.5t-168 -63.5q-67 0 -111.5 34t-54.5 93h11l-53 -334h-81zM287 57q70 0 119 49t64 143q16 98 -19 147.5t-109 49.5q-69 0 -119 -49t-65 -143
q-15 -98 20.5 -147.5t108.5 -49.5z" />
    <glyph glyph-name="ydieresis" unicode="&#xff;" horiz-adv-x="531" 
d="M-15 -227l-15 67q49 11 83 25.5t59 38.5t47 60l34 59l-4 -34l-138 513h85l111 -441h-26l250 441h87l-317 -544q-29 -48 -57.5 -80.5t-59.5 -53t-65 -32.5t-74 -19zM366 609l13 86h87l-14 -86h-86zM192 609l13 86h86l-12 -86h-87z" />
    <glyph glyph-name="Amacron" unicode="&#x100;" horiz-adv-x="735" 
d="M-22 0l423 705h72l204 -705h-82l-56 201l33 -21h-430l43 21l-118 -201h-89zM424 610l-221 -380l-21 18h371l-21 -18l-105 380h-3zM292 814l8 55h327l-9 -55h-326z" />
    <glyph glyph-name="amacron" unicode="&#x101;" 
d="M237 -9q-69 0 -116 32.5t-66 93.5t-6 147q20 121 90 184t168 63q66 0 111 -34t55 -92l-11 -2l29 119h78q-7 -29 -14.5 -58.5t-11.5 -57.5l-61 -386h-81l19 120h15q-26 -60 -76.5 -94.5t-121.5 -34.5zM259 57q69 0 119 49t65 143q16 98 -20 147.5t-109 49.5
q-70 0 -119.5 -49t-64.5 -143q-15 -98 20 -147.5t109 -49.5zM206 625l8 55h297l-9 -55h-296z" />
    <glyph glyph-name="Abreve" unicode="&#x102;" horiz-adv-x="735" 
d="M-22 0l423 705h72l204 -705h-82l-56 201l33 -21h-430l43 21l-118 -201h-89zM424 610l-221 -380l-21 18h371l-21 -18l-105 380h-3zM450 760q-46 0 -81 20.5t-54.5 58.5t-19.5 89l51 7q-2 -57 28 -89t80 -32q51 0 85 32t44 89l50 -7q-12 -78 -62 -123t-121 -45z" />
    <glyph glyph-name="abreve" unicode="&#x103;" 
d="M237 -9q-69 0 -116 32.5t-66 93.5t-6 147q20 121 90 184t168 63q66 0 111 -34t55 -92l-11 -2l29 119h78q-7 -29 -14.5 -58.5t-11.5 -57.5l-61 -386h-81l19 120h15q-26 -60 -76.5 -94.5t-121.5 -34.5zM259 57q69 0 119 49t65 143q16 98 -20 147.5t-109 49.5
q-70 0 -119.5 -49t-64.5 -143q-15 -98 20 -147.5t109 -49.5zM350 549q-44 0 -77 23t-49.5 65.5t-13.5 101.5l51 5q-3 -67 22 -103.5t70 -36.5q47 0 76.5 36.5t38.5 103.5l51 -5q-7 -59 -30 -101.5t-58 -65.5t-81 -23z" />
    <glyph glyph-name="Aogonek" unicode="&#x104;" horiz-adv-x="735" 
d="M-22 0l423 705h72l204 -705h-82l-56 201l33 -21h-430l43 21l-118 -201h-89zM424 610l-221 -380l-21 18h371l-21 -18l-105 380h-3zM623 -192q-47 0 -72 25t-25 65q0 46 30 82.5t76 55.5l26 -36q-38 -15 -56 -39.5t-18 -51.5q0 -23 13.5 -37t39.5 -14q13 0 26 3t28 9
l10 -47q-16 -6 -36 -10.5t-42 -4.5z" />
    <glyph glyph-name="aogonek" unicode="&#x105;" 
d="M237 -9q-69 0 -116 32.5t-66 93.5t-6 147q20 121 90 184t168 63q66 0 111 -34t55 -92l-11 -2l29 119h78q-7 -29 -14.5 -58.5t-11.5 -57.5l-61 -386h-81l19 120h15q-26 -60 -76.5 -94.5t-121.5 -34.5zM259 57q69 0 119 49t65 143q16 98 -20 147.5t-109 49.5
q-70 0 -119.5 -49t-64.5 -143q-15 -98 20 -147.5t109 -49.5zM437 -192q-47 0 -72 25t-25 65q0 46 30 82.5t76 55.5l26 -36q-38 -15 -56 -39.5t-18 -51.5q0 -23 13.5 -37t39.5 -14q13 0 26 3t28 9l10 -47q-16 -6 -36 -10.5t-42 -4.5z" />
    <glyph glyph-name="Cacute" unicode="&#x106;" horiz-adv-x="684" 
d="M372 -9q-115 0 -186 47t-97.5 131.5t-9.5 195.5q18 112 69 189.5t130 118.5t181 41q72 0 127.5 -21t94.5 -60l-34 -68q-43 41 -87.5 57.5t-104.5 16.5q-118 0 -193 -74t-96 -209q-14 -87 4 -152.5t70.5 -101.5t138.5 -36q56 0 109.5 19t100.5 62l29 -66
q-47 -43 -112 -66.5t-134 -23.5zM443 765l131 172h92l-161 -172h-62z" />
    <glyph glyph-name="cacute" unicode="&#x107;" horiz-adv-x="495" 
d="M258 -9q-75 0 -127 32.5t-73.5 94t-8.5 146.5q20 121 93 184t179 63q48 0 90.5 -15t69.5 -44l-32 -56q-26 25 -59.5 37t-65.5 12q-75 0 -126.5 -48t-66.5 -141q-15 -95 22.5 -146.5t114.5 -51.5q35 0 73 13t70 43l29 -58q-32 -30 -82.5 -47.5t-99.5 -17.5zM305 551
l134 202h88l-163 -202h-59z" />
    <glyph glyph-name="Ccircumflex" unicode="&#x108;" horiz-adv-x="684" 
d="M372 -9q-115 0 -186 47t-97.5 131.5t-9.5 195.5q18 112 69 189.5t130 118.5t181 41q72 0 127.5 -21t94.5 -60l-34 -68q-43 41 -87.5 57.5t-104.5 16.5q-118 0 -193 -74t-96 -209q-14 -87 4 -152.5t70.5 -101.5t138.5 -36q56 0 109.5 19t100.5 62l29 -66
q-47 -43 -112 -66.5t-134 -23.5zM305 765l141 172h76l105 -172h-61l-86 119l-114 -119h-61z" />
    <glyph glyph-name="ccircumflex" unicode="&#x109;" horiz-adv-x="495" 
d="M258 -9q-75 0 -127 32.5t-73.5 94t-8.5 146.5q20 121 93 184t179 63q48 0 90.5 -15t69.5 -44l-32 -56q-26 25 -59.5 37t-65.5 12q-75 0 -126.5 -48t-66.5 -141q-15 -95 22.5 -146.5t114.5 -51.5q35 0 73 13t70 43l29 -58q-32 -30 -82.5 -47.5t-99.5 -17.5zM183 551
l131 202h77l89 -202h-56l-75 148l-109 -148h-57z" />
    <glyph glyph-name="Cdotaccent" unicode="&#x10a;" horiz-adv-x="684" 
d="M372 -9q-115 0 -186 47t-97.5 131.5t-9.5 195.5q18 112 69 189.5t130 118.5t181 41q72 0 127.5 -21t94.5 -60l-34 -68q-43 41 -87.5 57.5t-104.5 16.5q-118 0 -193 -74t-96 -209q-14 -87 4 -152.5t70.5 -101.5t138.5 -36q56 0 109.5 19t100.5 62l29 -66
q-47 -43 -112 -66.5t-134 -23.5zM434 807l14 88h90l-14 -88h-90z" />
    <glyph glyph-name="cdotaccent" unicode="&#x10b;" horiz-adv-x="495" 
d="M258 -9q-75 0 -127 32.5t-73.5 94t-8.5 146.5q20 121 93 184t179 63q48 0 90.5 -15t69.5 -44l-32 -56q-26 25 -59.5 37t-65.5 12q-75 0 -126.5 -48t-66.5 -141q-15 -95 22.5 -146.5t114.5 -51.5q35 0 73 13t70 43l29 -58q-32 -30 -82.5 -47.5t-99.5 -17.5zM297 609l15 88
h91l-14 -88h-92z" />
    <glyph glyph-name="Ccaron" unicode="&#x10c;" horiz-adv-x="684" 
d="M372 -9q-115 0 -186 47t-97.5 131.5t-9.5 195.5q18 112 69 189.5t130 118.5t181 41q72 0 127.5 -21t94.5 -60l-34 -68q-43 41 -87.5 57.5t-104.5 16.5q-118 0 -193 -74t-96 -209q-14 -87 4 -152.5t70.5 -101.5t138.5 -36q56 0 109.5 19t100.5 62l29 -66
q-47 -43 -112 -66.5t-134 -23.5zM436 765l-106 172h60l85 -119l114 119h63l-140 -172h-76z" />
    <glyph glyph-name="ccaron" unicode="&#x10d;" horiz-adv-x="495" 
d="M258 -9q-75 0 -127 32.5t-73.5 94t-8.5 146.5q20 121 93 184t179 63q48 0 90.5 -15t69.5 -44l-32 -56q-26 25 -59.5 37t-65.5 12q-75 0 -126.5 -48t-66.5 -141q-15 -95 22.5 -146.5t114.5 -51.5q35 0 73 13t70 43l29 -58q-32 -30 -82.5 -47.5t-99.5 -17.5zM296 551
l-89 202h56l74 -148l110 148h57l-131 -202h-77z" />
    <glyph glyph-name="Dcaron" unicode="&#x10e;" horiz-adv-x="747" 
d="M48 0l112 705h226q123 0 198 -43.5t104 -125t11 -195.5q-28 -171 -134.5 -256t-280.5 -85h-236zM142 71h145q144 0 225.5 68.5t103.5 210.5q22 144 -37.5 214.5t-203.5 70.5h-144zM424 765l-106 172h60l85 -119l114 119h63l-140 -172h-76z" />
    <glyph glyph-name="dcaron" unicode="&#x10f;" 
d="M237 -9q-69 0 -116 32.5t-66 93.5t-6 147q20 121 90 184t168 63q66 0 111 -34t55 -92h-11l56 351h81l-117 -736h-80l19 120h14q-26 -60 -76.5 -94.5t-121.5 -34.5zM259 57q69 0 119 49t65 143q16 98 -20 147.5t-109 49.5q-70 0 -119.5 -49t-64.5 -143q-15 -98 20 -147.5
t109 -49.5zM618 546l30 190h65l-54 -190h-41z" />
    <glyph glyph-name="Dcroat" unicode="&#x110;" horiz-adv-x="747" 
d="M48 0l112 705h226q123 0 198 -43.5t104 -125t11 -195.5q-28 -171 -134.5 -256t-280.5 -85h-236zM142 71h145q144 0 225.5 68.5t103.5 210.5q22 144 -37.5 214.5t-203.5 70.5h-144zM14 326l10 64h367l-10 -64h-367z" />
    <glyph glyph-name="dcroat" unicode="&#x111;" 
d="M237 -9q-69 0 -116 32t-66 92t-6 145q20 119 90 181.5t168 62.5q66 0 111 -34t55 -92l-11 7l32 197h-195l10 61h194l15 93h81l-15 -93h94l-10 -61h-94l-92 -582h-80l19 120l14 -2q-26 -59 -76.5 -93t-121.5 -34zM259 57q69 0 119 48t65 140q16 95 -20 144t-109 49
q-70 0 -119.5 -48t-64.5 -140q-15 -95 20 -144t109 -49z" />
    <glyph glyph-name="Emacron" unicode="&#x112;" horiz-adv-x="588" 
d="M48 0l112 705h450l-11 -68h-370l-38 -245h347l-11 -69h-347l-41 -254h370l-11 -69h-450zM254 814l8 55h327l-9 -55h-326z" />
    <glyph glyph-name="emacron" unicode="&#x113;" horiz-adv-x="544" 
d="M273 -9q-83 0 -137.5 33.5t-76.5 96t-9 146.5q13 77 48.5 131.5t91 83.5t126.5 29q69 0 114.5 -30t64 -83.5t7.5 -124.5l-4 -29h-389l8 51h336l-18 -14q12 82 -19 126t-104 44q-53 0 -91 -23.5t-61 -64t-31 -91.5l-3 -24q-13 -92 26.5 -141.5t128.5 -49.5q44 0 86 13.5
t78 44.5l28 -57q-40 -32 -92 -49.5t-108 -17.5zM198 625l8 55h297l-9 -55h-296z" />
    <glyph glyph-name="Ebreve" unicode="&#x114;" horiz-adv-x="588" 
d="M48 0l112 705h450l-11 -68h-370l-38 -245h347l-11 -69h-347l-41 -254h370l-11 -69h-450zM412 760q-46 0 -81 20.5t-54.5 58.5t-19.5 89l51 7q-2 -57 28 -89t80 -32q51 0 85 32t44 89l50 -7q-12 -78 -62 -123t-121 -45z" />
    <glyph glyph-name="ebreve" unicode="&#x115;" horiz-adv-x="544" 
d="M273 -9q-83 0 -137.5 33.5t-76.5 96t-9 146.5q13 77 48.5 131.5t91 83.5t126.5 29q69 0 114.5 -30t64 -83.5t7.5 -124.5l-4 -29h-389l8 51h336l-18 -14q12 82 -19 126t-104 44q-53 0 -91 -23.5t-61 -64t-31 -91.5l-3 -24q-13 -92 26.5 -141.5t128.5 -49.5q44 0 86 13.5
t78 44.5l28 -57q-40 -32 -92 -49.5t-108 -17.5zM342 549q-44 0 -77 23t-49.5 65.5t-13.5 101.5l51 5q-3 -67 22 -103.5t70 -36.5q47 0 76.5 36.5t38.5 103.5l51 -5q-7 -59 -30 -101.5t-58 -65.5t-81 -23z" />
    <glyph glyph-name="Edotaccent" unicode="&#x116;" horiz-adv-x="588" 
d="M48 0l112 705h450l-11 -68h-370l-38 -245h347l-11 -69h-347l-41 -254h370l-11 -69h-450zM370 807l14 88h90l-14 -88h-90z" />
    <glyph glyph-name="edotaccent" unicode="&#x117;" horiz-adv-x="544" 
d="M273 -9q-83 0 -137.5 33.5t-76.5 96t-9 146.5q13 77 48.5 131.5t91 83.5t126.5 29q69 0 114.5 -30t64 -83.5t7.5 -124.5l-4 -29h-389l8 51h336l-18 -14q12 82 -19 126t-104 44q-53 0 -91 -23.5t-61 -64t-31 -91.5l-3 -24q-13 -92 26.5 -141.5t128.5 -49.5q44 0 86 13.5
t78 44.5l28 -57q-40 -32 -92 -49.5t-108 -17.5zM296 609l15 88h91l-14 -88h-92z" />
    <glyph glyph-name="Eogonek" unicode="&#x118;" horiz-adv-x="588" 
d="M48 0l112 705h450l-11 -68h-370l-38 -245h347l-11 -69h-347l-41 -254h370l-11 -69h-450zM430 -192q-47 0 -72 25t-25 65q0 46 30 82.5t76 55.5l26 -36q-38 -15 -56 -39.5t-18 -51.5q0 -23 13.5 -37t39.5 -14q13 0 26 3t28 9l10 -47q-16 -6 -36 -10.5t-42 -4.5z" />
    <glyph glyph-name="eogonek" unicode="&#x119;" horiz-adv-x="544" 
d="M273 -9q-83 0 -137.5 33.5t-76.5 96t-9 146.5q13 77 48.5 131.5t91 83.5t126.5 29q69 0 114.5 -30t64 -83.5t7.5 -124.5l-4 -29h-389l8 51h336l-18 -14q12 82 -19 126t-104 44q-53 0 -91 -23.5t-61 -64t-31 -91.5l-3 -24q-13 -92 26.5 -141.5t128.5 -49.5q44 0 86 13.5
t78 44.5l28 -57q-40 -32 -92 -49.5t-108 -17.5zM295 -192q-47 0 -72 25t-25 65q0 46 30 82.5t76 55.5l26 -36q-38 -15 -56 -39.5t-18 -51.5q0 -23 13.5 -37t39.5 -14q13 0 26 3t28 9l10 -47q-16 -6 -36 -10.5t-42 -4.5z" />
    <glyph glyph-name="Ecaron" unicode="&#x11a;" horiz-adv-x="588" 
d="M48 0l112 705h450l-11 -68h-370l-38 -245h347l-11 -69h-347l-41 -254h370l-11 -69h-450zM372 765l-106 172h60l85 -119l114 119h63l-140 -172h-76z" />
    <glyph glyph-name="ecaron" unicode="&#x11b;" horiz-adv-x="544" 
d="M273 -9q-83 0 -137.5 33.5t-76.5 96t-9 146.5q13 77 48.5 131.5t91 83.5t126.5 29q69 0 114.5 -30t64 -83.5t7.5 -124.5l-4 -29h-389l8 51h336l-18 -14q12 82 -19 126t-104 44q-53 0 -91 -23.5t-61 -64t-31 -91.5l-3 -24q-13 -92 26.5 -141.5t128.5 -49.5q44 0 86 13.5
t78 44.5l28 -57q-40 -32 -92 -49.5t-108 -17.5zM296 551l-89 202h56l74 -148l110 148h57l-131 -202h-77z" />
    <glyph glyph-name="Gcircumflex" unicode="&#x11c;" horiz-adv-x="731" 
d="M381 -9q-121 0 -194 46t-99 130t-8 197q18 112 70 190t134 119t188 41q77 0 130.5 -20t91.5 -57l-35 -67q-41 37 -83 53.5t-108 16.5q-125 0 -203 -75t-99 -212q-22 -135 30.5 -212t190.5 -77q51 0 97 10t92 29l-27 -47l39 248h-180l10 65h252l-52 -325
q-29 -16 -69.5 -28t-84 -18.5t-83.5 -6.5zM313 765l141 172h76l105 -172h-61l-86 119l-114 -119h-61z" />
    <glyph glyph-name="gcircumflex" unicode="&#x11d;" horiz-adv-x="603" 
d="M228 -223q-64 0 -116 16t-91 49l29 61q27 -22 55 -35t59 -19.5t67 -6.5q76 0 119 39t55 111l23 147h11q-24 -59 -76.5 -93t-120.5 -34q-69 0 -116.5 32.5t-67 91.5t-7.5 138q19 115 88.5 176t169.5 61q69 0 114 -34t53 -94l-8 10l27 109h78q-8 -29 -15 -58.5t-11 -57.5
l-61 -383q-17 -112 -82 -169t-176 -57zM261 77q73 0 122.5 48.5t62.5 135.5q14 89 -21 137t-107 48q-73 0 -123 -48t-64 -136t21.5 -136.5t108.5 -48.5zM202 551l131 202h77l89 -202h-56l-75 148l-109 -148h-57z" />
    <glyph glyph-name="Gbreve" unicode="&#x11e;" horiz-adv-x="731" 
d="M381 -9q-121 0 -194 46t-99 130t-8 197q18 112 70 190t134 119t188 41q77 0 130.5 -20t91.5 -57l-35 -67q-41 37 -83 53.5t-108 16.5q-125 0 -203 -75t-99 -212q-22 -135 30.5 -212t190.5 -77q51 0 97 10t92 29l-27 -47l39 248h-180l10 65h252l-52 -325
q-29 -16 -69.5 -28t-84 -18.5t-83.5 -6.5zM484 760q-46 0 -81 20.5t-54.5 58.5t-19.5 89l51 7q-2 -57 28 -89t80 -32q51 0 85 32t44 89l50 -7q-12 -78 -62 -123t-121 -45z" />
    <glyph glyph-name="gbreve" unicode="&#x11f;" horiz-adv-x="603" 
d="M228 -223q-64 0 -116 16t-91 49l29 61q27 -22 55 -35t59 -19.5t67 -6.5q76 0 119 39t55 111l23 147h11q-24 -59 -76.5 -93t-120.5 -34q-69 0 -116.5 32.5t-67 91.5t-7.5 138q19 115 88.5 176t169.5 61q69 0 114 -34t53 -94l-8 10l27 109h78q-8 -29 -15 -58.5t-11 -57.5
l-61 -383q-17 -112 -82 -169t-176 -57zM261 77q73 0 122.5 48.5t62.5 135.5q14 89 -21 137t-107 48q-73 0 -123 -48t-64 -136t21.5 -136.5t108.5 -48.5zM360 549q-44 0 -77 23t-49.5 65.5t-13.5 101.5l51 5q-3 -67 22 -103.5t70 -36.5q47 0 76.5 36.5t38.5 103.5l51 -5
q-7 -59 -30 -101.5t-58 -65.5t-81 -23z" />
    <glyph glyph-name="Gdotaccent" unicode="&#x120;" horiz-adv-x="731" 
d="M381 -9q-121 0 -194 46t-99 130t-8 197q18 112 70 190t134 119t188 41q77 0 130.5 -20t91.5 -57l-35 -67q-41 37 -83 53.5t-108 16.5q-125 0 -203 -75t-99 -212q-22 -135 30.5 -212t190.5 -77q51 0 97 10t92 29l-27 -47l39 248h-180l10 65h252l-52 -325
q-29 -16 -69.5 -28t-84 -18.5t-83.5 -6.5zM442 807l14 88h90l-14 -88h-90z" />
    <glyph glyph-name="gdotaccent" unicode="&#x121;" horiz-adv-x="603" 
d="M228 -223q-64 0 -116 16t-91 49l29 61q27 -22 55 -35t59 -19.5t67 -6.5q76 0 119 39t55 111l23 147h11q-24 -59 -76.5 -93t-120.5 -34q-69 0 -116.5 32.5t-67 91.5t-7.5 138q19 115 88.5 176t169.5 61q69 0 114 -34t53 -94l-8 10l27 109h78q-8 -29 -15 -58.5t-11 -57.5
l-61 -383q-17 -112 -82 -169t-176 -57zM261 77q73 0 122.5 48.5t62.5 135.5q14 89 -21 137t-107 48q-73 0 -123 -48t-64 -136t21.5 -136.5t108.5 -48.5zM315 609l15 88h91l-14 -88h-92z" />
    <glyph glyph-name="uni0122" unicode="&#x122;" horiz-adv-x="731" 
d="M381 -9q-121 0 -194 46t-99 130t-8 197q18 112 70 190t134 119t188 41q77 0 130.5 -20t91.5 -57l-35 -67q-41 37 -83 53.5t-108 16.5q-125 0 -203 -75t-99 -212q-22 -135 30.5 -212t190.5 -77q51 0 97 10t92 29l-27 -47l39 248h-180l10 65h252l-52 -325
q-29 -16 -69.5 -28t-84 -18.5t-83.5 -6.5zM329 -268l-28 29q26 21 34.5 41t13.5 46l18 -10h-70l14 82h99l-11 -68q-7 -39 -22 -68.5t-48 -51.5z" />
    <glyph glyph-name="uni0123" unicode="&#x123;" horiz-adv-x="603" 
d="M228 -223q-64 0 -116 16t-91 49l29 61q27 -22 55 -35t59 -19.5t67 -6.5q76 0 119 39t55 111l23 147h11q-24 -59 -76.5 -93t-120.5 -34q-69 0 -116.5 32.5t-67 91.5t-7.5 138q19 115 88.5 176t169.5 61q69 0 114 -34t53 -94l-8 10l27 109h78q-8 -29 -15 -58.5t-11 -57.5
l-61 -383q-17 -112 -82 -169t-176 -57zM261 77q73 0 122.5 48.5t62.5 135.5q14 89 -21 137t-107 48q-73 0 -123 -48t-64 -136t21.5 -136.5t108.5 -48.5zM306 567l11 68q7 40 22 69t48 51l28 -28q-26 -21 -34.5 -41t-13.5 -47l-18 11h69l-13 -83h-99z" />
    <glyph glyph-name="Hcircumflex" unicode="&#x124;" horiz-adv-x="766" 
d="M48 0l112 705h83l-50 -312h425l50 312h82l-112 -705h-82l51 322h-425l-51 -322h-83zM297 765l141 172h76l105 -172h-61l-86 119l-114 -119h-61z" />
    <glyph glyph-name="hcircumflex" unicode="&#x125;" horiz-adv-x="586" 
d="M39 0l117 736h81l-56 -345h-14q30 59 82.5 89.5t119.5 30.5q93 0 129 -52.5t20 -152.5l-48 -306h-81l48 305q12 75 -12 107.5t-85 32.5q-71 0 -117 -43t-57 -113l-46 -289h-81zM211 773l141 172h76l105 -172h-61l-86 119l-114 -119h-61z" />
    <glyph glyph-name="Hbar" unicode="&#x126;" horiz-adv-x="792" 
d="M62 0l82 519h-93l10 65h93l20 121h83l-20 -121h423l20 121h83l-20 -121h92l-10 -65h-93l-81 -519h-83l50 316h-423l-50 -316h-83zM206 388h423l21 131h-424z" />
    <glyph glyph-name="hbar" unicode="&#x127;" horiz-adv-x="586" 
d="M39 0l92 582h-96l10 61h96l15 93h81l-15 -93h199l-10 -61h-199l-31 -196h-14q30 59 82.5 89.5t119.5 30.5q92 0 128 -52.5t20 -152.5l-47 -301h-81l47 300q13 75 -11.5 107t-85.5 32q-71 0 -117 -42.5t-57 -113.5l-45 -283h-81z" />
    <glyph glyph-name="Itilde" unicode="&#x128;" horiz-adv-x="259" 
d="M48 0l112 705h83l-112 -705h-83zM47 783l-46 3q11 64 44 98.5t83 34.5q29 0 54.5 -13t48.5 -29q20 -13 38 -23.5t37 -10.5q58 0 77 79l46 -3q-11 -64 -44 -98.5t-82 -34.5q-29 0 -55 13.5t-49 28.5q-19 13 -38 23.5t-37 10.5q-58 0 -77 -79z" />
    <glyph glyph-name="itilde" unicode="&#x129;" horiz-adv-x="238" 
d="M39 0l79 502h81l-79 -502h-81zM38 590l-46 3q11 64 41 98.5t75 34.5q27 0 44.5 -13t33.5 -28q14 -14 28 -24.5t30 -10.5q51 0 69 79l47 -3q-10 -64 -40.5 -98.5t-74.5 -34.5q-26 0 -45 13.5t-35 28.5q-13 13 -26.5 23.5t-30.5 10.5q-52 0 -70 -79z" />
    <glyph glyph-name="Imacron" unicode="&#x12a;" horiz-adv-x="259" 
d="M48 0l112 705h83l-112 -705h-83zM56 814l8 55h327l-9 -55h-326z" />
    <glyph glyph-name="imacron" unicode="&#x12b;" horiz-adv-x="238" 
d="M39 0l79 502h81l-79 -502h-81zM31 625l8 55h297l-9 -55h-296z" />
    <glyph glyph-name="Ibreve" unicode="&#x12c;" horiz-adv-x="259" 
d="M48 0l112 705h83l-112 -705h-83zM213 760q-46 0 -81 20.5t-54.5 58.5t-19.5 89l51 7q-2 -57 28 -89t80 -32q51 0 85 32t44 89l50 -7q-12 -78 -62 -123t-121 -45z" />
    <glyph glyph-name="ibreve" unicode="&#x12d;" horiz-adv-x="238" 
d="M39 0l79 502h81l-79 -502h-81zM175 549q-44 0 -77 23t-49.5 65.5t-13.5 101.5l51 5q-3 -67 22 -103.5t70 -36.5q47 0 76.5 36.5t38.5 103.5l51 -5q-7 -59 -30 -101.5t-58 -65.5t-81 -23z" />
    <glyph glyph-name="Iogonek" unicode="&#x12e;" horiz-adv-x="259" 
d="M48 0l112 705h83l-112 -705h-83zM83 -192q-47 0 -72 25t-25 65q0 46 30 82.5t76 55.5l26 -36q-38 -15 -56 -39.5t-18 -51.5q0 -23 13.5 -37t39.5 -14q13 0 26 3t28 9l10 -47q-16 -6 -36 -10.5t-42 -4.5z" />
    <glyph glyph-name="iogonek" unicode="&#x12f;" horiz-adv-x="238" 
d="M39 0l79 502h81l-79 -502h-81zM127 616l14 91h100l-14 -91h-100zM74 -192q-47 0 -72 25t-25 65q0 46 30 82.5t76 55.5l26 -36q-38 -15 -56 -39.5t-18 -51.5q0 -23 13.5 -37t39.5 -14q13 0 26 3t28 9l10 -47q-16 -6 -36 -10.5t-42 -4.5z" />
    <glyph glyph-name="Idotaccent" unicode="&#x130;" horiz-adv-x="259" 
d="M48 0l112 705h83l-112 -705h-83zM172 807l14 88h90l-14 -88h-90z" />
    <glyph glyph-name="dotlessi" unicode="&#x131;" horiz-adv-x="238" 
d="M39 0l79 502h81l-79 -502h-81z" />
    <glyph glyph-name="IJ" unicode="&#x132;" horiz-adv-x="588" 
d="M48 0l112 705h83l-112 -705h-83zM269 -186q-17 0 -37 2t-41 9l11 69q19 -7 35 -9.5t30 -2.5q46 0 73.5 28.5t36.5 90.5l112 704h83l-113 -710q-9 -60 -33 -100.5t-62.5 -60.5t-94.5 -20z" />
    <glyph glyph-name="Jcircumflex" unicode="&#x134;" horiz-adv-x="329" 
d="M10 -186q-17 0 -37 2t-41 9l11 69q19 -7 35 -9.5t30 -2.5q46 0 73.5 28.5t36.5 90.5l112 704h83l-113 -710q-9 -60 -33 -100.5t-62.5 -60.5t-94.5 -20zM113 765l141 172h76l105 -172h-61l-86 119l-114 -119h-61z" />
    <glyph glyph-name="jcircumflex" unicode="&#x135;" horiz-adv-x="238" 
d="M-62 -220q-14 0 -33.5 3.5t-33.5 8.5l11 68q12 -4 27 -7.5t29 -3.5q41 0 66.5 26.5t34.5 86.5l85 540h81l-87 -548q-13 -86 -58 -130t-122 -44zM22 551l131 202h77l89 -202h-56l-75 148l-109 -148h-57z" />
    <glyph glyph-name="uni0136" unicode="&#x136;" horiz-adv-x="634" 
d="M48 0l112 705h83l-51 -320h2l385 320h110l-442 -364l-2 42l360 -383h-106l-313 332h-2l-53 -332h-83zM239 -268l-28 29q26 21 34.5 41t13.5 46l18 -10h-70l14 82h99l-11 -68q-7 -39 -22 -68.5t-48 -51.5z" />
    <glyph glyph-name="uni0137" unicode="&#x137;" horiz-adv-x="515" 
d="M39 0l117 736h81l-73 -457h2l264 223h106l-312 -262v41l259 -281h-101l-223 236h-2l-37 -236h-81zM173 -268l-28 29q26 21 34.5 41t13.5 46l18 -10h-70l14 82h99l-11 -68q-7 -39 -22 -68.5t-48 -51.5z" />
    <glyph glyph-name="kgreenlandic" unicode="&#x138;" horiz-adv-x="515" 
d="M39 0l79 502h81l-35 -223h2l264 223h106l-312 -262v41l259 -281h-101l-223 236h-2l-37 -236h-81z" />
    <glyph glyph-name="Lacute" unicode="&#x139;" horiz-adv-x="545" 
d="M48 0l112 705h83l-101 -633h357l-12 -72h-439zM180 765l131 172h92l-161 -172h-62z" />
    <glyph glyph-name="lacute" unicode="&#x13a;" horiz-adv-x="238" 
d="M39 0l117 736h81l-117 -736h-81zM171 773l131 172h92l-161 -172h-62z" />
    <glyph glyph-name="uni013B" unicode="&#x13b;" horiz-adv-x="545" 
d="M48 0l112 705h83l-101 -633h357l-12 -72h-439zM224 -268l-28 29q26 21 34.5 41t13.5 46l18 -10h-70l14 82h99l-11 -68q-7 -39 -22 -68.5t-48 -51.5z" />
    <glyph glyph-name="uni013C" unicode="&#x13c;" horiz-adv-x="238" 
d="M39 0l117 736h81l-117 -736h-81zM35 -268l-28 29q26 21 34.5 41t13.5 46l18 -10h-70l14 82h99l-11 -68q-7 -39 -22 -68.5t-48 -51.5z" />
    <glyph glyph-name="Lcaron" unicode="&#x13d;" horiz-adv-x="545" 
d="M48 0l112 705h83l-101 -633h357l-12 -72h-439zM319 480l35 225h72l-57 -225h-50z" />
    <glyph glyph-name="lcaron" unicode="&#x13e;" horiz-adv-x="238" 
d="M39 0l117 736h81l-117 -736h-81zM254 546l30 190h65l-54 -190h-41z" />
    <glyph glyph-name="Ldot" unicode="&#x13f;" horiz-adv-x="545" 
d="M48 0l112 705h83l-101 -633h357l-12 -72h-439zM367 342l15 94h103l-15 -94h-103z" />
    <glyph glyph-name="ldot" unicode="&#x140;" horiz-adv-x="238" 
d="M39 0l117 736h81l-117 -736h-81zM221 308l15 94h103l-15 -94h-103z" />
    <glyph glyph-name="Lslash" unicode="&#x141;" horiz-adv-x="545" 
d="M48 0l112 705h83l-101 -633h357l-12 -72h-439zM17 271l-28 60l377 175l28 -60z" />
    <glyph glyph-name="lslash" unicode="&#x142;" horiz-adv-x="238" 
d="M39 0l117 736h81l-117 -736h-81zM12 265l-28 60l282 135l28 -61z" />
    <glyph glyph-name="Nacute" unicode="&#x143;" horiz-adv-x="747" 
d="M48 0l112 705h65l353 -603l-19 3l95 600h77l-112 -705h-64l-353 603l18 -3l-95 -600h-77zM426 765l131 172h92l-161 -172h-62z" />
    <glyph glyph-name="nacute" unicode="&#x144;" horiz-adv-x="586" 
d="M39 0l61 386q4 28 6.5 57.5t3.5 58.5h79l-8 -110l-14 -1q30 59 82.5 89.5t119.5 30.5q93 0 129 -52.5t20 -152.5l-48 -306h-81l48 305q12 75 -12.5 107.5t-84.5 32.5q-71 0 -117 -43t-57 -113l-46 -289h-81zM310 551l134 202h88l-163 -202h-59z" />
    <glyph glyph-name="uni0145" unicode="&#x145;" horiz-adv-x="747" 
d="M48 0l112 705h65l353 -603l-19 3l95 600h77l-112 -705h-64l-353 603l18 -3l-95 -600h-77zM291 -268l-28 29q26 21 34.5 41t13.5 46l18 -10h-70l14 82h99l-11 -68q-7 -39 -22 -68.5t-48 -51.5z" />
    <glyph glyph-name="uni0146" unicode="&#x146;" horiz-adv-x="586" 
d="M39 0l61 386q4 28 6.5 57.5t3.5 58.5h79l-8 -110l-14 -1q30 59 82.5 89.5t119.5 30.5q93 0 129 -52.5t20 -152.5l-48 -306h-81l48 305q12 75 -12.5 107.5t-84.5 32.5q-71 0 -117 -43t-57 -113l-46 -289h-81zM209 -268l-28 29q26 21 34.5 41t13.5 46l18 -10h-70l14 82h99
l-11 -68q-7 -39 -22 -68.5t-48 -51.5z" />
    <glyph glyph-name="Ncaron" unicode="&#x147;" horiz-adv-x="747" 
d="M48 0l112 705h65l353 -603l-19 3l95 600h77l-112 -705h-64l-353 603l18 -3l-95 -600h-77zM419 765l-106 172h60l85 -119l114 119h63l-140 -172h-76z" />
    <glyph glyph-name="ncaron" unicode="&#x148;" horiz-adv-x="586" 
d="M39 0l61 386q4 28 6.5 57.5t3.5 58.5h79l-8 -110l-14 -1q30 59 82.5 89.5t119.5 30.5q93 0 129 -52.5t20 -152.5l-48 -306h-81l48 305q12 75 -12.5 107.5t-84.5 32.5q-71 0 -117 -43t-57 -113l-46 -289h-81zM302 551l-89 202h56l74 -148l110 148h57l-131 -202h-77z" />
    <glyph glyph-name="napostrophe" unicode="&#x149;" horiz-adv-x="675" 
d="M172 571l-32 26q24 22 33 42.5t12 39.5l22 -10h-70l14 86h97l-11 -65q-5 -36 -19 -64t-46 -55zM128 0l61 386q4 28 6.5 57.5t3.5 58.5h79l-8 -110l-14 -1q30 59 82.5 89.5t119.5 30.5q93 0 129 -52.5t20 -152.5l-48 -306h-81l48 305q12 75 -12.5 107.5t-84.5 32.5
q-71 0 -117 -43t-57 -113l-46 -289h-81z" />
    <glyph glyph-name="Eng" unicode="&#x14a;" horiz-adv-x="747" 
d="M372 -193l4 63l47 4q49 3 78.5 31.5t38.5 79.5l8 53l7 -38l-353 603l18 -3l-95 -600h-77l112 705h65l353 -603l-19 3l95 600h77l-113 -714q-9 -57 -34 -96.5t-66 -60t-100 -24.5z" />
    <glyph glyph-name="eng" unicode="&#x14b;" horiz-adv-x="586" 
d="M39 0l61 386q4 28 6.5 57.5t3.5 58.5h79l-8 -110l-14 -1q30 59 82.5 89.5t119.5 30.5q93 0 129 -52.5t20 -152.5l-55 -348q-15 -85 -62.5 -131.5t-128.5 -46.5q-19 0 -36.5 3.5t-31.5 8.5l12 68q11 -4 23.5 -7.5t31.5 -3.5q46 0 74.5 29t37.5 88l54 339
q12 75 -12.5 107.5t-84.5 32.5q-71 0 -117 -43t-57 -113l-46 -289h-81z" />
    <glyph glyph-name="Omacron" unicode="&#x14c;" horiz-adv-x="772" 
d="M80 365q18 112 67.5 189.5t126.5 118.5t176 41q105 0 172.5 -47.5t93.5 -131.5t8 -195q-17 -111 -67.5 -189t-127 -119t-176.5 -41q-104 0 -171 47t-93 131.5t-9 195.5zM166 355q-15 -90 3 -155t66.5 -100.5t124.5 -35.5q115 0 186 76t93 210q14 90 -4.5 155.5
t-66.5 100.5t-124 35q-116 0 -186 -75.5t-92 -210.5zM312 814l8 55h327l-9 -55h-326z" />
    <glyph glyph-name="omacron" unicode="&#x14d;" horiz-adv-x="571" 
d="M252 -9q-75 0 -125 32t-70.5 93t-7.5 148q13 80 50.5 135.5t93.5 83.5t126 28q76 0 125.5 -32t70 -92.5t6.5 -147.5q-13 -80 -50.5 -135.5t-93 -84t-125.5 -28.5zM258 57q69 0 118.5 49t64.5 143q16 98 -20 147.5t-108 49.5q-70 0 -119 -49t-64 -143q-15 -98 19.5 -147.5
t108.5 -49.5zM198 625l8 55h297l-9 -55h-296z" />
    <glyph glyph-name="Obreve" unicode="&#x14e;" horiz-adv-x="772" 
d="M80 365q18 112 67.5 189.5t126.5 118.5t176 41q105 0 172.5 -47.5t93.5 -131.5t8 -195q-17 -111 -67.5 -189t-127 -119t-176.5 -41q-104 0 -171 47t-93 131.5t-9 195.5zM166 355q-15 -90 3 -155t66.5 -100.5t124.5 -35.5q115 0 186 76t93 210q14 90 -4.5 155.5
t-66.5 100.5t-124 35q-116 0 -186 -75.5t-92 -210.5zM470 760q-46 0 -81 20.5t-54.5 58.5t-19.5 89l51 7q-2 -57 28 -89t80 -32q51 0 85 32t44 89l50 -7q-12 -78 -62 -123t-121 -45z" />
    <glyph glyph-name="obreve" unicode="&#x14f;" horiz-adv-x="571" 
d="M252 -9q-75 0 -125 32t-70.5 93t-7.5 148q13 80 50.5 135.5t93.5 83.5t126 28q76 0 125.5 -32t70 -92.5t6.5 -147.5q-13 -80 -50.5 -135.5t-93 -84t-125.5 -28.5zM258 57q69 0 118.5 49t64.5 143q16 98 -20 147.5t-108 49.5q-70 0 -119 -49t-64 -143q-15 -98 19.5 -147.5
t108.5 -49.5zM342 549q-44 0 -77 23t-49.5 65.5t-13.5 101.5l51 5q-3 -67 22 -103.5t70 -36.5q47 0 76.5 36.5t38.5 103.5l51 -5q-7 -59 -30 -101.5t-58 -65.5t-81 -23z" />
    <glyph glyph-name="Ohungarumlaut" unicode="&#x150;" horiz-adv-x="772" 
d="M80 365q18 112 67.5 189.5t126.5 118.5t176 41q105 0 172.5 -47.5t93.5 -131.5t8 -195q-17 -111 -67.5 -189t-127 -119t-176.5 -41q-104 0 -171 47t-93 131.5t-9 195.5zM166 355q-15 -90 3 -155t66.5 -100.5t124.5 -35.5q115 0 186 76t93 210q14 90 -4.5 155.5
t-66.5 100.5t-124 35q-116 0 -186 -75.5t-92 -210.5zM381 765l100 172h80l-133 -172h-47zM508 765l104 172h80l-137 -172h-47z" />
    <glyph glyph-name="ohungarumlaut" unicode="&#x151;" horiz-adv-x="571" 
d="M252 -9q-75 0 -125 32t-70.5 93t-7.5 148q13 80 50.5 135.5t93.5 83.5t126 28q76 0 125.5 -32t70 -92.5t6.5 -147.5q-13 -80 -50.5 -135.5t-93 -84t-125.5 -28.5zM258 57q69 0 118.5 49t64.5 143q16 98 -20 147.5t-108 49.5q-70 0 -119 -49t-64 -143q-15 -98 19.5 -147.5
t108.5 -49.5zM374 551l72 202h75l-102 -202h-45zM246 551l72 202h75l-101 -202h-46z" />
    <glyph glyph-name="OE" unicode="&#x152;" horiz-adv-x="1056" 
d="M519 0l112 705h447l-11 -68h-367l-38 -245h346l-11 -69h-346l-40 -254h366l-11 -69h-447zM344 -9q-103 0 -168 47.5t-89 132t-7 194.5q18 112 67 189.5t124.5 118.5t171.5 41q62 0 113 -20t82 -61l-15 -94q-24 49 -70 75.5t-109 26.5q-116 0 -186.5 -75.5t-91.5 -210.5
q-14 -89 2.5 -154.5t64 -101t123.5 -35.5q67 0 118 25.5t89 72.5l-15 -95q-42 -38 -92 -57t-112 -19z" />
    <glyph glyph-name="oe" unicode="&#x153;" horiz-adv-x="934" 
d="M252 -9q-75 0 -125.5 32t-71 93t-6.5 148q13 80 50.5 135.5t93.5 83.5t126 28q80 0 128.5 -39.5t60.5 -114.5h-27q23 53 58.5 87.5t79 50.5t89.5 16q68 0 111.5 -29.5t62.5 -82t10 -121.5l-5 -34h-384l8 51h332l-20 -14q12 82 -18.5 126t-100.5 44q-51 0 -88.5 -23.5
t-60 -64t-30.5 -91.5l-3 -24q-13 -92 26 -141.5t126 -49.5q41 0 82 13.5t77 44.5l29 -57q-38 -32 -91 -49.5t-105 -17.5q-87 0 -140.5 40t-67.5 112l25 3q-32 -75 -91.5 -115t-139.5 -40zM258 57q69 0 119 49t64 143q16 98 -20 147.5t-108 49.5q-70 0 -118.5 -49t-64.5 -143
q-15 -98 19.5 -147.5t108.5 -49.5z" />
    <glyph glyph-name="Racute" unicode="&#x154;" horiz-adv-x="692" 
d="M48 0l112 705h280q117 0 170.5 -55t37.5 -154q-9 -58 -43 -100t-87 -63.5t-117 -21.5l6 13h19q41 0 69 -20.5t42 -66.5l73 -237h-87l-70 233q-13 45 -44 58.5t-82 13.5h-148l-48 -305h-83zM189 370h202q76 0 120.5 34t54.5 96q11 68 -25.5 102.5t-115.5 34.5h-194z
M397 765l131 172h92l-161 -172h-62z" />
    <glyph glyph-name="racute" unicode="&#x155;" horiz-adv-x="363" 
d="M37 0l61 381q5 30 8 61t4 60h79l-8 -122l-16 -1q17 45 45.5 74t65.5 43.5t75 14.5q13 0 24.5 -1t22.5 -4l-14 -73q-12 5 -24.5 6.5t-28.5 1.5q-45 0 -80 -19t-57 -52t-28 -74l-47 -296h-82zM241 551l134 202h88l-163 -202h-59z" />
    <glyph glyph-name="uni0156" unicode="&#x156;" horiz-adv-x="692" 
d="M48 0l112 705h280q117 0 170.5 -55t37.5 -154q-9 -58 -43 -100t-87 -63.5t-117 -21.5l6 13h19q41 0 69 -20.5t42 -66.5l73 -237h-87l-70 233q-13 45 -44 58.5t-82 13.5h-148l-48 -305h-83zM189 370h202q76 0 120.5 34t54.5 96q11 68 -25.5 102.5t-115.5 34.5h-194z
M262 -268l-28 29q26 21 34.5 41t13.5 46l18 -10h-70l14 82h99l-11 -68q-7 -39 -22 -68.5t-48 -51.5z" />
    <glyph glyph-name="uni0157" unicode="&#x157;" horiz-adv-x="363" 
d="M37 0l61 381q5 30 8 61t4 60h79l-8 -122l-16 -1q17 45 45.5 74t65.5 43.5t75 14.5q13 0 24.5 -1t22.5 -4l-14 -73q-12 5 -24.5 6.5t-28.5 1.5q-45 0 -80 -19t-57 -52t-28 -74l-47 -296h-82zM34 -268l-28 29q26 21 34.5 41t13.5 46l18 -10h-70l14 82h99l-11 -68
q-7 -39 -22 -68.5t-48 -51.5z" />
    <glyph glyph-name="Rcaron" unicode="&#x158;" horiz-adv-x="692" 
d="M48 0l112 705h280q117 0 170.5 -55t37.5 -154q-9 -58 -43 -100t-87 -63.5t-117 -21.5l6 13h19q41 0 69 -20.5t42 -66.5l73 -237h-87l-70 233q-13 45 -44 58.5t-82 13.5h-148l-48 -305h-83zM189 370h202q76 0 120.5 34t54.5 96q11 68 -25.5 102.5t-115.5 34.5h-194z
M390 765l-106 172h60l85 -119l114 119h63l-140 -172h-76z" />
    <glyph glyph-name="rcaron" unicode="&#x159;" horiz-adv-x="363" 
d="M37 0l61 381q5 30 8 61t4 60h79l-8 -122l-16 -1q17 45 45.5 74t65.5 43.5t75 14.5q13 0 24.5 -1t22.5 -4l-14 -73q-12 5 -24.5 6.5t-28.5 1.5q-45 0 -80 -19t-57 -52t-28 -74l-47 -296h-82zM232 551l-89 202h56l74 -148l110 148h57l-131 -202h-77z" />
    <glyph glyph-name="Sacute" unicode="&#x15a;" horiz-adv-x="623" 
d="M285 -9q-84 0 -149.5 20.5t-109.5 52.5l34 66q48 -31 101.5 -48.5t128.5 -17.5q87 0 135 32.5t57 85.5q8 49 -18 78.5t-97 38.5l-94 15q-98 14 -140.5 66.5t-29.5 133.5q9 60 46.5 104.5t99.5 70t142 25.5q72 0 130.5 -20.5t95.5 -53.5l-33 -66q-39 33 -88 50t-113 17
q-84 0 -136 -35t-62 -94q-8 -52 18 -84t98 -42l94 -14q99 -14 140.5 -62t28.5 -131q-8 -53 -44.5 -96t-96 -67.5t-138.5 -24.5zM372 765l131 172h92l-161 -172h-62z" />
    <glyph glyph-name="sacute" unicode="&#x15b;" horiz-adv-x="496" 
d="M213 -9q-57 0 -107 15.5t-79 41.5l29 57q33 -24 74.5 -37.5t87.5 -13.5q58 0 92 21t40 57q5 31 -12.5 51.5t-59.5 27.5l-72 11q-74 12 -103 52t-20 98q7 44 35.5 75t72.5 47.5t97 16.5q55 0 99.5 -14.5t70.5 -38.5l-31 -56q-26 22 -62.5 34.5t-76.5 12.5q-57 0 -90 -23
t-39 -58q-5 -32 10 -53.5t54 -27.5l74 -13q76 -13 106.5 -49.5t21.5 -93.5q-6 -43 -34.5 -74.5t-73.5 -48.5t-104 -17zM272 551l134 202h88l-163 -202h-59z" />
    <glyph glyph-name="Scircumflex" unicode="&#x15c;" horiz-adv-x="623" 
d="M285 -9q-84 0 -149.5 20.5t-109.5 52.5l34 66q48 -31 101.5 -48.5t128.5 -17.5q87 0 135 32.5t57 85.5q8 49 -18 78.5t-97 38.5l-94 15q-98 14 -140.5 66.5t-29.5 133.5q9 60 46.5 104.5t99.5 70t142 25.5q72 0 130.5 -20.5t95.5 -53.5l-33 -66q-39 33 -88 50t-113 17
q-84 0 -136 -35t-62 -94q-8 -52 18 -84t98 -42l94 -14q99 -14 140.5 -62t28.5 -131q-8 -53 -44.5 -96t-96 -67.5t-138.5 -24.5zM234 765l141 172h76l105 -172h-61l-86 119l-114 -119h-61z" />
    <glyph glyph-name="scircumflex" unicode="&#x15d;" horiz-adv-x="496" 
d="M213 -9q-57 0 -107 15.5t-79 41.5l29 57q33 -24 74.5 -37.5t87.5 -13.5q58 0 92 21t40 57q5 31 -12.5 51.5t-59.5 27.5l-72 11q-74 12 -103 52t-20 98q7 44 35.5 75t72.5 47.5t97 16.5q55 0 99.5 -14.5t70.5 -38.5l-31 -56q-26 22 -62.5 34.5t-76.5 12.5q-57 0 -90 -23
t-39 -58q-5 -32 10 -53.5t54 -27.5l74 -13q76 -13 106.5 -49.5t21.5 -93.5q-6 -43 -34.5 -74.5t-73.5 -48.5t-104 -17zM150 551l131 202h77l89 -202h-56l-75 148l-109 -148h-57z" />
    <glyph glyph-name="Scedilla" unicode="&#x15e;" horiz-adv-x="623" 
d="M285 -9q-84 0 -149.5 20.5t-109.5 52.5l34 66q48 -31 101.5 -48.5t128.5 -17.5q87 0 135 32.5t57 85.5q8 49 -18 78.5t-97 38.5l-94 15q-98 14 -140.5 66.5t-29.5 133.5q9 60 46.5 104.5t99.5 70t142 25.5q72 0 130.5 -20.5t95.5 -53.5l-33 -66q-39 33 -88 50t-113 17
q-84 0 -136 -35t-62 -94q-8 -52 18 -84t98 -42l94 -14q99 -14 140.5 -62t28.5 -131q-8 -53 -44.5 -96t-96 -67.5t-138.5 -24.5zM264 -192q-26 0 -49 5t-39 14l18 44q17 -8 33 -12t39 -4q28 0 45 10t17 29q0 12 -9 19t-26 7q-10 0 -21 -1.5t-27 -7.5l-15 16l30 93h51l-25 -75
l-24 6q13 3 24.5 5t21.5 2q34 0 55 -16t21 -47q0 -39 -34 -63t-86 -24z" />
    <glyph glyph-name="scedilla" unicode="&#x15f;" horiz-adv-x="496" 
d="M213 -9q-57 0 -107 15.5t-79 41.5l29 57q33 -24 74.5 -37.5t87.5 -13.5q58 0 92 21t40 57q5 31 -12.5 51.5t-59.5 27.5l-72 11q-74 12 -103 52t-20 98q7 44 35.5 75t72.5 47.5t97 16.5q55 0 99.5 -14.5t70.5 -38.5l-31 -56q-26 22 -62.5 34.5t-76.5 12.5q-57 0 -90 -23
t-39 -58q-5 -32 10 -53.5t54 -27.5l74 -13q76 -13 106.5 -49.5t21.5 -93.5q-6 -43 -34.5 -74.5t-73.5 -48.5t-104 -17zM186 -192q-26 0 -49 5t-39 14l18 44q17 -8 33 -12t39 -4q28 0 45 10t17 29q0 12 -9 19t-26 7q-10 0 -21 -1.5t-27 -7.5l-15 16l30 93h51l-25 -75l-24 6
q13 3 24.5 5t21.5 2q34 0 55 -16t21 -47q0 -39 -34 -63t-86 -24z" />
    <glyph glyph-name="Scaron" unicode="&#x160;" horiz-adv-x="623" 
d="M285 -9q-84 0 -149.5 20.5t-109.5 52.5l34 66q48 -31 101.5 -48.5t128.5 -17.5q87 0 135 32.5t57 85.5q8 49 -18 78.5t-97 38.5l-94 15q-98 14 -140.5 66.5t-29.5 133.5q9 60 46.5 104.5t99.5 70t142 25.5q72 0 130.5 -20.5t95.5 -53.5l-33 -66q-39 33 -88 50t-113 17
q-84 0 -136 -35t-62 -94q-8 -52 18 -84t98 -42l94 -14q99 -14 140.5 -62t28.5 -131q-8 -53 -44.5 -96t-96 -67.5t-138.5 -24.5zM366 765l-106 172h60l85 -119l114 119h63l-140 -172h-76z" />
    <glyph glyph-name="scaron" unicode="&#x161;" horiz-adv-x="496" 
d="M213 -9q-57 0 -107 15.5t-79 41.5l29 57q33 -24 74.5 -37.5t87.5 -13.5q58 0 92 21t40 57q5 31 -12.5 51.5t-59.5 27.5l-72 11q-74 12 -103 52t-20 98q7 44 35.5 75t72.5 47.5t97 16.5q55 0 99.5 -14.5t70.5 -38.5l-31 -56q-26 22 -62.5 34.5t-76.5 12.5q-57 0 -90 -23
t-39 -58q-5 -32 10 -53.5t54 -27.5l74 -13q76 -13 106.5 -49.5t21.5 -93.5q-6 -43 -34.5 -74.5t-73.5 -48.5t-104 -17zM263 551l-89 202h56l74 -148l110 148h57l-131 -202h-77z" />
    <glyph glyph-name="uni0162" unicode="&#x162;" horiz-adv-x="604" 
d="M219 0l100 635h-248l11 70h580l-12 -70h-248l-100 -635h-83zM242 -192q-26 0 -49 5t-39 14l18 44q17 -8 33 -12t39 -4q28 0 45 10t17 29q0 12 -9 19t-26 7q-10 0 -21 -1.5t-27 -7.5l-15 16l30 93h51l-25 -75l-24 6q13 3 24.5 5t21.5 2q34 0 55 -16t21 -47q0 -39 -34 -63
t-86 -24z" />
    <glyph glyph-name="uni0163" unicode="&#x163;" horiz-adv-x="350" 
d="M224 -9q-81 0 -113.5 43t-19.5 128l43 277h-98l10 63h99l22 137l84 23l-25 -160h144l-11 -63h-144l-41 -267q-10 -59 6.5 -85.5t57.5 -26.5q19 0 34 3.5t28 8.5l-10 -68q-16 -6 -32 -9.5t-34 -3.5zM165 -192q-26 0 -49 5t-39 14l18 44q17 -8 33 -12t39 -4q28 0 45 10
t17 29q0 12 -9 19t-26 7q-10 0 -21 -1.5t-27 -7.5l-15 16l30 93h51l-25 -75l-24 6q13 3 24.5 5t21.5 2q34 0 55 -16t21 -47q0 -39 -34 -63t-86 -24z" />
    <glyph glyph-name="Tcaron" unicode="&#x164;" horiz-adv-x="604" 
d="M219 0l100 635h-248l11 70h580l-12 -70h-248l-100 -635h-83zM346 765l-106 172h60l85 -119l114 119h63l-140 -172h-76z" />
    <glyph glyph-name="tcaron" unicode="&#x165;" horiz-adv-x="350" 
d="M224 -9q-81 0 -113.5 43t-19.5 128l43 277h-98l10 63h99l22 137l84 23l-25 -160h144l-11 -63h-144l-41 -267q-10 -59 6.5 -85.5t57.5 -26.5q19 0 34 3.5t28 8.5l-10 -68q-16 -6 -32 -9.5t-34 -3.5zM301 527l30 186h65l-53 -186h-42z" />
    <glyph glyph-name="Tbar" unicode="&#x166;" horiz-adv-x="604" 
d="M219 0l100 635h-248l11 70h580l-12 -70h-248l-100 -635h-83zM130 326l10 64h367l-10 -64h-367z" />
    <glyph glyph-name="tbar" unicode="&#x167;" horiz-adv-x="350" 
d="M224 -9q-81 0 -113.5 43t-19.5 128l43 277h-98l10 63h99l22 137l84 23l-25 -160h144l-11 -63h-144l-41 -267q-10 -59 6.5 -85.5t57.5 -26.5q19 0 34 3.5t28 8.5l-10 -68q-16 -6 -32 -9.5t-34 -3.5zM33 248l9 55h275l-9 -55h-275z" />
    <glyph glyph-name="Utilde" unicode="&#x168;" horiz-adv-x="730" 
d="M334 -9q-92 0 -152 32.5t-84.5 97t-9.5 160.5l68 424h82l-67 -423q-17 -109 22 -163.5t148 -54.5q96 0 153.5 51t76.5 168l67 422h82l-68 -428q-16 -99 -56.5 -162.5t-106 -93.5t-155.5 -30zM284 783l-46 3q11 64 44 98.5t83 34.5q29 0 54.5 -13t48.5 -29
q20 -13 38 -23.5t37 -10.5q58 0 77 79l46 -3q-11 -64 -44 -98.5t-82 -34.5q-29 0 -55 13.5t-49 28.5q-19 13 -38 23.5t-37 10.5q-58 0 -77 -79z" />
    <glyph glyph-name="utilde" unicode="&#x169;" horiz-adv-x="577" 
d="M223 -9q-88 0 -130 50t-26 155l48 306h81l-48 -302q-11 -75 13 -108.5t84 -33.5q68 0 112 43.5t55 115.5l45 285h81l-79 -502h-79l17 113h15q-28 -58 -77.5 -90t-111.5 -32zM207 591l-46 3q11 64 41 98.5t75 34.5q27 0 44.5 -13t33.5 -28q14 -14 28 -24.5t30 -10.5
q51 0 69 79l47 -3q-10 -64 -40.5 -98.5t-74.5 -34.5q-26 0 -45 13.5t-35 28.5q-13 13 -26.5 23.5t-30.5 10.5q-52 0 -70 -79z" />
    <glyph glyph-name="Umacron" unicode="&#x16a;" horiz-adv-x="730" 
d="M334 -9q-92 0 -152 32.5t-84.5 97t-9.5 160.5l68 424h82l-67 -423q-17 -109 22 -163.5t148 -54.5q96 0 153.5 51t76.5 168l67 422h82l-68 -428q-16 -99 -56.5 -162.5t-106 -93.5t-155.5 -30zM293 814l8 55h327l-9 -55h-326z" />
    <glyph glyph-name="umacron" unicode="&#x16b;" horiz-adv-x="577" 
d="M223 -9q-88 0 -130 50t-26 155l48 306h81l-48 -302q-11 -75 13 -108.5t84 -33.5q68 0 112 43.5t55 115.5l45 285h81l-79 -502h-79l17 113h15q-28 -58 -77.5 -90t-111.5 -32zM201 626l8 55h297l-9 -55h-296z" />
    <glyph glyph-name="Ubreve" unicode="&#x16c;" horiz-adv-x="730" 
d="M334 -9q-92 0 -152 32.5t-84.5 97t-9.5 160.5l68 424h82l-67 -423q-17 -109 22 -163.5t148 -54.5q96 0 153.5 51t76.5 168l67 422h82l-68 -428q-16 -99 -56.5 -162.5t-106 -93.5t-155.5 -30zM450 760q-46 0 -81 20.5t-54.5 58.5t-19.5 89l51 7q-2 -57 28 -89t80 -32
q51 0 85 32t44 89l50 -7q-12 -78 -62 -123t-121 -45z" />
    <glyph glyph-name="ubreve" unicode="&#x16d;" horiz-adv-x="577" 
d="M223 -9q-88 0 -130 50t-26 155l48 306h81l-48 -302q-11 -75 13 -108.5t84 -33.5q68 0 112 43.5t55 115.5l45 285h81l-79 -502h-79l17 113h15q-28 -58 -77.5 -90t-111.5 -32zM345 550q-44 0 -77 23t-49.5 65.5t-13.5 101.5l51 5q-3 -67 22 -103.5t70 -36.5q47 0 76.5 36.5
t38.5 103.5l51 -5q-7 -59 -30 -101.5t-58 -65.5t-81 -23z" />
    <glyph glyph-name="Uring" unicode="&#x16e;" horiz-adv-x="730" 
d="M334 -9q-92 0 -152 32.5t-84.5 97t-9.5 160.5l68 424h82l-67 -423q-17 -109 22 -163.5t148 -54.5q96 0 153.5 51t76.5 168l67 422h82l-68 -428q-16 -99 -56.5 -162.5t-106 -93.5t-155.5 -30zM464 758q-33 0 -60.5 15.5t-43 42t-15.5 58.5q0 33 15.5 58.5t42.5 41t60 15.5
q34 0 61 -15.5t42.5 -41t15.5 -58.5q0 -32 -15.5 -58.5t-42 -42t-60.5 -15.5zM463 801q33 0 52.5 21t19.5 52q0 30 -19.5 51t-51.5 21t-52 -21t-20 -51q0 -31 20 -52t51 -21z" />
    <glyph glyph-name="uring" unicode="&#x16f;" horiz-adv-x="577" 
d="M223 -9q-88 0 -130 50t-26 155l48 306h81l-48 -302q-11 -75 13 -108.5t84 -33.5q68 0 112 43.5t55 115.5l45 285h81l-79 -502h-79l17 113h15q-28 -58 -77.5 -90t-111.5 -32zM355 548q-33 0 -60 15t-43 41.5t-16 58.5q0 33 16 59t43 41.5t60 15.5q34 0 60.5 -15.5
t42.5 -41.5t16 -59q0 -32 -16 -58.5t-42.5 -41.5t-60.5 -15zM355 591q32 0 52 21t20 51q0 31 -20 51.5t-52 20.5q-31 0 -51.5 -20.5t-20.5 -51.5q0 -30 20.5 -51t51.5 -21z" />
    <glyph glyph-name="Uhungarumlaut" unicode="&#x170;" horiz-adv-x="730" 
d="M334 -9q-92 0 -152 32.5t-84.5 97t-9.5 160.5l68 424h82l-67 -423q-17 -109 22 -163.5t148 -54.5q96 0 153.5 51t76.5 168l67 422h82l-68 -428q-16 -99 -56.5 -162.5t-106 -93.5t-155.5 -30zM361 765l100 172h80l-133 -172h-47zM488 765l104 172h80l-137 -172h-47z" />
    <glyph glyph-name="uhungarumlaut" unicode="&#x171;" horiz-adv-x="577" 
d="M223 -9q-88 0 -130 50t-26 155l48 306h81l-48 -302q-11 -75 13 -108.5t84 -33.5q68 0 112 43.5t55 115.5l45 285h81l-79 -502h-79l17 113h15q-28 -58 -77.5 -90t-111.5 -32zM377 552l72 202h75l-102 -202h-45zM249 552l72 202h75l-101 -202h-46z" />
    <glyph glyph-name="Uogonek" unicode="&#x172;" horiz-adv-x="730" 
d="M334 -9q-92 0 -152 32.5t-84.5 97t-9.5 160.5l68 424h82l-67 -423q-17 -109 22 -163.5t148 -54.5q96 0 153.5 51t76.5 168l67 422h82l-68 -428q-16 -99 -56.5 -162.5t-106 -93.5t-155.5 -30zM370 -192q-47 0 -72 25t-25 65q0 46 30 82.5t76 55.5l26 -36
q-38 -15 -56 -39.5t-18 -51.5q0 -23 13.5 -37t39.5 -14q13 0 26 3t28 9l10 -47q-16 -6 -36 -10.5t-42 -4.5z" />
    <glyph glyph-name="uogonek" unicode="&#x173;" horiz-adv-x="577" 
d="M223 -9q-88 0 -130 50t-26 155l48 306h81l-48 -302q-11 -75 13 -108.5t84 -33.5q68 0 112 43.5t55 115.5l45 285h81l-79 -502h-79l17 113h15q-28 -58 -77.5 -90t-111.5 -32zM410 -192q-47 0 -72 25t-25 65q0 46 30 82.5t76 55.5l26 -36q-38 -15 -56 -39.5t-18 -51.5
q0 -23 13.5 -37t39.5 -14q13 0 26 3t28 9l10 -47q-16 -6 -36 -10.5t-42 -4.5z" />
    <glyph glyph-name="Wcircumflex" unicode="&#x174;" horiz-adv-x="1112" 
d="M240 0l-134 705h83l114 -635h-35l327 635h66l113 -635h-32l322 635h86l-360 -705h-74l-111 611h20l-313 -611h-72zM469 765l141 172h76l105 -172h-61l-86 119l-114 -119h-61z" />
    <glyph glyph-name="wcircumflex" unicode="&#x175;" horiz-adv-x="869" 
d="M173 0l-106 502h82l85 -442h-26l231 442h69l87 -442h-25l227 442h84l-266 -502h-78l-92 449h42l-235 -449h-79zM331 551l131 202h77l89 -202h-56l-75 148l-109 -148h-57z" />
    <glyph glyph-name="Ycircumflex" unicode="&#x176;" horiz-adv-x="607" 
d="M222 0l52 329l9 -56l-222 432h91l176 -351h-21l287 351h96l-360 -434l27 58l-52 -329h-83zM217 765l141 172h76l105 -172h-61l-86 119l-114 -119h-61z" />
    <glyph glyph-name="ycircumflex" unicode="&#x177;" horiz-adv-x="531" 
d="M-15 -227l-15 67q49 11 83 25.5t59 38.5t47 60l34 59l-4 -34l-138 513h85l111 -441h-26l250 441h87l-317 -544q-29 -48 -57.5 -80.5t-59.5 -53t-65 -32.5t-74 -19zM161 551l131 202h77l89 -202h-56l-75 148l-109 -148h-57z" />
    <glyph glyph-name="Ydieresis" unicode="&#x178;" horiz-adv-x="607" 
d="M222 0l52 329l9 -56l-222 432h91l176 -351h-21l287 351h96l-360 -434l27 58l-52 -329h-83zM435 806l14 86h86l-14 -86h-86zM261 806l14 86h86l-14 -86h-86z" />
    <glyph glyph-name="Zacute" unicode="&#x179;" horiz-adv-x="596" 
d="M3 0l10 61l517 605l-5 -32h-421l11 71h506l-10 -61l-518 -604l5 31h433l-11 -71h-517zM353 765l131 172h92l-161 -172h-62z" />
    <glyph glyph-name="zacute" unicode="&#x17a;" horiz-adv-x="519" 
d="M10 0l8 54l398 406l-3 -21h-334l10 63h414l-9 -54l-399 -408l3 23h348l-11 -63h-425zM277 551l134 202h88l-163 -202h-59z" />
    <glyph glyph-name="Zdotaccent" unicode="&#x17b;" horiz-adv-x="596" 
d="M3 0l10 61l517 605l-5 -32h-421l11 71h506l-10 -61l-518 -604l5 31h433l-11 -71h-517zM345 807l14 88h90l-14 -88h-90z" />
    <glyph glyph-name="zdotaccent" unicode="&#x17c;" horiz-adv-x="519" 
d="M10 0l8 54l398 406l-3 -21h-334l10 63h414l-9 -54l-399 -408l3 23h348l-11 -63h-425zM269 609l15 88h91l-14 -88h-92z" />
    <glyph glyph-name="Zcaron" unicode="&#x17d;" horiz-adv-x="596" 
d="M3 0l10 61l517 605l-5 -32h-421l11 71h506l-10 -61l-518 -604l5 31h433l-11 -71h-517zM346 765l-106 172h60l85 -119l114 119h63l-140 -172h-76z" />
    <glyph glyph-name="zcaron" unicode="&#x17e;" horiz-adv-x="519" 
d="M10 0l8 54l398 406l-3 -21h-334l10 63h414l-9 -54l-399 -408l3 23h348l-11 -63h-425zM268 551l-89 202h56l74 -148l110 148h57l-131 -202h-77z" />
    <glyph glyph-name="uni0181" unicode="&#x181;" horiz-adv-x="809" 
d="M177 0l101 642h-33q-59 0 -90 -26.5t-40 -81.5l-8 -45h-70l7 48q14 84 67.5 126t153.5 42h310q110 0 162 -49t38 -140q-11 -68 -57 -109.5t-118 -55.5l2 14q76 -9 112.5 -57.5t24.5 -123.5q-14 -92 -83 -138t-183 -46h-296zM268 67h207q76 0 124.5 28.5t58.5 90.5
q9 52 -6.5 82t-49 43t-81.5 13h-213zM320 390h190q81 0 127 30.5t54 85.5q10 67 -23 100t-106 33h-204z" />
    <glyph glyph-name="uni018A" unicode="&#x18a;" horiz-adv-x="876" 
d="M177 0l101 642h-33q-59 0 -90 -26.5t-40 -81.5l-8 -45h-70l7 48q14 84 67 126t147 42h256q124 0 199.5 -43.5t104 -125t10.5 -195.5q-28 -171 -134.5 -256t-280.5 -85h-236zM271 71h145q144 0 225.5 68.5t103.5 210.5q22 144 -37.5 214.5t-203.5 70.5h-144z" />
    <glyph glyph-name="uni018F" unicode="&#x18f;" horiz-adv-x="750" 
d="M340 -9q-109 0 -172.5 45.5t-85 127t-4.5 189.5l6 36h556l-11 -68h-494l27 32q-14 -95 -2.5 -159.5t56 -97.5t127.5 -33q111 0 182 73t93 213t-30.5 216t-179.5 76q-71 0 -125.5 -18t-111.5 -60l-29 64q57 44 124.5 65.5t150.5 21.5q110 0 179.5 -45t97 -128.5
t9.5 -198.5q-17 -108 -66.5 -187t-124.5 -121.5t-172 -42.5z" />
    <glyph glyph-name="florin" unicode="&#x192;" 
d="M-29 -189l10 66h48q44 0 75 23t53 82l166 450l15 -9h-137l10 63h147l-19 -14l32 88q25 70 78 112t134 42h48l-11 -68h-42q-48 0 -79 -22t-53 -82l-26 -70l-10 14h139l-10 -63h-153l20 10l-175 -469q-26 -69 -78 -111t-130 -42h-52z" />
    <glyph glyph-name="Ohorn" unicode="&#x1a0;" horiz-adv-x="772" 
d="M80 365q18 112 67.5 189.5t126.5 118.5t176 41q105 0 172.5 -47.5t93.5 -131.5t8 -195q-17 -111 -67.5 -189t-127 -119t-176.5 -41q-104 0 -171 47t-93 131.5t-9 195.5zM166 355q-15 -90 3 -155t66.5 -100.5t124.5 -35.5q115 0 186 76t93 210q14 90 -4.5 155.5
t-66.5 100.5t-124 35q-116 0 -186 -75.5t-92 -210.5zM554 655l-42 54q25 -2 44 -3t38 -1q43 0 68 11.5t38.5 37t20.5 64.5l2 17h73l-4 -28q-7 -47 -28 -81t-55 -52.5t-82 -18.5h-73z" />
    <glyph glyph-name="ohorn" unicode="&#x1a1;" horiz-adv-x="571" 
d="M252 -9q-75 0 -125 32t-70.5 93t-7.5 148q13 80 50.5 135.5t93.5 83.5t126 28q76 0 125.5 -32t70 -92.5t6.5 -147.5q-13 -80 -50.5 -135.5t-93 -84t-125.5 -28.5zM258 57q69 0 118.5 49t64.5 143q16 98 -20 147.5t-108 49.5q-70 0 -119 -49t-64 -143q-15 -98 19.5 -147.5
t108.5 -49.5zM412 452l-39 28l3 22q43 1 68.5 13t38.5 37t20 64l2 16h73l-5 -33q-10 -67 -51 -104.5t-110 -42.5z" />
    <glyph glyph-name="Uhorn" unicode="&#x1af;" horiz-adv-x="730" 
d="M334 -9q-92 0 -152 32.5t-84.5 97t-9.5 160.5l68 424h82l-67 -423q-17 -109 22 -163.5t148 -54.5q96 0 153.5 51t76.5 168l67 422h82l-68 -428q-16 -99 -56.5 -162.5t-106 -93.5t-155.5 -30zM698 655l-39 28l4 22q43 1 68 12.5t38.5 36.5t19.5 63l3 18h73l-5 -29
q-10 -67 -52 -107t-110 -44z" />
    <glyph glyph-name="uhorn" unicode="&#x1b0;" horiz-adv-x="577" 
d="M223 -9q-88 0 -130 50t-26 155l48 306h81l-48 -302q-11 -75 13 -108.5t84 -33.5q68 0 112 43.5t55 115.5l45 285h81l-79 -502h-79l17 113h15q-28 -58 -77.5 -90t-111.5 -32zM507 452l-39 28l3 22q43 1 68.5 13t38.5 37t20 64l2 16h73l-5 -33q-10 -67 -51 -104.5
t-110 -42.5z" />
    <glyph glyph-name="uni01B3" unicode="&#x1b3;" horiz-adv-x="607" 
d="M222 0l52 329l9 -56l-222 432h91l176 -351h-21l228 279q25 30 49.5 47.5t51.5 25t60 7.5q20 0 34 -2t27 -7l-10 -62q-10 4 -21.5 6t-26.5 2q-26 0 -49.5 -11.5t-46.5 -38.5l-273 -329l27 58l-52 -329h-83z" />
    <glyph glyph-name="uni01B4" unicode="&#x1b4;" horiz-adv-x="570" 
d="M-17 -227l-12 67q49 11 83 25.5t58.5 38.5t46.5 60l34 59l-4 -34l-138 513h85l111 -441h-26l191 339q23 40 47 64t54 35.5t70 11.5q18 0 32.5 -2t26.5 -7l-18 -63q-9 4 -19 5t-19 1q-33 0 -57 -17t-53 -66l-235 -404q-29 -48 -57.5 -80.5t-59.5 -53t-66 -32.5t-75 -19z
" />
    <glyph glyph-name="uni01C4" unicode="&#x1c4;" horiz-adv-x="1327" 
d="M48 0l112 705h226q123 0 198 -43.5t104 -125t11 -195.5q-28 -171 -134.5 -256t-280.5 -85h-236zM142 71h145q144 0 225.5 68.5t103.5 210.5q22 144 -37.5 214.5t-203.5 70.5h-144zM735 0l10 61l517 605l-5 -32h-421l11 71h506l-10 -61l-518 -604l5 31h433l-11 -71h-517z
M1078 765l-106 172h60l85 -119l114 119h63l-140 -172h-76z" />
    <glyph glyph-name="uni01C5" unicode="&#x1c5;" horiz-adv-x="1265" 
d="M48 0l112 705h226q123 0 198 -43.5t104 -125t11 -195.5q-28 -171 -134.5 -256t-280.5 -85h-236zM142 71h145q144 0 225.5 68.5t103.5 210.5q22 144 -37.5 214.5t-203.5 70.5h-144zM757 0l8 54l398 406l-3 -21h-334l10 63h414l-9 -54l-399 -408l3 23h348l-11 -63h-425z
M1015 551l-89 202h56l74 -148l110 148h57l-131 -202h-77z" />
    <glyph glyph-name="uni01C6" unicode="&#x1c6;" horiz-adv-x="1119" 
d="M237 -9q-69 0 -116 32.5t-66 93.5t-6 147q20 121 90 184t168 63q66 0 111 -34t55 -92h-11l56 351h81l-117 -736h-80l19 120h14q-26 -60 -76.5 -94.5t-121.5 -34.5zM259 57q69 0 119 49t65 143q16 98 -20 147.5t-109 49.5q-70 0 -119.5 -49t-64.5 -143q-15 -98 20 -147.5
t109 -49.5zM610 0l8 54l398 406l-3 -21h-334l10 63h414l-9 -54l-399 -408l3 23h348l-11 -63h-425zM868 551l-89 202h56l74 -148l110 148h57l-131 -202h-77z" />
    <glyph glyph-name="uni01C7" unicode="&#x1c7;" horiz-adv-x="914" 
d="M48 0l112 705h83l-101 -633h357l-12 -72h-439zM595 -186q-17 0 -37 2t-41 9l11 69q19 -7 35 -9.5t30 -2.5q46 0 73.5 28.5t36.5 90.5l112 704h83l-113 -710q-9 -60 -33 -100.5t-62.5 -60.5t-94.5 -20z" />
    <glyph glyph-name="uni01C8" unicode="&#x1c8;" horiz-adv-x="783" 
d="M48 0l112 705h83l-101 -633h357l-12 -72h-439zM483 -220q-14 0 -34 3t-34 9l12 68q11 -4 26.5 -7.5t28.5 -3.5q42 0 67 26.5t34 86.5l86 540h81l-87 -548q-14 -86 -59 -130t-121 -44zM677 616l15 91h99l-14 -91h-100z" />
    <glyph glyph-name="uni01C9" unicode="&#x1c9;" horiz-adv-x="476" 
d="M39 0l117 736h81l-117 -736h-81zM176 -220q-14 0 -34 3t-34 9l12 68q11 -4 26.5 -7.5t28.5 -3.5q42 0 67 26.5t34 86.5l86 540h81l-87 -548q-14 -86 -59 -130t-121 -44zM370 616l15 91h99l-14 -91h-100z" />
    <glyph glyph-name="uni01CA" unicode="&#x1ca;" horiz-adv-x="1076" 
d="M48 0l112 705h65l353 -603l-19 3l95 600h77l-112 -705h-64l-353 603l18 -3l-95 -600h-77zM757 -186q-17 0 -37 2t-41 9l11 69q19 -7 35 -9.5t30 -2.5q46 0 73.5 28.5t36.5 90.5l112 704h83l-113 -710q-9 -60 -33 -100.5t-62.5 -60.5t-94.5 -20z" />
    <glyph glyph-name="uni01CB" unicode="&#x1cb;" horiz-adv-x="985" 
d="M48 0l112 705h65l353 -603l-19 3l95 600h77l-112 -705h-64l-353 603l18 -3l-95 -600h-77zM685 -220q-14 0 -34 3t-34 9l12 68q11 -4 26.5 -7.5t28.5 -3.5q42 0 67 26.5t34 86.5l86 540h81l-87 -548q-14 -86 -59 -130t-121 -44zM879 616l15 91h99l-14 -91h-100z" />
    <glyph glyph-name="uni01CC" unicode="&#x1cc;" horiz-adv-x="823" 
d="M39 0l61 386q4 28 6.5 57.5t3.5 58.5h79l-8 -110l-14 -1q30 59 82.5 89.5t119.5 30.5q93 0 129 -52.5t20 -152.5l-48 -306h-81l48 305q12 75 -12.5 107.5t-84.5 32.5q-71 0 -117 -43t-57 -113l-46 -289h-81zM524 -220q-14 0 -34 3t-34 9l12 68q11 -4 26.5 -7.5t28.5 -3.5
q42 0 67 26.5t34 86.5l86 540h81l-87 -548q-14 -86 -59 -130t-121 -44zM718 616l15 91h99l-14 -91h-100z" />
    <glyph glyph-name="uni01CD" unicode="&#x1cd;" horiz-adv-x="735" 
d="M-22 0l423 705h72l204 -705h-82l-56 201l33 -21h-430l43 21l-118 -201h-89zM424 610l-221 -380l-21 18h371l-21 -18l-105 380h-3zM410 765l-106 172h60l85 -119l114 119h63l-140 -172h-76z" />
    <glyph glyph-name="uni01CE" unicode="&#x1ce;" 
d="M237 -9q-69 0 -116 32.5t-66 93.5t-6 147q20 121 90 184t168 63q66 0 111 -34t55 -92l-11 -2l29 119h78q-7 -29 -14.5 -58.5t-11.5 -57.5l-61 -386h-81l19 120h15q-26 -60 -76.5 -94.5t-121.5 -34.5zM259 57q69 0 119 49t65 143q16 98 -20 147.5t-109 49.5
q-70 0 -119.5 -49t-64.5 -143q-15 -98 20 -147.5t109 -49.5zM304 551l-89 202h56l74 -148l110 148h57l-131 -202h-77z" />
    <glyph glyph-name="uni01D4" unicode="&#x1d4;" horiz-adv-x="577" 
d="M223 -9q-88 0 -130 50t-26 155l48 306h81l-48 -302q-11 -75 13 -108.5t84 -33.5q68 0 112 43.5t55 115.5l45 285h81l-79 -502h-79l17 113h15q-28 -58 -77.5 -90t-111.5 -32zM299 552l-89 202h56l74 -148l110 148h57l-131 -202h-77z" />
    <glyph glyph-name="uni01E5" unicode="&#x1e5;" horiz-adv-x="604" 
d="M227 -223q-65 0 -116.5 16t-89.5 49l27 59q28 -21 56 -34.5t59.5 -20t66.5 -6.5q117 0 157 93l7 -10h-132l7 46h142l-14 -13q2 8 4 15.5t3 16.5l25 161h12q-25 -59 -78.5 -92.5t-120.5 -33.5q-68 0 -115 32.5t-67 90t-8 133.5q12 75 47.5 127t89 78.5t118.5 26.5
q69 0 114.5 -33.5t54.5 -93.5l-8 9l27 109h78q-8 -29 -15 -58.5t-11 -57.5l-61 -383q-1 -11 -3.5 -22t-5.5 -22l-8 10h82l-8 -46h-89l14 10q-28 -77 -88.5 -116.5t-152.5 -39.5zM263 88q72 0 121.5 47t62.5 131q13 85 -22 132.5t-108 47.5q-72 0 -121.5 -47t-63.5 -131
q-13 -86 22.5 -133t108.5 -47z" />
    <glyph glyph-name="Gcaron" unicode="&#x1e6;" horiz-adv-x="731" 
d="M381 -9q-121 0 -194 46t-99 130t-8 197q18 112 70 190t134 119t188 41q77 0 130.5 -20t91.5 -57l-35 -67q-41 37 -83 53.5t-108 16.5q-125 0 -203 -75t-99 -212q-22 -135 30.5 -212t190.5 -77q51 0 97 10t92 29l-27 -47l39 248h-180l10 65h252l-52 -325
q-29 -16 -69.5 -28t-84 -18.5t-83.5 -6.5zM444 765l-106 172h60l85 -119l114 119h63l-140 -172h-76z" />
    <glyph glyph-name="gcaron" unicode="&#x1e7;" horiz-adv-x="603" 
d="M228 -223q-64 0 -116 16t-91 49l29 61q27 -22 55 -35t59 -19.5t67 -6.5q76 0 119 39t55 111l23 147h11q-24 -59 -76.5 -93t-120.5 -34q-69 0 -116.5 32.5t-67 91.5t-7.5 138q19 115 88.5 176t169.5 61q69 0 114 -34t53 -94l-8 10l27 109h78q-8 -29 -15 -58.5t-11 -57.5
l-61 -383q-17 -112 -82 -169t-176 -57zM261 77q73 0 122.5 48.5t62.5 135.5q14 89 -21 137t-107 48q-73 0 -123 -48t-64 -136t21.5 -136.5t108.5 -48.5zM314 551l-89 202h56l74 -148l110 148h57l-131 -202h-77z" />
    <glyph glyph-name="uni01E9" unicode="&#x1e9;" horiz-adv-x="515" 
d="M39 0l117 736h81l-73 -457h2l264 223h106l-312 -262v41l259 -281h-101l-223 236h-2l-37 -236h-81zM309 773l-106 172h60l85 -119l114 119h63l-140 -172h-76z" />
    <glyph glyph-name="uni01EA" unicode="&#x1ea;" horiz-adv-x="772" 
d="M80 365q18 112 67.5 189.5t126.5 118.5t176 41q105 0 172.5 -47.5t93.5 -131.5t8 -195q-17 -111 -67.5 -189t-127 -119t-176.5 -41q-104 0 -171 47t-93 131.5t-9 195.5zM166 355q-15 -90 3 -155t66.5 -100.5t124.5 -35.5q115 0 186 76t93 210q14 90 -4.5 155.5
t-66.5 100.5t-124 35q-116 0 -186 -75.5t-92 -210.5zM373 -192q-47 0 -72 25t-25 65q0 46 30 82.5t76 55.5l26 -36q-38 -15 -56 -39.5t-18 -51.5q0 -23 13.5 -37t39.5 -14q13 0 26 3t28 9l10 -47q-16 -6 -36 -10.5t-42 -4.5z" />
    <glyph glyph-name="uni01EB" unicode="&#x1eb;" horiz-adv-x="571" 
d="M252 -9q-75 0 -125 32t-70.5 93t-7.5 148q13 80 50.5 135.5t93.5 83.5t126 28q76 0 125.5 -32t70 -92.5t6.5 -147.5q-13 -80 -50.5 -135.5t-93 -84t-125.5 -28.5zM258 57q69 0 118.5 49t64.5 143q16 98 -20 147.5t-108 49.5q-70 0 -119 -49t-64 -143q-15 -98 19.5 -147.5
t108.5 -49.5zM267 -192q-47 0 -72 25t-25 65q0 46 30 82.5t76 55.5l26 -36q-38 -15 -56 -39.5t-18 -51.5q0 -23 13.5 -37t39.5 -14q13 0 26 3t28 9l10 -47q-16 -6 -36 -10.5t-42 -4.5z" />
    <glyph glyph-name="Aringacute" unicode="&#x1fa;" horiz-adv-x="735" 
d="M-22 0l423 705h72l204 -705h-82l-56 201l33 -21h-430l43 21l-118 -201h-89zM424 610l-221 -380l-21 18h371l-21 -18l-105 380h-3zM447 758q-32 0 -58.5 15t-42 41t-15.5 57q0 33 15.5 58t42 40.5t58.5 15.5q19 0 36 -5t30 -15l71 66h79l-117 -100q18 -26 18 -60
q0 -31 -15.5 -57t-42 -41t-59.5 -15zM447 799q32 0 52 21t20 51q0 31 -20 51.5t-52 20.5q-31 0 -51 -20.5t-20 -51.5q0 -30 20 -51t51 -21z" />
    <glyph glyph-name="aringacute" unicode="&#x1fb;" 
d="M237 -9q-69 0 -116 32.5t-66 93.5t-6 147q20 121 90 184t168 63q66 0 111 -34t55 -92l-11 -2l29 119h78q-7 -29 -14.5 -58.5t-11.5 -57.5l-61 -386h-81l19 120h15q-26 -60 -76.5 -94.5t-121.5 -34.5zM259 57q69 0 119 49t65 143q16 98 -20 147.5t-109 49.5
q-70 0 -119.5 -49t-64.5 -143q-15 -98 20 -147.5t109 -49.5zM357 544q-32 0 -58.5 15.5t-42 41t-15.5 56.5q0 32 15.5 58t42 41t58.5 15q19 0 35.5 -5t30.5 -15l71 66h79l-117 -99q17 -27 17 -61q0 -31 -15.5 -56.5t-41.5 -41t-59 -15.5zM357 586q32 0 52 20.5t20 50.5
q0 32 -20 52t-52 20q-31 0 -51.5 -20t-20.5 -52q0 -30 20.5 -50.5t51.5 -20.5z" />
    <glyph glyph-name="AEacute" unicode="&#x1fc;" horiz-adv-x="1006" 
d="M-42 0l542 705h528l-12 -68h-399l25 22l-19 -289l-14 22h348l-11 -69h-341l14 10l-18 -288l-8 24h334l-11 -69h-396l13 196l24 -16h-385l36 22l-154 -202h-96zM534 636l-307 -407l-9 20h330l-12 -22l28 409h-30zM567 765l131 172h92l-161 -172h-62z" />
    <glyph glyph-name="aeacute" unicode="&#x1fd;" horiz-adv-x="882" 
d="M209 -9q-59 0 -98.5 22.5t-56.5 60.5t-10 84q10 53 48.5 82.5t105.5 41.5t160 12h51l-7 -51h-53q-68 0 -117 -7.5t-77.5 -27.5t-34.5 -57q-7 -44 19.5 -71.5t80.5 -27.5q66 0 110.5 43t55.5 111l18 115q10 66 -18 95.5t-81 29.5q-49 0 -91 -12t-88 -39l-26 58
q29 19 63.5 32t71.5 19.5t73 6.5q81 0 120 -32.5t43 -92.5h-27q35 61 91 93t123 32q68 0 112 -30t62.5 -83.5t8.5 -124.5l-5 -29h-380l7 51h328l-18 -14q12 82 -18.5 126t-101.5 44q-50 0 -87.5 -23.5t-60.5 -64t-30 -91.5l-3 -24q-13 -92 26 -141.5t125 -49.5
q42 0 82.5 13.5t77.5 44.5l28 -57q-38 -32 -90.5 -49.5t-105.5 -17.5q-89 0 -142.5 41t-69.5 116h22q-27 -73 -82.5 -115t-133.5 -42zM453 551l134 202h88l-163 -202h-59z" />
    <glyph glyph-name="Oslashacute" unicode="&#x1fe;" horiz-adv-x="772" 
d="M80 365q18 112 67.5 189.5t126.5 118.5t176 41q105 0 172.5 -47.5t93.5 -131.5t8 -195q-17 -111 -67.5 -189t-127 -119t-176.5 -41q-104 0 -171 47t-93 131.5t-9 195.5zM166 355q-15 -90 3 -155t66.5 -100.5t124.5 -35.5q115 0 186 76t93 210q14 90 -4.5 155.5
t-66.5 100.5t-124 35q-116 0 -186 -75.5t-92 -210.5zM224 58l-68 -93l-53 37l69 93l32 37l357 479l23 37l69 92l52 -37l-69 -92l-31 -37l-358 -480zM437 765l131 172h92l-161 -172h-62z" />
    <glyph glyph-name="oslashacute" unicode="&#x1ff;" horiz-adv-x="571" 
d="M252 -9q-75 0 -125 32t-70.5 93t-7.5 148q13 80 50.5 135.5t93.5 83.5t126 28q76 0 125.5 -32t70 -92.5t6.5 -147.5q-13 -80 -50.5 -135.5t-93 -84t-125.5 -28.5zM258 57q72 0 122.5 49t65.5 144q16 95 -21 145.5t-112 50.5q-73 0 -123 -49t-64 -144q-15 -94 19.5 -145
t112.5 -51zM112 -32l-42 31l392 534l41 -30zM304 551l134 202h88l-163 -202h-59z" />
    <glyph glyph-name="uni0200" unicode="&#x200;" horiz-adv-x="735" 
d="M-22 0l423 705h72l204 -705h-82l-56 201l33 -21h-430l43 21l-118 -201h-89zM424 610l-221 -380l-21 18h371l-21 -18l-105 380h-3zM488 765l-104 172h79l72 -172h-47zM361 765l-108 172h79l76 -172h-47z" />
    <glyph glyph-name="uni0201" unicode="&#x201;" 
d="M237 -9q-69 0 -116 32.5t-66 93.5t-6 147q20 121 90 184t168 63q66 0 111 -34t55 -92l-11 -2l29 119h78q-7 -29 -14.5 -58.5t-11.5 -57.5l-61 -386h-81l19 120h15q-26 -60 -76.5 -94.5t-121.5 -34.5zM259 57q69 0 119 49t65 143q16 98 -20 147.5t-109 49.5
q-70 0 -119.5 -49t-64.5 -143q-15 -98 20 -147.5t109 -49.5zM383 551l-65 202h74l37 -202h-46zM256 551l-66 202h74l37 -202h-45z" />
    <glyph glyph-name="uni0202" unicode="&#x202;" horiz-adv-x="735" 
d="M-22 0l423 705h72l204 -705h-82l-56 201l33 -21h-430l43 21l-118 -201h-89zM424 610l-221 -380l-21 18h371l-21 -18l-105 380h-3zM324 760l-51 6q13 79 63 124t120 45q47 0 82 -20.5t55 -58.5t19 -90l-52 -6q2 58 -27.5 89.5t-79.5 31.5q-51 0 -85.5 -31.5t-43.5 -89.5z
" />
    <glyph glyph-name="uni0203" unicode="&#x203;" 
d="M237 -9q-69 0 -116 32.5t-66 93.5t-6 147q20 121 90 184t168 63q66 0 111 -34t55 -92l-11 -2l29 119h78q-7 -29 -14.5 -58.5t-11.5 -57.5l-61 -386h-81l19 120h15q-26 -60 -76.5 -94.5t-121.5 -34.5zM259 57q69 0 119 49t65 143q16 98 -20 147.5t-109 49.5
q-70 0 -119.5 -49t-64.5 -143q-15 -98 20 -147.5t109 -49.5zM232 549l-51 5q8 59 30.5 101.5t58 65.5t80.5 23t77.5 -23t49 -65.5t13.5 -101.5l-51 -5q4 67 -20.5 103.5t-70.5 36.5t-76.5 -36.5t-39.5 -103.5z" />
    <glyph glyph-name="uni0204" unicode="&#x204;" horiz-adv-x="588" 
d="M48 0l112 705h450l-11 -68h-370l-38 -245h347l-11 -69h-347l-41 -254h370l-11 -69h-450zM450 765l-104 172h79l72 -172h-47zM323 765l-108 172h79l76 -172h-47z" />
    <glyph glyph-name="uni0205" unicode="&#x205;" horiz-adv-x="544" 
d="M273 -9q-83 0 -137.5 33.5t-76.5 96t-9 146.5q13 77 48.5 131.5t91 83.5t126.5 29q69 0 114.5 -30t64 -83.5t7.5 -124.5l-4 -29h-389l8 51h336l-18 -14q12 82 -19 126t-104 44q-53 0 -91 -23.5t-61 -64t-31 -91.5l-3 -24q-13 -92 26.5 -141.5t128.5 -49.5q44 0 86 13.5
t78 44.5l28 -57q-40 -32 -92 -49.5t-108 -17.5zM375 551l-65 202h74l37 -202h-46zM248 551l-66 202h74l37 -202h-45z" />
    <glyph glyph-name="uni0206" unicode="&#x206;" horiz-adv-x="588" 
d="M48 0l112 705h450l-11 -68h-370l-38 -245h347l-11 -69h-347l-41 -254h370l-11 -69h-450zM286 760l-51 6q13 79 63 124t120 45q47 0 82 -20.5t55 -58.5t19 -90l-52 -6q2 58 -27.5 89.5t-79.5 31.5q-51 0 -85.5 -31.5t-43.5 -89.5z" />
    <glyph glyph-name="uni0207" unicode="&#x207;" horiz-adv-x="544" 
d="M273 -9q-83 0 -137.5 33.5t-76.5 96t-9 146.5q13 77 48.5 131.5t91 83.5t126.5 29q69 0 114.5 -30t64 -83.5t7.5 -124.5l-4 -29h-389l8 51h336l-18 -14q12 82 -19 126t-104 44q-53 0 -91 -23.5t-61 -64t-31 -91.5l-3 -24q-13 -92 26.5 -141.5t128.5 -49.5q44 0 86 13.5
t78 44.5l28 -57q-40 -32 -92 -49.5t-108 -17.5zM224 549l-51 5q8 59 30.5 101.5t58 65.5t80.5 23t77.5 -23t49 -65.5t13.5 -101.5l-51 -5q4 67 -20.5 103.5t-70.5 36.5t-76.5 -36.5t-39.5 -103.5z" />
    <glyph glyph-name="uni0208" unicode="&#x208;" horiz-adv-x="259" 
d="M48 0l112 705h83l-112 -705h-83zM251 765l-104 172h79l72 -172h-47zM124 765l-108 172h79l76 -172h-47z" />
    <glyph glyph-name="uni0209" unicode="&#x209;" horiz-adv-x="238" 
d="M39 0l79 502h81l-79 -502h-81zM208 551l-65 202h74l37 -202h-46zM81 551l-66 202h74l37 -202h-45z" />
    <glyph glyph-name="uni020A" unicode="&#x20a;" horiz-adv-x="259" 
d="M48 0l112 705h83l-112 -705h-83zM88 760l-51 6q13 79 63 124t120 45q47 0 82 -20.5t55 -58.5t19 -90l-52 -6q2 58 -27.5 89.5t-79.5 31.5q-51 0 -85.5 -31.5t-43.5 -89.5z" />
    <glyph glyph-name="uni020B" unicode="&#x20b;" horiz-adv-x="238" 
d="M39 0l79 502h81l-79 -502h-81zM57 549l-51 5q8 59 30.5 101.5t58 65.5t80.5 23t77.5 -23t49 -65.5t13.5 -101.5l-51 -5q4 67 -20.5 103.5t-70.5 36.5t-76.5 -36.5t-39.5 -103.5z" />
    <glyph glyph-name="uni020C" unicode="&#x20c;" horiz-adv-x="772" 
d="M80 365q18 112 67.5 189.5t126.5 118.5t176 41q105 0 172.5 -47.5t93.5 -131.5t8 -195q-17 -111 -67.5 -189t-127 -119t-176.5 -41q-104 0 -171 47t-93 131.5t-9 195.5zM166 355q-15 -90 3 -155t66.5 -100.5t124.5 -35.5q115 0 186 76t93 210q14 90 -4.5 155.5
t-66.5 100.5t-124 35q-116 0 -186 -75.5t-92 -210.5zM508 765l-104 172h79l72 -172h-47zM381 765l-108 172h79l76 -172h-47z" />
    <glyph glyph-name="uni020D" unicode="&#x20d;" horiz-adv-x="571" 
d="M252 -9q-75 0 -125 32t-70.5 93t-7.5 148q13 80 50.5 135.5t93.5 83.5t126 28q76 0 125.5 -32t70 -92.5t6.5 -147.5q-13 -80 -50.5 -135.5t-93 -84t-125.5 -28.5zM258 57q69 0 118.5 49t64.5 143q16 98 -20 147.5t-108 49.5q-70 0 -119 -49t-64 -143q-15 -98 19.5 -147.5
t108.5 -49.5zM375 551l-65 202h74l37 -202h-46zM248 551l-66 202h74l37 -202h-45z" />
    <glyph glyph-name="uni020E" unicode="&#x20e;" horiz-adv-x="772" 
d="M80 365q18 112 67.5 189.5t126.5 118.5t176 41q105 0 172.5 -47.5t93.5 -131.5t8 -195q-17 -111 -67.5 -189t-127 -119t-176.5 -41q-104 0 -171 47t-93 131.5t-9 195.5zM166 355q-15 -90 3 -155t66.5 -100.5t124.5 -35.5q115 0 186 76t93 210q14 90 -4.5 155.5
t-66.5 100.5t-124 35q-116 0 -186 -75.5t-92 -210.5zM344 760l-51 6q13 79 63 124t120 45q47 0 82 -20.5t55 -58.5t19 -90l-52 -6q2 58 -27.5 89.5t-79.5 31.5q-51 0 -85.5 -31.5t-43.5 -89.5z" />
    <glyph glyph-name="uni020F" unicode="&#x20f;" horiz-adv-x="571" 
d="M252 -9q-75 0 -125 32t-70.5 93t-7.5 148q13 80 50.5 135.5t93.5 83.5t126 28q76 0 125.5 -32t70 -92.5t6.5 -147.5q-13 -80 -50.5 -135.5t-93 -84t-125.5 -28.5zM258 57q69 0 118.5 49t64.5 143q16 98 -20 147.5t-108 49.5q-70 0 -119 -49t-64 -143q-15 -98 19.5 -147.5
t108.5 -49.5zM224 549l-51 5q8 59 30.5 101.5t58 65.5t80.5 23t77.5 -23t49 -65.5t13.5 -101.5l-51 -5q4 67 -20.5 103.5t-70.5 36.5t-76.5 -36.5t-39.5 -103.5z" />
    <glyph glyph-name="uni0210" unicode="&#x210;" horiz-adv-x="692" 
d="M48 0l112 705h280q117 0 170.5 -55t37.5 -154q-9 -58 -43 -100t-87 -63.5t-117 -21.5l6 13h19q41 0 69 -20.5t42 -66.5l73 -237h-87l-70 233q-13 45 -44 58.5t-82 13.5h-148l-48 -305h-83zM189 370h202q76 0 120.5 34t54.5 96q11 68 -25.5 102.5t-115.5 34.5h-194z
M468 765l-104 172h79l72 -172h-47zM341 765l-108 172h79l76 -172h-47z" />
    <glyph glyph-name="uni0211" unicode="&#x211;" horiz-adv-x="363" 
d="M37 0l61 381q5 30 8 61t4 60h79l-8 -122l-16 -1q17 45 45.5 74t65.5 43.5t75 14.5q13 0 24.5 -1t22.5 -4l-14 -73q-12 5 -24.5 6.5t-28.5 1.5q-45 0 -80 -19t-57 -52t-28 -74l-47 -296h-82zM312 551l-65 202h74l37 -202h-46zM185 551l-66 202h74l37 -202h-45z" />
    <glyph glyph-name="uni0212" unicode="&#x212;" horiz-adv-x="692" 
d="M48 0l112 705h280q117 0 170.5 -55t37.5 -154q-9 -58 -43 -100t-87 -63.5t-117 -21.5l6 13h19q41 0 69 -20.5t42 -66.5l73 -237h-87l-70 233q-13 45 -44 58.5t-82 13.5h-148l-48 -305h-83zM189 370h202q76 0 120.5 34t54.5 96q11 68 -25.5 102.5t-115.5 34.5h-194z
M304 760l-51 6q13 79 63 124t120 45q47 0 82 -20.5t55 -58.5t19 -90l-52 -6q2 58 -27.5 89.5t-79.5 31.5q-51 0 -85.5 -31.5t-43.5 -89.5z" />
    <glyph glyph-name="uni0213" unicode="&#x213;" horiz-adv-x="363" 
d="M37 0l61 381q5 30 8 61t4 60h79l-8 -122l-16 -1q17 45 45.5 74t65.5 43.5t75 14.5q13 0 24.5 -1t22.5 -4l-14 -73q-12 5 -24.5 6.5t-28.5 1.5q-45 0 -80 -19t-57 -52t-28 -74l-47 -296h-82zM160 549l-51 5q8 59 30.5 101.5t58 65.5t80.5 23t77.5 -23t49 -65.5
t13.5 -101.5l-51 -5q4 67 -20.5 103.5t-70.5 36.5t-76.5 -36.5t-39.5 -103.5z" />
    <glyph glyph-name="uni0214" unicode="&#x214;" horiz-adv-x="730" 
d="M334 -9q-92 0 -152 32.5t-84.5 97t-9.5 160.5l68 424h82l-67 -423q-17 -109 22 -163.5t148 -54.5q96 0 153.5 51t76.5 168l67 422h82l-68 -428q-16 -99 -56.5 -162.5t-106 -93.5t-155.5 -30zM488 765l-104 172h79l72 -172h-47zM361 765l-108 172h79l76 -172h-47z" />
    <glyph glyph-name="uni0215" unicode="&#x215;" horiz-adv-x="577" 
d="M223 -9q-88 0 -130 50t-26 155l48 306h81l-48 -302q-11 -75 13 -108.5t84 -33.5q68 0 112 43.5t55 115.5l45 285h81l-79 -502h-79l17 113h15q-28 -58 -77.5 -90t-111.5 -32zM378 552l-65 202h74l37 -202h-46zM251 552l-66 202h74l37 -202h-45z" />
    <glyph glyph-name="uni0216" unicode="&#x216;" horiz-adv-x="730" 
d="M334 -9q-92 0 -152 32.5t-84.5 97t-9.5 160.5l68 424h82l-67 -423q-17 -109 22 -163.5t148 -54.5q96 0 153.5 51t76.5 168l67 422h82l-68 -428q-16 -99 -56.5 -162.5t-106 -93.5t-155.5 -30zM325 760l-51 6q13 79 63 124t120 45q47 0 82 -20.5t55 -58.5t19 -90l-52 -6
q2 58 -27.5 89.5t-79.5 31.5q-51 0 -85.5 -31.5t-43.5 -89.5z" />
    <glyph glyph-name="uni0217" unicode="&#x217;" horiz-adv-x="577" 
d="M223 -9q-88 0 -130 50t-26 155l48 306h81l-48 -302q-11 -75 13 -108.5t84 -33.5q68 0 112 43.5t55 115.5l45 285h81l-79 -502h-79l17 113h15q-28 -58 -77.5 -90t-111.5 -32zM226 550l-51 5q8 59 30.5 101.5t58 65.5t80.5 23t77.5 -23t49 -65.5t13.5 -101.5l-51 -5
q4 67 -20.5 103.5t-70.5 36.5t-76.5 -36.5t-39.5 -103.5z" />
    <glyph glyph-name="uni0218" unicode="&#x218;" horiz-adv-x="623" 
d="M285 -9q-84 0 -149.5 20.5t-109.5 52.5l34 66q48 -31 101.5 -48.5t128.5 -17.5q87 0 135 32.5t57 85.5q8 49 -18 78.5t-97 38.5l-94 15q-98 14 -140.5 66.5t-29.5 133.5q9 60 46.5 104.5t99.5 70t142 25.5q72 0 130.5 -20.5t95.5 -53.5l-33 -66q-39 33 -88 50t-113 17
q-84 0 -136 -35t-62 -94q-8 -52 18 -84t98 -42l94 -14q99 -14 140.5 -62t28.5 -131q-8 -53 -44.5 -96t-96 -67.5t-138.5 -24.5zM240 -268l-28 29q26 21 34.5 41t13.5 46l18 -10h-70l14 82h99l-11 -68q-7 -39 -22 -68.5t-48 -51.5z" />
    <glyph glyph-name="uni0219" unicode="&#x219;" horiz-adv-x="496" 
d="M213 -9q-57 0 -107 15.5t-79 41.5l29 57q33 -24 74.5 -37.5t87.5 -13.5q58 0 92 21t40 57q5 31 -12.5 51.5t-59.5 27.5l-72 11q-74 12 -103 52t-20 98q7 44 35.5 75t72.5 47.5t97 16.5q55 0 99.5 -14.5t70.5 -38.5l-31 -56q-26 22 -62.5 34.5t-76.5 12.5q-57 0 -90 -23
t-39 -58q-5 -32 10 -53.5t54 -27.5l74 -13q76 -13 106.5 -49.5t21.5 -93.5q-6 -43 -34.5 -74.5t-73.5 -48.5t-104 -17zM162 -268l-28 29q26 21 34.5 41t13.5 46l18 -10h-70l14 82h99l-11 -68q-7 -39 -22 -68.5t-48 -51.5z" />
    <glyph glyph-name="uni021A" unicode="&#x21a;" horiz-adv-x="604" 
d="M219 0l100 635h-248l11 70h580l-12 -70h-248l-100 -635h-83zM218 -268l-28 29q26 21 34.5 41t13.5 46l18 -10h-70l14 82h99l-11 -68q-7 -39 -22 -68.5t-48 -51.5z" />
    <glyph glyph-name="uni021B" unicode="&#x21b;" horiz-adv-x="350" 
d="M224 -9q-81 0 -113.5 43t-19.5 128l43 277h-98l10 63h99l22 137l84 23l-25 -160h144l-11 -63h-144l-41 -267q-10 -59 6.5 -85.5t57.5 -26.5q19 0 34 3.5t28 8.5l-10 -68q-16 -6 -32 -9.5t-34 -3.5zM141 -268l-28 29q26 21 34.5 41t13.5 46l18 -10h-70l14 82h99l-11 -68
q-7 -39 -22 -68.5t-48 -51.5z" />
    <glyph glyph-name="uni021F" unicode="&#x21f;" horiz-adv-x="586" 
d="M39 0l117 736h81l-56 -345h-14q30 59 82.5 89.5t119.5 30.5q93 0 129 -52.5t20 -152.5l-48 -306h-81l48 305q12 75 -12 107.5t-85 32.5q-71 0 -117 -43t-57 -113l-46 -289h-81zM343 773l-106 172h60l85 -119l114 119h63l-140 -172h-76z" />
    <glyph glyph-name="uni0226" unicode="&#x226;" horiz-adv-x="735" 
d="M-22 0l423 705h72l204 -705h-82l-56 201l33 -21h-430l43 21l-118 -201h-89zM424 610l-221 -380l-21 18h371l-21 -18l-105 380h-3zM408 807l14 88h90l-14 -88h-90z" />
    <glyph glyph-name="uni0227" unicode="&#x227;" 
d="M237 -9q-69 0 -116 32.5t-66 93.5t-6 147q20 121 90 184t168 63q66 0 111 -34t55 -92l-11 -2l29 119h78q-7 -29 -14.5 -58.5t-11.5 -57.5l-61 -386h-81l19 120h15q-26 -60 -76.5 -94.5t-121.5 -34.5zM259 57q69 0 119 49t65 143q16 98 -20 147.5t-109 49.5
q-70 0 -119.5 -49t-64.5 -143q-15 -98 20 -147.5t109 -49.5zM304 609l15 88h91l-14 -88h-92z" />
    <glyph glyph-name="uni0228" unicode="&#x228;" horiz-adv-x="588" 
d="M48 0l112 705h450l-11 -68h-370l-38 -245h347l-11 -69h-347l-41 -254h370l-11 -69h-450zM268 -192q-26 0 -49 5t-39 14l18 44q17 -8 33 -12t39 -4q28 0 45 10t17 29q0 12 -9 19t-26 7q-10 0 -21 -1.5t-27 -7.5l-15 16l30 93h51l-25 -75l-24 6q13 3 24.5 5t21.5 2
q34 0 55 -16t21 -47q0 -39 -34 -63t-86 -24z" />
    <glyph glyph-name="uni022A" unicode="&#x22a;" horiz-adv-x="772" 
d="M80 365q18 112 67.5 189.5t126.5 118.5t176 41q105 0 172.5 -47.5t93.5 -131.5t8 -195q-17 -111 -67.5 -189t-127 -119t-176.5 -41q-104 0 -171 47t-93 131.5t-9 195.5zM166 355q-15 -90 3 -155t66.5 -100.5t124.5 -35.5q115 0 186 76t93 210q14 90 -4.5 155.5
t-66.5 100.5t-124 35q-116 0 -186 -75.5t-92 -210.5zM345 926l8 55h297l-9 -55h-296zM342 798l12 72h87l-12 -72h-87zM516 798l12 72h87l-12 -72h-87z" />
    <glyph glyph-name="uni022B" unicode="&#x22b;" horiz-adv-x="571" 
d="M252 -9q-75 0 -125 32t-70.5 93t-7.5 148q13 80 50.5 135.5t93.5 83.5t126 28q76 0 125.5 -32t70 -92.5t6.5 -147.5q-13 -80 -50.5 -135.5t-93 -84t-125.5 -28.5zM258 57q69 0 118.5 49t64.5 143q16 98 -20 147.5t-108 49.5q-70 0 -119 -49t-64 -143q-15 -98 19.5 -147.5
t108.5 -49.5zM210 707l8 55h297l-9 -55h-296zM208 579l11 73h86l-11 -73h-86zM382 579l11 73h86l-11 -73h-86z" />
    <glyph glyph-name="uni022C" unicode="&#x22c;" horiz-adv-x="772" 
d="M80 365q18 112 67.5 189.5t126.5 118.5t176 41q105 0 172.5 -47.5t93.5 -131.5t8 -195q-17 -111 -67.5 -189t-127 -119t-176.5 -41q-104 0 -171 47t-93 131.5t-9 195.5zM166 355q-15 -90 3 -155t66.5 -100.5t124.5 -35.5q115 0 186 76t93 210q14 90 -4.5 155.5
t-66.5 100.5t-124 35q-116 0 -186 -75.5t-92 -210.5zM344 926l9 55h296l-8 -55h-297zM540 768q-21 0 -39 9t-35 19q-13 9 -27 16.5t-28 7.5q-23 0 -35.5 -13t-19.5 -41l-45 2q8 51 35 76.5t67 25.5q20 0 38 -9t35 -19q14 -9 27.5 -16.5t27.5 -7.5q23 0 35.5 12.5t19.5 41.5
l45 -3q-8 -51 -35 -76t-66 -25z" />
    <glyph glyph-name="uni022D" unicode="&#x22d;" horiz-adv-x="571" 
d="M252 -9q-75 0 -125 32t-70.5 93t-7.5 148q13 80 50.5 135.5t93.5 83.5t126 28q76 0 125.5 -32t70 -92.5t6.5 -147.5q-13 -80 -50.5 -135.5t-93 -84t-125.5 -28.5zM258 57q69 0 118.5 49t64.5 143q16 98 -20 147.5t-108 49.5q-70 0 -119 -49t-64 -143q-15 -98 19.5 -147.5
t108.5 -49.5zM209 707l9 55h297l-9 -55h-297zM221 547l-45 3q8 51 33.5 76t65.5 25q22 0 40.5 -9t35.5 -19q15 -9 28.5 -16.5t27.5 -7.5q23 0 35.5 13t19.5 41l45 -2q-8 -51 -33.5 -76.5t-64.5 -25.5q-22 0 -41.5 9.5t-36.5 19.5q-14 10 -27.5 16.5t-27.5 6.5
q-22 0 -35 -12.5t-20 -41.5z" />
    <glyph glyph-name="uni0230" unicode="&#x230;" horiz-adv-x="772" 
d="M80 365q18 112 67.5 189.5t126.5 118.5t176 41q105 0 172.5 -47.5t93.5 -131.5t8 -195q-17 -111 -67.5 -189t-127 -119t-176.5 -41q-104 0 -171 47t-93 131.5t-9 195.5zM166 355q-15 -90 3 -155t66.5 -100.5t124.5 -35.5q115 0 186 76t93 210q14 90 -4.5 155.5
t-66.5 100.5t-124 35q-116 0 -186 -75.5t-92 -210.5zM345 926l8 55h297l-9 -55h-296zM430 798l12 72h86l-12 -72h-86z" />
    <glyph glyph-name="uni0231" unicode="&#x231;" horiz-adv-x="571" 
d="M252 -9q-75 0 -125 32t-70.5 93t-7.5 148q13 80 50.5 135.5t93.5 83.5t126 28q76 0 125.5 -32t70 -92.5t6.5 -147.5q-13 -80 -50.5 -135.5t-93 -84t-125.5 -28.5zM258 57q69 0 118.5 49t64.5 143q16 98 -20 147.5t-108 49.5q-70 0 -119 -49t-64 -143q-15 -98 19.5 -147.5
t108.5 -49.5zM208 707l8 55h297l-9 -55h-296zM293 579l11 73h87l-12 -73h-86z" />
    <glyph glyph-name="uni0232" unicode="&#x232;" horiz-adv-x="607" 
d="M222 0l52 329l9 -56l-222 432h91l176 -351h-21l287 351h96l-360 -434l27 58l-52 -329h-83zM230 814l8 55h327l-9 -55h-326z" />
    <glyph glyph-name="uni0233" unicode="&#x233;" horiz-adv-x="531" 
d="M-15 -227l-15 67q49 11 83 25.5t59 38.5t47 60l34 59l-4 -34l-138 513h85l111 -441h-26l250 441h87l-317 -544q-29 -48 -57.5 -80.5t-59.5 -53t-65 -32.5t-74 -19zM177 625l8 55h297l-9 -55h-296z" />
    <glyph glyph-name="uni0237" unicode="&#x237;" horiz-adv-x="238" 
d="M-62 -220q-14 0 -33.5 3.5t-33.5 8.5l11 68q12 -4 27 -7.5t29 -3.5q41 0 66.5 26.5t34.5 86.5l85 540h81l-87 -548q-13 -86 -58 -130t-122 -44z" />
    <glyph glyph-name="uni0253" unicode="&#x253;" 
d="M294 -9q-67 0 -111.5 34t-54.5 93l10 2l-19 -120h-80l91 575q14 85 62 127.5t134 42.5q15 0 29.5 -2t25.5 -6l-18 -64q-12 4 -20 5t-19 1q-96 0 -113 -104l-30 -190l-15 -2q26 59 76.5 93.5t121.5 34.5q70 0 116.5 -32.5t65.5 -93t5 -146.5q-19 -121 -89 -184.5
t-168 -63.5zM287 57q70 0 119 49t64 143q16 98 -19 147.5t-109 49.5q-69 0 -119 -49t-65 -143q-15 -98 20.5 -147.5t108.5 -49.5z" />
    <glyph glyph-name="uni0257" unicode="&#x257;" 
d="M237 -9q-69 0 -116 32.5t-66 93.5t-6 147q20 121 90 184t168 63q66 0 111 -34t55 -92h-11l31 191q14 88 63.5 128.5t131.5 40.5q14 0 28.5 -2t27.5 -6l-18 -64q-13 4 -21 5t-18 1q-49 0 -78 -27t-37 -79l-90 -573h-80l19 120h14q-26 -60 -77 -94.5t-121 -34.5zM259 57
q69 0 119 49t65 143q16 98 -20 147.5t-109 49.5q-70 0 -119.5 -49t-64.5 -143q-15 -98 20 -147.5t109 -49.5z" />
    <glyph glyph-name="uni0259" unicode="&#x259;" horiz-adv-x="544" 
d="M235 -9q-73 0 -119.5 30t-65.5 84t-9 124l5 29h390l-8 -51h-337l21 15q-15 -82 16.5 -126t108.5 -44q50 0 87.5 23.5t60.5 64t30 90.5l3 24q13 93 -26.5 142.5t-129.5 49.5q-42 0 -84 -13t-79 -45l-28 57q41 34 93.5 50t109.5 16q81 0 135 -33.5t76.5 -95.5t8.5 -147
q-12 -76 -47.5 -131t-89 -84t-122.5 -29z" />
    <glyph glyph-name="uni02B9" unicode="&#x2b9;" horiz-adv-x="221" 
d="M112 428l23 277h95l-63 -277h-55z" />
    <glyph glyph-name="uni02BA" unicode="&#x2ba;" horiz-adv-x="392" 
d="M112 428l23 277h95l-63 -277h-55zM283 428l23 277h95l-63 -277h-55z" />
    <glyph glyph-name="uni02BB" unicode="&#x2bb;" horiz-adv-x="500" 
d="M250 567l10 63q5 37 22.5 68.5t49.5 56.5l31 -27q-27 -23 -37.5 -44t-14.5 -45l-19 11h69l-12 -83h-99z" />
    <glyph glyph-name="uni02BC" unicode="&#x2bc;" horiz-adv-x="323" 
d="M214 571l-32 26q24 22 33 42.5t12 39.5l22 -10h-70l14 86h97l-11 -65q-5 -36 -19 -64t-46 -55z" />
    <glyph glyph-name="uni02BE" unicode="&#x2be;" horiz-adv-x="500" 
d="M298 554l7 45q26 -1 44 17t18 44q0 21 -12 34.5t-33 14.5l7 44q40 -3 63.5 -28.5t23.5 -62.5q0 -31 -16.5 -56.5t-43.5 -39.5t-58 -12z" />
    <glyph glyph-name="uni02BF" unicode="&#x2bf;" horiz-adv-x="500" 
d="M299 554q-39 3 -63 28.5t-24 61.5q0 32 17 57t44 39.5t58 12.5l-7 -45q-26 1 -44.5 -16.5t-18.5 -45.5q0 -20 12 -33.5t33 -14.5z" />
    <glyph glyph-name="circumflex" unicode="&#x2c6;" horiz-adv-x="500" 
d="M149 551l131 202h77l89 -202h-56l-75 148l-109 -148h-57z" />
    <glyph glyph-name="caron" unicode="&#x2c7;" horiz-adv-x="500" 
d="M270 551l-89 202h56l74 -148l110 148h57l-131 -202h-77z" />
    <glyph glyph-name="uni02C8" unicode="&#x2c8;" horiz-adv-x="500" 
d="M274 595l32 200h60l-32 -200h-60z" />
    <glyph glyph-name="uni02C9" unicode="&#x2c9;" horiz-adv-x="500" 
d="M161 625l8 55h297l-9 -55h-296z" />
    <glyph glyph-name="uni02CA" unicode="&#x2ca;" horiz-adv-x="500" 
d="M268 551l124 202h87l-152 -202h-59z" />
    <glyph glyph-name="uni02CB" unicode="&#x2cb;" horiz-adv-x="500" 
d="M310 551l-141 202h86l113 -202h-58z" />
    <glyph glyph-name="uni02CC" unicode="&#x2cc;" horiz-adv-x="500" 
d="M137 -270l32 200h60l-32 -200h-60z" />
    <glyph glyph-name="breve" unicode="&#x2d8;" horiz-adv-x="500" 
d="M312 549q-44 0 -77 23t-49.5 65.5t-13.5 101.5l51 5q-3 -67 22 -103.5t70 -36.5q47 0 76.5 36.5t38.5 103.5l51 -5q-7 -59 -30 -101.5t-58 -65.5t-81 -23z" />
    <glyph glyph-name="dotaccent" unicode="&#x2d9;" horiz-adv-x="500" 
d="M260 609l15 88h91l-14 -88h-92z" />
    <glyph glyph-name="ring" unicode="&#x2da;" horiz-adv-x="500" 
d="M317 547q-33 0 -60 15t-43 41.5t-16 58.5q0 33 16 59t43 41.5t60 15.5q34 0 60.5 -15.5t42.5 -41.5t16 -59q0 -32 -16 -58.5t-42.5 -41.5t-60.5 -15zM317 590q32 0 52 21t20 51q0 31 -20 51.5t-52 20.5q-31 0 -51.5 -20.5t-20.5 -51.5q0 -30 20.5 -51t51.5 -21z" />
    <glyph glyph-name="ogonek" unicode="&#x2db;" horiz-adv-x="500" 
d="M168 -192q-47 0 -72 25t-25 65q0 46 30 82.5t76 55.5l26 -36q-38 -15 -56 -39.5t-18 -51.5q0 -23 13.5 -37t39.5 -14q13 0 26 3t28 9l10 -47q-16 -6 -36 -10.5t-42 -4.5z" />
    <glyph glyph-name="tilde" unicode="&#x2dc;" horiz-adv-x="500" 
d="M170 590l-46 3q11 64 41 98.5t75 34.5q27 0 44.5 -13t33.5 -28q14 -14 28 -24.5t30 -10.5q51 0 69 79l47 -3q-10 -64 -40.5 -98.5t-74.5 -34.5q-26 0 -45 13.5t-35 28.5q-13 13 -26.5 23.5t-30.5 10.5q-52 0 -70 -79z" />
    <glyph glyph-name="hungarumlaut" unicode="&#x2dd;" horiz-adv-x="500" 
d="M338 551l72 202h75l-102 -202h-45zM210 551l72 202h75l-101 -202h-46z" />
    <glyph glyph-name="gravecomb" unicode="&#x300;" horiz-adv-x="0" 
d="M60 551l-141 202h85l114 -202h-58z" />
    <glyph glyph-name="acutecomb" unicode="&#x301;" horiz-adv-x="0" 
d="M18 551l134 202h88l-163 -202h-59z" />
    <glyph glyph-name="uni0302" unicode="&#x302;" horiz-adv-x="0" 
d="M-101 551l131 202h77l89 -202h-56l-75 148l-109 -148h-57z" />
    <glyph glyph-name="tildecomb" unicode="&#x303;" horiz-adv-x="0" 
d="M-80 590l-46 3q11 64 41 98.5t75 34.5q27 0 44.5 -13t33.5 -28q14 -14 28 -24.5t30 -10.5q51 0 69 79l47 -3q-10 -64 -40.5 -98.5t-74.5 -34.5q-26 0 -45 13.5t-35 28.5q-13 13 -26.5 23.5t-30.5 10.5q-52 0 -70 -79z" />
    <glyph glyph-name="uni0304" unicode="&#x304;" horiz-adv-x="0" 
d="M-89 625l8 55h297l-9 -55h-296z" />
    <glyph glyph-name="uni0306" unicode="&#x306;" horiz-adv-x="0" 
d="M62 549q-44 0 -77 23t-49.5 65.5t-13.5 101.5l51 5q-3 -67 22 -103.5t70 -36.5q47 0 76.5 36.5t38.5 103.5l51 -5q-7 -59 -30 -101.5t-58 -65.5t-81 -23z" />
    <glyph glyph-name="uni0307" unicode="&#x307;" horiz-adv-x="0" 
d="M10 609l15 88h91l-14 -88h-92z" />
    <glyph glyph-name="uni0308" unicode="&#x308;" horiz-adv-x="0" 
d="M100 609l13 86h87l-14 -86h-86zM-74 609l13 86h86l-12 -86h-87z" />
    <glyph glyph-name="hookabovecomb" unicode="&#x309;" horiz-adv-x="0" 
d="M32 551l3 21q4 23 15 38t24.5 26.5t23 22.5t9.5 26q0 13 -10.5 19t-33.5 6q-15 0 -30.5 -3.5t-34.5 -11.5l-10 42q20 12 44 17t50 5q44 0 68 -16.5t24 -45.5q0 -27 -11.5 -43t-26.5 -27.5t-28.5 -24.5t-17.5 -35l-3 -16h-55z" />
    <glyph glyph-name="uni030A" unicode="&#x30a;" horiz-adv-x="0" 
d="M67 547q-33 0 -60 15t-43 41.5t-16 58.5q0 33 16 59t43 41.5t60 15.5q34 0 60.5 -15.5t42.5 -41.5t16 -59q0 -32 -16 -58.5t-42.5 -41.5t-60.5 -15zM67 590q32 0 52 21t20 51q0 31 -20 51.5t-52 20.5q-31 0 -51.5 -20.5t-20.5 -51.5q0 -30 20.5 -51t51.5 -21z" />
    <glyph glyph-name="uni030B" unicode="&#x30b;" horiz-adv-x="0" 
d="M88 551l72 202h75l-102 -202h-45zM-40 551l72 202h75l-101 -202h-46z" />
    <glyph glyph-name="uni030C" unicode="&#x30c;" horiz-adv-x="0" 
d="M20 551l-89 202h56l74 -148l110 148h57l-131 -202h-77z" />
    <glyph glyph-name="uni030F" unicode="&#x30f;" horiz-adv-x="0" 
d="M103 551l-65 202h74l37 -202h-46zM-24 551l-66 202h74l37 -202h-45z" />
    <glyph glyph-name="uni0311" unicode="&#x311;" horiz-adv-x="0" 
d="M-56 549l-51 5q8 59 30.5 101.5t58 65.5t80.5 23t77.5 -23t49 -65.5t13.5 -101.5l-51 -5q4 67 -20.5 103.5t-70.5 36.5t-76.5 -36.5t-39.5 -103.5z" />
    <glyph glyph-name="uni0312" unicode="&#x312;" horiz-adv-x="0" 
d="M0 567l11 68q7 40 22 69t48 51l28 -28q-26 -21 -34.5 -41t-13.5 -47l-18 11h69l-13 -83h-99z" />
    <glyph glyph-name="uni031B" unicode="&#x31b;" horiz-adv-x="0" 
d="M72 436l-39 28l3 22q43 1 68.5 13t38.5 37t20 64l2 16h73l-5 -33q-10 -67 -51 -104.5t-110 -42.5z" />
    <glyph glyph-name="dotbelowcomb" unicode="&#x323;" horiz-adv-x="0" 
d="M-115 -187l14 88h91l-14 -88h-91z" />
    <glyph glyph-name="uni0324" unicode="&#x324;" horiz-adv-x="0" 
d="M-26 -181l14 86h87l-14 -86h-87zM-200 -181l15 86h85l-13 -86h-87z" />
    <glyph glyph-name="uni0326" unicode="&#x326;" horiz-adv-x="0" 
d="M-87 -268l-28 29q26 21 34.5 41t13.5 46l18 -10h-70l14 82h99l-11 -68q-7 -39 -22 -68.5t-48 -51.5z" />
    <glyph glyph-name="uni0327" unicode="&#x327;" horiz-adv-x="0" 
d="M-66 -192q-26 0 -49 5t-39 14l18 44q17 -8 33 -12t39 -4q28 0 45 10t17 29q0 12 -9 19t-26 7q-10 0 -21 -1.5t-27 -7.5l-15 16l30 93h51l-25 -75l-24 6q13 3 24.5 5t21.5 2q34 0 55 -16t21 -47q0 -39 -34 -63t-86 -24z" />
    <glyph glyph-name="uni0328" unicode="&#x328;" horiz-adv-x="0" 
d="M-82 -192q-47 0 -72 25t-25 65q0 46 30 82.5t76 55.5l26 -36q-38 -15 -56 -39.5t-18 -51.5q0 -23 13.5 -37t39.5 -14q13 0 26 3t28 9l10 -47q-16 -6 -36 -10.5t-42 -4.5z" />
    <glyph glyph-name="uni032E" unicode="&#x32e;" horiz-adv-x="0" 
d="M-62 -215q-67 0 -107 40t-36 110l51 5q-3 -48 23 -74.5t71 -26.5q47 0 76 26.5t37 74.5l51 -5q-9 -70 -53.5 -110t-112.5 -40z" />
    <glyph glyph-name="uni0331" unicode="&#x331;" horiz-adv-x="0" 
d="M-213 -156l9 55h297l-9 -55h-297z" />
    <glyph glyph-name="uni0335" unicode="&#x335;" horiz-adv-x="0" 
d="M-140 526l10 61h366l-10 -61h-366z" />
    <glyph glyph-name="uni0337" unicode="&#x337;" horiz-adv-x="0" 
d="M-109 260l-28 60l282 135l28 -61z" />
    <glyph glyph-name="uni0338" unicode="&#x338;" horiz-adv-x="0" 
d="M140 -37l-42 31l392 534l41 -30z" />
    <glyph glyph-name="uni0394" unicode="&#x394;" horiz-adv-x="728" 
d="M-6 0l8 49l390 656h70l182 -656l-7 -49h-643zM415 609l-338 -575l6 35h493l-5 -35l-154 575h-2z" />
    <glyph glyph-name="Sigma" unicode="&#x3a3;" horiz-adv-x="607" 
d="M-18 -180l9 59l342 399l6 -30l-226 398l9 59h508l-10 -70h-421l-3 21l210 -369l-9 -49l-317 -369l1 21h421l-12 -70h-508z" />
    <glyph glyph-name="uni03A9" unicode="&#x3a9;" horiz-adv-x="786" 
d="M-2 0l11 69h239l-1 -24q-89 67 -133 147t-44 166q0 107 44.5 187t126.5 124.5t193 44.5q69 0 126 -20.5t99 -58t64.5 -88t22.5 -111.5q0 -93 -35 -168t-98.5 -130.5t-149.5 -92.5v24h242l-11 -69h-290l11 67q111 60 177.5 148.5t66.5 207.5q0 64 -27 113t-78.5 77
t-123.5 28q-87 0 -148 -37.5t-93 -102t-32 -147.5q0 -76 35 -148.5t108 -138.5l-11 -67h-291z" />
    <glyph glyph-name="uni03BC" unicode="&#x3bc;" horiz-adv-x="577" 
d="M4 -216l111 718h82l-47 -303q-11 -72 13 -106.5t80 -34.5q73 0 117 46.5t55 123.5l42 274h81l-77 -502h-81l17 112h8q-22 -56 -65.5 -88.5t-104.5 -32.5q-42 0 -72 16.5t-42 48.5l5 1l-40 -273h-82z" />
    <glyph glyph-name="pi" unicode="&#x3c0;" horiz-adv-x="593" 
d="M-5 0q35 65 61.5 134.5t46.5 145t33 159.5h-102l10 63h551l-11 -63h-118l-39 -250q-6 -40 1.5 -68.5t31.5 -44t67 -18.5l29 -2l-10 -63l-36 2q-66 4 -105.5 26t-53.5 65.5t-3 109.5l37 243h-169q-14 -92 -33.5 -170t-44.5 -144t-57 -125h-86z" />
    <glyph glyph-name="uni0400" unicode="&#x400;" horiz-adv-x="588" 
d="M48 0l112 705h450l-11 -68h-370l-38 -245h347l-11 -69h-347l-41 -254h370l-11 -69h-450zM385 765l-133 172h90l105 -172h-62z" />
    <glyph glyph-name="uni0401" unicode="&#x401;" horiz-adv-x="588" 
d="M48 0l112 705h450l-11 -68h-370l-38 -245h347l-11 -69h-347l-41 -254h370l-11 -69h-450zM465 806l14 86h86l-14 -86h-86zM291 806l14 86h86l-14 -86h-86z" />
    <glyph glyph-name="uni0402" unicode="&#x402;" horiz-adv-x="855" 
d="M521 -189q-34 0 -64 6t-51 15l20 64q19 -9 42 -13t51 -4q67 0 108.5 42t54.5 126l15 95q19 113 -24.5 166.5t-150.5 53.5q-48 0 -90 -9.5t-79 -28.5l-51 -324h-83l100 635h-248l11 70h580l-12 -70h-248l-37 -236q32 17 79.5 26.5t95.5 9.5q139 0 201.5 -71.5t39.5 -215.5
l-16 -99q-12 -81 -44 -133.5t-82 -78.5t-118 -26z" />
    <glyph glyph-name="uni0403" unicode="&#x403;" horiz-adv-x="556" 
d="M48 0l112 705h453l-12 -70h-371l-100 -635h-82zM334 765l131 172h92l-161 -172h-62z" />
    <glyph glyph-name="uni0404" unicode="&#x404;" horiz-adv-x="690" 
d="M379 -9q-89 0 -152 27.5t-100 77.5t-49 118.5t1 150.5q18 112 69 189.5t131.5 118.5t184.5 41q72 0 127.5 -21t94.5 -61l-34 -66q-43 40 -86 57t-109 17q-120 0 -192.5 -72.5t-96.5 -199.5l-22 25h393l-10 -69h-396l31 19q-17 -129 37 -203t181 -74q58 0 111.5 19.5
t100.5 62.5l30 -67q-47 -43 -112 -66.5t-133 -23.5z" />
    <glyph glyph-name="uni0405" unicode="&#x405;" horiz-adv-x="623" 
d="M285 -9q-84 0 -149.5 20.5t-109.5 52.5l34 66q48 -31 101.5 -48.5t128.5 -17.5q87 0 135 32.5t57 85.5q8 49 -18 78.5t-97 38.5l-94 15q-98 14 -140.5 66.5t-29.5 133.5q9 60 46.5 104.5t99.5 70t142 25.5q72 0 130.5 -20.5t95.5 -53.5l-33 -66q-39 33 -88 50t-113 17
q-84 0 -136 -35t-62 -94q-8 -52 18 -84t98 -42l94 -14q99 -14 140.5 -62t28.5 -131q-8 -53 -44.5 -96t-96 -67.5t-138.5 -24.5z" />
    <glyph glyph-name="uni0406" unicode="&#x406;" horiz-adv-x="259" 
d="M48 0l112 705h83l-112 -705h-83z" />
    <glyph glyph-name="uni0407" unicode="&#x407;" horiz-adv-x="259" 
d="M48 0l112 705h83l-112 -705h-83zM261 806l14 86h86l-14 -86h-86zM87 806l14 86h86l-14 -86h-86z" />
    <glyph glyph-name="uni0408" unicode="&#x408;" horiz-adv-x="329" 
d="M10 -186q-17 0 -37 2t-41 9l11 69q19 -7 35 -9.5t30 -2.5q46 0 73.5 28.5t36.5 90.5l112 704h83l-113 -710q-9 -60 -33 -100.5t-62.5 -60.5t-94.5 -20z" />
    <glyph glyph-name="uni0409" unicode="&#x409;" horiz-adv-x="1164" 
d="M18 -15l-37 63q46 22 84.5 52t69 78.5t55 123t41.5 184.5l34 219h465l-50 -311h213q117 0 173.5 -52.5t40.5 -156.5q-14 -92 -83 -138.5t-178 -46.5h-310l100 635h-306l-27 -168q-17 -111 -43 -191.5t-61.5 -135.5t-80.5 -92.5t-100 -62.5zM628 67h213q85 0 130.5 31
t55.5 97q11 68 -23.5 99.5t-119.5 31.5h-214z" />
    <glyph glyph-name="uni040A" unicode="&#x40a;" horiz-adv-x="1183" 
d="M48 0l112 705h81l-49 -312h425l49 312h83l-50 -311h212q118 0 174.5 -52.5t40.5 -156.5q-14 -92 -83 -138.5t-178 -46.5h-311l52 323h-425l-52 -323h-81zM647 67h213q85 0 130.5 31t55.5 97q10 68 -24 99.5t-119 31.5h-214z" />
    <glyph glyph-name="uni040B" unicode="&#x40b;" horiz-adv-x="863" 
d="M219 0l100 635h-248l11 70h580l-12 -70h-248l-37 -236q36 18 85.5 27t95.5 9q140 0 202.5 -72.5t39.5 -214.5l-23 -148h-82l22 142q19 115 -25.5 168t-148.5 53q-46 0 -91 -8.5t-87 -30.5l-51 -324h-83z" />
    <glyph glyph-name="uni040C" unicode="&#x40c;" horiz-adv-x="657" 
d="M48 0l112 705h81l-50 -314h144l-29 -16l279 330h97l-294 -344l-28 26q61 -8 99 -43t60 -99l84 -245h-84l-68 207q-20 62 -56.5 88t-94.5 26h-119l-52 -321h-81zM385 765l131 172h92l-161 -172h-62z" />
    <glyph glyph-name="uni040D" unicode="&#x40d;" horiz-adv-x="747" 
d="M48 0l112 705h77l-95 -603l-24 2l548 601h65l-112 -705h-77l95 603l22 -2l-548 -601h-63zM426 765l-133 172h90l105 -172h-62z" />
    <glyph glyph-name="uni040E" unicode="&#x40e;" horiz-adv-x="663" 
d="M160 0l159 229v-32l-248 508h86l210 -434h-18l299 434h90l-487 -705h-91zM409 760q-43 0 -79.5 14.5t-62 43.5t-38.5 74l50 17q16 -50 48.5 -73.5t83.5 -23.5q53 0 89 21.5t67 74.5l45 -16q-23 -48 -54.5 -77t-69 -42t-79.5 -13z" />
    <glyph glyph-name="uni040F" unicode="&#x40f;" horiz-adv-x="765" 
d="M280 -157l25 157h-257l112 705h82l-101 -635h425l101 635h83l-112 -705h-258l-25 -157h-75z" />
    <glyph glyph-name="uni0410" unicode="&#x410;" horiz-adv-x="735" 
d="M-22 0l423 705h72l204 -705h-82l-56 201l33 -21h-430l43 21l-118 -201h-89zM424 610l-221 -380l-21 18h371l-21 -18l-105 380h-3z" />
    <glyph glyph-name="uni0411" unicode="&#x411;" horiz-adv-x="677" 
d="M48 0l112 705h474l-11 -68h-394l-39 -243h215q118 0 174.5 -52.5t40.5 -156.5q-14 -92 -83 -138.5t-178 -46.5h-311zM139 67h215q84 0 129.5 31t56.5 97q10 68 -24.5 99.5t-118.5 31.5h-217z" />
    <glyph glyph-name="uni0412" unicode="&#x412;" horiz-adv-x="680" 
d="M48 0l112 705h287q109 0 161 -49t38 -140q-11 -68 -57 -109.5t-118 -55.5l2 14q76 -9 112.5 -57.5t24.5 -123.5q-14 -92 -82.5 -138t-182.5 -46h-297zM139 67h207q76 0 125 28.5t58 90.5q9 52 -6.5 82t-48.5 43t-81 13h-214zM190 390h191q82 0 127.5 30.5t53.5 85.5
q11 67 -22 100t-106 33h-205z" />
    <glyph glyph-name="uni0413" unicode="&#x413;" horiz-adv-x="556" 
d="M48 0l112 705h453l-12 -70h-371l-100 -635h-82z" />
    <glyph glyph-name="uni0414" unicode="&#x414;" horiz-adv-x="802" 
d="M-48 -157l35 225h72q65 66 108.5 177t70.5 277l29 183h481l-101 -637h103l-36 -225h-74l25 157h-614l-24 -157h-75zM151 68h413l90 569h-322l-19 -120q-25 -161 -64.5 -269.5t-97.5 -179.5z" />
    <glyph glyph-name="uni0415" unicode="&#x415;" horiz-adv-x="588" 
d="M48 0l112 705h450l-11 -68h-370l-38 -245h347l-11 -69h-347l-41 -254h370l-11 -69h-450z" />
    <glyph glyph-name="uni0416" unicode="&#x416;" horiz-adv-x="996" 
d="M-32 0l161 245q43 64 93.5 99.5t117.5 42.5l-32 -26l-184 344h88l173 -330l-17 16h112l50 314h81l-51 -314h115l-30 -16l279 330h97l-293 -344l-28 26q55 -7 95.5 -42.5t62.5 -99.5l85 -245h-84l-69 207q-21 61 -56.5 87.5t-93.5 26.5h-90l-51 -321h-81l51 321h-90
q-59 0 -102 -26.5t-82 -87.5l-133 -207h-94z" />
    <glyph glyph-name="uni0417" unicode="&#x417;" horiz-adv-x="654" 
d="M289 -9q-89 0 -156.5 24.5t-107.5 66.5l33 63q44 -41 100.5 -61.5t133.5 -20.5q96 0 148.5 33.5t62.5 97.5q10 67 -26.5 98t-118.5 31h-180l11 68h166q84 0 128 31.5t53 89.5q10 62 -30 96t-131 34q-66 0 -127 -19.5t-116 -59.5l-29 64q57 42 130 64.5t151 22.5
q87 0 142 -24.5t78.5 -68.5t14.5 -105q-10 -61 -53.5 -105t-119.5 -59l2 13q73 -9 110.5 -56t24.5 -125q-9 -60 -45 -103.5t-98 -66.5t-151 -23z" />
    <glyph glyph-name="uni0418" unicode="&#x418;" horiz-adv-x="747" 
d="M48 0l112 705h77l-95 -603l-24 2l548 601h65l-112 -705h-77l95 603l22 -2l-548 -601h-63z" />
    <glyph glyph-name="uni0419" unicode="&#x419;" horiz-adv-x="747" 
d="M48 0l112 705h77l-95 -603l-24 2l548 601h65l-112 -705h-77l95 603l22 -2l-548 -601h-63zM451 760q-43 0 -79.5 14.5t-62 43.5t-38.5 74l50 17q16 -50 48.5 -73.5t83.5 -23.5q53 0 89 21.5t67 74.5l45 -16q-23 -48 -54.5 -77t-69 -42t-79.5 -13z" />
    <glyph glyph-name="uni041A" unicode="&#x41a;" horiz-adv-x="657" 
d="M48 0l112 705h81l-50 -314h144l-29 -16l279 330h97l-294 -344l-28 26q61 -8 99 -43t60 -99l84 -245h-84l-68 207q-20 62 -56.5 88t-94.5 26h-119l-52 -321h-81z" />
    <glyph glyph-name="uni041B" unicode="&#x41b;" horiz-adv-x="762" 
d="M18 -15l-37 63q46 22 85 52t69 78.5t54.5 123t41.5 184.5l34 219h481l-112 -705h-82l101 635h-323l-27 -168q-17 -111 -43 -191.5t-61.5 -135.5t-80.5 -92.5t-100 -62.5z" />
    <glyph glyph-name="uni041C" unicode="&#x41c;" horiz-adv-x="858" 
d="M49 0l112 705h72l182 -639h-30l385 639h72l-112 -705h-76l95 598h32l-364 -598h-53l-174 598h29l-95 -598h-75z" />
    <glyph glyph-name="uni041D" unicode="&#x41d;" horiz-adv-x="766" 
d="M48 0l112 705h83l-50 -312h425l50 312h82l-112 -705h-82l51 322h-425l-51 -322h-83z" />
    <glyph glyph-name="uni041E" unicode="&#x41e;" horiz-adv-x="772" 
d="M80 365q18 112 67.5 189.5t126.5 118.5t176 41q105 0 172.5 -47.5t93.5 -131.5t8 -195q-17 -111 -67.5 -189t-127 -119t-176.5 -41q-104 0 -171 47t-93 131.5t-9 195.5zM166 355q-15 -90 3 -155t66.5 -100.5t124.5 -35.5q115 0 186 76t93 210q14 90 -4.5 155.5
t-66.5 100.5t-124 35q-116 0 -186 -75.5t-92 -210.5z" />
    <glyph glyph-name="uni041F" unicode="&#x41f;" horiz-adv-x="765" 
d="M48 0l112 705h590l-112 -705h-83l100 635h-425l-101 -635h-81z" />
    <glyph glyph-name="uni0420" unicode="&#x420;" horiz-adv-x="651" 
d="M48 0l112 705h278q115 0 168.5 -57t36.5 -156q-9 -61 -42 -103.5t-86.5 -65t-124.5 -22.5h-211l-48 -301h-83zM189 370h196q78 0 122.5 32t54.5 96q11 68 -23.5 103.5t-112.5 35.5h-195z" />
    <glyph glyph-name="uni0421" unicode="&#x421;" horiz-adv-x="684" 
d="M372 -9q-115 0 -186 47t-97.5 131.5t-9.5 195.5q18 112 69 189.5t130 118.5t181 41q72 0 127.5 -21t94.5 -60l-34 -68q-43 41 -87.5 57.5t-104.5 16.5q-118 0 -193 -74t-96 -209q-14 -87 4 -152.5t70.5 -101.5t138.5 -36q56 0 109.5 19t100.5 62l29 -66
q-47 -43 -112 -66.5t-134 -23.5z" />
    <glyph glyph-name="uni0422" unicode="&#x422;" horiz-adv-x="604" 
d="M219 0l100 635h-248l11 70h580l-12 -70h-248l-100 -635h-83z" />
    <glyph glyph-name="uni0423" unicode="&#x423;" horiz-adv-x="663" 
d="M160 0l159 229v-32l-248 508h86l210 -434h-18l299 434h90l-487 -705h-91z" />
    <glyph glyph-name="uni0424" unicode="&#x424;" horiz-adv-x="868" 
d="M350 -22l15 97l20 -19h-25q-103 0 -170.5 39.5t-95.5 110t-13 164.5q22 141 118 215t244 74h37l-25 -18l15 91h82l-15 -91l-19 18h24q106 0 173 -38.5t94.5 -108.5t11.5 -166q-14 -92 -63 -157t-125 -99t-174 -34h-37l26 19l-16 -97h-82zM370 105l80 506l18 -18h-37
q-106 0 -176.5 -57t-89.5 -172q-12 -77 8 -131.5t67 -82.5t116 -28h37zM452 105l-18 17h38q69 0 125 27t92.5 78t48.5 124q13 79 -7 133t-67 81.5t-118 27.5h-37l23 18z" />
    <glyph glyph-name="uni0425" unicode="&#x425;" horiz-adv-x="652" 
d="M-34 0l341 376v-31l-212 360h94l172 -301h-25l266 301h103l-325 -360l-1 31l222 -376h-95l-183 319h32l-286 -319h-103z" />
    <glyph glyph-name="uni0426" unicode="&#x426;" horiz-adv-x="803" 
d="M641 -157l25 157h-618l112 705h81l-100 -635h425l101 635h83l-102 -635h104l-36 -227h-75z" />
    <glyph glyph-name="uni0427" unicode="&#x427;" horiz-adv-x="692" 
d="M482 0l47 298q-36 -17 -84.5 -26.5t-98.5 -9.5q-92 0 -150.5 32t-82 96t-9.5 159l26 156h82l-24 -150q-19 -118 25 -169t151 -51q46 0 90.5 9.5t86.5 29.5l53 331h82l-112 -705h-82z" />
    <glyph glyph-name="uni0428" unicode="&#x428;" horiz-adv-x="1082" 
d="M48 0l112 705h82l-101 -635h330l101 635h82l-101 -635h331l101 635h81l-112 -705h-906z" />
    <glyph glyph-name="uni0429" unicode="&#x429;" horiz-adv-x="1120" 
d="M958 -157l25 157h-935l112 705h82l-101 -635h330l101 635h82l-101 -635h331l101 635h81l-101 -635h103l-36 -227h-74z" />
    <glyph glyph-name="uni042A" unicode="&#x42a;" horiz-adv-x="822" 
d="M193 0l100 635h-222l11 70h305l-49 -311h212q117 0 174 -52.5t41 -156.5q-14 -92 -83.5 -138.5t-177.5 -46.5h-311zM286 67h213q84 0 129.5 31t55.5 97q11 68 -23.5 99.5t-118.5 31.5h-215z" />
    <glyph glyph-name="uni042B" unicode="&#x42b;" horiz-adv-x="874" 
d="M48 0l112 705h82l-49 -311h182q118 0 174.5 -52.5t40.5 -156.5q-14 -92 -83 -138.5t-178 -46.5h-281zM141 67h183q84 0 129.5 31t56.5 97q10 68 -24.5 99.5t-118.5 31.5h-185zM663 0l112 705h83l-112 -705h-83z" />
    <glyph glyph-name="uni042C" unicode="&#x42c;" horiz-adv-x="677" 
d="M48 0l112 705h82l-49 -311h212q118 0 174.5 -52.5t40.5 -156.5q-14 -92 -83 -138.5t-178 -46.5h-311zM141 67h213q84 0 129.5 31t56.5 97q10 68 -24.5 99.5t-118.5 31.5h-215z" />
    <glyph glyph-name="uni042D" unicode="&#x42d;" horiz-adv-x="690" 
d="M258 -9q-72 0 -127.5 21t-95.5 61l34 66q43 -40 86.5 -56.5t108.5 -16.5q121 0 193.5 72t97.5 199l25 -13h-396l11 69h394l-31 -31q17 130 -37 204t-178 74q-58 0 -112.5 -20t-102.5 -62l-30 66q51 45 117.5 67.5t134.5 22.5q86 0 147.5 -27.5t98.5 -77t48.5 -118.5
t-1.5 -151q-18 -111 -69 -189t-131.5 -119t-184.5 -41z" />
    <glyph glyph-name="uni042E" unicode="&#x42e;" horiz-adv-x="1041" 
d="M621 -9q-96 0 -161 40.5t-94.5 115t-21.5 175.5h-162l-52 -322h-82l112 705h82l-49 -312h160q33 156 129 238.5t236 82.5q105 0 172 -47t94 -131t9 -194q-18 -112 -69.5 -190t-128.5 -119.5t-174 -41.5zM626 64q112 0 185.5 76t94.5 211q15 90 -3.5 155t-66.5 100
t-124 35q-116 0 -186.5 -75.5t-91.5 -210.5q-14 -89 2.5 -154.5t64.5 -101t125 -35.5z" />
    <glyph glyph-name="uni042F" unicode="&#x42f;" horiz-adv-x="689" 
d="M-4 0l166 230q32 44 66.5 65t75.5 21h25l-21 -14q-69 0 -116.5 25t-68.5 72t-11 114q15 93 82 142.5t182 49.5h296l-112 -705h-82l47 298h-127q-34 0 -58.5 -6t-44.5 -22t-41 -45l-162 -225h-96zM334 363h202l43 275h-194q-90 0 -136.5 -34t-56.5 -100
q-11 -70 25.5 -105.5t116.5 -35.5z" />
    <glyph glyph-name="uni0430" unicode="&#x430;" horiz-adv-x="610" 
d="M242 -9q-69 0 -116 32.5t-66 93.5t-6 147q20 121 90 184t168 63q66 0 111 -34t55 -92l-11 -2l29 119h78q-7 -29 -14.5 -58.5t-11.5 -57.5l-61 -386h-81l19 120h15q-26 -60 -76.5 -94.5t-121.5 -34.5zM264 57q69 0 119 49t65 143q16 98 -20 147.5t-109 49.5
q-70 0 -119.5 -49t-64.5 -143q-15 -98 20 -147.5t109 -49.5z" />
    <glyph glyph-name="uni0431" unicode="&#x431;" horiz-adv-x="582" 
d="M260 -9q-116 0 -171 73.5t-33 208.5l17 107q19 121 89.5 204.5t197.5 113.5l191 46l14 -68l-188 -45q-102 -25 -154.5 -84t-68.5 -150l-7 -40h-15q20 45 50.5 77.5t71 50t88.5 17.5q68 0 114.5 -31t65.5 -90.5t5 -143.5q-13 -80 -50.5 -135t-93 -83t-123.5 -28zM262 56
q71 0 121 49t64 141q15 93 -20.5 142t-109.5 49q-72 0 -120.5 -48.5t-63.5 -140.5q-15 -94 20 -143t109 -49z" />
    <glyph glyph-name="uni0432" unicode="&#x432;" horiz-adv-x="558" 
d="M40 0l79 502h237q61 0 98 -15.5t52 -45.5t8 -74q-7 -46 -44.5 -78.5t-92.5 -38.5v12q62 -2 93.5 -36t22.5 -91q-10 -67 -62.5 -101t-135.5 -34h-255zM126 55h169q53 0 85 21t38 65q8 43 -17.5 65t-78.5 22h-170zM162 283h160q49 0 79.5 22t35.5 60q7 40 -16 61.5
t-74 21.5h-160z" />
    <glyph glyph-name="uni0433" unicode="&#x433;" horiz-adv-x="445" 
d="M40 0l79 502h351l-11 -65h-269l-69 -437h-81z" />
    <glyph glyph-name="uni0434" unicode="&#x434;" horiz-adv-x="608" 
d="M-34 -130l30 194h54q44 51 71.5 122t42.5 168l23 148h353l-69 -438h78l-30 -194h-70l21 130h-414l-21 -130h-69zM132 63h262l59 376h-204l-16 -98q-12 -79 -38 -152.5t-63 -125.5z" />
    <glyph glyph-name="uni0435" unicode="&#x435;" horiz-adv-x="554" 
d="M278 -9q-83 0 -137.5 33.5t-76.5 96t-9 146.5q13 77 48.5 131.5t91 83.5t126.5 29q69 0 114.5 -30t64 -83.5t7.5 -124.5l-4 -29h-389l8 51h336l-18 -14q12 82 -19 126t-104 44q-53 0 -91 -23.5t-61 -64t-31 -91.5l-3 -24q-13 -92 26.5 -141.5t128.5 -49.5q44 0 86 13.5
t78 44.5l28 -57q-40 -32 -92 -49.5t-108 -17.5z" />
    <glyph glyph-name="uni0436" unicode="&#x436;" horiz-adv-x="805" 
d="M-41 0l132 176q30 39 53.5 61t47 33t52.5 14l-22 -25l-154 243h85l134 -211h83l34 211h80l-34 -211h78l201 211h94l-230 -243l-19 25q26 -3 45.5 -14t35.5 -33t33 -61l76 -176h-83l-67 156q-13 28 -26.5 43.5t-32.5 21.5t-48 6h-67l-35 -227h-81l36 227h-69
q-28 0 -47.5 -6t-37 -21t-39.5 -44l-116 -156h-92z" />
    <glyph glyph-name="uni0437" unicode="&#x437;" horiz-adv-x="508" 
d="M212 -9q-63 0 -116.5 17.5t-83.5 48.5l30 57q32 -30 77 -45.5t97 -15.5q72 0 109 23t43 65q7 41 -18 62.5t-79 21.5h-118l9 60h109q48 0 79 21.5t37 59.5q6 39 -21 61.5t-91 22.5q-52 0 -98 -13t-89 -40l-25 55q47 30 103.5 44.5t121.5 14.5q95 0 140.5 -37.5
t34.5 -106.5q-7 -45 -44.5 -78t-91.5 -40l2 13q61 -3 92 -38.5t22 -90.5q-10 -63 -66.5 -102.5t-164.5 -39.5z" />
    <glyph glyph-name="uni0438" unicode="&#x438;" horiz-adv-x="595" 
d="M40 0l79 502h74l-67 -427l-28 1l388 426h69l-80 -502h-73l67 428l29 -1l-389 -427h-69z" />
    <glyph glyph-name="uni0439" unicode="&#x439;" horiz-adv-x="595" 
d="M40 0l79 502h74l-67 -427l-28 1l388 426h69l-80 -502h-73l67 428l29 -1l-389 -427h-69zM348 549q-39 0 -72.5 14.5t-57 44t-33.5 72.5l47 18q14 -50 44 -74t75 -24q46 0 76.5 22t57.5 75l46 -17q-20 -48 -48.5 -76.5t-62.5 -41.5t-72 -13z" />
    <glyph glyph-name="uni043A" unicode="&#x43a;" horiz-adv-x="538" 
d="M40 0l79 502h81l-33 -211h93l199 211h93l-228 -243l-20 25q28 -3 47 -14t34.5 -33t32.5 -61l76 -176h-83l-68 156q-12 28 -25.5 43.5t-32.5 21.5t-48 6h-80l-36 -227h-81z" />
    <glyph glyph-name="uni043B" unicode="&#x43b;" horiz-adv-x="587" 
d="M13 -11l-22 65q38 16 65 39t46 58.5t33.5 88t26.5 126.5l22 136h363l-80 -502h-80l69 438h-207l-12 -79q-15 -86 -33.5 -148.5t-45 -105.5t-62.5 -71t-83 -45z" />
    <glyph glyph-name="uni043C" unicode="&#x43c;" horiz-adv-x="673" 
d="M40 0l79 502h68l135 -337l243 337h67l-79 -502h-72l65 412h24l-238 -331h-41l-133 332h19l-65 -413h-72z" />
    <glyph glyph-name="uni043D" unicode="&#x43d;" horiz-adv-x="598" 
d="M40 0l79 502h81l-33 -210h277l33 210h80l-79 -502h-81l36 227h-276l-36 -227h-81z" />
    <glyph glyph-name="uni043E" unicode="&#x43e;" horiz-adv-x="581" 
d="M257 -9q-75 0 -125 32t-70.5 93t-7.5 148q13 80 50.5 135.5t93.5 83.5t126 28q76 0 125.5 -32t70 -92.5t6.5 -147.5q-13 -80 -50.5 -135.5t-93 -84t-125.5 -28.5zM263 57q69 0 118.5 49t64.5 143q16 98 -20 147.5t-108 49.5q-70 0 -119 -49t-64 -143q-15 -98 19.5 -147.5
t108.5 -49.5z" />
    <glyph glyph-name="uni043F" unicode="&#x43f;" horiz-adv-x="595" 
d="M40 0l79 502h435l-79 -502h-81l70 438h-274l-69 -438h-81z" />
    <glyph glyph-name="uni0440" unicode="&#x440;" horiz-adv-x="610" 
d="M10 -216l95 602q4 28 6.5 57.5t3.5 58.5h79l-9 -119h-14q26 59 76.5 93.5t121.5 34.5q70 0 116.5 -32.5t65.5 -93t5 -146.5q-19 -121 -89 -184.5t-168 -63.5q-67 0 -111.5 34t-54.5 93h11l-53 -334h-81zM292 57q70 0 119 49t64 143q16 98 -19 147.5t-109 49.5
q-69 0 -119 -49t-65 -143q-15 -98 20.5 -147.5t108.5 -49.5z" />
    <glyph glyph-name="uni0441" unicode="&#x441;" horiz-adv-x="505" 
d="M263 -9q-75 0 -127 32.5t-73.5 94t-8.5 146.5q20 121 93 184t179 63q48 0 90.5 -15t69.5 -44l-32 -56q-26 25 -59.5 37t-65.5 12q-75 0 -126.5 -48t-66.5 -141q-15 -95 22.5 -146.5t114.5 -51.5q35 0 73 13t70 43l29 -58q-32 -30 -82.5 -47.5t-99.5 -17.5z" />
    <glyph glyph-name="uni0442" unicode="&#x442;" horiz-adv-x="455" 
d="M147 0l69 437h-182l10 65h446l-10 -65h-183l-69 -437h-81z" />
    <glyph glyph-name="uni0443" unicode="&#x443;" horiz-adv-x="541" 
d="M-10 -227l-15 67q49 11 83 25.5t59 38.5t47 60l34 59l-4 -34l-138 513h85l111 -441h-26l250 441h87l-317 -544q-29 -48 -57.5 -80.5t-59.5 -53t-65 -32.5t-74 -19z" />
    <glyph glyph-name="uni0444" unicode="&#x444;" horiz-adv-x="817" 
d="M294 -216l52 328h12q-25 -58 -65.5 -89.5t-93.5 -31.5q-58 0 -94.5 34t-50 94.5t-0.5 141.5q20 122 77 186t138 64q55 0 89 -31.5t42 -88.5h-10l55 345h81l-55 -345h-13q25 57 65.5 88.5t92.5 31.5q59 0 96 -33.5t50.5 -94.5t0.5 -142q-20 -120 -77.5 -185t-139.5 -65
q-54 0 -88 31.5t-42 89.5h10l-51 -328h-81zM221 55q57 0 95 50t53 146q15 95 -9 145.5t-79 50.5t-94 -50.5t-54 -145.5q-15 -96 9 -146t79 -50zM534 55q55 0 95 50t55 146q15 95 -9.5 145.5t-80.5 50.5t-94 -50.5t-53 -145.5q-15 -96 8.5 -146t78.5 -50z" />
    <glyph glyph-name="uni0445" unicode="&#x445;" horiz-adv-x="544" 
d="M-27 0l270 279l-1 -40l-172 263h92l129 -205h-29l192 205h102l-252 -262l2 37l179 -277h-95l-137 219h30l-208 -219h-102z" />
    <glyph glyph-name="uni0446" unicode="&#x446;" horiz-adv-x="611" 
d="M453 -130l21 130h-434l79 502h81l-69 -438h263l69 438h80l-69 -438h78l-30 -194h-69z" />
    <glyph glyph-name="uni0447" unicode="&#x447;" horiz-adv-x="563" 
d="M364 0l32 204q-31 -17 -67 -26t-74 -9q-65 0 -108.5 22t-61 66.5t-7.5 111.5l21 133h80l-20 -127q-11 -73 17.5 -105.5t100.5 -32.5q37 0 67.5 8t60.5 27l37 230h80l-79 -502h-79z" />
    <glyph glyph-name="uni0448" unicode="&#x448;" horiz-adv-x="817" 
d="M40 0l79 502h78l-69 -438h212l69 438h77l-69 -438h213l68 438h78l-79 -502h-657z" />
    <glyph glyph-name="uni0449" unicode="&#x449;" horiz-adv-x="843" 
d="M686 -130l21 130h-667l79 502h78l-69 -438h212l69 438h77l-69 -438h213l68 438h78l-69 -438h78l-30 -194h-69z" />
    <glyph glyph-name="uni044A" unicode="&#x44a;" horiz-adv-x="631" 
d="M123 0l70 437h-159l10 65h239l-29 -180h147q100 0 143 -44.5t30 -123.5q-12 -79 -68 -116.5t-149 -37.5h-234zM213 58h145q61 0 96.5 23.5t43.5 75.5q9 56 -19 81.5t-90 25.5h-144z" />
    <glyph glyph-name="uni044B" unicode="&#x44b;" horiz-adv-x="744" 
d="M40 0l79 502h81l-29 -180h147q100 0 143.5 -44.5t30.5 -123.5q-12 -79 -68 -116.5t-150 -37.5h-234zM130 58h145q61 0 96.5 23.5t43.5 75.5q9 56 -19 81.5t-89 25.5h-145zM544 0l79 502h80l-79 -502h-80z" />
    <glyph glyph-name="uni044C" unicode="&#x44c;" horiz-adv-x="549" 
d="M40 0l79 502h81l-29 -180h147q100 0 143.5 -44.5t30.5 -123.5q-12 -79 -68 -116.5t-150 -37.5h-234zM130 58h145q61 0 96.5 23.5t43.5 75.5q9 56 -19 81.5t-89 25.5h-145z" />
    <glyph glyph-name="uni044D" unicode="&#x44d;" horiz-adv-x="520" 
d="M186 -9q-54 0 -97 15.5t-69 44.5l30 53q27 -26 61.5 -38t71.5 -12q83 0 135 49t67 131l11 -8h-267l10 60h269l-19 -27q11 91 -27 140t-120 49q-40 0 -80 -13t-74 -43l-24 55q32 30 84 47t105 17q76 0 128.5 -32.5t75 -93.5t8.5 -146q-13 -81 -51 -136t-96 -83.5
t-132 -28.5z" />
    <glyph glyph-name="uni044E" unicode="&#x44e;" horiz-adv-x="787" 
d="M463 -9q-103 0 -158.5 62t-46.5 174h-103l-36 -227h-79l79 502h80l-34 -210h102q26 106 95.5 162.5t167.5 56.5q76 0 126 -32t70.5 -92.5t6.5 -147.5q-13 -80 -50.5 -135.5t-93.5 -84t-126 -28.5zM469 57q69 0 119 49t65 143q15 98 -20.5 147.5t-108.5 49.5
q-70 0 -118.5 -49t-63.5 -143q-16 -98 19 -147.5t108 -49.5z" />
    <glyph glyph-name="uni044F" unicode="&#x44f;" horiz-adv-x="549" 
d="M-2 0l104 143q25 34 56 53t57 19h21l-10 -9q-78 0 -118 42t-29 116q11 64 61 101t141 37h228l-80 -502h-76l31 194h-82q-37 0 -65.5 -17.5t-49.5 -46.5l-95 -130h-94zM252 251h141l31 195h-133q-62 0 -95.5 -25t-39.5 -64q-8 -53 19 -79.5t77 -26.5z" />
    <glyph glyph-name="uni0450" unicode="&#x450;" horiz-adv-x="554" 
d="M278 -9q-83 0 -137.5 33.5t-76.5 96t-9 146.5q13 77 48.5 131.5t91 83.5t126.5 29q69 0 114.5 -30t64 -83.5t7.5 -124.5l-4 -29h-389l8 51h336l-18 -14q12 82 -19 126t-104 44q-53 0 -91 -23.5t-61 -64t-31 -91.5l-3 -24q-13 -92 26.5 -141.5t128.5 -49.5q44 0 86 13.5
t78 44.5l28 -57q-40 -32 -92 -49.5t-108 -17.5zM308 551l-141 202h85l114 -202h-58z" />
    <glyph glyph-name="uni0451" unicode="&#x451;" horiz-adv-x="554" 
d="M278 -9q-83 0 -137.5 33.5t-76.5 96t-9 146.5q13 77 48.5 131.5t91 83.5t126.5 29q69 0 114.5 -30t64 -83.5t7.5 -124.5l-4 -29h-389l8 51h336l-18 -14q12 82 -19 126t-104 44q-53 0 -91 -23.5t-61 -64t-31 -91.5l-3 -24q-13 -92 26.5 -141.5t128.5 -49.5q44 0 86 13.5
t78 44.5l28 -57q-40 -32 -92 -49.5t-108 -17.5zM392 609l13 86h87l-14 -86h-86zM218 609l13 86h86l-12 -86h-87z" />
    <glyph glyph-name="uni0452" unicode="&#x452;" horiz-adv-x="592" 
d="M256 -186l-15 63q55 12 87 33.5t49 56.5t25 87l38 243q13 75 -11.5 107.5t-85.5 32.5q-70 0 -116.5 -42.5t-57.5 -113.5l-45 -281h-81l93 582h-96l10 61h95l15 93h81l-15 -93h200l-10 -61h-199l-32 -199h-15q30 59 83 90t120 31q92 0 128 -53t20 -153l-38 -241
q-11 -75 -36 -122.5t-71 -75.5t-120 -45z" />
    <glyph glyph-name="uni0453" unicode="&#x453;" horiz-adv-x="445" 
d="M40 0l79 502h351l-11 -65h-269l-69 -437h-81zM258 551l134 202h88l-163 -202h-59z" />
    <glyph glyph-name="uni0454" unicode="&#x454;" horiz-adv-x="526" 
d="M273 -9q-80 0 -134 32.5t-76 94t-9 146.5q13 81 51 136t96.5 83t132.5 28q54 0 97 -15t69 -44l-30 -54q-28 27 -62.5 39t-71.5 12q-82 0 -134.5 -49t-67.5 -131l-7 17h267l-10 -60h-269l15 18q-10 -92 28 -141t120 -49q41 0 80.5 13.5t73.5 43.5l27 -55
q-30 -30 -82 -47.5t-104 -17.5z" />
    <glyph glyph-name="uni0455" unicode="&#x455;" horiz-adv-x="506" 
d="M218 -9q-57 0 -107 15.5t-79 41.5l29 57q33 -24 74.5 -37.5t87.5 -13.5q58 0 92 21t40 57q5 31 -12.5 51.5t-59.5 27.5l-72 11q-74 12 -103 52t-20 98q7 44 35.5 75t72.5 47.5t97 16.5q55 0 99.5 -14.5t70.5 -38.5l-31 -56q-26 22 -62.5 34.5t-76.5 12.5q-57 0 -90 -23
t-39 -58q-5 -32 10 -53.5t54 -27.5l74 -13q76 -13 106.5 -49.5t21.5 -93.5q-6 -43 -34.5 -74.5t-73.5 -48.5t-104 -17z" />
    <glyph glyph-name="uni0456" unicode="&#x456;" horiz-adv-x="248" 
d="M44 0l79 502h81l-79 -502h-81zM132 616l15 91h99l-15 -91h-99z" />
    <glyph glyph-name="uni0457" unicode="&#x457;" horiz-adv-x="248" 
d="M44 0l79 502h81l-79 -502h-81zM225 609l13 86h87l-14 -86h-86zM51 609l13 86h86l-12 -86h-87z" />
    <glyph glyph-name="uni0458" unicode="&#x458;" horiz-adv-x="248" 
d="M-57 -220q-14 0 -34 3t-34 9l12 68q11 -4 26.5 -7.5t28.5 -3.5q42 0 67 26.5t34 86.5l86 540h81l-87 -548q-14 -86 -59 -130t-121 -44zM137 616l15 91h99l-14 -91h-100z" />
    <glyph glyph-name="uni0459" unicode="&#x459;" horiz-adv-x="894" 
d="M13 -11l-22 65q38 16 65 39t46 58.5t33.5 88t26.5 126.5l22 136h362l-29 -180h147q100 0 143 -44.5t30 -123.5q-12 -79 -68 -116.5t-149 -37.5h-233l69 438h-207l-12 -79q-15 -86 -33.5 -148.5t-45 -105.5t-62.5 -71t-83 -45zM476 58h145q61 0 96.5 23.5t43.5 75.5
q9 56 -19 81.5t-90 25.5h-144z" />
    <glyph glyph-name="uni045A" unicode="&#x45a;" horiz-adv-x="906" 
d="M40 0l79 502h81l-33 -210h277l34 210h79l-28 -180h146q101 0 144 -44.5t30 -123.5q-12 -79 -68 -116.5t-150 -37.5h-233l36 227h-277l-36 -227h-81zM487 58h145q61 0 96.5 23.5t44.5 75.5q9 56 -19 81.5t-90 25.5h-145z" />
    <glyph glyph-name="uni045B" unicode="&#x45b;" horiz-adv-x="595" 
d="M44 0l92 582h-96l10 61h96l15 93h81l-15 -93h199l-10 -61h-199l-31 -196h-14q30 59 82.5 89.5t119.5 30.5q92 0 128 -52.5t20 -152.5l-47 -301h-81l47 300q13 75 -11.5 107t-85.5 32q-71 0 -117 -42.5t-57 -113.5l-45 -283h-81z" />
    <glyph glyph-name="uni045C" unicode="&#x45c;" horiz-adv-x="538" 
d="M40 0l79 502h81l-33 -211h93l199 211h93l-228 -243l-20 25q28 -3 47 -14t34.5 -33t32.5 -61l76 -176h-83l-68 156q-12 28 -25.5 43.5t-32.5 21.5t-48 6h-80l-36 -227h-81zM313 551l134 202h88l-163 -202h-59z" />
    <glyph glyph-name="uni045D" unicode="&#x45d;" horiz-adv-x="595" 
d="M40 0l79 502h74l-67 -427l-28 1l388 426h69l-80 -502h-73l67 428l29 -1l-389 -427h-69zM315 551l-141 202h85l114 -202h-58z" />
    <glyph glyph-name="uni045E" unicode="&#x45e;" horiz-adv-x="541" 
d="M-10 -227l-15 67q49 11 83 25.5t59 38.5t47 60l34 59l-4 -34l-138 513h85l111 -441h-26l250 441h87l-317 -544q-29 -48 -57.5 -80.5t-59.5 -53t-65 -32.5t-74 -19zM320 549q-39 0 -72.5 14.5t-57 44t-33.5 72.5l47 18q14 -50 44 -74t75 -24q46 0 76.5 22t57.5 75l46 -17
q-20 -48 -48.5 -76.5t-62.5 -41.5t-72 -13z" />
    <glyph glyph-name="uni045F" unicode="&#x45f;" horiz-adv-x="595" 
d="M201 -130l21 130h-182l79 502h81l-69 -438h274l69 438h80l-79 -502h-183l-21 -130h-70z" />
    <glyph glyph-name="uni0462" unicode="&#x462;" horiz-adv-x="745" 
d="M119 0l85 536h-179l10 65h179l17 104h80l-17 -104h247l-11 -65h-246l-23 -142h213q118 0 174 -52.5t40 -156.5q-14 -92 -83 -138.5t-177 -46.5h-309zM210 67h213q84 0 130 31t56 97q10 68 -24.5 99.5t-118.5 31.5h-215z" />
    <glyph glyph-name="uni0463" unicode="&#x463;" horiz-adv-x="632" 
d="M124 0l70 443h-159l9 59h159l38 234h80l-37 -234h168l-9 -59h-168l-21 -130h153q95 0 137.5 -43t30.5 -121q-13 -78 -67 -113.5t-147 -35.5h-237zM213 54h147q60 0 95.5 23.5t43.5 75.5q8 56 -19.5 80.5t-87.5 24.5h-147z" />
    <glyph glyph-name="uni046A" unicode="&#x46a;" horiz-adv-x="980" 
d="M-32 0l162 246q46 71 105.5 107.5t148.5 36.5h68l-10 -20l-245 335h730l-352 -335l-3 20h60q63 0 103.5 -17t65.5 -49.5t40 -77.5l85 -246h-84l-69 207q-14 44 -34 69t-48 35t-67 10h-82l-51 -321h-82l51 321h-82q-61 0 -102.5 -27t-80.5 -87l-133 -207h-94zM509 392h2
l293 282l-5 -30h-498l4 30z" />
    <glyph glyph-name="uni046B" unicode="&#x46b;" horiz-adv-x="807" 
d="M-41 0l131 170q33 44 60 69t57.5 35.5t75.5 10.5h74l-13 -19l-168 236h534l-242 -236l-8 19h75q44 0 70 -10.5t44.5 -35.5t38.5 -69l76 -170h-83l-68 150q-13 29 -27 44.5t-32.5 21.5t-47.5 6h-67l-35 -222h-81l35 222h-68q-28 0 -47.5 -6t-37 -21.5t-39.5 -44.5
l-115 -150h-92zM406 285h2l184 185l-4 -24h-313l4 24z" />
    <glyph glyph-name="uni0472" unicode="&#x472;" horiz-adv-x="772" 
d="M116 326l10 65h575l-10 -65h-575zM80 365q18 112 67.5 189.5t126.5 118.5t176 41q105 0 172.5 -47.5t93.5 -131.5t8 -195q-17 -111 -67.5 -189t-127 -119t-176.5 -41q-104 0 -171 47t-93 131.5t-9 195.5zM166 355q-15 -90 3 -155t66.5 -100.5t124.5 -35.5q115 0 186 76
t93 210q14 90 -4.5 155.5t-66.5 100.5t-124 35q-116 0 -186 -75.5t-92 -210.5z" />
    <glyph glyph-name="uni0473" unicode="&#x473;" horiz-adv-x="581" 
d="M257 -9q-75 0 -125.5 32t-70.5 93t-7 148q13 80 50.5 135.5t93.5 83.5t125 28q77 0 126.5 -32t70 -92.5t6.5 -147.5q-13 -80 -50.5 -135.5t-93.5 -84t-125 -28.5zM263 57q72 0 122.5 49t65.5 144q16 95 -21 145.5t-112 50.5q-73 0 -123 -49t-64 -144q-16 -94 19 -145
t113 -51zM96 223l8 57h382l-8 -57h-382z" />
    <glyph glyph-name="uni0474" unicode="&#x474;" horiz-adv-x="767" 
d="M268 0l-193 705h85l170 -639h-30l271 459q33 55 62.5 91.5t61.5 58t70.5 30.5t89.5 9l-3 -68q-47 0 -81 -12.5t-62.5 -44t-63.5 -87.5l-302 -502h-75z" />
    <glyph glyph-name="uni0475" unicode="&#x475;" horiz-adv-x="567" 
d="M191 0l-135 502h85l111 -442h-28l189 331q27 48 54.5 73.5t63 36t84.5 10.5l-3 -65q-32 0 -55.5 -8.5t-42 -28t-38.5 -53.5l-207 -356h-78z" />
    <glyph glyph-name="uni048A" unicode="&#x48a;" horiz-adv-x="767" 
d="M552 -157l79 157h-89l11 69h183l-113 -226h-71zM48 0l112 705h77l-95 -603l-24 2l548 601h65l-112 -705h-77l95 603l22 -2l-548 -601h-63zM452 760q-43 0 -79.5 14.5t-62.5 43.5t-38 74l49 17q16 -50 49 -73.5t84 -23.5q52 0 88 21.5t68 74.5l44 -16q-22 -48 -54 -77
t-69.5 -42t-78.5 -13z" />
    <glyph glyph-name="uni048B" unicode="&#x48b;" horiz-adv-x="621" 
d="M401 -130l69 130h-68l10 64h160l-101 -194h-70zM40 0l79 502h74l-67 -427l-28 1l388 426h69l-80 -502h-73l67 428l29 -1l-389 -427h-69zM348 549q-39 0 -72.5 14.5t-56.5 44t-34 72.5l48 18q14 -50 43.5 -74t74.5 -24q46 0 76.5 22t58.5 75l45 -17q-19 -48 -48 -76.5
t-62.5 -41.5t-72.5 -13z" />
    <glyph glyph-name="uni048C" unicode="&#x48c;" horiz-adv-x="734" 
d="M108 0l85 537h-148l10 64h148l17 104h80l-17 -104h147l-10 -64h-147l-23 -143h212q118 0 174.5 -52.5t40.5 -156.5q-14 -92 -83 -138.5t-178 -46.5h-308zM198 67h213q85 0 130.5 31t55.5 97q10 68 -24 99.5t-119 31.5h-214z" />
    <glyph glyph-name="uni048D" unicode="&#x48d;" horiz-adv-x="632" 
d="M124 0l70 443h-159l9 59h159l38 234h80l-37 -234h168l-9 -59h-168l-21 -130h153q95 0 137.5 -43t30.5 -121q-13 -78 -67 -113.5t-147 -35.5h-237zM213 54h147q60 0 95.5 23.5t43.5 75.5q8 56 -19.5 80.5t-87.5 24.5h-147z" />
    <glyph glyph-name="uni048E" unicode="&#x48e;" horiz-adv-x="651" 
d="M48 0l112 705h269q125 0 178 -56t36 -164q-10 -65 -51 -114.5t-105 -72.5l4 15l45 -86l-44 -26l-54 102l15 -15q-17 -3 -37 -4.5t-43 -1.5h-199l-45 -282h-81zM185 350h189q12 0 28.5 1t27.5 4l-13 -12l-42 83l43 26l53 -99l-17 10q47 14 74 46.5t34 80.5q12 74 -21 111
t-122 37h-188z" />
    <glyph glyph-name="uni048F" unicode="&#x48f;" horiz-adv-x="610" 
d="M8 -216l96 602q4 28 6.5 57.5t3.5 58.5h79l-9 -119h-15q27 59 77.5 93.5t121.5 34.5q70 0 116.5 -32.5t65.5 -93t5 -146.5q-12 -73 -41 -123.5t-76 -82.5l1 14l40 -63l-40 -28l-41 65l11 -2q-25 -15 -52.5 -21.5t-58.5 -6.5q-66 0 -110.5 34t-55.5 93h11l-54 -334h-81z
M346 446q-69 0 -119 -49t-66 -143q-14 -98 21.5 -147.5t107.5 -49.5q47 0 82 22l-4 -11l-45 70l41 28l47 -76l-12 7q29 24 48 61.5t27 90.5q16 98 -19 147.5t-109 49.5z" />
    <glyph glyph-name="uni0490" unicode="&#x490;" horiz-adv-x="556" 
d="M48 0l112 705h379l25 155h74l-36 -225h-372l-100 -635h-82z" />
    <glyph glyph-name="uni0491" unicode="&#x491;" horiz-adv-x="445" 
d="M40 0l79 502h280l19 116h70l-28 -181h-271l-68 -437h-81z" />
    <glyph glyph-name="uni0492" unicode="&#x492;" horiz-adv-x="594" 
d="M86 0l51 321h-100l10 63h100l51 321h453l-11 -70h-372l-38 -251h191l-10 -63h-191l-51 -321h-83z" />
    <glyph glyph-name="uni0493" unicode="&#x493;" horiz-adv-x="468" 
d="M64 0l34 213h-100l10 60h99l36 229h350l-11 -64h-269l-26 -165h152l-10 -60h-151l-34 -213h-80z" />
    <glyph glyph-name="uni0494" unicode="&#x494;" horiz-adv-x="684" 
d="M348 -189q-28 0 -55.5 4t-44.5 11l9 68q18 -8 41 -12t50 -4q66 0 108 43t56 127l15 94q18 114 -25.5 167t-149.5 53q-49 0 -92 -9.5t-79 -28.5l-52 -324h-81l112 705h453l-12 -70h-371l-38 -236q33 17 80.5 26.5t96.5 9.5q142 0 202.5 -73t38.5 -214l-15 -97
q-13 -84 -46.5 -137t-84.5 -78t-116 -25z" />
    <glyph glyph-name="uni0495" unicode="&#x495;" horiz-adv-x="563" 
d="M256 -186l-12 63q56 12 88 34t48.5 57t24.5 86l11 72q12 76 -12 108t-90 32q-72 0 -118.5 -42.5t-57.5 -112.5l-17 -111h-81l79 502h351l-10 -62h-270l-36 -228l-16 -1q31 59 83.5 90.5t121.5 31.5q95 0 132.5 -52.5t21.5 -149.5l-12 -76q-10 -69 -35 -116.5t-71 -77.5
t-123 -47z" />
    <glyph glyph-name="uni0496" unicode="&#x496;" horiz-adv-x="1005" 
d="M902 -157l25 157h-49l11 69h123l-36 -226h-74zM-32 0l161 245q43 64 93.5 99.5t117.5 42.5l-32 -26l-184 344h88l173 -330l-17 16h112l50 314h81l-51 -314h115l-30 -16l279 330h97l-293 -344l-28 26q55 -7 95.5 -42.5t62.5 -99.5l85 -245h-84l-69 207q-21 61 -56.5 87.5
t-93.5 26.5h-90l-51 -321h-81l51 321h-90q-59 0 -102 -26.5t-82 -87.5l-133 -207h-94z" />
    <glyph glyph-name="uni0497" unicode="&#x497;" horiz-adv-x="847" 
d="M703 -130l21 130h-38l10 64h109l-31 -194h-71zM-41 0l132 176q30 39 53.5 61t47 33t52.5 14l-22 -25l-154 243h85l134 -211h83l34 211h80l-34 -211h78l201 211h94l-230 -243l-19 25q26 -3 45.5 -14t35.5 -33t33 -61l76 -176h-83l-67 156q-13 28 -26.5 43.5t-32.5 21.5
t-48 6h-67l-35 -227h-81l36 227h-69q-28 0 -47.5 -6t-37 -21t-39.5 -44l-116 -156h-92z" />
    <glyph glyph-name="uni0498" unicode="&#x498;" horiz-adv-x="654" 
d="M224 -157l30 192h75l-31 -192h-74zM289 -9q-89 0 -156.5 24.5t-107.5 66.5l33 63q44 -41 100.5 -61.5t133.5 -20.5q96 0 148.5 33.5t62.5 97.5q10 67 -26.5 98t-118.5 31h-180l11 68h166q84 0 128 31.5t53 89.5q10 62 -30 96t-131 34q-66 0 -127 -19.5t-116 -59.5l-29 64
q57 42 130 64.5t151 22.5q87 0 142 -24.5t78.5 -68.5t14.5 -105q-10 -61 -53.5 -105t-119.5 -59l2 13q73 -9 110.5 -56t24.5 -125q-9 -60 -45 -103.5t-98 -66.5t-151 -23z" />
    <glyph glyph-name="uni0499" unicode="&#x499;" horiz-adv-x="508" 
d="M157 -130l27 168h68l-27 -168h-68zM212 -9q-63 0 -116.5 17.5t-83.5 48.5l30 57q32 -30 77 -45.5t97 -15.5q72 0 109 23t43 65q7 41 -18 62.5t-79 21.5h-118l9 60h109q48 0 79 21.5t37 59.5q6 39 -21 61.5t-91 22.5q-52 0 -98 -13t-89 -40l-25 55q47 30 103.5 44.5
t121.5 14.5q95 0 140.5 -37.5t34.5 -106.5q-7 -45 -44.5 -78t-91.5 -40l2 13q61 -3 92 -38.5t22 -90.5q-10 -63 -66.5 -102.5t-164.5 -39.5z" />
    <glyph glyph-name="uni049A" unicode="&#x49a;" horiz-adv-x="684" 
d="M560 -157l25 157h-49l11 69h123l-36 -226h-74zM48 0l112 705h81l-50 -314h144l-29 -16l279 330h97l-294 -344l-28 26q61 -8 99 -43t60 -99l84 -245h-84l-68 207q-20 62 -56.5 88t-94.5 26h-119l-52 -321h-81z" />
    <glyph glyph-name="uni049B" unicode="&#x49b;" horiz-adv-x="581" 
d="M433 -130l21 130h-38l10 64h109l-31 -194h-71zM40 0l79 502h81l-33 -211h93l199 211h93l-228 -243l-20 25q28 -3 47 -14t34.5 -33t32.5 -61l76 -176h-83l-68 156q-12 28 -25.5 43.5t-32.5 21.5t-48 6h-80l-36 -227h-81z" />
    <glyph glyph-name="uni049C" unicode="&#x49c;" horiz-adv-x="686" 
d="M48 0l112 705h82l-50 -314h75l27 167h53l-26 -167h27l265 314h97l-294 -344l-28 26q63 -8 101 -42.5t60 -99.5l84 -245h-84l-68 207q-20 62 -57 88t-94 26h-31l13 10l-28 -176h-54l26 166h-74l-52 -321h-82z" />
    <glyph glyph-name="uni049D" unicode="&#x49d;" horiz-adv-x="568" 
d="M40 0l79 502h81l-33 -211h56l18 116h55l-19 -116h13l199 211h94l-228 -243l-22 25q28 -3 47 -14t35 -33t33 -61l76 -176h-83l-68 156q-12 27 -25 42.5t-32 22t-48 6.5h-16l17 12l-22 -138h-54l19 126h-55l-36 -227h-81z" />
    <glyph glyph-name="uni049E" unicode="&#x49e;" horiz-adv-x="704" 
d="M93 0l86 541h-146l10 61h146l16 103h81l-16 -103h145l-10 -61h-145l-24 -150h152l-32 -21l285 335h96l-299 -349l-21 28q52 -7 88 -41t59 -98l84 -245h-84l-68 207q-20 62 -56.5 88t-94.5 26h-119l-52 -321h-81z" />
    <glyph glyph-name="uni049F" unicode="&#x49f;" horiz-adv-x="541" 
d="M43 0l93 582h-96l10 61h95l15 93h81l-15 -93h200l-10 -61h-199l-47 -293h94l196 206h93l-226 -239l-19 24q29 -3 47 -13.5t33 -32.5t32 -62l77 -172h-83l-68 154q-13 29 -26.5 44.5t-32 21.5t-47.5 6h-80l-36 -226h-81z" />
    <glyph glyph-name="uni04A0" unicode="&#x4a0;" horiz-adv-x="799" 
d="M71 636l11 69h303l-11 -69h-303zM192 0l112 705h81l-50 -314h144l-29 -16l279 330h96l-293 -344l-28 26q61 -8 99 -43t60 -99l84 -245h-84l-68 207q-20 62 -56.5 88t-94.5 26h-120l-51 -321h-81z" />
    <glyph glyph-name="uni04A1" unicode="&#x4a1;" horiz-adv-x="621" 
d="M123 0l69 437h-158l10 65h239l-33 -211h93l199 211h94l-228 -243l-22 25q28 -3 47.5 -14t35 -33t32.5 -61l77 -176h-84l-68 156q-12 28 -25.5 43.5t-32.5 21.5t-48 6h-80l-36 -227h-81z" />
    <glyph glyph-name="uni04A2" unicode="&#x4a2;" horiz-adv-x="808" 
d="M659 -157l25 157h-108l11 69h182l-35 -226h-75zM48 0l112 705h83l-50 -312h425l50 312h82l-112 -705h-82l51 322h-425l-51 -322h-83z" />
    <glyph glyph-name="uni04A3" unicode="&#x4a3;" horiz-adv-x="599" 
d="M467 -130l21 130h-86l10 64h156l-31 -194h-70zM40 0l79 502h81l-33 -210h277l33 210h80l-79 -502h-81l36 227h-276l-36 -227h-81z" />
    <glyph glyph-name="uni04A4" unicode="&#x4a4;" horiz-adv-x="955" 
d="M48 0l112 705h81l-49 -312h426l50 312h345l-11 -70h-265l-99 -635h-82l51 323h-426l-52 -323h-81z" />
    <glyph glyph-name="uni04A5" unicode="&#x4a5;" horiz-adv-x="757" 
d="M40 0l79 502h81l-33 -210h271l34 210h311l-11 -65h-231l-68 -437h-81l36 227h-271l-36 -227h-81z" />
    <glyph glyph-name="uni04A8" unicode="&#x4a8;" horiz-adv-x="833" 
d="M363 -9q-108 0 -177.5 45.5t-96.5 129.5t-9 199q18 113 69.5 190.5t129 118t172.5 40.5q25 0 43 -2t30 -5l-12 -70q-16 3 -32 4.5t-30 1.5q-113 0 -188.5 -75t-97.5 -213q-22 -140 31 -218.5t177 -78.5q81 0 145.5 32t107 92t55.5 145q12 76 -14.5 118t-84.5 42
q-55 0 -93.5 -42t-50.5 -118q-13 -86 9.5 -146t77 -91.5t134.5 -31.5q42 0 76.5 8t67.5 24l12 -65q-30 -17 -70.5 -25.5t-90.5 -8.5q-74 0 -133 25t-98.5 71t-56.5 110.5t-4 142.5q11 67 41.5 115.5t77.5 74.5t106 26q65 0 107.5 -28.5t59.5 -80t5 -121.5
q-12 -73 -47 -134.5t-88.5 -106t-119.5 -69.5t-140 -25z" />
    <glyph glyph-name="uni04A9" unicode="&#x4a9;" horiz-adv-x="659" 
d="M279 -9q-85 0 -139.5 34.5t-76 97t-8.5 144.5q13 79 50.5 133.5t94.5 82.5t125 28q33 0 59.5 -4.5t42.5 -14.5l-16 -59q-15 8 -38 12t-44 4q-79 0 -131 -52t-66 -142q-16 -98 26 -151t129 -53q93 0 149.5 44.5t68.5 124.5q8 51 -10 79t-56 28q-37 0 -63.5 -27.5
t-33.5 -75.5q-12 -87 31 -130t134 -43q27 0 58.5 7.5t58.5 21.5l12 -59q-31 -15 -63 -22.5t-67 -7.5q-59 0 -105 17.5t-77 50t-43.5 77.5t-3.5 98q7 44 29 78t57.5 54t79.5 20q46 0 77.5 -20.5t45.5 -58.5t6 -91q-8 -49 -34.5 -90t-66.5 -71.5t-89 -47t-103 -16.5z" />
    <glyph glyph-name="uni04AA" unicode="&#x4aa;" horiz-adv-x="684" 
d="M294 -157l31 192h74l-30 -192h-75zM372 -9q-115 0 -186 47t-97.5 131.5t-9.5 195.5q18 112 69 189.5t130 118.5t181 41q72 0 127.5 -21t94.5 -60l-34 -68q-43 41 -87.5 57.5t-104.5 16.5q-118 0 -193 -74t-96 -209q-14 -87 4 -152.5t70.5 -101.5t138.5 -36q56 0 109.5 19
t100.5 62l29 -66q-47 -43 -112 -66.5t-134 -23.5z" />
    <glyph glyph-name="uni04AB" unicode="&#x4ab;" horiz-adv-x="505" 
d="M194 -130l28 168h67l-26 -168h-69zM263 -9q-75 0 -127 32.5t-73.5 94t-8.5 146.5q20 121 93 184t179 63q48 0 90.5 -15t69.5 -44l-32 -56q-27 25 -60 37t-65 12q-75 0 -126.5 -48t-66.5 -141q-15 -95 22.5 -146.5t114.5 -51.5q35 0 73 13t70 43l28 -58
q-31 -30 -81.5 -47.5t-99.5 -17.5z" />
    <glyph glyph-name="uni04AC" unicode="&#x4ac;" horiz-adv-x="604" 
d="M304 -157l26 157h-111l100 635h-248l11 70h580l-12 -70h-248l-90 -566h103l-36 -226h-75z" />
    <glyph glyph-name="uni04AD" unicode="&#x4ad;" horiz-adv-x="457" 
d="M216 -130l21 130h-86l10 64h157l-32 -194h-70zM147 0l69 437h-182l10 65h446l-10 -65h-183l-69 -437h-81z" />
    <glyph glyph-name="uni04AE" unicode="&#x4ae;" horiz-adv-x="607" 
d="M222 0l52 329l9 -56l-222 432h91l176 -351h-21l287 351h96l-360 -434l27 58l-52 -329h-83z" />
    <glyph glyph-name="uni04AF" unicode="&#x4af;" horiz-adv-x="537" 
d="M153 -216l34 218l-134 500h84l112 -442h-28l252 442h87l-292 -497l-34 -221h-81z" />
    <glyph glyph-name="uni04B0" unicode="&#x4b0;" horiz-adv-x="607" 
d="M222 0l52 329l9 -56l-222 432h91l176 -351h-21l287 351h96l-360 -434l27 58l-52 -329h-83zM105 291l8 54h411l-8 -54h-411z" />
    <glyph glyph-name="uni04B1" unicode="&#x4b1;" horiz-adv-x="537" 
d="M158 -188l23 144h-126l10 61h128l-3 -22l-137 507h84l112 -442h-28l252 442h87l-296 -505l3 20h129l-10 -61h-125l-23 -144h-80z" />
    <glyph glyph-name="uni04B2" unicode="&#x4b2;" horiz-adv-x="680" 
d="M552 -157l25 157h-48l10 69h123l-35 -226h-75zM-34 0l341 376v-31l-212 360h94l172 -301h-25l266 301h103l-325 -360l-1 31l222 -376h-95l-183 319h32l-286 -319h-103z" />
    <glyph glyph-name="uni04B3" unicode="&#x4b3;" horiz-adv-x="567" 
d="M426 -130l21 130h-38l11 64h109l-31 -194h-72zM-27 0l269 279v-40l-172 263h92l128 -205h-28l192 205h102l-252 -262l2 37l179 -277h-95l-137 219h30l-208 -219h-102z" />
    <glyph glyph-name="uni04B4" unicode="&#x4b4;" horiz-adv-x="948" 
d="M786 -157l25 157h-618l100 635h-222l11 70h517l-12 -70h-212l-89 -565h425l101 635h82l-101 -635h104l-37 -227h-74z" />
    <glyph glyph-name="uni04B5" unicode="&#x4b5;" horiz-adv-x="710" 
d="M551 -130l21 130h-449l69 437h-158l10 65h399l-11 -65h-160l-58 -373h278l70 438h80l-69 -438h78l-30 -194h-70z" />
    <glyph glyph-name="uni04B6" unicode="&#x4b6;" horiz-adv-x="734" 
d="M567 -157l25 157h-108l11 69h182l-36 -226h-74zM482 0l47 298q-36 -17 -84.5 -26.5t-98.5 -9.5q-92 0 -150.5 32t-82 96t-9.5 159l26 156h82l-24 -150q-19 -118 25 -169t151 -51q46 0 90.5 9.5t86.5 29.5l53 331h82l-112 -705h-82z" />
    <glyph glyph-name="uni04B7" unicode="&#x4b7;" horiz-adv-x="564" 
d="M432 -130l21 130h-86l10 64h156l-31 -194h-70zM364 0l32 204q-31 -17 -67 -26t-74 -9q-65 0 -108.5 22t-61 66.5t-7.5 111.5l21 133h80l-20 -127q-11 -73 17.5 -105.5t100.5 -32.5q37 0 67.5 8t60.5 27l37 230h80l-79 -502h-79z" />
    <glyph glyph-name="uni04B8" unicode="&#x4b8;" horiz-adv-x="692" 
d="M482 0l48 298q-36 -16 -83.5 -25.5t-92.5 -9.5l17 13l-26 -165h-57l27 165l10 -14q-81 5 -135.5 36.5t-77 94t-8.5 156.5l26 156h82l-24 -150q-18 -112 21.5 -163t131.5 -56l-18 -11l29 184h56l-29 -184l-16 10q45 0 91.5 9.5t87.5 29.5l52 331h82l-112 -705h-82z" />
    <glyph glyph-name="uni04B9" unicode="&#x4b9;" horiz-adv-x="578" 
d="M378 0l32 204q-29 -16 -62.5 -24.5t-65.5 -9.5l18 15l-18 -116h-54l18 116l17 -15q-103 0 -152 50t-33 149l21 133h80l-20 -128q-11 -72 18 -104.5t96 -33.5l-21 -10l23 140h54l-22 -140l-15 10q34 0 65.5 8.5t63.5 25.5l36 232h81l-80 -502h-80z" />
    <glyph glyph-name="uni04BA" unicode="&#x4ba;" horiz-adv-x="692" 
d="M48 0l112 705h82l-47 -298q36 18 86 27t98 9q91 0 150 -32t82 -96t8 -159l-24 -156h-83l24 150q18 114 -26 167.5t-148 53.5q-46 0 -91.5 -8.5t-87.5 -30.5l-53 -332h-82z" />
    <glyph glyph-name="uni04BB" unicode="&#x4bb;" horiz-adv-x="595" 
d="M44 0l117 736h81l-56 -345h-14q30 59 82.5 89.5t119.5 30.5q93 0 129 -52.5t20 -152.5l-48 -306h-81l48 305q12 75 -12 107.5t-85 32.5q-71 0 -117 -43t-57 -113l-46 -289h-81z" />
    <glyph glyph-name="uni04BC" unicode="&#x4bc;" horiz-adv-x="909" 
d="M536 -9q-85 0 -146 25.5t-98.5 72t-52 109t-6.5 135.5l17 -18h-41q-97 0 -132.5 43.5t-21.5 127.5l9 56h81l-9 -54q-9 -55 10 -79.5t79 -24.5h28l-15 -15q19 110 68.5 187t125.5 117.5t171 40.5q110 0 173.5 -45t84.5 -127t1 -193l-5 -33h-558l20 28q-13 -87 7.5 -149.5
t74 -96.5t141.5 -34q63 0 118.5 19.5t102.5 61.5l29 -64q-32 -28 -72 -48.5t-86 -31t-98 -10.5zM599 643q-112 0 -183.5 -74t-93.5 -212l-12 27h495l-26 -32q25 142 -15.5 216.5t-164.5 74.5z" />
    <glyph glyph-name="uni04BD" unicode="&#x4bd;" horiz-adv-x="657" 
d="M385 -9q-83 0 -136.5 33.5t-76 93t-11.5 137.5l3 -12h-17q-68 0 -94 33t-17 96l6 37h67l-6 -38q-7 -40 6.5 -58.5t52.5 -18.5h28l-27 -17q15 74 50.5 126.5t90 80t124.5 27.5q69 0 114 -30t64 -83.5t8 -124.5l-4 -29h-385l14 12q-15 -93 23 -146t131 -53q44 0 86 13.5
t78 44.5l28 -57q-40 -32 -92 -49.5t-108 -17.5zM424 451q-76 0 -122.5 -48t-58.5 -123l-10 15h332l-18 -14q12 82 -19 126t-104 44z" />
    <glyph glyph-name="uni04BE" unicode="&#x4be;" horiz-adv-x="909" 
d="M536 -9q-85 0 -146 25.5t-98.5 72t-52 109t-6.5 135.5l17 -18h-41q-97 0 -132.5 43.5t-21.5 127.5l9 56h81l-9 -54q-9 -55 10 -79.5t79 -24.5h28l-15 -15q19 110 68.5 187t125.5 117.5t171 40.5q110 0 173.5 -45t84.5 -127t1 -193l-5 -33h-558l20 28q-13 -87 7.5 -149.5
t74 -96.5t141.5 -34q63 0 118.5 19.5t102.5 61.5l29 -64q-32 -28 -72 -48.5t-86 -31t-98 -10.5zM599 643q-112 0 -183.5 -74t-93.5 -212l-12 27h495l-26 -32q25 142 -15.5 216.5t-164.5 74.5zM543 -192q-47 0 -72 25t-25 65q0 46 30 82.5t76 55.5l26 -36q-38 -15 -56 -39.5
t-18 -51.5q0 -23 13.5 -37t39.5 -14q13 0 26 3t28 9l10 -47q-16 -6 -36 -10.5t-42 -4.5z" />
    <glyph glyph-name="uni04BF" unicode="&#x4bf;" horiz-adv-x="657" 
d="M385 -9q-83 0 -136.5 33.5t-76 93t-11.5 137.5l3 -12h-17q-68 0 -94 33t-17 96l6 37h67l-6 -38q-7 -40 6.5 -58.5t52.5 -18.5h28l-27 -17q15 74 50.5 126.5t90 80t124.5 27.5q69 0 114 -30t64 -83.5t8 -124.5l-4 -29h-385l14 12q-15 -93 23 -146t131 -53q44 0 86 13.5
t78 44.5l28 -57q-40 -32 -92 -49.5t-108 -17.5zM424 451q-76 0 -122.5 -48t-58.5 -123l-10 15h332l-18 -14q12 82 -19 126t-104 44zM405 -192q-47 0 -72 25t-25 65q0 46 30 82.5t76 55.5l26 -36q-38 -15 -56 -39.5t-18 -51.5q0 -23 13.5 -37t39.5 -14q13 0 26 3t28 9l10 -47
q-16 -6 -36 -10.5t-42 -4.5z" />
    <glyph glyph-name="uni04C0" unicode="&#x4c0;" horiz-adv-x="259" 
d="M48 0l112 705h83l-112 -705h-83z" />
    <glyph glyph-name="uni04C1" unicode="&#x4c1;" horiz-adv-x="996" 
d="M-32 0l161 245q43 64 93.5 99.5t117.5 42.5l-32 -26l-184 344h88l173 -330l-17 16h112l50 314h81l-51 -314h115l-30 -16l279 330h97l-293 -344l-28 26q55 -7 95.5 -42.5t62.5 -99.5l85 -245h-84l-69 207q-21 61 -56.5 87.5t-93.5 26.5h-90l-51 -321h-81l51 321h-90
q-59 0 -102 -26.5t-82 -87.5l-133 -207h-94zM574 760q-43 0 -79.5 14.5t-62 43.5t-38.5 74l50 17q16 -50 48.5 -73.5t83.5 -23.5q53 0 89 21.5t67 74.5l45 -16q-23 -48 -54.5 -77t-69 -42t-79.5 -13z" />
    <glyph glyph-name="uni04C2" unicode="&#x4c2;" horiz-adv-x="805" 
d="M-41 0l132 176q30 39 53.5 61t47 33t52.5 14l-22 -25l-154 243h85l134 -211h83l34 211h80l-34 -211h78l201 211h94l-230 -243l-19 25q26 -3 45.5 -14t35.5 -33t33 -61l76 -176h-83l-67 156q-13 28 -26.5 43.5t-32.5 21.5t-48 6h-67l-35 -227h-81l36 227h-69
q-28 0 -47.5 -6t-37 -21t-39.5 -44l-116 -156h-92zM454 549q-39 0 -72.5 14.5t-57 44t-33.5 72.5l47 18q14 -50 44 -74t75 -24q46 0 76.5 22t57.5 75l46 -17q-20 -48 -48.5 -76.5t-62.5 -41.5t-72 -13z" />
    <glyph glyph-name="uni04C3" unicode="&#x4c3;" horiz-adv-x="684" 
d="M348 -189q-28 0 -55.5 4t-44.5 10l9 70q18 -8 41 -12.5t50 -4.5q67 0 109.5 42.5t54.5 126.5l8 54q18 117 -28 169.5t-159 52.5h-152l-52 -323h-81l112 705h81l-49 -311h149l-33 -19l279 330h96l-293 -344l-6 30q124 -6 183 -75.5t37 -208.5l-9 -58q-13 -82 -46.5 -135
t-84.5 -78t-116 -25z" />
    <glyph glyph-name="uni04C4" unicode="&#x4c4;" horiz-adv-x="551" 
d="M244 -186l-12 63q55 12 87 33t47.5 55t23.5 84l6 32q13 77 -17.5 111.5t-102.5 34.5h-119l-36 -227h-81l79 502h81l-33 -211h93l199 211h92l-227 -243l-29 31q67 0 112 -22.5t63.5 -68t6.5 -113.5l-5 -35q-10 -65 -34.5 -111.5t-71 -77.5t-122.5 -48z" />
    <glyph glyph-name="uni04C5" unicode="&#x4c5;" horiz-adv-x="782" 
d="M565 -157l79 157h-89l10 69h184l-113 -226h-71zM18 -15l-37 63q46 22 85 52t69 78.5t54.5 123t41.5 184.5l34 219h481l-112 -705h-82l101 635h-323l-27 -168q-17 -111 -43 -191.5t-61.5 -135.5t-80.5 -92.5t-100 -62.5z" />
    <glyph glyph-name="uni04C6" unicode="&#x4c6;" horiz-adv-x="613" 
d="M390 -130l69 130h-68l10 64h160l-101 -194h-70zM13 -11l-22 65q38 16 65 39t46 58.5t33.5 88t26.5 126.5l22 136h363l-80 -502h-80l69 438h-207l-12 -79q-15 -86 -33.5 -148.5t-45 -105.5t-62.5 -71t-83 -45z" />
    <glyph glyph-name="uni04C7" unicode="&#x4c7;" horiz-adv-x="766" 
d="M447 -186q-16 0 -36.5 2t-40.5 6l11 69q18 -4 34 -6.5t30 -2.5q45 0 73 28t37 89l52 323h-425l-51 -322h-83l112 705h83l-50 -312h425l50 312h82l-112 -705q-10 -64 -33.5 -105.5t-62.5 -61t-95 -19.5z" />
    <glyph glyph-name="uni04C8" unicode="&#x4c8;" horiz-adv-x="598" 
d="M232 -193l4 63l47 3q47 4 76 32t37 80l38 242h-277l-36 -227h-81l79 502h81l-33 -210h277l34 210h79l-80 -509q-10 -61 -34.5 -100.5t-65.5 -59t-100 -23.5z" />
    <glyph glyph-name="uni04C9" unicode="&#x4c9;" horiz-adv-x="786" 
d="M586 -157l80 157h-90l11 69h184l-113 -226h-72zM48 0l112 705h83l-50 -312h425l50 312h82l-112 -705h-82l51 322h-425l-51 -322h-83z" />
    <glyph glyph-name="uni04CA" unicode="&#x4ca;" horiz-adv-x="620" 
d="M401 -130l69 130h-68l10 64h160l-102 -194h-69zM40 0l79 502h81l-33 -210h277l33 210h80l-79 -502h-81l36 227h-276l-36 -227h-81z" />
    <glyph glyph-name="uni04CB" unicode="&#x4cb;" horiz-adv-x="692" 
d="M437 -157h-76l36 226h138l-11 -69h-62zM482 0l47 298q-36 -17 -84.5 -26.5t-98.5 -9.5q-92 0 -150.5 32t-82 96t-9.5 159l26 156h82l-24 -150q-19 -118 25 -169t151 -51q46 0 90.5 9.5t86.5 29.5l53 331h82l-112 -705h-82z" />
    <glyph glyph-name="uni04CC" unicode="&#x4cc;" horiz-adv-x="585" 
d="M334 -130h-70l29 182h139l-8 -52h-69zM364 0l32 204q-31 -17 -67 -26t-74 -9q-65 0 -108.5 22t-61 66.5t-7.5 111.5l21 133h80l-20 -127q-11 -73 17.5 -105.5t100.5 -32.5q37 0 67.5 8t60.5 27l37 230h80l-79 -502h-79z" />
    <glyph glyph-name="uni04CD" unicode="&#x4cd;" horiz-adv-x="878" 
d="M686 -157l79 157h-89l11 69h184l-114 -226h-71zM49 0l112 705h72l182 -639h-30l385 639h72l-112 -705h-76l95 598h32l-364 -598h-53l-174 598h29l-95 -598h-75z" />
    <glyph glyph-name="uni04CE" unicode="&#x4ce;" horiz-adv-x="698" 
d="M480 -130l69 130h-68l10 64h160l-101 -194h-70zM40 0l79 502h68l135 -337l243 337h67l-79 -502h-72l65 412h24l-238 -331h-41l-133 332h19l-65 -413h-72z" />
    <glyph glyph-name="uni04CF" unicode="&#x4cf;" horiz-adv-x="248" 
d="M44 0l117 736h81l-117 -736h-81z" />
    <glyph glyph-name="uni04D0" unicode="&#x4d0;" horiz-adv-x="735" 
d="M-22 0l423 705h72l204 -705h-82l-56 201l33 -21h-430l43 21l-118 -201h-89zM424 610l-221 -380l-21 18h371l-21 -18l-105 380h-3zM442 760q-43 0 -79.5 14.5t-62 43.5t-38.5 74l50 17q16 -50 48.5 -73.5t83.5 -23.5q53 0 89 21.5t67 74.5l45 -16q-23 -48 -54.5 -77
t-69 -42t-79.5 -13z" />
    <glyph glyph-name="uni04D1" unicode="&#x4d1;" horiz-adv-x="610" 
d="M242 -9q-69 0 -116 32.5t-66 93.5t-6 147q20 121 90 184t168 63q66 0 111 -34t55 -92l-11 -2l29 119h78q-7 -29 -14.5 -58.5t-11.5 -57.5l-61 -386h-81l19 120h15q-26 -60 -76.5 -94.5t-121.5 -34.5zM264 57q69 0 119 49t65 143q16 98 -20 147.5t-109 49.5
q-70 0 -119.5 -49t-64.5 -143q-15 -98 20 -147.5t109 -49.5zM349 549q-39 0 -72.5 14.5t-57 44t-33.5 72.5l47 18q14 -50 44 -74t75 -24q46 0 76.5 22t57.5 75l46 -17q-20 -48 -48.5 -76.5t-62.5 -41.5t-72 -13z" />
    <glyph glyph-name="uni04D2" unicode="&#x4d2;" horiz-adv-x="735" 
d="M-22 0l423 705h72l204 -705h-82l-56 201l33 -21h-430l43 21l-118 -201h-89zM424 610l-221 -380l-21 18h371l-21 -18l-105 380h-3zM498 806l14 86h86l-14 -86h-86zM324 806l14 86h86l-14 -86h-86z" />
    <glyph glyph-name="uni04D3" unicode="&#x4d3;" horiz-adv-x="610" 
d="M242 -9q-69 0 -116 32.5t-66 93.5t-6 147q20 121 90 184t168 63q66 0 111 -34t55 -92l-11 -2l29 119h78q-7 -29 -14.5 -58.5t-11.5 -57.5l-61 -386h-81l19 120h15q-26 -60 -76.5 -94.5t-121.5 -34.5zM264 57q69 0 119 49t65 143q16 98 -20 147.5t-109 49.5
q-70 0 -119.5 -49t-64.5 -143q-15 -98 20 -147.5t109 -49.5zM400 609l13 86h87l-14 -86h-86zM226 609l13 86h86l-12 -86h-87z" />
    <glyph glyph-name="uni04D4" unicode="&#x4d4;" horiz-adv-x="1006" 
d="M-42 0l542 705h528l-12 -68h-399l25 22l-19 -289l-14 22h348l-11 -69h-341l14 10l-18 -288l-8 24h334l-11 -69h-396l13 196l24 -16h-385l36 22l-154 -202h-96zM534 636l-307 -407l-9 20h330l-12 -22l28 409h-30z" />
    <glyph glyph-name="uni04D5" unicode="&#x4d5;" horiz-adv-x="891" 
d="M214 -9q-59 0 -98.5 22.5t-56.5 60.5t-10 84q10 53 48.5 82.5t105.5 41.5t160 12h51l-7 -51h-53q-68 0 -117 -7.5t-77.5 -27.5t-34.5 -57q-7 -44 19.5 -71.5t80.5 -27.5q66 0 110.5 43t55.5 111l18 115q10 66 -18 95.5t-81 29.5q-49 0 -91 -12t-88 -39l-26 58
q29 19 63.5 32t71.5 19.5t73 6.5q81 0 120 -32.5t43 -92.5h-27q35 61 91 93t123 32q68 0 112 -30t62.5 -83.5t8.5 -124.5l-5 -29h-380l7 51h328l-18 -14q12 82 -18.5 126t-101.5 44q-50 0 -87.5 -23.5t-60.5 -64t-30 -91.5l-3 -24q-13 -92 26 -141.5t125 -49.5
q42 0 82.5 13.5t77.5 44.5l28 -57q-38 -32 -90.5 -49.5t-105.5 -17.5q-89 0 -142.5 41t-69.5 116h22q-27 -73 -82.5 -115t-133.5 -42z" />
    <glyph glyph-name="uni04D6" unicode="&#x4d6;" horiz-adv-x="588" 
d="M48 0l112 705h450l-11 -68h-370l-38 -245h347l-11 -69h-347l-41 -254h370l-11 -69h-450zM410 760q-43 0 -79.5 14.5t-62 43.5t-38.5 74l50 17q16 -50 48.5 -73.5t83.5 -23.5q53 0 89 21.5t67 74.5l45 -16q-23 -48 -54.5 -77t-69 -42t-79.5 -13z" />
    <glyph glyph-name="uni04D7" unicode="&#x4d7;" horiz-adv-x="554" 
d="M278 -9q-83 0 -137.5 33.5t-76.5 96t-9 146.5q13 77 48.5 131.5t91 83.5t126.5 29q69 0 114.5 -30t64 -83.5t7.5 -124.5l-4 -29h-389l8 51h336l-18 -14q12 82 -19 126t-104 44q-53 0 -91 -23.5t-61 -64t-31 -91.5l-3 -24q-13 -92 26.5 -141.5t128.5 -49.5q44 0 86 13.5
t78 44.5l28 -57q-40 -32 -92 -49.5t-108 -17.5zM342 549q-39 0 -72.5 14.5t-57 44t-33.5 72.5l47 18q14 -50 44 -74t75 -24q46 0 76.5 22t57.5 75l46 -17q-20 -48 -48.5 -76.5t-62.5 -41.5t-72 -13z" />
    <glyph glyph-name="uni04D8" unicode="&#x4d8;" horiz-adv-x="750" 
d="M340 -9q-109 0 -172.5 45.5t-85 127t-4.5 189.5l6 36h556l-11 -68h-494l27 32q-14 -95 -2.5 -159.5t56 -97.5t127.5 -33q111 0 182 73t93 213t-30.5 216t-179.5 76q-71 0 -125.5 -18t-111.5 -60l-29 64q57 44 124.5 65.5t150.5 21.5q110 0 179.5 -45t97 -128.5
t9.5 -198.5q-17 -108 -66.5 -187t-124.5 -121.5t-172 -42.5z" />
    <glyph glyph-name="uni04D9" unicode="&#x4d9;" horiz-adv-x="554" 
d="M240 -9q-73 0 -119.5 30t-65.5 84t-9 124l5 29h390l-8 -51h-337l21 15q-15 -82 16.5 -126t108.5 -44q50 0 87.5 23.5t60.5 64t30 90.5l3 24q13 93 -26.5 142.5t-129.5 49.5q-42 0 -84 -13t-79 -45l-28 57q41 34 93.5 50t109.5 16q81 0 135 -33.5t76.5 -95.5t8.5 -147
q-12 -76 -47.5 -131t-89 -84t-122.5 -29z" />
    <glyph glyph-name="uni04DA" unicode="&#x4da;" horiz-adv-x="750" 
d="M340 -9q-109 0 -172.5 45.5t-85 127t-4.5 189.5l6 36h556l-11 -68h-494l27 32q-14 -95 -2.5 -159.5t56 -97.5t127.5 -33q111 0 182 73t93 213t-30.5 216t-179.5 76q-71 0 -125.5 -18t-111.5 -60l-29 64q57 44 124.5 65.5t150.5 21.5q110 0 179.5 -45t97 -128.5
t9.5 -198.5q-17 -108 -66.5 -187t-124.5 -121.5t-172 -42.5zM508 806l14 86h86l-14 -86h-86zM334 806l14 86h86l-14 -86h-86z" />
    <glyph glyph-name="uni04DB" unicode="&#x4db;" horiz-adv-x="554" 
d="M240 -9q-73 0 -119.5 30t-65.5 84t-9 124l5 29h390l-8 -51h-337l21 15q-15 -82 16.5 -126t108.5 -44q50 0 87.5 23.5t60.5 64t30 90.5l3 24q13 93 -26.5 142.5t-129.5 49.5q-42 0 -84 -13t-79 -45l-28 57q41 34 93.5 50t109.5 16q81 0 135 -33.5t76.5 -95.5t8.5 -147
q-12 -76 -47.5 -131t-89 -84t-122.5 -29zM370 609l13 86h87l-14 -86h-86zM196 609l13 86h86l-12 -86h-87z" />
    <glyph glyph-name="uni04DC" unicode="&#x4dc;" horiz-adv-x="996" 
d="M-32 0l161 245q43 64 93.5 99.5t117.5 42.5l-32 -26l-184 344h88l173 -330l-17 16h112l50 314h81l-51 -314h115l-30 -16l279 330h97l-293 -344l-28 26q55 -7 95.5 -42.5t62.5 -99.5l85 -245h-84l-69 207q-21 61 -56.5 87.5t-93.5 26.5h-90l-51 -321h-81l51 321h-90
q-59 0 -102 -26.5t-82 -87.5l-133 -207h-94zM630 806l14 86h86l-14 -86h-86zM456 806l14 86h86l-14 -86h-86z" />
    <glyph glyph-name="uni04DD" unicode="&#x4dd;" horiz-adv-x="805" 
d="M-41 0l132 176q30 39 53.5 61t47 33t52.5 14l-22 -25l-154 243h85l134 -211h83l34 211h80l-34 -211h78l201 211h94l-230 -243l-19 25q26 -3 45.5 -14t35.5 -33t33 -61l76 -176h-83l-67 156q-13 28 -26.5 43.5t-32.5 21.5t-48 6h-67l-35 -227h-81l36 227h-69
q-28 0 -47.5 -6t-37 -21t-39.5 -44l-116 -156h-92zM504 609l13 86h87l-14 -86h-86zM330 609l13 86h86l-12 -86h-87z" />
    <glyph glyph-name="uni04DE" unicode="&#x4de;" horiz-adv-x="654" 
d="M289 -9q-89 0 -156.5 24.5t-107.5 66.5l33 63q44 -41 100.5 -61.5t133.5 -20.5q96 0 148.5 33.5t62.5 97.5q10 67 -26.5 98t-118.5 31h-180l11 68h166q84 0 128 31.5t53 89.5q10 62 -30 96t-131 34q-66 0 -127 -19.5t-116 -59.5l-29 64q57 42 130 64.5t151 22.5
q87 0 142 -24.5t78.5 -68.5t14.5 -105q-10 -61 -53.5 -105t-119.5 -59l2 13q73 -9 110.5 -56t24.5 -125q-9 -60 -45 -103.5t-98 -66.5t-151 -23zM455 806l14 86h86l-14 -86h-86zM281 806l14 86h86l-14 -86h-86z" />
    <glyph glyph-name="uni04DF" unicode="&#x4df;" horiz-adv-x="508" 
d="M212 -9q-63 0 -116.5 17.5t-83.5 48.5l30 57q32 -30 77 -45.5t97 -15.5q72 0 109 23t43 65q7 41 -18 62.5t-79 21.5h-118l9 60h109q48 0 79 21.5t37 59.5q6 39 -21 61.5t-91 22.5q-52 0 -98 -13t-89 -40l-25 55q47 30 103.5 44.5t121.5 14.5q95 0 140.5 -37.5
t34.5 -106.5q-7 -45 -44.5 -78t-91.5 -40l2 13q61 -3 92 -38.5t22 -90.5q-10 -63 -66.5 -102.5t-164.5 -39.5zM352 611l13 86h87l-14 -86h-86zM178 611l13 86h86l-12 -86h-87z" />
    <glyph glyph-name="uni04E0" unicode="&#x4e0;" horiz-adv-x="654" 
d="M288 -9q-89 0 -157 24.5t-109 66.5l35 64q42 -42 98.5 -62.5t130.5 -20.5q104 0 155.5 34.5t61.5 98.5q10 66 -25.5 96.5t-116.5 30.5h-131l10 57l305 281l-5 -26h-424l11 70h510l-9 -58l-306 -281l-8 23h68q108 0 163.5 -50t38.5 -153q-10 -60 -46.5 -104t-98.5 -67.5
t-151 -23.5z" />
    <glyph glyph-name="uni04E1" unicode="&#x4e1;" horiz-adv-x="507" 
d="M172 -189q-68 0 -121.5 16.5t-85.5 46.5l29 59q32 -29 75 -43t100 -14q82 0 130 37t58 103q12 72 -22 108t-112 36h-109l7 40l274 258l-1 -20h-330l11 64h408l-8 -54l-270 -252l-16 24h57q72 0 118 -25t65 -70.5t9 -106.5q-10 -66 -44 -112t-90 -70.5t-132 -24.5z" />
    <glyph glyph-name="uni04E2" unicode="&#x4e2;" horiz-adv-x="747" 
d="M48 0l112 705h77l-95 -603l-24 2l548 601h65l-112 -705h-77l95 603l22 -2l-548 -601h-63zM302 814l8 55h327l-9 -55h-326z" />
    <glyph glyph-name="uni04E3" unicode="&#x4e3;" horiz-adv-x="595" 
d="M40 0l79 502h74l-67 -427l-28 1l388 426h69l-80 -502h-73l67 428l29 -1l-389 -427h-69zM210 625l8 55h297l-9 -55h-296z" />
    <glyph glyph-name="uni04E4" unicode="&#x4e4;" horiz-adv-x="747" 
d="M48 0l112 705h77l-95 -603l-24 2l548 601h65l-112 -705h-77l95 603l22 -2l-548 -601h-63zM507 806l14 86h86l-14 -86h-86zM333 806l14 86h86l-14 -86h-86z" />
    <glyph glyph-name="uni04E5" unicode="&#x4e5;" horiz-adv-x="595" 
d="M40 0l79 502h74l-67 -427l-28 1l388 426h69l-80 -502h-73l67 428l29 -1l-389 -427h-69zM399 609l13 86h87l-14 -86h-86zM225 609l13 86h86l-12 -86h-87z" />
    <glyph glyph-name="uni04E6" unicode="&#x4e6;" horiz-adv-x="772" 
d="M80 365q18 112 67.5 189.5t126.5 118.5t176 41q105 0 172.5 -47.5t93.5 -131.5t8 -195q-17 -111 -67.5 -189t-127 -119t-176.5 -41q-104 0 -171 47t-93 131.5t-9 195.5zM166 355q-15 -90 3 -155t66.5 -100.5t124.5 -35.5q115 0 186 76t93 210q14 90 -4.5 155.5
t-66.5 100.5t-124 35q-116 0 -186 -75.5t-92 -210.5zM526 806l14 86h86l-14 -86h-86zM352 806l14 86h86l-14 -86h-86z" />
    <glyph glyph-name="uni04E7" unicode="&#x4e7;" horiz-adv-x="581" 
d="M257 -9q-75 0 -125 32t-70.5 93t-7.5 148q13 80 50.5 135.5t93.5 83.5t126 28q76 0 125.5 -32t70 -92.5t6.5 -147.5q-13 -80 -50.5 -135.5t-93 -84t-125.5 -28.5zM263 57q69 0 118.5 49t64.5 143q16 98 -20 147.5t-108 49.5q-70 0 -119 -49t-64 -143q-15 -98 19.5 -147.5
t108.5 -49.5zM392 609l13 86h87l-14 -86h-86zM218 609l13 86h86l-12 -86h-87z" />
    <glyph glyph-name="uni04E8" unicode="&#x4e8;" horiz-adv-x="772" 
d="M116 326l10 65h575l-10 -65h-575zM80 365q18 112 67.5 189.5t126.5 118.5t176 41q105 0 172.5 -47.5t93.5 -131.5t8 -195q-17 -111 -67.5 -189t-127 -119t-176.5 -41q-104 0 -171 47t-93 131.5t-9 195.5zM166 355q-15 -90 3 -155t66.5 -100.5t124.5 -35.5q115 0 186 76
t93 210q14 90 -4.5 155.5t-66.5 100.5t-124 35q-116 0 -186 -75.5t-92 -210.5z" />
    <glyph glyph-name="uni04E9" unicode="&#x4e9;" horiz-adv-x="581" 
d="M257 -9q-75 0 -125.5 32t-70.5 93t-7 148q13 80 50.5 135.5t93.5 83.5t125 28q77 0 126.5 -32t70 -92.5t6.5 -147.5q-13 -80 -50.5 -135.5t-93.5 -84t-125 -28.5zM263 57q72 0 122.5 49t65.5 144q16 95 -21 145.5t-112 50.5q-73 0 -123 -49t-64 -144q-16 -94 19 -145
t113 -51zM96 223l8 57h382l-8 -57h-382z" />
    <glyph glyph-name="uni04EA" unicode="&#x4ea;" horiz-adv-x="772" 
d="M116 326l10 65h575l-10 -65h-575zM80 365q18 112 67.5 189.5t126.5 118.5t176 41q105 0 172.5 -47.5t93.5 -131.5t8 -195q-17 -111 -67.5 -189t-127 -119t-176.5 -41q-104 0 -171 47t-93 131.5t-9 195.5zM166 355q-15 -90 3 -155t66.5 -100.5t124.5 -35.5q115 0 186 76
t93 210q14 90 -4.5 155.5t-66.5 100.5t-124 35q-116 0 -186 -75.5t-92 -210.5zM520 806l14 86h86l-14 -86h-86zM346 806l14 86h86l-14 -86h-86z" />
    <glyph glyph-name="uni04EB" unicode="&#x4eb;" horiz-adv-x="581" 
d="M257 -9q-75 0 -125.5 32t-70.5 93t-7 148q13 80 50.5 135.5t93.5 83.5t125 28q77 0 126.5 -32t70 -92.5t6.5 -147.5q-13 -80 -50.5 -135.5t-93.5 -84t-125 -28.5zM263 57q72 0 122.5 49t65.5 144q16 95 -21 145.5t-112 50.5q-73 0 -123 -49t-64 -144q-16 -94 19 -145
t113 -51zM96 223l8 57h382l-8 -57h-382zM392 609l13 86h87l-14 -86h-86zM218 609l13 86h86l-12 -86h-87z" />
    <glyph glyph-name="uni04EC" unicode="&#x4ec;" horiz-adv-x="690" 
d="M258 -9q-72 0 -127.5 21t-95.5 61l34 66q43 -40 86.5 -56.5t108.5 -16.5q121 0 193.5 72t97.5 199l25 -13h-396l11 69h394l-31 -31q17 130 -37 204t-178 74q-58 0 -112.5 -20t-102.5 -62l-30 66q51 45 117.5 67.5t134.5 22.5q86 0 147.5 -27.5t98.5 -77t48.5 -118.5
t-1.5 -151q-18 -111 -69 -189t-131.5 -119t-184.5 -41zM445 806l14 86h86l-14 -86h-86zM271 806l14 86h86l-14 -86h-86z" />
    <glyph glyph-name="uni04ED" unicode="&#x4ed;" horiz-adv-x="520" 
d="M186 -9q-54 0 -97 15.5t-69 44.5l30 53q27 -26 61.5 -38t71.5 -12q83 0 135 49t67 131l11 -8h-267l10 60h269l-19 -27q11 91 -27 140t-120 49q-40 0 -80 -13t-74 -43l-24 55q32 30 84 47t105 17q76 0 128.5 -32.5t75 -93.5t8.5 -146q-13 -81 -51 -136t-96 -83.5
t-132 -28.5zM339 609l13 86h87l-14 -86h-86zM165 609l13 86h86l-12 -86h-87z" />
    <glyph glyph-name="uni04EE" unicode="&#x4ee;" horiz-adv-x="663" 
d="M160 0l159 229v-32l-248 508h86l210 -434h-18l299 434h90l-487 -705h-91zM260 814l8 55h327l-9 -55h-326z" />
    <glyph glyph-name="uni04EF" unicode="&#x4ef;" horiz-adv-x="539" 
d="M-11 -227l-15 67q49 11 83 25.5t59 38.5t47 60l34 59l-4 -34l-138 513h85l111 -441h-26l250 441h87l-317 -544q-29 -48 -57.5 -80.5t-59.5 -53t-65 -32.5t-74 -19zM174 625l8 55h297l-9 -55h-296z" />
    <glyph glyph-name="uni04F0" unicode="&#x4f0;" horiz-adv-x="663" 
d="M160 0l159 229v-32l-248 508h86l210 -434h-18l299 434h90l-487 -705h-91zM465 806l14 86h86l-14 -86h-86zM291 806l14 86h86l-14 -86h-86z" />
    <glyph glyph-name="uni04F1" unicode="&#x4f1;" horiz-adv-x="539" 
d="M-11 -227l-15 67q49 11 83 25.5t59 38.5t47 60l34 59l-4 -34l-138 513h85l111 -441h-26l250 441h87l-317 -544q-29 -48 -57.5 -80.5t-59.5 -53t-65 -32.5t-74 -19zM363 609l13 86h87l-14 -86h-86zM189 609l13 86h86l-12 -86h-87z" />
    <glyph glyph-name="uni04F2" unicode="&#x4f2;" horiz-adv-x="663" 
d="M160 0l159 229v-32l-248 508h86l210 -434h-18l299 434h90l-487 -705h-91zM328 765l100 172h80l-133 -172h-47zM455 765l104 172h80l-137 -172h-47z" />
    <glyph glyph-name="uni04F3" unicode="&#x4f3;" horiz-adv-x="539" 
d="M-11 -227l-15 67q49 11 83 25.5t59 38.5t47 60l34 59l-4 -34l-138 513h85l111 -441h-26l250 441h87l-317 -544q-29 -48 -57.5 -80.5t-59.5 -53t-65 -32.5t-74 -19zM350 551l72 202h75l-102 -202h-45zM222 551l72 202h75l-101 -202h-46z" />
    <glyph glyph-name="uni04F4" unicode="&#x4f4;" horiz-adv-x="692" 
d="M482 0l47 298q-36 -17 -84.5 -26.5t-98.5 -9.5q-92 0 -150.5 32t-82 96t-9.5 159l26 156h82l-24 -150q-19 -118 25 -169t151 -51q46 0 90.5 9.5t86.5 29.5l53 331h82l-112 -705h-82zM457 806l14 86h86l-14 -86h-86zM283 806l14 86h86l-14 -86h-86z" />
    <glyph glyph-name="uni04F5" unicode="&#x4f5;" horiz-adv-x="563" 
d="M364 0l32 204q-31 -17 -67 -26t-74 -9q-65 0 -108.5 22t-61 66.5t-7.5 111.5l21 133h80l-20 -127q-11 -73 17.5 -105.5t100.5 -32.5q37 0 67.5 8t60.5 27l37 230h80l-79 -502h-79zM373 609l13 86h87l-14 -86h-86zM199 609l13 86h86l-12 -86h-87z" />
    <glyph glyph-name="uni04F6" unicode="&#x4f6;" horiz-adv-x="556" 
d="M136 -157l25 157h-108l11 69h182l-35 -226h-75zM48 0l112 705h453l-12 -70h-371l-100 -635h-82z" />
    <glyph glyph-name="uni04F7" unicode="&#x4f7;" horiz-adv-x="446" 
d="M109 -130l21 130h-86l11 64h156l-32 -194h-70zM40 0l79 502h351l-11 -65h-269l-69 -437h-81z" />
    <glyph glyph-name="uni04F8" unicode="&#x4f8;" horiz-adv-x="874" 
d="M48 0l112 705h82l-49 -311h182q118 0 174.5 -52.5t40.5 -156.5q-14 -92 -83 -138.5t-178 -46.5h-281zM141 67h183q84 0 129.5 31t56.5 97q10 68 -24.5 99.5t-118.5 31.5h-185zM663 0l112 705h83l-112 -705h-83zM569 806l14 86h86l-14 -86h-86zM395 806l14 86h86l-14 -86
h-86z" />
    <glyph glyph-name="uni04F9" unicode="&#x4f9;" horiz-adv-x="744" 
d="M40 0l79 502h81l-29 -180h147q100 0 143.5 -44.5t30.5 -123.5q-12 -79 -68 -116.5t-150 -37.5h-234zM130 58h145q61 0 96.5 23.5t43.5 75.5q9 56 -19 81.5t-89 25.5h-145zM544 0l79 502h80l-79 -502h-80zM474 609l13 86h87l-14 -86h-86zM300 609l13 86h86l-12 -86h-87z
" />
    <glyph glyph-name="uni04FA" unicode="&#x4fa;" horiz-adv-x="594" 
d="M25 -182l3 59l45 4q58 5 86 34t37 85h-110l51 321h-100l10 63h100l51 321h453l-11 -70h-372l-38 -251h191l-10 -63h-191l-41 -252h103l-9 -59q-14 -91 -63 -137t-136 -52z" />
    <glyph glyph-name="uni04FB" unicode="&#x4fb;" horiz-adv-x="468" 
d="M6 -182l4 60l46 4q43 4 66 33t31 85h-89l34 218h-99l10 58h99l35 226h350l-11 -64h-268l-25 -162h150l-10 -58h-150l-26 -165h82l-7 -43q-15 -91 -60.5 -137t-112.5 -51z" />
    <glyph glyph-name="uni04FC" unicode="&#x4fc;" horiz-adv-x="652" 
d="M358 -185l-5 67q63 7 95.5 29t38.5 59q6 36 -9.5 72.5t-39.5 78.5l-115 198h32l-286 -319h-103l341 376v-31l-212 360h94l172 -301h-25l266 301h103l-325 -360l-1 31l135 -229q30 -51 46 -94t8 -93q-9 -59 -60 -96.5t-150 -48.5z" />
    <glyph glyph-name="uni04FD" unicode="&#x4fd;" horiz-adv-x="544" 
d="M268 -185l-5 60q56 7 86 26t36 56q4 27 -8 54.5t-42 76.5l-82 131h29l-207 -219h-102l269 279l-1 -40l-171 263h93l127 -205h-29l193 205h101l-251 -262l2 37l97 -151q26 -39 41 -67t20.5 -52t1.5 -51q-6 -40 -31 -70t-67 -47.5t-100 -23.5z" />
    <glyph glyph-name="uni04FE" unicode="&#x4fe;" horiz-adv-x="652" 
d="M-34 0l341 376v-31l-212 360h94l172 -301h-25l266 301h103l-325 -360l-1 31l222 -376h-95l-183 319h32l-286 -319h-103zM135 336l8 54h411l-8 -54h-411z" />
    <glyph glyph-name="uni04FF" unicode="&#x4ff;" horiz-adv-x="544" 
d="M-27 0l270 279l-1 -40l-172 263h92l129 -205h-29l192 205h102l-252 -262l2 37l179 -277h-95l-137 219h30l-208 -219h-102zM63 229l8 54h411l-8 -54h-411z" />
    <glyph glyph-name="uni0510" unicode="&#x510;" horiz-adv-x="654" 
d="M303 -9q-96 0 -154.5 27.5t-82 76t-14.5 109.5q12 71 62.5 113.5t128.5 52.5l-2 -14q-65 13 -97 59.5t-22 118.5q14 81 85.5 130.5t189.5 49.5q82 0 145.5 -21.5t103.5 -57.5l-32 -63q-41 35 -96 52.5t-120 17.5q-87 0 -137 -34t-59 -94t27 -91.5t114 -31.5h167l-11 -68
h-181q-80 0 -126.5 -29.5t-55.5 -84.5q-11 -70 30.5 -108t144.5 -38q77 0 140.5 20t118.5 61l29 -64q-52 -40 -127 -64.5t-169 -24.5z" />
    <glyph glyph-name="uni0511" unicode="&#x511;" horiz-adv-x="509" 
d="M227 -9q-110 0 -159 41.5t-38 111.5q8 54 49.5 87t103.5 36l-3 -13q-50 6 -77.5 38t-18.5 84q11 66 69.5 100.5t147.5 34.5q54 0 103 -14t87 -42l-29 -53q-33 23 -75 35t-88 12q-61 0 -98 -22.5t-43 -62.5q-6 -37 18 -58t72 -21h108l-9 -60h-118q-54 0 -84.5 -20
t-36.5 -57q-8 -47 22 -70.5t102 -23.5q54 0 103.5 14.5t89.5 43.5l23 -55q-39 -31 -97.5 -48.5t-123.5 -17.5z" />
    </font>
</defs>
</svg>
