<?xml version="1.0" standalone="no"?>
<!DOCTYPE svg PUBLIC "-//W3C//DTD SVG 1.1//EN" "http://www.w3.org/Graphics/SVG/1.1/DTD/svg11.dtd" >
<svg xmlns="http://www.w3.org/2000/svg" xmlns:xlink="http://www.w3.org/1999/xlink" version="1.1">
<metadata>
Created by FontForge 20201107 at Thu Sep 30 21:20:51 2021
 By 
Copyright 2016 The Mulish Project Authors (https://github.com/googlefonts/mulish)
</metadata>
<defs>
<font id="Mulish-Light" horiz-adv-x="0" >
  <font-face 
    font-family="Mulish Light"
    font-weight="300"
    font-stretch="normal"
    units-per-em="1000"
    panose-1="0 0 0 0 0 0 0 0 0 0"
    ascent="800"
    descent="-200"
    x-height="501"
    cap-height="705"
    bbox="-245 -270 1278 1039"
    underline-thickness="44"
    underline-position="-107"
    unicode-range="U+000D-FB02"
  />
<missing-glyph horiz-adv-x="500" 
 />
    <glyph glyph-name="fi" unicode="fi" horiz-adv-x="550" 
d="M107 0v452h-100v49h115l-15 -16v87q0 80 39.5 124t113.5 44q18 0 38.5 -3.5t33.5 -8.5v-54q-12 5 -29 9t-36 4q-50 0 -75 -30.5t-25 -91.5v-80l-10 16h309v-501h-61v452h-237v-452h-61zM395 624v76h82v-76h-82z" />
    <glyph glyph-name="fl" unicode="fl" horiz-adv-x="552" 
d="M107 0v452h-100v49h115l-15 -16v87q0 80 40 124t114 44q19 0 39 -3.5t33 -8.5v-54q-12 5 -29 9t-36 4q-33 0 -55.5 -14t-34 -40.5t-11.5 -67.5v-80l-10 16h154v-49h-143v-452h-61zM407 0v736h61v-736h-61z" />
    <glyph glyph-name=".notdef" horiz-adv-x="500" 
 />
    <glyph glyph-name="uni0000" 
 />
    <glyph glyph-name="uni0000" 
 />
    <glyph glyph-name="nonmarkingreturn" horiz-adv-x="333" 
 />
    <glyph glyph-name="CR" unicode="&#xd;" horiz-adv-x="255" 
 />
    <glyph glyph-name="space" unicode=" " horiz-adv-x="255" 
 />
    <glyph glyph-name="exclam" unicode="!" horiz-adv-x="219" 
d="M91 173l-19 532h76l-19 -532h-38zM67 0v86h85v-86h-85z" />
    <glyph glyph-name="quotedbl" unicode="&#x22;" horiz-adv-x="366" 
d="M86 434l-17 271h73l-15 -271h-41zM241 434l-17 271h73l-15 -271h-41z" />
    <glyph glyph-name="numbersign" unicode="#" horiz-adv-x="600" 
d="M90 0l37 187h-101v49h110l49 241h-138v50h148l36 178h53l-36 -178h172l35 178h54l-36 -178h101v-50h-111l-49 -241h140v-49h-149l-38 -187h-54l38 187h-171l-36 -187h-54zM190 236h171l49 241h-172z" />
    <glyph glyph-name="dollar" unicode="$" horiz-adv-x="600" 
d="M283 -115v126l15 -15q-71 0 -134.5 20.5t-112.5 64.5l26 51q48 -41 100 -60.5t125 -19.5q91 0 136 37t45 95q0 49 -33 76.5t-108 43.5l-98 21q-90 19 -133.5 64t-43.5 119q0 57 28 102t79 71t118 28l-9 -13v124h54v-124l-10 12q52 -1 106.5 -22.5t93.5 -64.5l-24 -50
q-41 43 -89.5 62.5t-109.5 19.5q-81 0 -129.5 -39.5t-48.5 -105.5q0 -51 31 -81.5t99 -44.5l97 -21q98 -20 145 -61.5t47 -112.5q0 -57 -29 -98.5t-78.5 -65t-115.5 -27.5l15 16v-127h-54z" />
    <glyph glyph-name="percent" unicode="%" horiz-adv-x="931" 
d="M284 0h-57l421 705h57zM227 282q-80 0 -125.5 56.5t-45.5 159.5q0 102 46 158.5t125 56.5t125 -56.5t46 -158.5q0 -103 -46 -159.5t-125 -56.5zM227 329q54 0 84.5 42.5t30.5 126.5q0 83 -30.5 125.5t-84.5 42.5t-84.5 -42.5t-30.5 -125.5q0 -85 30.5 -127t84.5 -42z
M705 -8q-80 0 -125.5 56.5t-45.5 159.5q0 102 46 158.5t125 56.5q80 0 125.5 -56.5t45.5 -158.5q0 -103 -45.5 -159.5t-125.5 -56.5zM705 39q54 0 84.5 42.5t30.5 126.5q0 83 -30.5 125.5t-84.5 42.5q-53 0 -83.5 -42.5t-30.5 -125.5q0 -85 30.5 -127t83.5 -42z" />
    <glyph glyph-name="ampersand" unicode="&#x26;" horiz-adv-x="663" 
d="M649 -8q-46 23 -84.5 54.5t-64.5 59.5h16q-41 -54 -102 -84t-134 -30q-70 0 -120 21.5t-76 60t-26 91.5q0 68 40 116.5t116 99.5l32 21l-8 -12q-49 54 -70.5 93t-21.5 81q0 45 20.5 78t58 52t88.5 19q64 0 107.5 -36.5t43.5 -100.5q0 -35 -14.5 -66t-48.5 -62t-94 -69
l2 16l202 -223h-14q26 41 41 103.5t17 132.5h55q-2 -83 -22 -154t-53 -125l-2 21q25 -28 63 -59t81 -53zM281 44q65 0 114.5 26t85.5 77l-1 -21l-220 241l22 -1l-32 -21q-46 -31 -75 -58t-42.5 -55t-13.5 -65q0 -58 41.5 -90.5t120.5 -32.5zM313 664q-49 0 -79 -27.5
t-30 -72.5q0 -23 8 -42.5t26.5 -44t50.5 -60.5l-18 -4q73 47 105.5 82.5t32.5 75.5q0 42 -26.5 67.5t-69.5 25.5z" />
    <glyph glyph-name="quotesingle" unicode="'" horiz-adv-x="211" 
d="M86 434l-17 271h73l-15 -271h-41z" />
    <glyph glyph-name="parenleft" unicode="(" horiz-adv-x="300" 
d="M219 -180q-39 75 -64.5 146.5t-38 145t-12.5 151.5q0 79 12.5 152t38 144t64.5 146h52q-50 -110 -76.5 -220.5t-26.5 -221.5t26.5 -221.5t76.5 -221.5h-52z" />
    <glyph glyph-name="parenright" unicode=")" horiz-adv-x="300" 
d="M81 -180h-52q51 110 77.5 221t26.5 221q0 111 -26.5 222t-77.5 221h52q40 -75 65.5 -146.5t37.5 -144.5t12 -152q0 -78 -12 -151t-37.5 -144.5t-65.5 -146.5z" />
    <glyph glyph-name="asterisk" unicode="*" horiz-adv-x="453" 
d="M132 371l-40 29l100 131l-158 48l17 48l154 -55l-5 164h51l-4 -165l157 56l15 -48l-158 -48l100 -131l-41 -29l-93 137z" />
    <glyph glyph-name="plus" unicode="+" horiz-adv-x="600" 
d="M274 37v225h-222v50h222v220h52v-220h222v-50h-222v-225h-52z" />
    <glyph glyph-name="comma" unicode="," horiz-adv-x="219" 
d="M100 -106l-31 25q24 26 31 48t7 44l14 -11h-54v86h85v-64q0 -35 -11 -67t-41 -61z" />
    <glyph glyph-name="hyphen" unicode="-" horiz-adv-x="424" 
d="M74 248v52h276v-52h-276z" />
    <glyph glyph-name="period" unicode="." horiz-adv-x="219" 
d="M67 0v86h85v-86h-85z" />
    <glyph glyph-name="slash" unicode="/" horiz-adv-x="272" 
d="M33 -54h-55l261 800h55z" />
    <glyph glyph-name="zero" unicode="0" horiz-adv-x="600" 
d="M300 -8q-118 0 -181 92.5t-63 267.5q0 178 63 269.5t181 91.5q119 0 181.5 -91.5t62.5 -268.5q0 -176 -63 -268.5t-181 -92.5zM300 47q91 0 136 75t45 231q0 158 -45 231.5t-136 73.5q-90 0 -135.5 -74.5t-45.5 -229.5q0 -157 45.5 -232t135.5 -75z" />
    <glyph glyph-name="one" unicode="1" horiz-adv-x="600" 
d="M135 0v55h167v596h35l-187 -119v64l169 109h45v-650h158v-55h-387z" />
    <glyph glyph-name="two" unicode="2" horiz-adv-x="600" 
d="M90 0v46l257 270q51 53 77 102.5t26 104.5q0 66 -40.5 100t-117.5 34q-59 0 -108 -21t-93 -64l-25 50q39 41 100 66t130 25q104 0 160.5 -48.5t56.5 -138.5q0 -66 -33 -127.5t-94 -124.5l-233 -238v19h391v-55h-454z" />
    <glyph glyph-name="three" unicode="3" horiz-adv-x="600" 
d="M300 -8q-71 0 -135 22t-109 64l26 50q51 -42 103 -61t114 -19q84 0 128.5 37t44.5 107q0 68 -46 103.5t-134 35.5h-103v54h99q75 0 119.5 39.5t44.5 107.5q0 60 -40.5 92.5t-115.5 32.5q-117 0 -202 -85l-25 50q40 43 101 67t129 24q100 0 157.5 -47t57.5 -131
q0 -66 -37 -113t-102 -64v11q76 -13 117.5 -60.5t41.5 -119.5q0 -92 -62.5 -144.5t-171.5 -52.5z" />
    <glyph glyph-name="four" unicode="4" horiz-adv-x="600" 
d="M400 0v160h-346v46l356 499h51v-493h112v-52h-112v-160h-61zM400 212v420h21l-311 -436v16h290z" />
    <glyph glyph-name="five" unicode="5" horiz-adv-x="600" 
d="M317 -8q-46 0 -89.5 10t-81.5 29.5t-68 46.5l26 50q50 -41 101.5 -60.5t111.5 -19.5q81 0 127.5 45t46.5 118q0 75 -44 123t-123 48q-55 0 -98.5 -22t-74.5 -70h-49v415h409v-54h-348v-306h-18q28 44 77.5 68.5t110.5 24.5q68 0 117.5 -28t76 -77.5t26.5 -117.5
q0 -66 -28.5 -116.5t-81.5 -78.5t-126 -28z" />
    <glyph glyph-name="six" unicode="6" horiz-adv-x="600" 
d="M322 -8q-126 0 -194 90t-68 251q0 123 34 207.5t98 128.5t153 44q54 0 110 -23.5t91 -63.5l-25 -50q-38 41 -83.5 61t-93.5 20q-107 0 -165 -78.5t-58 -233.5v-101h-7q6 60 34.5 103.5t75 67t103.5 23.5q65 0 115 -28t78 -78t28 -115t-29 -116.5t-80 -80t-117 -28.5z
M317 47q50 0 88.5 21t60 59t21.5 88t-21.5 87.5t-60 59t-88.5 21.5t-88.5 -21.5t-59.5 -59t-21 -87.5t21 -88t59.5 -59t88.5 -21z" />
    <glyph glyph-name="seven" unicode="7" horiz-adv-x="600" 
d="M125 0l350 682v-32h-404v55h458v-46l-336 -659h-68z" />
    <glyph glyph-name="eight" unicode="8" horiz-adv-x="600" 
d="M300 -8q-119 0 -184 51t-65 142q0 74 45.5 122t119.5 58v-12q-68 14 -108 61.5t-40 112.5q0 88 62 137t170 49q109 0 171 -49t62 -137q0 -65 -37.5 -112.5t-105.5 -61.5v12q74 -10 116.5 -58t42.5 -122q0 -91 -64.5 -142t-184.5 -51zM300 45q95 0 141.5 35.5t46.5 107.5
t-46.5 107t-141.5 35t-141.5 -35t-46.5 -107t47 -107.5t141 -35.5zM300 384q83 0 127 37t44 102t-44 101t-127 36t-127 -36t-44 -101t44 -102t127 -37z" />
    <glyph glyph-name="nine" unicode="9" horiz-adv-x="600" 
d="M256 -8q-54 0 -110 24t-92 63l26 50q38 -41 83.5 -61t93.5 -20q106 0 164 78.5t58 233.5v101h8q-5 -59 -34.5 -103t-75.5 -67.5t-103 -23.5q-65 0 -115 28t-78.5 78.5t-28.5 114.5q0 66 29 117t80 79.5t117 28.5q127 0 195 -89.5t68 -251.5q0 -122 -34 -207t-98 -129
t-153 -44zM284 322q50 0 88.5 21.5t59.5 59.5t21 87q0 50 -21 88t-59.5 59.5t-88.5 21.5t-88.5 -21.5t-60 -59.5t-21.5 -88q0 -49 21.5 -87t60 -59.5t88.5 -21.5z" />
    <glyph glyph-name="colon" unicode=":" horiz-adv-x="219" 
d="M67 416v85h85v-85h-85zM67 0v86h85v-86h-85z" />
    <glyph glyph-name="semicolon" unicode=";" horiz-adv-x="219" 
d="M100 -106l-31 25q24 26 31 48t7 44l22 -11h-62v86h85v-64q0 -35 -11 -67t-41 -61zM67 416v85h85v-85h-85z" />
    <glyph glyph-name="less" unicode="&#x3c;" horiz-adv-x="600" 
d="M547 35l-495 227v50l495 227v-56l-463 -212v32l463 -211v-57z" />
    <glyph glyph-name="equal" unicode="=" horiz-adv-x="600" 
d="M52 362v50h496v-50h-496zM52 163v49h496v-49h-496z" />
    <glyph glyph-name="greater" unicode="&#x3e;" horiz-adv-x="600" 
d="M53 35v57l463 211v-32l-463 212v56l495 -227v-50z" />
    <glyph glyph-name="question" unicode="?" horiz-adv-x="440" 
d="M173 173v24q0 52 20 99t73 106q42 48 59 82.5t17 72.5q0 47 -34 74t-93 27q-39 0 -74 -10t-67 -27v60q32 15 69 23.5t75 8.5q56 0 98 -18.5t65.5 -52.5t23.5 -82q0 -32 -9.5 -61t-30.5 -59.5t-55 -67.5q-49 -54 -69.5 -93.5t-24.5 -82.5l-3 -23h-40zM150 0v86h85v-86h-85
z" />
    <glyph glyph-name="at" unicode="@" horiz-adv-x="971" 
d="M497 -163q-98 0 -177.5 30.5t-136.5 88t-87.5 138t-30.5 180.5q0 98 32 178.5t91.5 139t141 90t179.5 31.5q119 0 208 -46t139 -129t50 -194q0 -86 -24.5 -150t-68.5 -99.5t-103 -35.5q-60 0 -90 35t-22 94l13 -13q-26 -55 -73 -85.5t-99 -30.5q-78 0 -121 47.5
t-43 131.5q0 75 29 132.5t79.5 90.5t114.5 33q57 0 93.5 -27.5t46.5 -76.5h-9l17 95h54l-48 -267q-2 -12 -3.5 -23.5t-1.5 -20.5q0 -35 16.5 -52.5t50.5 -17.5q43 0 75 30t50 84t18 126q0 97 -44 169.5t-122 112.5t-183 40q-117 0 -205 -49t-136.5 -137t-48.5 -206
q0 -121 46.5 -208.5t131.5 -134t201 -46.5q86 0 156 27t114 76l29 -40q-49 -53 -127 -82t-172 -29zM444 107q49 0 88 28t61 77.5t22 112.5q0 61 -27 90.5t-85 29.5q-49 0 -88 -26.5t-61.5 -73t-22.5 -106.5q0 -64 29.5 -98t83.5 -34z" />
    <glyph glyph-name="A" unicode="A" horiz-adv-x="728" 
d="M26 0l307 705h56l312 -705h-65l-88 203l29 -15h-434l34 15l-86 -203h-65zM360 630l-171 -401l-23 12h388l-17 -12l-175 401h-2z" />
    <glyph glyph-name="B" unicode="B" horiz-adv-x="676" 
d="M93 0v705h269q111 0 171.5 -47.5t60.5 -136.5q0 -67 -40.5 -111t-110.5 -58v14q78 -8 123 -53t45 -121q0 -94 -61 -143t-175 -49h-282zM153 53h218q81 0 129.5 31.5t48.5 106.5q0 77 -48.5 108.5t-129.5 31.5h-218v-278zM153 383h202q87 0 132 34.5t45 100.5t-45 100.5
t-132 34.5h-202v-270z" />
    <glyph glyph-name="C" unicode="C" horiz-adv-x="684" 
d="M390 -8q-104 0 -176.5 43.5t-110.5 124.5t-38 193t38 192.5t110.5 124t176.5 43.5q76 0 135 -23.5t103 -69.5l-26 -50q-49 45 -98 65.5t-114 20.5q-127 0 -193 -79.5t-66 -223.5t66 -224t193 -80q65 0 114 20.5t98 65.5l26 -50q-44 -46 -103.5 -69.5t-134.5 -23.5z" />
    <glyph glyph-name="D" unicode="D" horiz-adv-x="740" 
d="M93 0v705h223q116 0 196 -40.5t121.5 -119t41.5 -192.5t-41.5 -193t-121.5 -119.5t-196 -40.5h-223zM155 55h156q151 0 225 74.5t74 223.5q0 150 -74 224t-225 74h-156v-596z" />
    <glyph glyph-name="E" unicode="E" horiz-adv-x="585" 
d="M93 0v705h438v-53h-378v-268h356v-53h-356v-278h378v-53h-438z" />
    <glyph glyph-name="F" unicode="F" horiz-adv-x="558" 
d="M93 0v705h428v-53h-366v-269h345v-53h-345v-330h-62z" />
    <glyph glyph-name="G" unicode="G" horiz-adv-x="727" 
d="M409 -8q-114 0 -190.5 42.5t-115 123.5t-38.5 195q0 112 40 192.5t114.5 124t179.5 43.5q77 0 133 -23.5t102 -68.5l-27 -50q-33 31 -63.5 49.5t-65 27t-79.5 8.5q-129 0 -198.5 -79.5t-69.5 -224.5q0 -148 68 -226t211 -78q53 0 101 10t91 29l-15 -40v264h-187v52h242
v-322q-40 -21 -104.5 -35t-128.5 -14z" />
    <glyph glyph-name="H" unicode="H" horiz-adv-x="762" 
d="M93 0v705h62v-320h453v320h62v-705h-62v330h-453v-330h-62z" />
    <glyph glyph-name="I" unicode="I" horiz-adv-x="247" 
d="M93 0v705h62v-705h-62z" />
    <glyph glyph-name="J" unicode="J" horiz-adv-x="314" 
d="M75 -186q-17 0 -35.5 1.5t-39.5 6.5v53q19 -4 35 -6t30 -2q46 0 70.5 29t24.5 92v717h62v-718q0 -55 -16.5 -94t-49 -59t-81.5 -20z" />
    <glyph glyph-name="K" unicode="K" horiz-adv-x="619" 
d="M93 0v705h62v-324h2l352 324h83l-399 -363l1 36l427 -378h-85l-379 335h-2v-335h-62z" />
    <glyph glyph-name="L" unicode="L" horiz-adv-x="538" 
d="M93 0v705h62v-650h367v-55h-429z" />
    <glyph glyph-name="M" unicode="M" horiz-adv-x="853" 
d="M93 0v705h54l294 -664h-29l295 664h53v-705h-57v632h27l-281 -632h-45l-281 632h27v-632h-57z" />
    <glyph glyph-name="N" unicode="N" horiz-adv-x="743" 
d="M93 0v705h50l472 -632h-22v632h57v-705h-49l-472 632h21v-632h-57z" />
    <glyph glyph-name="O" unicode="O" horiz-adv-x="765" 
d="M65 353q0 112 37.5 192.5t108.5 124t171 43.5q98 0 169.5 -43.5t110 -124t38.5 -191.5q0 -112 -39 -193t-110.5 -125t-168.5 -44q-99 0 -170 44t-109 125t-38 192zM131 353q0 -144 64 -224.5t187 -80.5q119 0 186 80.5t67 224.5q0 145 -66.5 224.5t-186.5 79.5
q-123 0 -187 -79.5t-64 -224.5z" />
    <glyph glyph-name="P" unicode="P" horiz-adv-x="644" 
d="M93 0v705h274q109 0 168.5 -52t59.5 -146q0 -92 -59.5 -145t-168.5 -53h-212v-309h-62zM155 363h208q83 0 126 37.5t43 106.5t-43 107t-126 38h-208v-289z" />
    <glyph glyph-name="Q" unicode="Q" horiz-adv-x="765" 
d="M574 -191q-29 19 -59 50t-57 67.5t-47 73.5l59 19q26 -52 66 -95t81 -74zM65 353q0 112 37.5 192.5t108.5 124t171 43.5q98 0 169.5 -43.5t110 -124t38.5 -191.5q0 -112 -39 -193t-110.5 -125t-168.5 -44q-99 0 -170 44t-109 125t-38 192zM131 353q0 -144 64 -224.5
t187 -80.5q119 0 186 80.5t67 224.5q0 145 -66.5 224.5t-186.5 79.5q-123 0 -187 -79.5t-64 -224.5z" />
    <glyph glyph-name="R" unicode="R" horiz-adv-x="688" 
d="M93 0v705h278q109 0 169 -51t60 -144q0 -60 -27 -102.5t-75 -65t-111 -22.5l19 11h14q41 0 73 -19.5t51 -66.5l98 -245h-68l-92 234q-19 51 -55 65.5t-92 14.5h-180v-314h-62zM155 366h208q85 0 129.5 37t44.5 106q0 70 -44.5 106.5t-129.5 36.5h-208v-286z" />
    <glyph glyph-name="S" unicode="S" horiz-adv-x="613" 
d="M316 -8q-85 0 -150 22t-116 64l26 51q36 -28 70.5 -46t75.5 -26.5t93 -8.5q93 0 140 36.5t47 96.5q0 52 -32.5 79.5t-113.5 43.5l-102 21q-97 20 -144.5 64t-47.5 120q0 62 32 108t89 71t132 25t136.5 -22.5t105.5 -66.5l-25 -50q-47 44 -99 63.5t-118 19.5
q-87 0 -138 -39.5t-51 -106.5q0 -54 32.5 -84t105.5 -45l103 -21q103 -21 151 -61.5t48 -115.5q0 -57 -30.5 -100.5t-86.5 -67.5t-133 -24z" />
    <glyph glyph-name="T" unicode="T" horiz-adv-x="597" 
d="M266 0v651h-256v54h573v-54h-255v-651h-62z" />
    <glyph glyph-name="U" unicode="U" horiz-adv-x="726" 
d="M364 -8q-141 0 -208.5 72t-67.5 210v431h62v-426q0 -115 51 -173t163 -58q104 0 158.5 58t54.5 173v426h62v-431q0 -138 -70.5 -210t-204.5 -72z" />
    <glyph glyph-name="V" unicode="V" horiz-adv-x="687" 
d="M312 0l-305 705h67l283 -661h-27l285 661h65l-307 -705h-61z" />
    <glyph glyph-name="W" unicode="W" horiz-adv-x="1108" 
d="M282 0l-244 705h65l226 -661h-33l235 661h52l224 -661h-30l231 661h62l-247 -705h-59l-217 642h20l-228 -642h-57z" />
    <glyph glyph-name="X" unicode="X" horiz-adv-x="644" 
d="M17 0l277 371v-20l-263 354h73l229 -310h-19l225 310h74l-263 -354v20l277 -371h-74l-244 331h26l-244 -331h-74z" />
    <glyph glyph-name="Y" unicode="Y" horiz-adv-x="597" 
d="M267 0v328l15 -47l-287 424h72l242 -365h-18l242 365h69l-287 -424l14 47v-328h-62z" />
    <glyph glyph-name="Z" unicode="Z" horiz-adv-x="590" 
d="M43 0v46l440 632v-28h-440v55h499v-45l-441 -632v27h452v-55h-510z" />
    <glyph glyph-name="bracketleft" unicode="[" horiz-adv-x="300" 
d="M108 -180v885h186v-50h-125v-785h125v-50h-186z" />
    <glyph glyph-name="backslash" unicode="\" horiz-adv-x="272" 
d="M239 -54l-261 800h55l261 -800h-55z" />
    <glyph glyph-name="bracketright" unicode="]" horiz-adv-x="300" 
d="M6 -180v50h125v785h-125v50h185v-885h-185z" />
    <glyph glyph-name="asciicircum" unicode="^" horiz-adv-x="600" 
d="M46 142l229 486h49l230 -486h-55l-215 455h31l-214 -455h-55z" />
    <glyph glyph-name="underscore" unicode="_" horiz-adv-x="505" 
d="M6 -43v43h493v-43h-493z" />
    <glyph glyph-name="grave" unicode="`" horiz-adv-x="500" 
d="M227 550l-127 201h70l103 -201h-46z" />
    <glyph glyph-name="a" unicode="a" horiz-adv-x="591" 
d="M273 -8q-68 0 -118 31t-77 89t-27 139t27.5 138.5t77.5 89t117 31.5q69 0 119.5 -36t66.5 -98h-12l10 125h59q-3 -29 -5.5 -57t-2.5 -55v-389h-61v125h11q-16 -62 -66.5 -97.5t-118.5 -35.5zM281 44q77 0 122 53t45 154t-45 154t-122 53t-122.5 -53t-45.5 -154t45.5 -154
t122.5 -53z" />
    <glyph glyph-name="b" unicode="b" horiz-adv-x="591" 
d="M319 -8q-70 0 -119.5 35.5t-66.5 98.5h11v-126h-61v736h61v-359h-11q17 62 66.5 97.5t119.5 35.5q68 0 117.5 -31.5t77 -89t27.5 -139.5q0 -80 -28 -138t-77.5 -89t-116.5 -31zM310 44q77 0 123 52.5t46 153.5t-46 154.5t-123 53.5q-76 0 -121.5 -53t-45.5 -154
t45.5 -154t121.5 -53z" />
    <glyph glyph-name="c" unicode="c" horiz-adv-x="491" 
d="M285 -8q-71 0 -124 31.5t-81.5 90.5t-28.5 140t29 138.5t81.5 87.5t123.5 30q48 0 92.5 -18t73.5 -50l-25 -45q-31 31 -67 45.5t-72 14.5q-82 0 -128 -52t-46 -152t46 -154.5t128 -54.5q34 0 70.5 14t68.5 46l25 -45q-30 -32 -75.5 -49.5t-90.5 -17.5z" />
    <glyph glyph-name="d" unicode="d" horiz-adv-x="591" 
d="M272 -8q-67 0 -117 31t-77 89t-27 139t27 138.5t77 89t117 31.5q69 0 119.5 -35.5t67.5 -97.5h-12v359h61v-736h-60v126h11q-17 -63 -67.5 -98.5t-119.5 -35.5zM280 44q76 0 122.5 53t46.5 154t-46.5 154t-122.5 53t-121.5 -53t-45.5 -154t45.5 -154t121.5 -53z" />
    <glyph glyph-name="e" unicode="e" horiz-adv-x="543" 
d="M298 -8q-114 0 -180.5 68t-66.5 189q0 80 29.5 138t82.5 90.5t123 32.5q67 0 113 -28.5t71 -81t25 -124.5v-28h-400v44h362l-17 -13q0 85 -39 133.5t-116 48.5q-82 0 -128 -56.5t-46 -149.5v-7q0 -100 49.5 -152t138.5 -52q46 0 86 14t77 48l25 -45q-32 -33 -83 -51
t-106 -18z" />
    <glyph glyph-name="f" unicode="f" horiz-adv-x="324" 
d="M107 0v452h-100v49h115l-15 -16v87q0 80 40 124t114 44q19 0 39 -3.5t33 -8.5v-54q-12 5 -29 9t-36 4q-33 0 -55.5 -14t-34 -40.5t-11.5 -67.5v-80l-10 16h154v-49h-143v-452h-61z" />
    <glyph glyph-name="g" unicode="g" horiz-adv-x="595" 
d="M299 -223q-63 0 -117.5 17t-97.5 51l22 47q32 -23 61.5 -36.5t61.5 -20t69 -6.5q76 0 115 40.5t39 116.5v159h11q-16 -63 -67 -98.5t-120 -35.5t-119.5 30.5t-78 87t-27.5 132.5t27.5 132t78 86.5t119.5 30.5t120 -35.5t67 -99.5l-11 11l9 115h60q-4 -29 -6 -57t-2 -55
v-394q0 -108 -54.5 -163t-159.5 -55zM283 63q78 0 123.5 52t45.5 146q0 93 -45.5 145t-123.5 52t-124 -52t-46 -145q0 -94 46 -146t124 -52z" />
    <glyph glyph-name="h" unicode="h" horiz-adv-x="578" 
d="M83 0v736h61v-351h-12q21 61 71 93t116 32q91 0 134.5 -48t43.5 -144v-318h-61v313q0 76 -30 110t-96 34q-75 0 -120.5 -46t-45.5 -122v-289h-61z" />
    <glyph glyph-name="i" unicode="i" horiz-adv-x="228" 
d="M83 0v501h61v-501h-61zM73 624v76h82v-76h-82z" />
    <glyph glyph-name="j" unicode="j" horiz-adv-x="228" 
d="M11 -219q-12 0 -32 3.5t-33 8.5v53q12 -4 28.5 -7.5t29.5 -3.5q45 0 65.5 28.5t20.5 91.5v546h61v-554q0 -82 -35 -124t-105 -42zM80 624v76h81v-76h-81z" />
    <glyph glyph-name="k" unicode="k" horiz-adv-x="498" 
d="M83 0v736h61v-462h2l247 227h79l-284 -261l3 37l311 -277h-83l-273 241h-2v-241h-61z" />
    <glyph glyph-name="l" unicode="l" horiz-adv-x="228" 
d="M83 0v736h61v-736h-61z" />
    <glyph glyph-name="m" unicode="m" horiz-adv-x="869" 
d="M83 0v389q0 27 -2 55t-6 57h60l9 -115h-12q19 59 63 91.5t107 32.5q64 0 104 -31t53 -96h-15q18 58 66 92.5t113 34.5q82 0 124 -47t42 -147v-316h-61v312q0 76 -27 110.5t-88 34.5q-68 0 -107.5 -46t-39.5 -124v-287h-61v312q0 76 -27 110.5t-87 34.5q-68 0 -107.5 -46
t-39.5 -124v-287h-61z" />
    <glyph glyph-name="n" unicode="n" horiz-adv-x="578" 
d="M83 0v389q0 27 -2 55t-6 57h60l9 -115h-12q22 60 71 92t114 32q89 0 134.5 -47t45.5 -147v-316h-61v311q0 77 -31 111.5t-96 34.5q-76 0 -120.5 -46t-44.5 -124v-287h-61z" />
    <glyph glyph-name="o" unicode="o" horiz-adv-x="562" 
d="M281 -8q-71 0 -122.5 31t-79.5 89t-28 139q0 80 28 138t79.5 89.5t122.5 31.5q70 0 121.5 -31.5t80 -89.5t28.5 -138q0 -81 -28.5 -139t-80 -89t-121.5 -31zM281 44q76 0 122 53t46 154t-46 154t-122 53q-77 0 -122.5 -53t-45.5 -154t45.5 -154t122.5 -53z" />
    <glyph glyph-name="p" unicode="p" horiz-adv-x="591" 
d="M83 -216v605q0 27 -2 55t-6 57h60l10 -125h-12q17 62 66 98t119 36q68 0 117.5 -31.5t77.5 -89t28 -138.5t-27.5 -139t-77.5 -89t-118 -31q-69 0 -118.5 35.5t-66.5 97.5h11v-341h-61zM310 44q77 0 123 53t46 154t-46 154t-123 53q-76 0 -121.5 -53t-45.5 -154t45.5 -154
t121.5 -53z" />
    <glyph glyph-name="q" unicode="q" horiz-adv-x="591" 
d="M447 -216v341h11q-16 -62 -66.5 -97.5t-118.5 -35.5t-118 31t-77 89t-27 139t27.5 138.5t77.5 89t117 31.5q69 0 119.5 -36t66.5 -98h-12l10 125h59q-3 -29 -5.5 -57t-2.5 -55v-605h-61zM281 44q77 0 122 53t45 154t-45 154t-122 53t-122.5 -53t-45.5 -154t45.5 -154
t122.5 -53z" />
    <glyph glyph-name="r" unicode="r" horiz-adv-x="349" 
d="M82 0v384q0 29 -1.5 58.5t-5.5 58.5h60l8 -115l-12 -1q10 42 36 69.5t60 41.5t70 14q13 0 24.5 -1.5t21.5 -4.5l-2 -55q-12 4 -24 5t-26 1q-45 0 -78.5 -22t-51.5 -56t-18 -69v-308h-61z" />
    <glyph glyph-name="s" unicode="s" horiz-adv-x="494" 
d="M245 -8q-58 0 -108.5 17t-83.5 47l24 45q37 -30 80 -44.5t90 -14.5q64 0 97 24t33 65q0 32 -21 52t-70 30l-90 19q-64 15 -95.5 48t-31.5 83q0 43 22.5 76t64.5 52t99 19q54 0 99.5 -17.5t74.5 -49.5l-26 -44q-30 30 -67.5 45t-79.5 15q-62 0 -94 -25.5t-32 -67.5
q0 -32 20 -52.5t63 -30.5l90 -20q68 -15 101 -46t33 -82q0 -44 -24 -76.5t-67 -49.5t-101 -17z" />
    <glyph glyph-name="t" unicode="t" horiz-adv-x="337" 
d="M245 -8q-67 0 -102.5 40t-35.5 123v297h-100v49h100v140l61 20v-160h148v-49h-148v-288q0 -63 20 -91t64 -28q20 0 35.5 4t26.5 9v-54q-12 -5 -31 -8.5t-38 -3.5z" />
    <glyph glyph-name="u" unicode="u" horiz-adv-x="569" 
d="M259 -8q-88 0 -133.5 47.5t-45.5 146.5v315h61v-311q0 -76 31 -111t95 -35q71 0 114.5 46.5t43.5 123.5v287h61v-501h-60v118h13q-21 -61 -68.5 -93.5t-111.5 -32.5z" />
    <glyph glyph-name="v" unicode="v" horiz-adv-x="525" 
d="M231 0l-213 501h68l190 -463h-26l192 463h65l-213 -501h-63z" />
    <glyph glyph-name="w" unicode="w" horiz-adv-x="863" 
d="M216 0l-181 501h66l161 -465h-27l167 465h62l164 -465h-26l163 465h63l-182 -501h-63l-168 471h35l-170 -471h-64z" />
    <glyph glyph-name="x" unicode="x" horiz-adv-x="528" 
d="M21 0l220 275v-33l-209 259h75l168 -213h-22l168 213h73l-205 -257v28l218 -272h-76l-178 227h22l-180 -227h-74z" />
    <glyph glyph-name="y" unicode="y" horiz-adv-x="525" 
d="M60 -227l-15 53q47 11 78 26.5t52 40.5t37 62l26 60l-1 -27l-219 513h68l191 -463h-25l189 463h66l-232 -549q-19 -46 -41.5 -76.5t-48.5 -51t-57 -32.5t-68 -19z" />
    <glyph glyph-name="z" unicode="z" horiz-adv-x="515" 
d="M50 0v42l349 427l1 -17h-350v49h408v-42l-352 -428l-1 18h364v-49h-419z" />
    <glyph glyph-name="braceleft" unicode="{" horiz-adv-x="338" 
d="M241 -180q-45 0 -68.5 24t-23.5 70v242q0 42 -17.5 60.5t-59.5 20.5l-24 2v48l24 2q41 2 59 20t18 61v241q0 46 23.5 70t68.5 24h91v-50h-78q-22 0 -33.5 -12t-11.5 -35v-244q0 -29 -12 -53t-32.5 -37t-46.5 -13v4q26 0 46.5 -13.5t32.5 -36.5t12 -53v-245
q0 -23 11.5 -35t33.5 -12h78v-50h-91z" />
    <glyph glyph-name="bar" unicode="|" horiz-adv-x="256" 
d="M98 -187v899h61v-899h-61z" />
    <glyph glyph-name="braceright" unicode="}" horiz-adv-x="338" 
d="M6 -180v50h78q23 0 34 12t11 35v244q0 30 12 53.5t32.5 36.5t46.5 13v-4q-26 0 -46.5 13.5t-32.5 37t-12 53.5v244q0 23 -11 35t-34 12h-78v50h91q45 0 68.5 -24t23.5 -70v-242q0 -41 17.5 -60t59.5 -21l24 -1v-49l-24 -2q-41 -2 -59 -20t-18 -61v-241q0 -46 -23.5 -70
t-68.5 -24h-91z" />
    <glyph glyph-name="asciitilde" unicode="~" horiz-adv-x="600" 
d="M419 221q-26 0 -56.5 9.5t-74.5 34.5q-43 24 -65 31.5t-39 7.5q-58 0 -88 -67l-44 21q22 47 54 71.5t75 24.5q26 0 54.5 -9.5t73.5 -32.5q40 -21 63.5 -31.5t43.5 -10.5q59 0 88 67l44 -21q-22 -48 -53.5 -71.5t-75.5 -23.5z" />
    <glyph glyph-name="uni00A0" unicode="&#xa0;" horiz-adv-x="255" 
 />
    <glyph glyph-name="exclamdown" unicode="&#xa1;" horiz-adv-x="219" 
d="M72 -180l19 509h38l19 -509h-76zM67 416v85h85v-85h-85z" />
    <glyph glyph-name="cent" unicode="&#xa2;" horiz-adv-x="600" 
d="M289 -115v127l13 -18q-61 5 -107.5 37.5t-73 87.5t-26.5 124q0 68 25.5 121.5t72 86.5t109.5 39l-13 -24v139h54v-137l-13 23q46 0 92 -17t73 -47l-24 -45q-28 28 -65 42.5t-77 14.5q-78 0 -124.5 -53.5t-46.5 -142.5q0 -90 45.5 -143t124.5 -53q40 0 77.5 14t65.5 42
l24 -44q-29 -31 -75 -48.5t-92 -17.5l15 18v-126h-54z" />
    <glyph glyph-name="sterling" unicode="&#xa3;" horiz-adv-x="600" 
d="M48 0v45q50 21 79.5 50.5t29.5 75.5v160h-110v46h110v139q0 64 23.5 108t71 66.5t117.5 22.5q57 0 108.5 -20.5t88.5 -60.5l-28 -50q-32 39 -74.5 57.5t-99.5 18.5q-72 0 -108.5 -35t-36.5 -104v-142h192v-46h-192v-139q0 -59 -25 -93.5t-65 -50.5v6h432v-54h-513z" />
    <glyph glyph-name="currency" unicode="&#xa4;" horiz-adv-x="600" 
d="M76 -24l-39 40l74 76q-24 31 -37.5 70.5t-13.5 82.5q0 44 13.5 83.5t37.5 70.5l-74 75l39 40l74 -76q31 26 69.5 40.5t81.5 14.5q42 0 80 -14t68 -39l72 74l40 -40l-73 -74q25 -32 39 -71.5t14 -83.5t-14 -83.5t-39 -71.5l73 -74l-40 -40l-72 75q-31 -26 -68.5 -40
t-79.5 -14q-43 0 -81.5 14.5t-69.5 39.5zM300 53q50 0 91 26t64.5 69.5t23.5 96.5t-23.5 96.5t-64.5 70t-91 25.5q-50 0 -91 -26t-65 -69.5t-24 -96.5t24 -96.5t65 -69.5t91 -26z" />
    <glyph glyph-name="yen" unicode="&#xa5;" horiz-adv-x="600" 
d="M269 0v184h-195v44h195v107h-195v45h170v-9l-244 334h71l238 -329h-18l238 329h71l-243 -334v9h169v-45h-195v-107h195v-44h-195v-184h-62z" />
    <glyph glyph-name="brokenbar" unicode="&#xa6;" horiz-adv-x="256" 
d="M98 372v340h61v-340h-61zM98 -187v340h61v-340h-61z" />
    <glyph glyph-name="section" unicode="&#xa7;" horiz-adv-x="530" 
d="M239 -188q-63 0 -114.5 17t-84.5 48l25 45q20 -18 48.5 -32t61.5 -21t67 -7q67 0 108 32t41 91q0 42 -22 72t-79 56l-105 48q-57 27 -89 52.5t-45.5 55t-13.5 65.5q0 40 20 77t51 60l-7 -18q-9 13 -15.5 33t-6.5 50q0 56 27.5 95t74.5 60.5t107 21.5q59 0 109 -16.5
t82 -48.5l-25 -45q-31 28 -76.5 43.5t-92.5 15.5q-63 0 -103.5 -31.5t-40.5 -91.5q0 -41 22 -71t79 -56l105 -49q57 -26 89 -52t45 -55t13 -66q0 -39 -19.5 -76.5t-50.5 -60.5l6 18q9 -12 15.5 -32.5t6.5 -50.5q0 -55 -27 -94.5t-75 -60.5t-111 -21zM95 342
q0 -39 24.5 -68.5t92.5 -61.5l90 -42q42 -20 70 -40t43 -41h-22q44 37 44 94q0 39 -24.5 68.5t-92.5 60.5l-90 42q-42 21 -70 41.5t-43 40.5h21q-20 -18 -31.5 -42t-11.5 -52z" />
    <glyph glyph-name="dieresis" unicode="&#xa8;" horiz-adv-x="500" 
d="M297 615v72h73v-72h-73zM130 615v72h73v-72h-73z" />
    <glyph glyph-name="copyright" unicode="&#xa9;" horiz-adv-x="815" 
d="M408 -8q-76 0 -142 27.5t-115 76.5t-76.5 115t-27.5 142q0 77 27.5 142.5t76.5 114t114.5 76t142.5 27.5t142.5 -27.5t114 -76t76 -114t27.5 -142.5q0 -76 -27.5 -142t-76 -115t-114 -76.5t-142.5 -27.5zM419 137q-95 0 -149.5 60t-54.5 159q0 98 54.5 155t149.5 57
q40 0 78.5 -15t63.5 -40l-21 -42q-28 26 -59 37.5t-61 11.5q-70 0 -109.5 -43.5t-39.5 -121.5t39.5 -123.5t109.5 -45.5q30 0 61 11.5t59 37.5l21 -43q-25 -25 -64.5 -40t-77.5 -15zM408 31q68 0 126 24.5t101.5 68.5t67.5 102.5t24 126.5t-24 126.5t-67.5 102t-101.5 68
t-126 24.5t-126.5 -24.5t-102 -68t-67.5 -102t-24 -126.5t24 -126.5t67.5 -102.5t102 -68.5t126.5 -24.5z" />
    <glyph glyph-name="ordfeminine" unicode="&#xaa;" horiz-adv-x="319" 
d="M132 412q-46 0 -76 25.5t-30 63.5q0 45 41.5 65t108.5 20h64v-33h-62q-53 0 -79.5 -12.5t-26.5 -38.5q0 -23 16.5 -38.5t52.5 -15.5q40 0 66 26.5t26 72.5v58q0 35 -19 53t-56 18q-28 0 -55.5 -7.5t-50.5 -22.5l-14 36q24 16 56.5 23.5t64.5 7.5q119 0 119 -110v-186h-44
v54h-2q-17 -31 -41 -45t-59 -14z" />
    <glyph glyph-name="guillemotleft" unicode="&#xab;" horiz-adv-x="421" 
d="M154 88l-126 180l126 180h56l-116 -180l116 -180h-56zM325 88l-126 180l126 180h56l-116 -180l116 -180h-56z" />
    <glyph glyph-name="logicalnot" unicode="&#xac;" horiz-adv-x="600" 
d="M495 152v212h-443v50h496v-262h-53z" />
    <glyph glyph-name="uni00AD" unicode="&#xad;" horiz-adv-x="424" 
d="M74 248v52h276v-52h-276z" />
    <glyph glyph-name="registered" unicode="&#xae;" horiz-adv-x="815" 
d="M408 -8q-76 0 -142 27.5t-115 76.5t-76.5 115t-27.5 142q0 77 27.5 142.5t76.5 114t114.5 76t142.5 27.5t142.5 -27.5t114 -76t76 -114t27.5 -142.5q0 -76 -27.5 -142t-76 -115t-114 -76.5t-142.5 -27.5zM408 31q68 0 126 24.5t101.5 68.5t67.5 102.5t24 126.5t-24 126.5
t-67.5 102t-101.5 68t-126 24.5t-126.5 -24.5t-102 -68t-67.5 -102t-24 -126.5t24 -126.5t67.5 -102.5t102 -68.5t126.5 -24.5zM268 142v421h167q67 0 102.5 -31.5t35.5 -89.5q0 -57 -36 -87.5t-101 -30.5l7 10q30 0 50.5 -13t32.5 -45l53 -134h-56l-52 132q-11 27 -31 36
t-49 9h-81l12 9v-186h-54zM322 364h106q47 0 69.5 18.5t22.5 58.5q0 39 -22 58t-70 19h-106v-154z" />
    <glyph glyph-name="macron" unicode="&#xaf;" horiz-adv-x="500" 
d="M106 629v46h288v-46h-288z" />
    <glyph glyph-name="degree" unicode="&#xb0;" horiz-adv-x="367" 
d="M184 424q-41 0 -74 19.5t-52 52t-19 73.5t19 73.5t52 51.5t74 19t73.5 -18.5t51 -51.5t18.5 -74t-18.5 -74.5t-51 -52t-73.5 -18.5zM184 471q42 0 67.5 27.5t25.5 70.5q0 42 -25.5 69.5t-67.5 27.5q-41 0 -67.5 -27.5t-26.5 -69.5q0 -43 26.5 -70.5t67.5 -27.5z" />
    <glyph glyph-name="plusminus" unicode="&#xb1;" horiz-adv-x="600" 
d="M274 121v179h-222v50h222v179h52v-179h222v-50h-222v-179h-52zM52 0v50h496v-50h-496z" />
    <glyph glyph-name="uni00B2" unicode="&#xb2;" horiz-adv-x="380" 
d="M54 282v39l150 154q30 33 44 59t14 55q0 72 -80 72q-31 0 -63 -12.5t-56 -34.5l-23 40q27 26 66 40.5t82 14.5q61 0 96 -31t35 -85q0 -34 -17 -67.5t-52 -69.5l-134 -136v10h223v-48h-285z" />
    <glyph glyph-name="uni00B3" unicode="&#xb3;" horiz-adv-x="380" 
d="M186 279q-46 0 -86 14t-66 40l22 39q24 -22 57.5 -34.5t70.5 -12.5q40 0 66 18t26 58q0 39 -27 55.5t-73 16.5h-76v46h66q45 0 71.5 19t26.5 57q0 32 -22.5 50t-61.5 18q-32 0 -64.5 -13t-56.5 -36l-23 41q27 25 66.5 39.5t83.5 14.5q61 0 96.5 -29.5t35.5 -79.5
q0 -41 -24 -67.5t-58 -36.5v7q42 -8 68 -34.5t26 -71.5q0 -57 -41 -87.5t-103 -30.5z" />
    <glyph glyph-name="acute" unicode="&#xb4;" horiz-adv-x="500" 
d="M227 550l103 201h70l-127 -201h-46z" />
    <glyph glyph-name="uni00B5" unicode="&#xb5;" horiz-adv-x="566" 
d="M80 -212v713h61v-315q0 -73 30 -106.5t93 -33.5q71 0 115 45t44 121v289h61v-501h-60v117h10q-18 -61 -63.5 -93t-105.5 -32q-49 0 -86.5 17t-57.5 65h14l6 -286h-61z" />
    <glyph glyph-name="paragraph" unicode="&#xb6;" horiz-adv-x="584" 
d="M247 -180v503q-60 0 -104.5 24.5t-69 68t-24.5 98.5q0 56 24.5 99t69.5 67.5t106 24.5h243v-885h-54v835h-137v-835h-54z" />
    <glyph glyph-name="periodcentered" unicode="&#xb7;" horiz-adv-x="222" 
d="M68 231v85h86v-85h-86z" />
    <glyph glyph-name="cedilla" unicode="&#xb8;" horiz-adv-x="500" 
d="M254 -191q-25 0 -46.5 5t-37.5 14l11 39q19 -9 35 -13t39 -4q27 0 43.5 10.5t16.5 29.5q0 30 -38 30q-11 0 -22 -1.5t-27 -7.5l-16 14l14 95h45l-13 -75l-21 4q12 3 23.5 5t21.5 2q34 0 57.5 -17.5t23.5 -49.5q0 -35 -30.5 -57.5t-78.5 -22.5z" />
    <glyph glyph-name="uni00B9" unicode="&#xb9;" horiz-adv-x="380" 
d="M91 282v48h97v328h26l-115 -72v56l100 63h42v-375h86v-48h-236z" />
    <glyph glyph-name="ordmasculine" unicode="&#xba;" horiz-adv-x="334" 
d="M167 412q-41 0 -72.5 18.5t-50 53t-18.5 79.5q0 46 18.5 79.5t50 52t72.5 18.5q42 0 73.5 -18.5t50 -52t18.5 -79.5q0 -45 -18.5 -79.5t-50 -53t-73.5 -18.5zM167 450q44 0 69.5 29t25.5 84t-25.5 83.5t-69.5 28.5q-43 0 -69 -28.5t-26 -83.5t26 -84t69 -29z" />
    <glyph glyph-name="guillemotright" unicode="&#xbb;" horiz-adv-x="421" 
d="M96 88h-56l116 180l-116 180h56l126 -180zM267 88h-56l116 180l-116 180h56l126 -180z" />
    <glyph glyph-name="onequarter" unicode="&#xbc;" horiz-adv-x="888" 
d="M91 282v48h97v328h26l-115 -72v56l100 63h42v-375h86v-48h-236zM279 -8h-56l429 721h57zM750 0v90h-204v41l210 292h45v-287h67v-46h-67v-90h-51zM750 136v223h10l-172 -238v15h162z" />
    <glyph glyph-name="onehalf" unicode="&#xbd;" horiz-adv-x="930" 
d="M91 282v48h97v328h26l-115 -72v56l100 63h42v-375h86v-48h-236zM279 -8h-56l429 721h57zM604 0v39l150 154q30 33 44 59t14 55q0 72 -80 72q-31 0 -63 -12.5t-56 -34.5l-23 40q27 26 66 40.5t82 14.5q61 0 96 -31t35 -85q0 -34 -17 -67.5t-52 -69.5l-134 -136v10h223v-48
h-285z" />
    <glyph glyph-name="threequarters" unicode="&#xbe;" horiz-adv-x="888" 
d="M186 279q-46 0 -86 14t-66 40l22 39q24 -22 57.5 -34.5t70.5 -12.5q40 0 66 18t26 58q0 39 -27 55.5t-73 16.5h-76v46h66q45 0 71.5 19t26.5 57q0 32 -22.5 50t-61.5 18q-32 0 -64.5 -13t-56.5 -36l-23 41q27 25 66.5 39.5t83.5 14.5q61 0 96.5 -29.5t35.5 -79.5
q0 -41 -24 -67.5t-58 -36.5v7q42 -8 68 -34.5t26 -71.5q0 -57 -41 -87.5t-103 -30.5zM279 -8h-56l429 721h57zM750 0v90h-204v41l210 292h45v-287h67v-46h-67v-90h-51zM750 136v223h10l-172 -238v15h162z" />
    <glyph glyph-name="questiondown" unicode="&#xbf;" horiz-adv-x="440" 
d="M222 -211q-55 0 -97.5 18.5t-66 53.5t-23.5 81q0 33 9 61t30 58.5t56 68.5q49 54 69.5 93.5t25.5 82.5l2 22h41v-23q0 -52 -20 -99t-74 -106q-42 -47 -59 -82t-17 -73q0 -47 34 -74t93 -27q39 0 74.5 10t66.5 27v-60q-31 -15 -68.5 -23.5t-75.5 -8.5zM290 500v-85h-85v85
h85z" />
    <glyph glyph-name="Agrave" unicode="&#xc0;" horiz-adv-x="728" 
d="M26 0l307 705h56l312 -705h-65l-88 203l29 -15h-434l34 15l-86 -203h-65zM360 630l-171 -401l-23 12h388l-17 -12l-175 401h-2zM337 765l-141 171h73l118 -171h-50z" />
    <glyph glyph-name="Aacute" unicode="&#xc1;" horiz-adv-x="728" 
d="M26 0l307 705h56l312 -705h-65l-88 203l29 -15h-434l34 15l-86 -203h-65zM360 630l-171 -401l-23 12h388l-17 -12l-175 401h-2zM337 765l118 171h73l-141 -171h-50z" />
    <glyph glyph-name="Acircumflex" unicode="&#xc2;" horiz-adv-x="728" 
d="M26 0l307 705h56l312 -705h-65l-88 203l29 -15h-434l34 15l-86 -203h-65zM360 630l-171 -401l-23 12h388l-17 -12l-175 401h-2zM209 765l122 171h62l122 -171h-49l-104 126l-104 -126h-49z" />
    <glyph glyph-name="Atilde" unicode="&#xc3;" horiz-adv-x="728" 
d="M26 0l307 705h56l312 -705h-65l-88 203l29 -15h-434l34 15l-86 -203h-65zM360 630l-171 -401l-23 12h388l-17 -12l-175 401h-2zM199 787l-39 3q6 61 36 94t77 33q23 0 46 -10.5t56 -33.5q32 -20 48 -28.5t31 -8.5q30 0 47.5 21.5t23.5 62.5l39 -3q-6 -61 -35.5 -94
t-76.5 -33q-22 0 -46.5 10.5t-59.5 35.5q-28 19 -45 27t-31 8q-30 0 -47.5 -21.5t-23.5 -62.5z" />
    <glyph glyph-name="Adieresis" unicode="&#xc4;" horiz-adv-x="728" 
d="M26 0l307 705h56l312 -705h-65l-88 203l29 -15h-434l34 15l-86 -203h-65zM360 630l-171 -401l-23 12h388l-17 -12l-175 401h-2zM409 813v73h73v-73h-73zM242 813v73h73v-73h-73z" />
    <glyph glyph-name="Aring" unicode="&#xc5;" horiz-adv-x="728" 
d="M26 0l307 705h56l312 -705h-65l-88 203l29 -15h-434l34 15l-86 -203h-65zM360 630l-171 -401l-23 12h388l-17 -12l-175 401h-2zM362 759q-32 0 -58.5 15.5t-41.5 41t-15 56.5q0 32 15 57t41.5 40.5t58.5 15.5q33 0 59 -15.5t41 -40.5t15 -57q0 -31 -15 -56.5t-41 -41
t-59 -15.5zM362 797q34 0 54.5 21.5t20.5 53.5t-20.5 53.5t-54.5 21.5q-33 0 -54 -21.5t-21 -53.5t21 -53.5t54 -21.5z" />
    <glyph glyph-name="AE" unicode="&#xc6;" horiz-adv-x="1001" 
d="M6 0l427 705h514v-53h-409l21 23l28 -307l-17 16h356v-53h-348l11 10l29 -309l-9 21h338v-53h-386l-18 197l25 -9h-391l23 17l-123 -205h-71zM466 651l-253 -425l-9 15h345l-8 -15l-40 425h-35z" />
    <glyph glyph-name="Ccedilla" unicode="&#xc7;" horiz-adv-x="684" 
d="M390 -8q-104 0 -176.5 43.5t-110.5 124.5t-38 193t38 192.5t110.5 124t176.5 43.5q76 0 135 -23.5t103 -69.5l-26 -50q-49 45 -98 65.5t-114 20.5q-127 0 -193 -79.5t-66 -223.5t66 -224t193 -80q65 0 114 20.5t98 65.5l26 -50q-44 -46 -103.5 -69.5t-134.5 -23.5z
M391 -191q-25 0 -46.5 5t-37.5 14l11 39q19 -9 35 -13t39 -4q27 0 43.5 10.5t16.5 29.5q0 30 -38 30q-11 0 -22 -1.5t-27 -7.5l-16 14l14 95h45l-13 -75l-21 4q12 3 23.5 5t21.5 2q34 0 57.5 -17.5t23.5 -49.5q0 -35 -30.5 -57.5t-78.5 -22.5z" />
    <glyph glyph-name="Egrave" unicode="&#xc8;" horiz-adv-x="585" 
d="M93 0v705h438v-53h-378v-268h356v-53h-356v-278h378v-53h-438zM300 765l-141 171h73l118 -171h-50z" />
    <glyph glyph-name="Eacute" unicode="&#xc9;" horiz-adv-x="585" 
d="M93 0v705h438v-53h-378v-268h356v-53h-356v-278h378v-53h-438zM300 765l118 171h73l-141 -171h-50z" />
    <glyph glyph-name="Ecircumflex" unicode="&#xca;" horiz-adv-x="585" 
d="M93 0v705h438v-53h-378v-268h356v-53h-356v-278h378v-53h-438zM172 765l122 171h62l122 -171h-49l-104 126l-104 -126h-49z" />
    <glyph glyph-name="Edieresis" unicode="&#xcb;" horiz-adv-x="585" 
d="M93 0v705h438v-53h-378v-268h356v-53h-356v-278h378v-53h-438zM372 813v73h73v-73h-73zM205 813v73h73v-73h-73z" />
    <glyph glyph-name="Igrave" unicode="&#xcc;" horiz-adv-x="247" 
d="M93 0v705h62v-705h-62zM98 765l-141 171h73l118 -171h-50z" />
    <glyph glyph-name="Iacute" unicode="&#xcd;" horiz-adv-x="247" 
d="M93 0v705h62v-705h-62zM98 765l118 171h73l-141 -171h-50z" />
    <glyph glyph-name="Icircumflex" unicode="&#xce;" horiz-adv-x="247" 
d="M93 0v705h62v-705h-62zM-30 765l122 171h62l122 -171h-49l-104 126l-104 -126h-49z" />
    <glyph glyph-name="Idieresis" unicode="&#xcf;" horiz-adv-x="247" 
d="M93 0v705h62v-705h-62zM170 813v73h73v-73h-73zM3 813v73h73v-73h-73z" />
    <glyph glyph-name="Eth" unicode="&#xd0;" horiz-adv-x="740" 
d="M93 0v705h223q116 0 196 -40.5t121.5 -119t41.5 -192.5t-41.5 -193t-121.5 -119.5t-196 -40.5h-223zM155 55h156q151 0 225 74.5t74 223.5q0 150 -74 224t-225 74h-156v-596zM6 333v50h350v-50h-350z" />
    <glyph glyph-name="Ntilde" unicode="&#xd1;" horiz-adv-x="743" 
d="M93 0v705h50l472 -632h-22v632h57v-705h-49l-472 632h21v-632h-57zM209 787l-39 3q6 61 36 94t77 33q23 0 46 -10.5t56 -33.5q32 -20 48 -28.5t31 -8.5q30 0 47.5 21.5t23.5 62.5l39 -3q-6 -61 -35.5 -94t-76.5 -33q-22 0 -46.5 10.5t-59.5 35.5q-28 19 -45 27t-31 8
q-30 0 -47.5 -21.5t-23.5 -62.5z" />
    <glyph glyph-name="Ograve" unicode="&#xd2;" horiz-adv-x="765" 
d="M65 353q0 112 37.5 192.5t108.5 124t171 43.5q98 0 169.5 -43.5t110 -124t38.5 -191.5q0 -112 -39 -193t-110.5 -125t-168.5 -44q-99 0 -170 44t-109 125t-38 192zM131 353q0 -144 64 -224.5t187 -80.5q119 0 186 80.5t67 224.5q0 145 -66.5 224.5t-186.5 79.5
q-123 0 -187 -79.5t-64 -224.5zM357 765l-141 171h73l118 -171h-50z" />
    <glyph glyph-name="Oacute" unicode="&#xd3;" horiz-adv-x="765" 
d="M65 353q0 112 37.5 192.5t108.5 124t171 43.5q98 0 169.5 -43.5t110 -124t38.5 -191.5q0 -112 -39 -193t-110.5 -125t-168.5 -44q-99 0 -170 44t-109 125t-38 192zM131 353q0 -144 64 -224.5t187 -80.5q119 0 186 80.5t67 224.5q0 145 -66.5 224.5t-186.5 79.5
q-123 0 -187 -79.5t-64 -224.5zM357 765l118 171h73l-141 -171h-50z" />
    <glyph glyph-name="Ocircumflex" unicode="&#xd4;" horiz-adv-x="765" 
d="M65 353q0 112 37.5 192.5t108.5 124t171 43.5q98 0 169.5 -43.5t110 -124t38.5 -191.5q0 -112 -39 -193t-110.5 -125t-168.5 -44q-99 0 -170 44t-109 125t-38 192zM131 353q0 -144 64 -224.5t187 -80.5q119 0 186 80.5t67 224.5q0 145 -66.5 224.5t-186.5 79.5
q-123 0 -187 -79.5t-64 -224.5zM229 765l122 171h62l122 -171h-49l-104 126l-104 -126h-49z" />
    <glyph glyph-name="Otilde" unicode="&#xd5;" horiz-adv-x="765" 
d="M65 353q0 112 37.5 192.5t108.5 124t171 43.5q98 0 169.5 -43.5t110 -124t38.5 -191.5q0 -112 -39 -193t-110.5 -125t-168.5 -44q-99 0 -170 44t-109 125t-38 192zM131 353q0 -144 64 -224.5t187 -80.5q119 0 186 80.5t67 224.5q0 145 -66.5 224.5t-186.5 79.5
q-123 0 -187 -79.5t-64 -224.5zM219 787l-39 3q6 61 36 94t77 33q23 0 46 -10.5t56 -33.5q32 -20 48 -28.5t31 -8.5q30 0 47.5 21.5t23.5 62.5l39 -3q-6 -61 -35.5 -94t-76.5 -33q-22 0 -46.5 10.5t-59.5 35.5q-28 19 -45 27t-31 8q-30 0 -47.5 -21.5t-23.5 -62.5z" />
    <glyph glyph-name="Odieresis" unicode="&#xd6;" horiz-adv-x="765" 
d="M65 353q0 112 37.5 192.5t108.5 124t171 43.5q98 0 169.5 -43.5t110 -124t38.5 -191.5q0 -112 -39 -193t-110.5 -125t-168.5 -44q-99 0 -170 44t-109 125t-38 192zM131 353q0 -144 64 -224.5t187 -80.5q119 0 186 80.5t67 224.5q0 145 -66.5 224.5t-186.5 79.5
q-123 0 -187 -79.5t-64 -224.5zM429 813v73h73v-73h-73zM262 813v73h73v-73h-73z" />
    <glyph glyph-name="multiply" unicode="&#xd7;" horiz-adv-x="600" 
d="M101 49l-36 35l199 200l-199 200l36 35l199 -199l199 199l36 -35l-199 -200l199 -200l-36 -35l-199 199z" />
    <glyph glyph-name="Oslash" unicode="&#xd8;" horiz-adv-x="765" 
d="M65 353q0 112 37.5 192.5t108.5 124t171 43.5q98 0 169.5 -43.5t110 -124t38.5 -191.5q0 -112 -39 -193t-110.5 -125t-168.5 -44q-99 0 -170 44t-109 125t-38 192zM131 353q0 -144 64 -224.5t187 -80.5q119 0 186 80.5t67 224.5q0 145 -66.5 224.5t-186.5 79.5
q-123 0 -187 -79.5t-64 -224.5zM234 44l-50 -85l-45 25l50 86l20 30l310 532l15 29l50 85l44 -25l-50 -86l-19 -29l-310 -533z" />
    <glyph glyph-name="Ugrave" unicode="&#xd9;" horiz-adv-x="726" 
d="M364 -8q-141 0 -208.5 72t-67.5 210v431h62v-426q0 -115 51 -173t163 -58q104 0 158.5 58t54.5 173v426h62v-431q0 -138 -70.5 -210t-204.5 -72zM339 765l-141 171h73l118 -171h-50z" />
    <glyph glyph-name="Uacute" unicode="&#xda;" horiz-adv-x="726" 
d="M364 -8q-141 0 -208.5 72t-67.5 210v431h62v-426q0 -115 51 -173t163 -58q104 0 158.5 58t54.5 173v426h62v-431q0 -138 -70.5 -210t-204.5 -72zM339 765l118 171h73l-141 -171h-50z" />
    <glyph glyph-name="Ucircumflex" unicode="&#xdb;" horiz-adv-x="726" 
d="M364 -8q-141 0 -208.5 72t-67.5 210v431h62v-426q0 -115 51 -173t163 -58q104 0 158.5 58t54.5 173v426h62v-431q0 -138 -70.5 -210t-204.5 -72zM211 765l122 171h62l122 -171h-49l-104 126l-104 -126h-49z" />
    <glyph glyph-name="Udieresis" unicode="&#xdc;" horiz-adv-x="726" 
d="M364 -8q-141 0 -208.5 72t-67.5 210v431h62v-426q0 -115 51 -173t163 -58q104 0 158.5 58t54.5 173v426h62v-431q0 -138 -70.5 -210t-204.5 -72zM411 813v73h73v-73h-73zM244 813v73h73v-73h-73z" />
    <glyph glyph-name="Yacute" unicode="&#xdd;" horiz-adv-x="597" 
d="M267 0v328l15 -47l-287 424h72l242 -365h-18l242 365h69l-287 -424l14 47v-328h-62zM274 765l118 171h73l-141 -171h-50z" />
    <glyph glyph-name="Thorn" unicode="&#xde;" horiz-adv-x="645" 
d="M93 0v705h62v-141h211q109 0 169 -52t60 -145t-60 -145.5t-169 -52.5h-211v-169h-62zM155 222h208q83 0 126 38t43 107t-43 106.5t-126 37.5h-208v-289z" />
    <glyph glyph-name="germandbls" unicode="&#xdf;" horiz-adv-x="616" 
d="M83 0v502q0 116 56.5 177.5t168.5 61.5q59 0 101 -19.5t64.5 -56t22.5 -87.5q0 -68 -38.5 -121t-137.5 -93v12q95 -25 152.5 -57.5t83.5 -73t26 -90.5t-23.5 -87t-66 -56.5t-100.5 -19.5q-37 0 -69.5 7t-60 21t-49.5 35l23 45q38 -30 75.5 -44t82.5 -14q60 0 93.5 29
t33.5 83q0 37 -22 69t-77 61t-156 56v51q67 26 104.5 54.5t53 61.5t15.5 72q0 50 -33.5 80.5t-96.5 30.5q-86 0 -125.5 -46t-39.5 -137v-507h-61z" />
    <glyph glyph-name="agrave" unicode="&#xe0;" horiz-adv-x="591" 
d="M273 -8q-68 0 -118 31t-77 89t-27 139t27.5 138.5t77.5 89t117 31.5q69 0 119.5 -36t66.5 -98h-12l10 125h59q-3 -29 -5.5 -57t-2.5 -55v-389h-61v125h11q-16 -62 -66.5 -97.5t-118.5 -35.5zM281 44q77 0 122 53t45 154t-45 154t-122 53t-122.5 -53t-45.5 -154t45.5 -154
t122.5 -53zM267 550l-127 201h70l103 -201h-46z" />
    <glyph glyph-name="aacute" unicode="&#xe1;" horiz-adv-x="591" 
d="M273 -8q-68 0 -118 31t-77 89t-27 139t27.5 138.5t77.5 89t117 31.5q69 0 119.5 -36t66.5 -98h-12l10 125h59q-3 -29 -5.5 -57t-2.5 -55v-389h-61v125h11q-16 -62 -66.5 -97.5t-118.5 -35.5zM281 44q77 0 122 53t45 154t-45 154t-122 53t-122.5 -53t-45.5 -154t45.5 -154
t122.5 -53zM267 550l103 201h70l-127 -201h-46z" />
    <glyph glyph-name="acircumflex" unicode="&#xe2;" horiz-adv-x="591" 
d="M273 -8q-68 0 -118 31t-77 89t-27 139t27.5 138.5t77.5 89t117 31.5q69 0 119.5 -36t66.5 -98h-12l10 125h59q-3 -29 -5.5 -57t-2.5 -55v-389h-61v125h11q-16 -62 -66.5 -97.5t-118.5 -35.5zM281 44q77 0 122 53t45 154t-45 154t-122 53t-122.5 -53t-45.5 -154t45.5 -154
t122.5 -53zM150 550l109 201h62l109 -201h-45l-95 155l-95 -155h-45z" />
    <glyph glyph-name="atilde" unicode="&#xe3;" horiz-adv-x="591" 
d="M273 -8q-68 0 -118 31t-77 89t-27 139t27.5 138.5t77.5 89t117 31.5q69 0 119.5 -36t66.5 -98h-12l10 125h59q-3 -29 -5.5 -57t-2.5 -55v-389h-61v125h11q-16 -62 -66.5 -97.5t-118.5 -35.5zM281 44q77 0 122 53t45 154t-45 154t-122 53t-122.5 -53t-45.5 -154t45.5 -154
t122.5 -53zM155 592l-39 3q6 61 32.5 94t69.5 33q21 0 39.5 -11t42.5 -33q22 -21 35.5 -29t26.5 -8q51 0 63 84l39 -3q-6 -61 -32.5 -94t-68.5 -33q-20 0 -38.5 11t-44.5 34q-22 20 -35 28t-27 8q-26 0 -41.5 -22t-21.5 -62z" />
    <glyph glyph-name="adieresis" unicode="&#xe4;" horiz-adv-x="591" 
d="M273 -8q-68 0 -118 31t-77 89t-27 139t27.5 138.5t77.5 89t117 31.5q69 0 119.5 -36t66.5 -98h-12l10 125h59q-3 -29 -5.5 -57t-2.5 -55v-389h-61v125h11q-16 -62 -66.5 -97.5t-118.5 -35.5zM281 44q77 0 122 53t45 154t-45 154t-122 53t-122.5 -53t-45.5 -154t45.5 -154
t122.5 -53zM337 615v72h73v-72h-73zM170 615v72h73v-72h-73z" />
    <glyph glyph-name="aring" unicode="&#xe5;" horiz-adv-x="591" 
d="M273 -8q-68 0 -118 31t-77 89t-27 139t27.5 138.5t77.5 89t117 31.5q69 0 119.5 -36t66.5 -98h-12l10 125h59q-3 -29 -5.5 -57t-2.5 -55v-389h-61v125h11q-16 -62 -66.5 -97.5t-118.5 -35.5zM281 44q77 0 122 53t45 154t-45 154t-122 53t-122.5 -53t-45.5 -154t45.5 -154
t122.5 -53zM290 547q-32 0 -58.5 15t-41.5 41t-15 57t15 56.5t41.5 40.5t58.5 15q33 0 59 -15t41 -40.5t15 -57.5q0 -30 -15 -56t-41 -41t-59 -15zM290 584q34 0 54.5 22t20.5 54t-20.5 53.5t-54.5 21.5q-33 0 -54 -21.5t-21 -53.5t21 -54t54 -22z" />
    <glyph glyph-name="ae" unicode="&#xe6;" horiz-adv-x="886" 
d="M244 -8q-52 0 -92 20t-63 54t-23 77q0 59 27 92t91 46.5t176 13.5h52v-43h-50q-92 0 -143.5 -9.5t-71.5 -32t-20 -63.5q0 -48 33 -77t90 -29q45 0 79.5 21t54 58.5t19.5 87.5v119q0 70 -30 100.5t-92 30.5q-47 0 -87.5 -12.5t-83.5 -41.5l-23 47q38 28 89.5 43.5
t104.5 15.5q78 0 120.5 -34.5t53.5 -99.5h-22q28 65 79 99.5t122 34.5q95 0 149.5 -62.5t54.5 -170.5v-26h-386v44h349l-17 -13q0 83 -39.5 131t-113.5 48q-77 0 -122 -50t-45 -144v-7q0 -101 46.5 -158.5t133.5 -57.5q44 0 84.5 15t77.5 47l24 -45q-32 -33 -82.5 -51
t-103.5 -18q-89 0 -146.5 42t-78.5 122h20q-14 -77 -66 -120.5t-129 -43.5z" />
    <glyph glyph-name="ccedilla" unicode="&#xe7;" horiz-adv-x="491" 
d="M285 -8q-71 0 -124 31.5t-81.5 90.5t-28.5 140t29 138.5t81.5 87.5t123.5 30q48 0 92.5 -18t73.5 -50l-25 -45q-31 31 -67 45.5t-72 14.5q-82 0 -128 -52t-46 -152t46 -154.5t128 -54.5q34 0 70.5 14t68.5 46l25 -45q-30 -32 -75.5 -49.5t-90.5 -17.5zM288 -191
q-25 0 -46.5 5t-37.5 14l11 39q19 -9 35 -13t39 -4q27 0 43.5 10.5t16.5 29.5q0 30 -38 30q-11 0 -22 -1.5t-27 -7.5l-16 14l14 95h45l-13 -75l-21 4q12 3 23.5 5t21.5 2q34 0 57.5 -17.5t23.5 -49.5q0 -35 -30.5 -57.5t-78.5 -22.5z" />
    <glyph glyph-name="egrave" unicode="&#xe8;" horiz-adv-x="543" 
d="M298 -8q-114 0 -180.5 68t-66.5 189q0 80 29.5 138t82.5 90.5t123 32.5q67 0 113 -28.5t71 -81t25 -124.5v-28h-400v44h362l-17 -13q0 85 -39 133.5t-116 48.5q-82 0 -128 -56.5t-46 -149.5v-7q0 -100 49.5 -152t138.5 -52q46 0 86 14t77 48l25 -45q-32 -33 -83 -51
t-106 -18zM263 550l-127 201h70l103 -201h-46z" />
    <glyph glyph-name="eacute" unicode="&#xe9;" horiz-adv-x="543" 
d="M298 -8q-114 0 -180.5 68t-66.5 189q0 80 29.5 138t82.5 90.5t123 32.5q67 0 113 -28.5t71 -81t25 -124.5v-28h-400v44h362l-17 -13q0 85 -39 133.5t-116 48.5q-82 0 -128 -56.5t-46 -149.5v-7q0 -100 49.5 -152t138.5 -52q46 0 86 14t77 48l25 -45q-32 -33 -83 -51
t-106 -18zM263 550l103 201h70l-127 -201h-46z" />
    <glyph glyph-name="ecircumflex" unicode="&#xea;" horiz-adv-x="543" 
d="M298 -8q-114 0 -180.5 68t-66.5 189q0 80 29.5 138t82.5 90.5t123 32.5q67 0 113 -28.5t71 -81t25 -124.5v-28h-400v44h362l-17 -13q0 85 -39 133.5t-116 48.5q-82 0 -128 -56.5t-46 -149.5v-7q0 -100 49.5 -152t138.5 -52q46 0 86 14t77 48l25 -45q-32 -33 -83 -51
t-106 -18zM146 550l109 201h62l109 -201h-45l-95 155l-95 -155h-45z" />
    <glyph glyph-name="edieresis" unicode="&#xeb;" horiz-adv-x="543" 
d="M298 -8q-114 0 -180.5 68t-66.5 189q0 80 29.5 138t82.5 90.5t123 32.5q67 0 113 -28.5t71 -81t25 -124.5v-28h-400v44h362l-17 -13q0 85 -39 133.5t-116 48.5q-82 0 -128 -56.5t-46 -149.5v-7q0 -100 49.5 -152t138.5 -52q46 0 86 14t77 48l25 -45q-32 -33 -83 -51
t-106 -18zM333 615v72h73v-72h-73zM166 615v72h73v-72h-73z" />
    <glyph glyph-name="igrave" unicode="&#xec;" horiz-adv-x="228" 
d="M83 0v501h61v-501h-61zM91 550l-127 201h70l103 -201h-46z" />
    <glyph glyph-name="iacute" unicode="&#xed;" horiz-adv-x="228" 
d="M83 0v501h61v-501h-61zM91 550l103 201h70l-127 -201h-46z" />
    <glyph glyph-name="icircumflex" unicode="&#xee;" horiz-adv-x="228" 
d="M83 0v501h61v-501h-61zM-26 550l109 201h62l109 -201h-45l-95 155l-95 -155h-45z" />
    <glyph glyph-name="idieresis" unicode="&#xef;" horiz-adv-x="228" 
d="M83 0v501h61v-501h-61zM161 615v72h73v-72h-73zM-6 615v72h73v-72h-73z" />
    <glyph glyph-name="eth" unicode="&#xf0;" horiz-adv-x="566" 
d="M281 -8q-69 0 -121 29t-80.5 82t-28.5 123q0 71 28.5 124t80.5 82t121 29q78 0 127 -40t69 -122h-21q0 93 -35.5 176t-107.5 142l18 -3l-195 -81l-16 39l174 72l-1 -13q-30 22 -66.5 39t-77.5 28l14 44q55 -14 100.5 -36t83.5 -50l-17 3l115 48l16 -39l-97 -41l2 13
q51 -43 83.5 -99.5t49 -122.5t16.5 -140q0 -93 -27 -157t-79 -96.5t-128 -32.5zM281 44q78 0 123.5 48.5t45.5 133.5t-45 133.5t-123 48.5t-123.5 -48t-45.5 -134t44.5 -134t123.5 -48z" />
    <glyph glyph-name="ntilde" unicode="&#xf1;" horiz-adv-x="578" 
d="M83 0v389q0 27 -2 55t-6 57h60l9 -115h-12q22 60 71 92t114 32q89 0 134.5 -47t45.5 -147v-316h-61v311q0 77 -31 111.5t-96 34.5q-76 0 -120.5 -46t-44.5 -124v-287h-61zM153 592l-39 3q6 61 32.5 94t69.5 33q21 0 39.5 -11t42.5 -33q22 -21 35.5 -29t26.5 -8
q51 0 63 84l39 -3q-6 -61 -32.5 -94t-68.5 -33q-20 0 -38.5 11t-44.5 34q-22 20 -35 28t-27 8q-26 0 -41.5 -22t-21.5 -62z" />
    <glyph glyph-name="ograve" unicode="&#xf2;" horiz-adv-x="562" 
d="M281 -8q-71 0 -122.5 31t-79.5 89t-28 139q0 80 28 138t79.5 89.5t122.5 31.5q70 0 121.5 -31.5t80 -89.5t28.5 -138q0 -81 -28.5 -139t-80 -89t-121.5 -31zM281 44q76 0 122 53t46 154t-46 154t-122 53q-77 0 -122.5 -53t-45.5 -154t45.5 -154t122.5 -53zM259 550
l-127 201h70l103 -201h-46z" />
    <glyph glyph-name="oacute" unicode="&#xf3;" horiz-adv-x="562" 
d="M281 -8q-71 0 -122.5 31t-79.5 89t-28 139q0 80 28 138t79.5 89.5t122.5 31.5q70 0 121.5 -31.5t80 -89.5t28.5 -138q0 -81 -28.5 -139t-80 -89t-121.5 -31zM281 44q76 0 122 53t46 154t-46 154t-122 53q-77 0 -122.5 -53t-45.5 -154t45.5 -154t122.5 -53zM259 550
l103 201h70l-127 -201h-46z" />
    <glyph glyph-name="ocircumflex" unicode="&#xf4;" horiz-adv-x="562" 
d="M281 -8q-71 0 -122.5 31t-79.5 89t-28 139q0 80 28 138t79.5 89.5t122.5 31.5q70 0 121.5 -31.5t80 -89.5t28.5 -138q0 -81 -28.5 -139t-80 -89t-121.5 -31zM281 44q76 0 122 53t46 154t-46 154t-122 53q-77 0 -122.5 -53t-45.5 -154t45.5 -154t122.5 -53zM142 550
l109 201h62l109 -201h-45l-95 155l-95 -155h-45z" />
    <glyph glyph-name="otilde" unicode="&#xf5;" horiz-adv-x="562" 
d="M281 -8q-71 0 -122.5 31t-79.5 89t-28 139q0 80 28 138t79.5 89.5t122.5 31.5q70 0 121.5 -31.5t80 -89.5t28.5 -138q0 -81 -28.5 -139t-80 -89t-121.5 -31zM281 44q76 0 122 53t46 154t-46 154t-122 53q-77 0 -122.5 -53t-45.5 -154t45.5 -154t122.5 -53zM147 592l-39 3
q6 61 32.5 94t69.5 33q21 0 39.5 -11t42.5 -33q22 -21 35.5 -29t26.5 -8q51 0 63 84l39 -3q-6 -61 -32.5 -94t-68.5 -33q-20 0 -38.5 11t-44.5 34q-22 20 -35 28t-27 8q-26 0 -41.5 -22t-21.5 -62z" />
    <glyph glyph-name="odieresis" unicode="&#xf6;" horiz-adv-x="562" 
d="M281 -8q-71 0 -122.5 31t-79.5 89t-28 139q0 80 28 138t79.5 89.5t122.5 31.5q70 0 121.5 -31.5t80 -89.5t28.5 -138q0 -81 -28.5 -139t-80 -89t-121.5 -31zM281 44q76 0 122 53t46 154t-46 154t-122 53q-77 0 -122.5 -53t-45.5 -154t45.5 -154t122.5 -53zM329 615v72h73
v-72h-73zM162 615v72h73v-72h-73z" />
    <glyph glyph-name="divide" unicode="&#xf7;" horiz-adv-x="600" 
d="M52 262v50h496v-50h-496zM256 48v78h78v-78h-78zM256 447v78h78v-78h-78z" />
    <glyph glyph-name="oslash" unicode="&#xf8;" horiz-adv-x="562" 
d="M281 -8q-71 0 -122.5 31t-79.5 89t-28 139q0 80 28 138t79.5 89.5t122.5 31.5q70 0 121.5 -31.5t80 -89.5t28.5 -138q0 -81 -28.5 -139t-80 -89t-121.5 -31zM281 44q78 0 124 53.5t46 153.5t-46 153.5t-124 53.5q-79 0 -124.5 -53.5t-45.5 -153.5t45.5 -153.5
t124.5 -53.5zM141 -35l-37 23l318 548l37 -22z" />
    <glyph glyph-name="ugrave" unicode="&#xf9;" horiz-adv-x="569" 
d="M259 -8q-88 0 -133.5 47.5t-45.5 146.5v315h61v-311q0 -76 31 -111t95 -35q71 0 114.5 46.5t43.5 123.5v287h61v-501h-60v118h13q-21 -61 -68.5 -93.5t-111.5 -32.5zM262 551l-127 201h70l103 -201h-46z" />
    <glyph glyph-name="uacute" unicode="&#xfa;" horiz-adv-x="569" 
d="M259 -8q-88 0 -133.5 47.5t-45.5 146.5v315h61v-311q0 -76 31 -111t95 -35q71 0 114.5 46.5t43.5 123.5v287h61v-501h-60v118h13q-21 -61 -68.5 -93.5t-111.5 -32.5zM262 551l103 201h70l-127 -201h-46z" />
    <glyph glyph-name="ucircumflex" unicode="&#xfb;" horiz-adv-x="569" 
d="M259 -8q-88 0 -133.5 47.5t-45.5 146.5v315h61v-311q0 -76 31 -111t95 -35q71 0 114.5 46.5t43.5 123.5v287h61v-501h-60v118h13q-21 -61 -68.5 -93.5t-111.5 -32.5zM145 551l109 201h62l109 -201h-45l-95 155l-95 -155h-45z" />
    <glyph glyph-name="udieresis" unicode="&#xfc;" horiz-adv-x="569" 
d="M259 -8q-88 0 -133.5 47.5t-45.5 146.5v315h61v-311q0 -76 31 -111t95 -35q71 0 114.5 46.5t43.5 123.5v287h61v-501h-60v118h13q-21 -61 -68.5 -93.5t-111.5 -32.5zM332 616v72h73v-72h-73zM165 616v72h73v-72h-73z" />
    <glyph glyph-name="yacute" unicode="&#xfd;" horiz-adv-x="525" 
d="M60 -227l-15 53q47 11 78 26.5t52 40.5t37 62l26 60l-1 -27l-219 513h68l191 -463h-25l189 463h66l-232 -549q-19 -46 -41.5 -76.5t-48.5 -51t-57 -32.5t-68 -19zM239 550l103 201h70l-127 -201h-46z" />
    <glyph glyph-name="thorn" unicode="&#xfe;" horiz-adv-x="591" 
d="M83 -216v952h61v-360h-11q17 62 66.5 98t119.5 36q68 0 117.5 -31.5t77 -89t27.5 -138.5t-27.5 -139t-77 -89t-117.5 -31q-70 0 -119.5 35.5t-66.5 97.5h11v-341h-61zM311 44q77 0 122.5 53t45.5 154t-45.5 154t-122.5 53q-76 0 -122 -53t-46 -154t46 -154t122 -53z" />
    <glyph glyph-name="ydieresis" unicode="&#xff;" horiz-adv-x="525" 
d="M60 -227l-15 53q47 11 78 26.5t52 40.5t37 62l26 60l-1 -27l-219 513h68l191 -463h-25l189 463h66l-232 -549q-19 -46 -41.5 -76.5t-48.5 -51t-57 -32.5t-68 -19zM309 615v72h73v-72h-73zM142 615v72h73v-72h-73z" />
    <glyph glyph-name="Amacron" unicode="&#x100;" horiz-adv-x="728" 
d="M26 0l307 705h56l312 -705h-65l-88 203l29 -15h-434l34 15l-86 -203h-65zM360 630l-171 -401l-23 12h388l-17 -12l-175 401h-2zM203 818v47h318v-47h-318z" />
    <glyph glyph-name="amacron" unicode="&#x101;" horiz-adv-x="591" 
d="M273 -8q-68 0 -118 31t-77 89t-27 139t27.5 138.5t77.5 89t117 31.5q69 0 119.5 -36t66.5 -98h-12l10 125h59q-3 -29 -5.5 -57t-2.5 -55v-389h-61v125h11q-16 -62 -66.5 -97.5t-118.5 -35.5zM281 44q77 0 122 53t45 154t-45 154t-122 53t-122.5 -53t-45.5 -154t45.5 -154
t122.5 -53zM146 629v46h288v-46h-288z" />
    <glyph glyph-name="Abreve" unicode="&#x102;" horiz-adv-x="728" 
d="M26 0l307 705h56l312 -705h-65l-88 203l29 -15h-434l34 15l-86 -203h-65zM360 630l-171 -401l-23 12h388l-17 -12l-175 401h-2zM362 760q-67 0 -111.5 45t-51.5 123l42 5q5 -61 37 -94.5t84 -33.5t84.5 33.5t36.5 94.5l42 -5q-7 -78 -51.5 -123t-111.5 -45z" />
    <glyph glyph-name="abreve" unicode="&#x103;" horiz-adv-x="591" 
d="M273 -8q-68 0 -118 31t-77 89t-27 139t27.5 138.5t77.5 89t117 31.5q69 0 119.5 -36t66.5 -98h-12l10 125h59q-3 -29 -5.5 -57t-2.5 -55v-389h-61v125h11q-16 -62 -66.5 -97.5t-118.5 -35.5zM281 44q77 0 122 53t45 154t-45 154t-122 53t-122.5 -53t-45.5 -154t45.5 -154
t122.5 -53zM290 548q-43 0 -75.5 22.5t-51 65t-22.5 100.5l42 5q4 -71 32 -109.5t75 -38.5q48 0 75.5 38.5t31.5 109.5l42 -5q-3 -58 -22 -100.5t-51 -65t-76 -22.5z" />
    <glyph glyph-name="Aogonek" unicode="&#x104;" horiz-adv-x="728" 
d="M26 0l307 705h56l312 -705h-65l-88 203l29 -15h-434l34 15l-86 -203h-65zM360 630l-171 -401l-23 12h388l-17 -12l-175 401h-2zM674 -191q-44 0 -72 25.5t-28 69.5q0 39 24.5 73.5t68.5 56.5l25 -34q-15 -6 -31 -19t-27 -31t-11 -40q0 -30 17 -44t42 -14q13 0 26 3t27 9
l14 -38q-13 -8 -32 -12.5t-43 -4.5z" />
    <glyph glyph-name="aogonek" unicode="&#x105;" horiz-adv-x="591" 
d="M273 -8q-68 0 -118 31t-77 89t-27 139t27.5 138.5t77.5 89t117 31.5q69 0 119.5 -36t66.5 -98h-12l10 125h59q-3 -29 -5.5 -57t-2.5 -55v-389h-61v125h11q-16 -62 -66.5 -97.5t-118.5 -35.5zM281 44q77 0 122 53t45 154t-45 154t-122 53t-122.5 -53t-45.5 -154t45.5 -154
t122.5 -53zM485 -191q-44 0 -72 25.5t-28 69.5q0 39 24.5 73.5t68.5 56.5l25 -34q-15 -6 -31 -19t-27 -31t-11 -40q0 -30 17 -44t42 -14q13 0 26 3t27 9l14 -38q-13 -8 -32 -12.5t-43 -4.5z" />
    <glyph glyph-name="Cacute" unicode="&#x106;" horiz-adv-x="684" 
d="M390 -8q-104 0 -176.5 43.5t-110.5 124.5t-38 193t38 192.5t110.5 124t176.5 43.5q76 0 135 -23.5t103 -69.5l-26 -50q-49 45 -98 65.5t-114 20.5q-127 0 -193 -79.5t-66 -223.5t66 -224t193 -80q65 0 114 20.5t98 65.5l26 -50q-44 -46 -103.5 -69.5t-134.5 -23.5z
M364 765l118 171h73l-141 -171h-50z" />
    <glyph glyph-name="cacute" unicode="&#x107;" horiz-adv-x="491" 
d="M285 -8q-71 0 -124 31.5t-81.5 90.5t-28.5 140t29 138.5t81.5 87.5t123.5 30q48 0 92.5 -18t73.5 -50l-25 -45q-31 31 -67 45.5t-72 14.5q-82 0 -128 -52t-46 -152t46 -154.5t128 -54.5q34 0 70.5 14t68.5 46l25 -45q-30 -32 -75.5 -49.5t-90.5 -17.5zM261 550l103 201
h70l-127 -201h-46z" />
    <glyph glyph-name="Ccircumflex" unicode="&#x108;" horiz-adv-x="684" 
d="M390 -8q-104 0 -176.5 43.5t-110.5 124.5t-38 193t38 192.5t110.5 124t176.5 43.5q76 0 135 -23.5t103 -69.5l-26 -50q-49 45 -98 65.5t-114 20.5q-127 0 -193 -79.5t-66 -223.5t66 -224t193 -80q65 0 114 20.5t98 65.5l26 -50q-44 -46 -103.5 -69.5t-134.5 -23.5z
M236 765l122 171h62l122 -171h-49l-104 126l-104 -126h-49z" />
    <glyph glyph-name="ccircumflex" unicode="&#x109;" horiz-adv-x="491" 
d="M285 -8q-71 0 -124 31.5t-81.5 90.5t-28.5 140t29 138.5t81.5 87.5t123.5 30q48 0 92.5 -18t73.5 -50l-25 -45q-31 31 -67 45.5t-72 14.5q-82 0 -128 -52t-46 -152t46 -154.5t128 -54.5q34 0 70.5 14t68.5 46l25 -45q-30 -32 -75.5 -49.5t-90.5 -17.5zM144 550l109 201
h62l109 -201h-45l-95 155l-95 -155h-45z" />
    <glyph glyph-name="Cdotaccent" unicode="&#x10a;" horiz-adv-x="684" 
d="M390 -8q-104 0 -176.5 43.5t-110.5 124.5t-38 193t38 192.5t110.5 124t176.5 43.5q76 0 135 -23.5t103 -69.5l-26 -50q-49 45 -98 65.5t-114 20.5q-127 0 -193 -79.5t-66 -223.5t66 -224t193 -80q65 0 114 20.5t98 65.5l26 -50q-44 -46 -103.5 -69.5t-134.5 -23.5z
M351 813v75h76v-75h-76z" />
    <glyph glyph-name="cdotaccent" unicode="&#x10b;" horiz-adv-x="491" 
d="M285 -8q-71 0 -124 31.5t-81.5 90.5t-28.5 140t29 138.5t81.5 87.5t123.5 30q48 0 92.5 -18t73.5 -50l-25 -45q-31 31 -67 45.5t-72 14.5q-82 0 -128 -52t-46 -152t46 -154.5t128 -54.5q34 0 70.5 14t68.5 46l25 -45q-30 -32 -75.5 -49.5t-90.5 -17.5zM245 614v75h78v-75
h-78z" />
    <glyph glyph-name="Ccaron" unicode="&#x10c;" horiz-adv-x="684" 
d="M390 -8q-104 0 -176.5 43.5t-110.5 124.5t-38 193t38 192.5t110.5 124t176.5 43.5q76 0 135 -23.5t103 -69.5l-26 -50q-49 45 -98 65.5t-114 20.5q-127 0 -193 -79.5t-66 -223.5t66 -224t193 -80q65 0 114 20.5t98 65.5l26 -50q-44 -46 -103.5 -69.5t-134.5 -23.5z
M358 765l-122 171h49l104 -126l104 126h49l-122 -171h-62z" />
    <glyph glyph-name="ccaron" unicode="&#x10d;" horiz-adv-x="491" 
d="M285 -8q-71 0 -124 31.5t-81.5 90.5t-28.5 140t29 138.5t81.5 87.5t123.5 30q48 0 92.5 -18t73.5 -50l-25 -45q-31 31 -67 45.5t-72 14.5q-82 0 -128 -52t-46 -152t46 -154.5t128 -54.5q34 0 70.5 14t68.5 46l25 -45q-30 -32 -75.5 -49.5t-90.5 -17.5zM253 550l-109 201
h45l95 -155l95 155h45l-109 -201h-62z" />
    <glyph glyph-name="Dcaron" unicode="&#x10e;" horiz-adv-x="740" 
d="M93 0v705h223q116 0 196 -40.5t121.5 -119t41.5 -192.5t-41.5 -193t-121.5 -119.5t-196 -40.5h-223zM155 55h156q151 0 225 74.5t74 223.5q0 150 -74 224t-225 74h-156v-596zM345 765l-122 171h49l104 -126l104 126h49l-122 -171h-62z" />
    <glyph glyph-name="dcaron" unicode="&#x10f;" horiz-adv-x="591" 
d="M272 -8q-67 0 -117 31t-77 89t-27 139t27 138.5t77 89t117 31.5q69 0 119.5 -35.5t67.5 -97.5h-12v359h61v-736h-60v126h11q-17 -63 -67.5 -98.5t-119.5 -35.5zM280 44q76 0 122.5 53t46.5 154t-46.5 154t-122.5 53t-121.5 -53t-45.5 -154t45.5 -154t121.5 -53zM560 547
v189h57l-23 -189h-34z" />
    <glyph glyph-name="Dcroat" unicode="&#x110;" horiz-adv-x="740" 
d="M93 0v705h223q116 0 196 -40.5t121.5 -119t41.5 -192.5t-41.5 -193t-121.5 -119.5t-196 -40.5h-223zM155 55h156q151 0 225 74.5t74 223.5q0 150 -74 224t-225 74h-156v-596zM6 333v50h350v-50h-350z" />
    <glyph glyph-name="dcroat" unicode="&#x111;" horiz-adv-x="591" 
d="M272 -8q-67 0 -117 30.5t-77 88.5t-27 138t27 137.5t77 88.5t117 31q69 0 119 -35.5t67 -97.5h-11v215h-195v49h195v99h61v-99h96v-49h-96v-588h-61v125h11q-17 -62 -66.5 -97.5t-119.5 -35.5zM281 44q75 0 121 52.5t46 152.5t-46 152.5t-121 52.5q-77 0 -122.5 -52.5
t-45.5 -152.5t45.5 -152.5t122.5 -52.5z" />
    <glyph glyph-name="Emacron" unicode="&#x112;" horiz-adv-x="585" 
d="M93 0v705h438v-53h-378v-268h356v-53h-356v-278h378v-53h-438zM166 818v47h318v-47h-318z" />
    <glyph glyph-name="emacron" unicode="&#x113;" horiz-adv-x="543" 
d="M298 -8q-114 0 -180.5 68t-66.5 189q0 80 29.5 138t82.5 90.5t123 32.5q67 0 113 -28.5t71 -81t25 -124.5v-28h-400v44h362l-17 -13q0 85 -39 133.5t-116 48.5q-82 0 -128 -56.5t-46 -149.5v-7q0 -100 49.5 -152t138.5 -52q46 0 86 14t77 48l25 -45q-32 -33 -83 -51
t-106 -18zM142 629v46h288v-46h-288z" />
    <glyph glyph-name="Ebreve" unicode="&#x114;" horiz-adv-x="585" 
d="M93 0v705h438v-53h-378v-268h356v-53h-356v-278h378v-53h-438zM325 760q-67 0 -111.5 45t-51.5 123l42 5q5 -61 37 -94.5t84 -33.5t84.5 33.5t36.5 94.5l42 -5q-7 -78 -51.5 -123t-111.5 -45z" />
    <glyph glyph-name="ebreve" unicode="&#x115;" horiz-adv-x="543" 
d="M298 -8q-114 0 -180.5 68t-66.5 189q0 80 29.5 138t82.5 90.5t123 32.5q67 0 113 -28.5t71 -81t25 -124.5v-28h-400v44h362l-17 -13q0 85 -39 133.5t-116 48.5q-82 0 -128 -56.5t-46 -149.5v-7q0 -100 49.5 -152t138.5 -52q46 0 86 14t77 48l25 -45q-32 -33 -83 -51
t-106 -18zM286 548q-43 0 -75.5 22.5t-51 65t-22.5 100.5l42 5q4 -71 32 -109.5t75 -38.5q48 0 75.5 38.5t31.5 109.5l42 -5q-3 -58 -22 -100.5t-51 -65t-76 -22.5z" />
    <glyph glyph-name="Edotaccent" unicode="&#x116;" horiz-adv-x="585" 
d="M93 0v705h438v-53h-378v-268h356v-53h-356v-278h378v-53h-438zM287 813v75h76v-75h-76z" />
    <glyph glyph-name="edotaccent" unicode="&#x117;" horiz-adv-x="543" 
d="M298 -8q-114 0 -180.5 68t-66.5 189q0 80 29.5 138t82.5 90.5t123 32.5q67 0 113 -28.5t71 -81t25 -124.5v-28h-400v44h362l-17 -13q0 85 -39 133.5t-116 48.5q-82 0 -128 -56.5t-46 -149.5v-7q0 -100 49.5 -152t138.5 -52q46 0 86 14t77 48l25 -45q-32 -33 -83 -51
t-106 -18zM247 614v75h78v-75h-78z" />
    <glyph glyph-name="Eogonek" unicode="&#x118;" horiz-adv-x="585" 
d="M93 0v705h438v-53h-378v-268h356v-53h-356v-278h378v-53h-438zM484 -191q-44 0 -72 25.5t-28 69.5q0 39 24.5 73.5t68.5 56.5l25 -34q-15 -6 -31 -19t-27 -31t-11 -40q0 -30 17 -44t42 -14q13 0 26 3t27 9l14 -38q-13 -8 -32 -12.5t-43 -4.5z" />
    <glyph glyph-name="eogonek" unicode="&#x119;" horiz-adv-x="543" 
d="M298 -8q-114 0 -180.5 68t-66.5 189q0 80 29.5 138t82.5 90.5t123 32.5q67 0 113 -28.5t71 -81t25 -124.5v-28h-400v44h362l-17 -13q0 85 -39 133.5t-116 48.5q-82 0 -128 -56.5t-46 -149.5v-7q0 -100 49.5 -152t138.5 -52q46 0 86 14t77 48l25 -45q-32 -33 -83 -51
t-106 -18zM343 -191q-44 0 -72 25.5t-28 69.5q0 39 24.5 73.5t68.5 56.5l25 -34q-15 -6 -31 -19t-27 -31t-11 -40q0 -30 17 -44t42 -14q13 0 26 3t27 9l14 -38q-13 -8 -32 -12.5t-43 -4.5z" />
    <glyph glyph-name="Ecaron" unicode="&#x11a;" horiz-adv-x="585" 
d="M93 0v705h438v-53h-378v-268h356v-53h-356v-278h378v-53h-438zM294 765l-122 171h49l104 -126l104 126h49l-122 -171h-62z" />
    <glyph glyph-name="ecaron" unicode="&#x11b;" horiz-adv-x="543" 
d="M298 -8q-114 0 -180.5 68t-66.5 189q0 80 29.5 138t82.5 90.5t123 32.5q67 0 113 -28.5t71 -81t25 -124.5v-28h-400v44h362l-17 -13q0 85 -39 133.5t-116 48.5q-82 0 -128 -56.5t-46 -149.5v-7q0 -100 49.5 -152t138.5 -52q46 0 86 14t77 48l25 -45q-32 -33 -83 -51
t-106 -18zM255 550l-109 201h45l95 -155l95 155h45l-109 -201h-62z" />
    <glyph glyph-name="Gcircumflex" unicode="&#x11c;" horiz-adv-x="727" 
d="M409 -8q-114 0 -190.5 42.5t-115 123.5t-38.5 195q0 112 40 192.5t114.5 124t179.5 43.5q77 0 133 -23.5t102 -68.5l-27 -50q-33 31 -63.5 49.5t-65 27t-79.5 8.5q-129 0 -198.5 -79.5t-69.5 -224.5q0 -148 68 -226t211 -78q53 0 101 10t91 29l-15 -40v264h-187v52h242
v-322q-40 -21 -104.5 -35t-128.5 -14zM242 765l122 171h62l122 -171h-49l-104 126l-104 -126h-49z" />
    <glyph glyph-name="gcircumflex" unicode="&#x11d;" horiz-adv-x="595" 
d="M299 -223q-63 0 -117.5 17t-97.5 51l22 47q32 -23 61.5 -36.5t61.5 -20t69 -6.5q76 0 115 40.5t39 116.5v159h11q-16 -63 -67 -98.5t-120 -35.5t-119.5 30.5t-78 87t-27.5 132.5t27.5 132t78 86.5t119.5 30.5t120 -35.5t67 -99.5l-11 11l9 115h60q-4 -29 -6 -57t-2 -55
v-394q0 -108 -54.5 -163t-159.5 -55zM283 63q78 0 123.5 52t45.5 146q0 93 -45.5 145t-123.5 52t-124 -52t-46 -145q0 -94 46 -146t124 -52zM160 550l109 201h62l109 -201h-45l-95 155l-95 -155h-45z" />
    <glyph glyph-name="Gbreve" unicode="&#x11e;" horiz-adv-x="727" 
d="M409 -8q-114 0 -190.5 42.5t-115 123.5t-38.5 195q0 112 40 192.5t114.5 124t179.5 43.5q77 0 133 -23.5t102 -68.5l-27 -50q-33 31 -63.5 49.5t-65 27t-79.5 8.5q-129 0 -198.5 -79.5t-69.5 -224.5q0 -148 68 -226t211 -78q53 0 101 10t91 29l-15 -40v264h-187v52h242
v-322q-40 -21 -104.5 -35t-128.5 -14zM395 760q-67 0 -111.5 45t-51.5 123l42 5q5 -61 37 -94.5t84 -33.5t84.5 33.5t36.5 94.5l42 -5q-7 -78 -51.5 -123t-111.5 -45z" />
    <glyph glyph-name="gbreve" unicode="&#x11f;" horiz-adv-x="595" 
d="M299 -223q-63 0 -117.5 17t-97.5 51l22 47q32 -23 61.5 -36.5t61.5 -20t69 -6.5q76 0 115 40.5t39 116.5v159h11q-16 -63 -67 -98.5t-120 -35.5t-119.5 30.5t-78 87t-27.5 132.5t27.5 132t78 86.5t119.5 30.5t120 -35.5t67 -99.5l-11 11l9 115h60q-4 -29 -6 -57t-2 -55
v-394q0 -108 -54.5 -163t-159.5 -55zM283 63q78 0 123.5 52t45.5 146q0 93 -45.5 145t-123.5 52t-124 -52t-46 -145q0 -94 46 -146t124 -52zM300 548q-43 0 -75.5 22.5t-51 65t-22.5 100.5l42 5q4 -71 32 -109.5t75 -38.5q48 0 75.5 38.5t31.5 109.5l42 -5
q-3 -58 -22 -100.5t-51 -65t-76 -22.5z" />
    <glyph glyph-name="Gdotaccent" unicode="&#x120;" horiz-adv-x="727" 
d="M409 -8q-114 0 -190.5 42.5t-115 123.5t-38.5 195q0 112 40 192.5t114.5 124t179.5 43.5q77 0 133 -23.5t102 -68.5l-27 -50q-33 31 -63.5 49.5t-65 27t-79.5 8.5q-129 0 -198.5 -79.5t-69.5 -224.5q0 -148 68 -226t211 -78q53 0 101 10t91 29l-15 -40v264h-187v52h242
v-322q-40 -21 -104.5 -35t-128.5 -14zM357 813v75h76v-75h-76z" />
    <glyph glyph-name="gdotaccent" unicode="&#x121;" horiz-adv-x="595" 
d="M299 -223q-63 0 -117.5 17t-97.5 51l22 47q32 -23 61.5 -36.5t61.5 -20t69 -6.5q76 0 115 40.5t39 116.5v159h11q-16 -63 -67 -98.5t-120 -35.5t-119.5 30.5t-78 87t-27.5 132.5t27.5 132t78 86.5t119.5 30.5t120 -35.5t67 -99.5l-11 11l9 115h60q-4 -29 -6 -57t-2 -55
v-394q0 -108 -54.5 -163t-159.5 -55zM283 63q78 0 123.5 52t45.5 146q0 93 -45.5 145t-123.5 52t-124 -52t-46 -145q0 -94 46 -146t124 -52zM261 614v75h78v-75h-78z" />
    <glyph glyph-name="uni0122" unicode="&#x122;" horiz-adv-x="727" 
d="M409 -8q-114 0 -190.5 42.5t-115 123.5t-38.5 195q0 112 40 192.5t114.5 124t179.5 43.5q77 0 133 -23.5t102 -68.5l-27 -50q-33 31 -63.5 49.5t-65 27t-79.5 8.5q-129 0 -198.5 -79.5t-69.5 -224.5q0 -148 68 -226t211 -78q53 0 101 10t91 29l-15 -40v264h-187v52h242
v-322q-40 -21 -104.5 -35t-128.5 -14zM402 -263l-31 22q23 25 30.5 47t7.5 46l18 -8h-60v73h84v-57q0 -36 -12.5 -67t-36.5 -56z" />
    <glyph glyph-name="uni0123" unicode="&#x123;" horiz-adv-x="595" 
d="M299 -223q-63 0 -117.5 17t-97.5 51l22 47q32 -23 61.5 -36.5t61.5 -20t69 -6.5q76 0 115 40.5t39 116.5v159h11q-16 -63 -67 -98.5t-120 -35.5t-119.5 30.5t-78 87t-27.5 132.5t27.5 132t78 86.5t119.5 30.5t120 -35.5t67 -99.5l-11 11l9 115h60q-4 -29 -6 -57t-2 -55
v-394q0 -108 -54.5 -163t-159.5 -55zM283 63q78 0 123.5 52t45.5 146q0 93 -45.5 145t-123.5 52t-124 -52t-46 -145q0 -94 46 -146t124 -52zM258 569v57q0 35 12.5 66.5t36.5 56.5l31 -23q-23 -25 -30.5 -46.5t-7.5 -46.5l-18 9h60v-73h-84z" />
    <glyph glyph-name="Hcircumflex" unicode="&#x124;" horiz-adv-x="762" 
d="M93 0v705h62v-320h453v320h62v-705h-62v330h-453v-330h-62zM229 765l122 171h62l122 -171h-49l-104 126l-104 -126h-49z" />
    <glyph glyph-name="hcircumflex" unicode="&#x125;" horiz-adv-x="578" 
d="M83 0v736h61v-351h-12q21 61 71 93t116 32q91 0 134.5 -48t43.5 -144v-318h-61v313q0 76 -30 110t-96 34q-75 0 -120.5 -46t-45.5 -122v-289h-61zM140 769l122 171h62l122 -171h-49l-104 126l-104 -126h-49z" />
    <glyph glyph-name="Hbar" unicode="&#x126;" horiz-adv-x="779" 
d="M102 0v523h-95v51h95v131h62v-131h452v131h62v-131h95v-51h-95v-523h-62v327h-452v-327h-62zM164 382h452v141h-452v-141z" />
    <glyph glyph-name="hbar" unicode="&#x127;" horiz-adv-x="578" 
d="M83 0v588h-97v49h97v99h61v-99h202v-49h-202v-205h-12q21 61 71 92.5t116 31.5q89 0 133.5 -48t44.5 -144v-315h-61v311q0 75 -30.5 109t-95.5 34q-75 0 -120.5 -45.5t-45.5 -121.5v-287h-61z" />
    <glyph glyph-name="Itilde" unicode="&#x128;" horiz-adv-x="247" 
d="M93 0v705h62v-705h-62zM-40 787l-39 3q6 61 36 94t77 33q23 0 46 -10.5t56 -33.5q32 -20 48 -28.5t31 -8.5q30 0 47.5 21.5t23.5 62.5l39 -3q-6 -61 -35.5 -94t-76.5 -33q-22 0 -46.5 10.5t-59.5 35.5q-28 19 -45 27t-31 8q-30 0 -47.5 -21.5t-23.5 -62.5z" />
    <glyph glyph-name="itilde" unicode="&#x129;" horiz-adv-x="228" 
d="M83 0v501h61v-501h-61zM-21 592l-39 3q6 61 32.5 94t69.5 33q21 0 39.5 -11t42.5 -33q22 -21 35.5 -29t26.5 -8q51 0 63 84l39 -3q-6 -61 -32.5 -94t-68.5 -33q-20 0 -38.5 11t-44.5 34q-22 20 -35 28t-27 8q-26 0 -41.5 -22t-21.5 -62z" />
    <glyph glyph-name="Imacron" unicode="&#x12a;" horiz-adv-x="247" 
d="M93 0v705h62v-705h-62zM-36 818v47h318v-47h-318z" />
    <glyph glyph-name="imacron" unicode="&#x12b;" horiz-adv-x="228" 
d="M83 0v501h61v-501h-61zM-30 629v46h288v-46h-288z" />
    <glyph glyph-name="Ibreve" unicode="&#x12c;" horiz-adv-x="247" 
d="M93 0v705h62v-705h-62zM123 760q-67 0 -111.5 45t-51.5 123l42 5q5 -61 37 -94.5t84 -33.5t84.5 33.5t36.5 94.5l42 -5q-7 -78 -51.5 -123t-111.5 -45z" />
    <glyph glyph-name="ibreve" unicode="&#x12d;" horiz-adv-x="228" 
d="M83 0v501h61v-501h-61zM114 548q-43 0 -75.5 22.5t-51 65t-22.5 100.5l42 5q4 -71 32 -109.5t75 -38.5q48 0 75.5 38.5t31.5 109.5l42 -5q-3 -58 -22 -100.5t-51 -65t-76 -22.5z" />
    <glyph glyph-name="Iogonek" unicode="&#x12e;" horiz-adv-x="247" 
d="M93 0v705h62v-705h-62zM130 -191q-44 0 -72 25.5t-28 69.5q0 39 24.5 73.5t68.5 56.5l25 -34q-15 -6 -31 -19t-27 -31t-11 -40q0 -30 17 -44t42 -14q13 0 26 3t27 9l14 -38q-13 -8 -32 -12.5t-43 -4.5z" />
    <glyph glyph-name="iogonek" unicode="&#x12f;" horiz-adv-x="228" 
d="M83 0v501h61v-501h-61zM73 613v77h82v-77h-82zM121 -191q-44 0 -72 25.5t-28 69.5q0 39 24.5 73.5t68.5 56.5l25 -34q-15 -6 -31 -19t-27 -31t-11 -40q0 -30 17 -44t42 -14q13 0 26 3t27 9l14 -38q-13 -8 -32 -12.5t-43 -4.5z" />
    <glyph glyph-name="Idotaccent" unicode="&#x130;" horiz-adv-x="247" 
d="M93 0v705h62v-705h-62zM85 813v75h76v-75h-76z" />
    <glyph glyph-name="dotlessi" unicode="&#x131;" horiz-adv-x="228" 
d="M83 0v501h61v-501h-61z" />
    <glyph glyph-name="IJ" unicode="&#x132;" horiz-adv-x="561" 
d="M93 0v705h62v-705h-62zM322 -186q-17 0 -35.5 1.5t-39.5 6.5v53q19 -4 35 -6t30 -2q46 0 70.5 29t24.5 92v717h62v-718q0 -55 -16.5 -94t-49 -59t-81.5 -20z" />
    <glyph glyph-name="Jcircumflex" unicode="&#x134;" horiz-adv-x="314" 
d="M75 -186q-17 0 -35.5 1.5t-39.5 6.5v53q19 -4 35 -6t30 -2q46 0 70.5 29t24.5 92v717h62v-718q0 -55 -16.5 -94t-49 -59t-81.5 -20zM37 765l122 171h62l122 -171h-49l-104 126l-104 -126h-49z" />
    <glyph glyph-name="jcircumflex" unicode="&#x135;" horiz-adv-x="228" 
d="M11 -219q-12 0 -32 3.5t-33 8.5v53q12 -4 28.5 -7.5t29.5 -3.5q45 0 66 28.5t21 91.5v546h61v-554q0 -82 -35.5 -124t-105.5 -42zM-19 550l109 201h62l109 -201h-45l-95 155l-95 -155h-45z" />
    <glyph glyph-name="uni0136" unicode="&#x136;" horiz-adv-x="619" 
d="M93 0v705h62v-324h2l352 324h83l-399 -363l1 36l427 -378h-85l-379 335h-2v-335h-62zM309 -263l-31 22q23 25 30.5 47t7.5 46l18 -8h-60v73h84v-57q0 -36 -12.5 -67t-36.5 -56z" />
    <glyph glyph-name="uni0137" unicode="&#x137;" horiz-adv-x="498" 
d="M83 0v736h61v-462h2l247 227h79l-284 -261l3 37l311 -277h-83l-273 241h-2v-241h-61zM242 -263l-31 22q23 25 30.5 47t7.5 46l18 -8h-60v73h84v-57q0 -36 -12.5 -67t-36.5 -56z" />
    <glyph glyph-name="kgreenlandic" unicode="&#x138;" horiz-adv-x="498" 
d="M83 0v501h61v-227h2l247 227h79l-284 -261l3 37l311 -277h-83l-273 241h-2v-241h-61z" />
    <glyph glyph-name="Lacute" unicode="&#x139;" horiz-adv-x="538" 
d="M93 0v705h62v-650h367v-55h-429zM98 765l118 171h73l-141 -171h-50z" />
    <glyph glyph-name="lacute" unicode="&#x13a;" horiz-adv-x="228" 
d="M83 0v736h61v-736h-61zM89 769l118 171h73l-141 -171h-50z" />
    <glyph glyph-name="uni013B" unicode="&#x13b;" horiz-adv-x="538" 
d="M93 0v705h62v-650h367v-55h-429zM298 -263l-31 22q23 25 30.5 47t7.5 46l18 -8h-60v73h84v-57q0 -36 -12.5 -67t-36.5 -56z" />
    <glyph glyph-name="uni013C" unicode="&#x13c;" horiz-adv-x="228" 
d="M83 0v736h61v-736h-61zM107 -263l-31 22q23 25 30.5 47t7.5 46l18 -8h-60v73h84v-57q0 -36 -12.5 -67t-36.5 -56z" />
    <glyph glyph-name="Lcaron" unicode="&#x13d;" horiz-adv-x="538" 
d="M93 0v705h62v-650h367v-55h-429zM269 484v221h60l-20 -221h-40z" />
    <glyph glyph-name="lcaron" unicode="&#x13e;" horiz-adv-x="228" 
d="M83 0v736h61v-736h-61zM194 547v189h57l-23 -189h-34z" />
    <glyph glyph-name="Ldot" unicode="&#x13f;" horiz-adv-x="538" 
d="M93 0v705h62v-650h367v-55h-429zM352 347v81h85v-81h-85z" />
    <glyph glyph-name="ldot" unicode="&#x140;" horiz-adv-x="228" 
d="M83 0v736h61v-736h-61zM199 316v81h85v-81h-85z" />
    <glyph glyph-name="Lslash" unicode="&#x141;" horiz-adv-x="538" 
d="M93 0v705h62v-650h367v-55h-429zM12 266l-27 45l342 197l26 -45z" />
    <glyph glyph-name="lslash" unicode="&#x142;" horiz-adv-x="228" 
d="M83 0v736h61v-736h-61zM5 265l-27 45l245 143l27 -45z" />
    <glyph glyph-name="Nacute" unicode="&#x143;" horiz-adv-x="743" 
d="M93 0v705h50l472 -632h-22v632h57v-705h-49l-472 632h21v-632h-57zM347 765l118 171h73l-141 -171h-50z" />
    <glyph glyph-name="nacute" unicode="&#x144;" horiz-adv-x="578" 
d="M83 0v389q0 27 -2 55t-6 57h60l9 -115h-12q22 60 71 92t114 32q89 0 134.5 -47t45.5 -147v-316h-61v311q0 77 -31 111.5t-96 34.5q-76 0 -120.5 -46t-44.5 -124v-287h-61zM265 550l103 201h70l-127 -201h-46z" />
    <glyph glyph-name="uni0145" unicode="&#x145;" horiz-adv-x="743" 
d="M93 0v705h50l472 -632h-22v632h57v-705h-49l-472 632h21v-632h-57zM366 -263l-31 22q23 25 30.5 47t7.5 46l18 -8h-60v73h84v-57q0 -36 -12.5 -67t-36.5 -56z" />
    <glyph glyph-name="uni0146" unicode="&#x146;" horiz-adv-x="578" 
d="M83 0v389q0 27 -2 55t-6 57h60l9 -115h-12q22 60 71 92t114 32q89 0 134.5 -47t45.5 -147v-316h-61v311q0 77 -31 111.5t-96 34.5q-76 0 -120.5 -46t-44.5 -124v-287h-61zM281 -263l-31 22q23 25 30.5 47t7.5 46l18 -8h-60v73h84v-57q0 -36 -12.5 -67t-36.5 -56z" />
    <glyph glyph-name="Ncaron" unicode="&#x147;" horiz-adv-x="743" 
d="M93 0v705h50l472 -632h-22v632h57v-705h-49l-472 632h21v-632h-57zM341 765l-122 171h49l104 -126l104 126h49l-122 -171h-62z" />
    <glyph glyph-name="ncaron" unicode="&#x148;" horiz-adv-x="578" 
d="M83 0v389q0 27 -2 55t-6 57h60l9 -115h-12q22 60 71 92t114 32q89 0 134.5 -47t45.5 -147v-316h-61v311q0 77 -31 111.5t-96 34.5q-76 0 -120.5 -46t-44.5 -124v-287h-61zM257 550l-109 201h45l95 -155l95 155h45l-109 -201h-62z" />
    <glyph glyph-name="napostrophe" unicode="&#x149;" horiz-adv-x="668" 
d="M115 573l-31 23q22 23 28 43.5t6 39.5l21 -8h-60v78h83v-58q0 -33 -10 -62.5t-37 -55.5zM174 0v389q0 27 -2 55t-6 57h60l9 -115h-12q22 60 71 92t114 32q89 0 134.5 -47t45.5 -147v-316h-61v311q0 77 -31 111.5t-96 34.5q-76 0 -120.5 -46t-44.5 -124v-287h-61z" />
    <glyph glyph-name="Eng" unicode="&#x14a;" horiz-adv-x="743" 
d="M447 -193l-4 50l44 4q51 3 78.5 34t27.5 86v51l8 -32l-472 632h21v-632h-57v705h50l472 -632h-22v632h57v-719q0 -54 -18 -92.5t-53 -59.5t-87 -24z" />
    <glyph glyph-name="eng" unicode="&#x14b;" horiz-adv-x="578" 
d="M83 0v389q0 27 -2 55t-6 57h60l9 -115h-12q22 60 71.5 92t114.5 32q89 0 134 -47t45 -147v-364q0 -82 -39 -126.5t-113 -44.5q-18 0 -35.5 3.5t-29.5 8.5v53q11 -4 24.5 -7.5t32.5 -3.5q50 0 74.5 31.5t24.5 93.5v351q0 77 -30.5 111.5t-95.5 34.5q-76 0 -121 -46
t-45 -124v-287h-61z" />
    <glyph glyph-name="Omacron" unicode="&#x14c;" horiz-adv-x="765" 
d="M65 353q0 112 37.5 192.5t108.5 124t171 43.5q98 0 169.5 -43.5t110 -124t38.5 -191.5q0 -112 -39 -193t-110.5 -125t-168.5 -44q-99 0 -170 44t-109 125t-38 192zM131 353q0 -144 64 -224.5t187 -80.5q119 0 186 80.5t67 224.5q0 145 -66.5 224.5t-186.5 79.5
q-123 0 -187 -79.5t-64 -224.5zM223 818v47h318v-47h-318z" />
    <glyph glyph-name="omacron" unicode="&#x14d;" horiz-adv-x="562" 
d="M281 -8q-71 0 -122.5 31t-79.5 89t-28 139q0 80 28 138t79.5 89.5t122.5 31.5q70 0 121.5 -31.5t80 -89.5t28.5 -138q0 -81 -28.5 -139t-80 -89t-121.5 -31zM281 44q76 0 122 53t46 154t-46 154t-122 53q-77 0 -122.5 -53t-45.5 -154t45.5 -154t122.5 -53zM138 629v46
h288v-46h-288z" />
    <glyph glyph-name="Obreve" unicode="&#x14e;" horiz-adv-x="765" 
d="M65 353q0 112 37.5 192.5t108.5 124t171 43.5q98 0 169.5 -43.5t110 -124t38.5 -191.5q0 -112 -39 -193t-110.5 -125t-168.5 -44q-99 0 -170 44t-109 125t-38 192zM131 353q0 -144 64 -224.5t187 -80.5q119 0 186 80.5t67 224.5q0 145 -66.5 224.5t-186.5 79.5
q-123 0 -187 -79.5t-64 -224.5zM382 760q-67 0 -111.5 45t-51.5 123l42 5q5 -61 37 -94.5t84 -33.5t84.5 33.5t36.5 94.5l42 -5q-7 -78 -51.5 -123t-111.5 -45z" />
    <glyph glyph-name="obreve" unicode="&#x14f;" horiz-adv-x="562" 
d="M281 -8q-71 0 -122.5 31t-79.5 89t-28 139q0 80 28 138t79.5 89.5t122.5 31.5q70 0 121.5 -31.5t80 -89.5t28.5 -138q0 -81 -28.5 -139t-80 -89t-121.5 -31zM281 44q76 0 122 53t46 154t-46 154t-122 53q-77 0 -122.5 -53t-45.5 -154t45.5 -154t122.5 -53zM282 548
q-43 0 -75.5 22.5t-51 65t-22.5 100.5l42 5q4 -71 32 -109.5t75 -38.5q48 0 75.5 38.5t31.5 109.5l42 -5q-3 -58 -22 -100.5t-51 -65t-76 -22.5z" />
    <glyph glyph-name="Ohungarumlaut" unicode="&#x150;" horiz-adv-x="765" 
d="M65 353q0 112 37.5 192.5t108.5 124t171 43.5q98 0 169.5 -43.5t110 -124t38.5 -191.5q0 -112 -39 -193t-110.5 -125t-168.5 -44q-99 0 -170 44t-109 125t-38 192zM131 353q0 -144 64 -224.5t187 -80.5q119 0 186 80.5t67 224.5q0 145 -66.5 224.5t-186.5 79.5
q-123 0 -187 -79.5t-64 -224.5zM305 765l85 171h66l-114 -171h-37zM422 765l88 171h65l-116 -171h-37z" />
    <glyph glyph-name="ohungarumlaut" unicode="&#x151;" horiz-adv-x="562" 
d="M281 -8q-71 0 -122.5 31t-79.5 89t-28 139q0 80 28 138t79.5 89.5t122.5 31.5q70 0 121.5 -31.5t80 -89.5t28.5 -138q0 -81 -28.5 -139t-80 -89t-121.5 -31zM281 44q76 0 122 53t46 154t-46 154t-122 53q-77 0 -122.5 -53t-45.5 -154t45.5 -154t122.5 -53zM323 550
l56 201h61l-81 -201h-36zM205 550l56 201h61l-81 -201h-36z" />
    <glyph glyph-name="OE" unicode="&#x152;" horiz-adv-x="1057" 
d="M566 0v705h437v-53h-376v-268h356v-53h-356v-278h376v-53h-437zM380 -8q-99 0 -169.5 44t-108 125t-37.5 192q0 112 37 192.5t107.5 124t170.5 43.5q61 0 112.5 -13.5t89.5 -48.5v-79q-32 48 -82.5 66.5t-117.5 18.5q-123 0 -187 -79.5t-64 -224.5q0 -144 64 -224.5
t187 -80.5q69 0 121 23.5t83 73.5v-81q-25 -24 -57 -40t-70 -24t-79 -8z" />
    <glyph glyph-name="oe" unicode="&#x153;" horiz-adv-x="935" 
d="M281 -8q-70 0 -121.5 31t-80 89.5t-28.5 138.5t28.5 138t80 89.5t121.5 31.5q79 0 134.5 -43t76.5 -123h-23q22 79 79 122.5t135 43.5q95 0 149.5 -62.5t54.5 -170.5v-29h-395v45h358l-18 -11q0 83 -39 131t-113 48q-79 0 -123.5 -56.5t-44.5 -148.5v-6
q0 -101 47.5 -153.5t135.5 -52.5q44 0 83.5 15t76.5 47l24 -45q-21 -22 -50.5 -37.5t-63.5 -23.5t-68 -8q-90 0 -148.5 42t-80.5 122h22q-21 -79 -75.5 -121.5t-133.5 -42.5zM282 44q76 0 122 53t46 154q0 100 -46 153.5t-122 53.5q-77 0 -123 -53.5t-46 -153.5
q0 -101 46 -154t123 -53z" />
    <glyph glyph-name="Racute" unicode="&#x154;" horiz-adv-x="688" 
d="M93 0v705h278q109 0 169 -51t60 -144q0 -60 -27 -102.5t-75 -65t-111 -22.5l19 11h14q41 0 73 -19.5t51 -66.5l98 -245h-68l-92 234q-19 51 -55 65.5t-92 14.5h-180v-314h-62zM155 366h208q85 0 129.5 37t44.5 106q0 70 -44.5 106.5t-129.5 36.5h-208v-286zM317 765
l118 171h73l-141 -171h-50z" />
    <glyph glyph-name="racute" unicode="&#x155;" horiz-adv-x="349" 
d="M82 0v384q0 29 -1.5 58.5t-5.5 58.5h60l8 -115l-12 -1q10 42 36 69.5t60 41.5t70 14q13 0 24.5 -1.5t21.5 -4.5l-2 -55q-12 4 -24 5t-26 1q-45 0 -78.5 -22t-51.5 -56t-18 -69v-308h-61zM192 550l103 201h70l-127 -201h-46z" />
    <glyph glyph-name="uni0156" unicode="&#x156;" horiz-adv-x="688" 
d="M93 0v705h278q109 0 169 -51t60 -144q0 -60 -27 -102.5t-75 -65t-111 -22.5l19 11h14q41 0 73 -19.5t51 -66.5l98 -245h-68l-92 234q-19 51 -55 65.5t-92 14.5h-180v-314h-62zM155 366h208q85 0 129.5 37t44.5 106q0 70 -44.5 106.5t-129.5 36.5h-208v-286zM335 -263
l-31 22q23 25 30.5 47t7.5 46l18 -8h-60v73h84v-57q0 -36 -12.5 -67t-36.5 -56z" />
    <glyph glyph-name="uni0157" unicode="&#x157;" horiz-adv-x="349" 
d="M82 0v384q0 29 -1.5 58.5t-5.5 58.5h60l8 -115l-12 -1q10 42 36 69.5t60 41.5t70 14q13 0 24.5 -1.5t21.5 -4.5l-2 -55q-12 4 -24 5t-26 1q-45 0 -78.5 -22t-51.5 -56t-18 -69v-308h-61zM105 -263l-31 22q23 25 30.5 47t7.5 46l18 -8h-60v73h84v-57q0 -36 -12.5 -67
t-36.5 -56z" />
    <glyph glyph-name="Rcaron" unicode="&#x158;" horiz-adv-x="688" 
d="M93 0v705h278q109 0 169 -51t60 -144q0 -60 -27 -102.5t-75 -65t-111 -22.5l19 11h14q41 0 73 -19.5t51 -66.5l98 -245h-68l-92 234q-19 51 -55 65.5t-92 14.5h-180v-314h-62zM155 366h208q85 0 129.5 37t44.5 106q0 70 -44.5 106.5t-129.5 36.5h-208v-286zM311 765
l-122 171h49l104 -126l104 126h49l-122 -171h-62z" />
    <glyph glyph-name="rcaron" unicode="&#x159;" horiz-adv-x="349" 
d="M82 0v384q0 29 -1.5 58.5t-5.5 58.5h60l8 -115l-12 -1q10 42 36 69.5t60 41.5t70 14q13 0 24.5 -1.5t21.5 -4.5l-2 -55q-12 4 -24 5t-26 1q-45 0 -78.5 -22t-51.5 -56t-18 -69v-308h-61zM184 550l-109 201h45l95 -155l95 155h45l-109 -201h-62z" />
    <glyph glyph-name="Sacute" unicode="&#x15a;" horiz-adv-x="613" 
d="M316 -8q-85 0 -150 22t-116 64l26 51q36 -28 70.5 -46t75.5 -26.5t93 -8.5q93 0 140 36.5t47 96.5q0 52 -32.5 79.5t-113.5 43.5l-102 21q-97 20 -144.5 64t-47.5 120q0 62 32 108t89 71t132 25t136.5 -22.5t105.5 -66.5l-25 -50q-47 44 -99 63.5t-118 19.5
q-87 0 -138 -39.5t-51 -106.5q0 -54 32.5 -84t105.5 -45l103 -21q103 -21 151 -61.5t48 -115.5q0 -57 -30.5 -100.5t-86.5 -67.5t-133 -24zM292 765l118 171h73l-141 -171h-50z" />
    <glyph glyph-name="sacute" unicode="&#x15b;" horiz-adv-x="494" 
d="M245 -8q-58 0 -108.5 17t-83.5 47l24 45q37 -30 80 -44.5t90 -14.5q64 0 97 24t33 65q0 32 -21 52t-70 30l-90 19q-64 15 -95.5 48t-31.5 83q0 43 22.5 76t64.5 52t99 19q54 0 99.5 -17.5t74.5 -49.5l-26 -44q-30 30 -67.5 45t-79.5 15q-62 0 -94 -25.5t-32 -67.5
q0 -32 20 -52.5t63 -30.5l90 -20q68 -15 101 -46t33 -82q0 -44 -24 -76.5t-67 -49.5t-101 -17zM230 550l103 201h70l-127 -201h-46z" />
    <glyph glyph-name="Scircumflex" unicode="&#x15c;" horiz-adv-x="613" 
d="M316 -8q-85 0 -150 22t-116 64l26 51q36 -28 70.5 -46t75.5 -26.5t93 -8.5q93 0 140 36.5t47 96.5q0 52 -32.5 79.5t-113.5 43.5l-102 21q-97 20 -144.5 64t-47.5 120q0 62 32 108t89 71t132 25t136.5 -22.5t105.5 -66.5l-25 -50q-47 44 -99 63.5t-118 19.5
q-87 0 -138 -39.5t-51 -106.5q0 -54 32.5 -84t105.5 -45l103 -21q103 -21 151 -61.5t48 -115.5q0 -57 -30.5 -100.5t-86.5 -67.5t-133 -24zM164 765l122 171h62l122 -171h-49l-104 126l-104 -126h-49z" />
    <glyph glyph-name="scircumflex" unicode="&#x15d;" horiz-adv-x="494" 
d="M245 -8q-58 0 -108.5 17t-83.5 47l24 45q37 -30 80 -44.5t90 -14.5q64 0 97 24t33 65q0 32 -21 52t-70 30l-90 19q-64 15 -95.5 48t-31.5 83q0 43 22.5 76t64.5 52t99 19q54 0 99.5 -17.5t74.5 -49.5l-26 -44q-30 30 -67.5 45t-79.5 15q-62 0 -94 -25.5t-32 -67.5
q0 -32 20 -52.5t63 -30.5l90 -20q68 -15 101 -46t33 -82q0 -44 -24 -76.5t-67 -49.5t-101 -17zM113 550l109 201h62l109 -201h-45l-95 155l-95 -155h-45z" />
    <glyph glyph-name="Scedilla" unicode="&#x15e;" horiz-adv-x="613" 
d="M316 -8q-85 0 -150 22t-116 64l26 51q36 -28 70.5 -46t75.5 -26.5t93 -8.5q93 0 140 36.5t47 96.5q0 52 -32.5 79.5t-113.5 43.5l-102 21q-97 20 -144.5 64t-47.5 120q0 62 32 108t89 71t132 25t136.5 -22.5t105.5 -66.5l-25 -50q-47 44 -99 63.5t-118 19.5
q-87 0 -138 -39.5t-51 -106.5q0 -54 32.5 -84t105.5 -45l103 -21q103 -21 151 -61.5t48 -115.5q0 -57 -30.5 -100.5t-86.5 -67.5t-133 -24zM326 -191q-25 0 -46.5 5t-37.5 14l11 39q19 -9 35 -13t39 -4q27 0 43.5 10.5t16.5 29.5q0 30 -38 30q-11 0 -22 -1.5t-27 -7.5
l-16 14l14 95h45l-13 -75l-21 4q12 3 23.5 5t21.5 2q34 0 57.5 -17.5t23.5 -49.5q0 -35 -30.5 -57.5t-78.5 -22.5z" />
    <glyph glyph-name="scedilla" unicode="&#x15f;" horiz-adv-x="494" 
d="M245 -8q-58 0 -108.5 17t-83.5 47l24 45q37 -30 80 -44.5t90 -14.5q64 0 97 24t33 65q0 32 -21 52t-70 30l-90 19q-64 15 -95.5 48t-31.5 83q0 43 22.5 76t64.5 52t99 19q54 0 99.5 -17.5t74.5 -49.5l-26 -44q-30 30 -67.5 45t-79.5 15q-62 0 -94 -25.5t-32 -67.5
q0 -32 20 -52.5t63 -30.5l90 -20q68 -15 101 -46t33 -82q0 -44 -24 -76.5t-67 -49.5t-101 -17zM249 -191q-25 0 -46.5 5t-37.5 14l11 39q19 -9 35 -13t39 -4q27 0 43.5 10.5t16.5 29.5q0 30 -38 30q-11 0 -22 -1.5t-27 -7.5l-16 14l14 95h45l-13 -75l-21 4q12 3 23.5 5
t21.5 2q34 0 57.5 -17.5t23.5 -49.5q0 -35 -30.5 -57.5t-78.5 -22.5z" />
    <glyph glyph-name="Scaron" unicode="&#x160;" horiz-adv-x="613" 
d="M316 -8q-85 0 -150 22t-116 64l26 51q36 -28 70.5 -46t75.5 -26.5t93 -8.5q93 0 140 36.5t47 96.5q0 52 -32.5 79.5t-113.5 43.5l-102 21q-97 20 -144.5 64t-47.5 120q0 62 32 108t89 71t132 25t136.5 -22.5t105.5 -66.5l-25 -50q-47 44 -99 63.5t-118 19.5
q-87 0 -138 -39.5t-51 -106.5q0 -54 32.5 -84t105.5 -45l103 -21q103 -21 151 -61.5t48 -115.5q0 -57 -30.5 -100.5t-86.5 -67.5t-133 -24zM286 765l-122 171h49l104 -126l104 126h49l-122 -171h-62z" />
    <glyph glyph-name="scaron" unicode="&#x161;" horiz-adv-x="494" 
d="M245 -8q-58 0 -108.5 17t-83.5 47l24 45q37 -30 80 -44.5t90 -14.5q64 0 97 24t33 65q0 32 -21 52t-70 30l-90 19q-64 15 -95.5 48t-31.5 83q0 43 22.5 76t64.5 52t99 19q54 0 99.5 -17.5t74.5 -49.5l-26 -44q-30 30 -67.5 45t-79.5 15q-62 0 -94 -25.5t-32 -67.5
q0 -32 20 -52.5t63 -30.5l90 -20q68 -15 101 -46t33 -82q0 -44 -24 -76.5t-67 -49.5t-101 -17zM222 550l-109 201h45l95 -155l95 155h45l-109 -201h-62z" />
    <glyph glyph-name="uni0162" unicode="&#x162;" horiz-adv-x="597" 
d="M266 0v651h-256v54h573v-54h-255v-651h-62zM302 -191q-25 0 -46.5 5t-37.5 14l11 39q19 -9 35 -13t39 -4q27 0 43.5 10.5t16.5 29.5q0 30 -38 30q-11 0 -22 -1.5t-27 -7.5l-16 14l14 95h45l-13 -75l-21 4q12 3 23.5 5t21.5 2q34 0 57.5 -17.5t23.5 -49.5
q0 -35 -30.5 -57.5t-78.5 -22.5z" />
    <glyph glyph-name="uni0163" unicode="&#x163;" horiz-adv-x="337" 
d="M245 -8q-67 0 -102.5 40t-35.5 123v297h-100v49h100v140l61 20v-160h148v-49h-148v-288q0 -63 20 -91t64 -28q20 0 35.5 4t26.5 9v-54q-12 -5 -31 -8.5t-38 -3.5zM222 -191q-25 0 -46.5 5t-37.5 14l11 39q19 -9 35 -13t39 -4q27 0 43.5 10.5t16.5 29.5q0 30 -38 30
q-11 0 -22 -1.5t-27 -7.5l-16 14l14 95h45l-13 -75l-21 4q12 3 23.5 5t21.5 2q34 0 57.5 -17.5t23.5 -49.5q0 -35 -30.5 -57.5t-78.5 -22.5z" />
    <glyph glyph-name="Tcaron" unicode="&#x164;" horiz-adv-x="597" 
d="M266 0v651h-256v54h573v-54h-255v-651h-62zM267 765l-122 171h49l104 -126l104 126h49l-122 -171h-62z" />
    <glyph glyph-name="tcaron" unicode="&#x165;" horiz-adv-x="337" 
d="M245 -8q-67 0 -102.5 40t-35.5 123v297h-100v49h100v140l61 20v-160h148v-49h-148v-288q0 -63 20 -91t64 -28q20 0 35.5 4t26.5 9v-54q-12 -5 -31 -8.5t-38 -3.5zM245 538v171h56l-22 -171h-34z" />
    <glyph glyph-name="Tbar" unicode="&#x166;" horiz-adv-x="597" 
d="M266 0v651h-256v54h573v-54h-255v-651h-62zM123 333v50h350v-50h-350z" />
    <glyph glyph-name="tbar" unicode="&#x167;" horiz-adv-x="337" 
d="M245 -8q-67 0 -102.5 40t-35.5 123v297h-100v49h100v140l61 20v-160h148v-49h-148v-288q0 -63 20 -91t64 -28q20 0 35.5 4t26.5 9v-54q-12 -5 -31 -8.5t-38 -3.5zM34 255v45h259v-45h-259z" />
    <glyph glyph-name="Utilde" unicode="&#x168;" horiz-adv-x="726" 
d="M364 -8q-141 0 -208.5 72t-67.5 210v431h62v-426q0 -115 51 -173t163 -58q104 0 158.5 58t54.5 173v426h62v-431q0 -138 -70.5 -210t-204.5 -72zM201 787l-39 3q6 61 36 94t77 33q23 0 46 -10.5t56 -33.5q32 -20 48 -28.5t31 -8.5q30 0 47.5 21.5t23.5 62.5l39 -3
q-6 -61 -35.5 -94t-76.5 -33q-22 0 -46.5 10.5t-59.5 35.5q-28 19 -45 27t-31 8q-30 0 -47.5 -21.5t-23.5 -62.5z" />
    <glyph glyph-name="utilde" unicode="&#x169;" horiz-adv-x="569" 
d="M259 -8q-88 0 -133.5 47.5t-45.5 146.5v315h61v-311q0 -76 31 -111t95 -35q71 0 114.5 46.5t43.5 123.5v287h61v-501h-60v118h13q-21 -61 -68.5 -93.5t-111.5 -32.5zM150 593l-39 3q6 61 32.5 94t69.5 33q21 0 39.5 -11t42.5 -33q22 -21 35.5 -29t26.5 -8q51 0 63 84
l39 -3q-6 -61 -32.5 -94t-68.5 -33q-20 0 -38.5 11t-44.5 34q-22 20 -35 28t-27 8q-26 0 -41.5 -22t-21.5 -62z" />
    <glyph glyph-name="Umacron" unicode="&#x16a;" horiz-adv-x="726" 
d="M364 -8q-141 0 -208.5 72t-67.5 210v431h62v-426q0 -115 51 -173t163 -58q104 0 158.5 58t54.5 173v426h62v-431q0 -138 -70.5 -210t-204.5 -72zM205 818v47h318v-47h-318z" />
    <glyph glyph-name="umacron" unicode="&#x16b;" horiz-adv-x="569" 
d="M259 -8q-88 0 -133.5 47.5t-45.5 146.5v315h61v-311q0 -76 31 -111t95 -35q71 0 114.5 46.5t43.5 123.5v287h61v-501h-60v118h13q-21 -61 -68.5 -93.5t-111.5 -32.5zM141 630v46h288v-46h-288z" />
    <glyph glyph-name="Ubreve" unicode="&#x16c;" horiz-adv-x="726" 
d="M364 -8q-141 0 -208.5 72t-67.5 210v431h62v-426q0 -115 51 -173t163 -58q104 0 158.5 58t54.5 173v426h62v-431q0 -138 -70.5 -210t-204.5 -72zM364 760q-67 0 -111.5 45t-51.5 123l42 5q5 -61 37 -94.5t84 -33.5t84.5 33.5t36.5 94.5l42 -5q-7 -78 -51.5 -123
t-111.5 -45z" />
    <glyph glyph-name="ubreve" unicode="&#x16d;" horiz-adv-x="569" 
d="M259 -8q-88 0 -133.5 47.5t-45.5 146.5v315h61v-311q0 -76 31 -111t95 -35q71 0 114.5 46.5t43.5 123.5v287h61v-501h-60v118h13q-21 -61 -68.5 -93.5t-111.5 -32.5zM285 549q-43 0 -75.5 22.5t-51 65t-22.5 100.5l42 5q4 -71 32 -109.5t75 -38.5q48 0 75.5 38.5
t31.5 109.5l42 -5q-3 -58 -22 -100.5t-51 -65t-76 -22.5z" />
    <glyph glyph-name="Uring" unicode="&#x16e;" horiz-adv-x="726" 
d="M364 -8q-141 0 -208.5 72t-67.5 210v431h62v-426q0 -115 51 -173t163 -58q104 0 158.5 58t54.5 173v426h62v-431q0 -138 -70.5 -210t-204.5 -72zM364 759q-32 0 -58.5 15.5t-41.5 41t-15 56.5q0 32 15 57t41.5 40.5t58.5 15.5q33 0 59 -15.5t41 -40.5t15 -57
q0 -31 -15 -56.5t-41 -41t-59 -15.5zM364 797q34 0 54.5 21.5t20.5 53.5t-20.5 53.5t-54.5 21.5q-33 0 -54 -21.5t-21 -53.5t21 -53.5t54 -21.5z" />
    <glyph glyph-name="uring" unicode="&#x16f;" horiz-adv-x="569" 
d="M259 -8q-88 0 -133.5 47.5t-45.5 146.5v315h61v-311q0 -76 31 -111t95 -35q71 0 114.5 46.5t43.5 123.5v287h61v-501h-60v118h13q-21 -61 -68.5 -93.5t-111.5 -32.5zM285 548q-32 0 -58.5 15t-41.5 41t-15 57t15 56.5t41.5 40.5t58.5 15q33 0 59 -15t41 -40.5t15 -57.5
q0 -30 -15 -56t-41 -41t-59 -15zM285 585q34 0 54.5 22t20.5 54t-20.5 53.5t-54.5 21.5q-33 0 -54 -21.5t-21 -53.5t21 -54t54 -22z" />
    <glyph glyph-name="Uhungarumlaut" unicode="&#x170;" horiz-adv-x="726" 
d="M364 -8q-141 0 -208.5 72t-67.5 210v431h62v-426q0 -115 51 -173t163 -58q104 0 158.5 58t54.5 173v426h62v-431q0 -138 -70.5 -210t-204.5 -72zM287 765l85 171h66l-114 -171h-37zM404 765l88 171h65l-116 -171h-37z" />
    <glyph glyph-name="uhungarumlaut" unicode="&#x171;" horiz-adv-x="569" 
d="M259 -8q-88 0 -133.5 47.5t-45.5 146.5v315h61v-311q0 -76 31 -111t95 -35q71 0 114.5 46.5t43.5 123.5v287h61v-501h-60v118h13q-21 -61 -68.5 -93.5t-111.5 -32.5zM326 551l56 201h61l-81 -201h-36zM208 551l56 201h61l-81 -201h-36z" />
    <glyph glyph-name="Uogonek" unicode="&#x172;" horiz-adv-x="726" 
d="M364 -8q-141 0 -208.5 72t-67.5 210v431h62v-426q0 -115 51 -173t163 -58q104 0 158.5 58t54.5 173v426h62v-431q0 -138 -70.5 -210t-204.5 -72zM418 -191q-44 0 -72 25.5t-28 69.5q0 39 24.5 73.5t68.5 56.5l25 -34q-15 -6 -31 -19t-27 -31t-11 -40q0 -30 17 -44t42 -14
q13 0 26 3t27 9l14 -38q-13 -8 -32 -12.5t-43 -4.5z" />
    <glyph glyph-name="uogonek" unicode="&#x173;" horiz-adv-x="569" 
d="M259 -8q-88 0 -133.5 47.5t-45.5 146.5v315h61v-311q0 -76 31 -111t95 -35q71 0 114.5 46.5t43.5 123.5v287h61v-501h-60v118h13q-21 -61 -68.5 -93.5t-111.5 -32.5zM461 -191q-44 0 -72 25.5t-28 69.5q0 39 24.5 73.5t68.5 56.5l25 -34q-15 -6 -31 -19t-27 -31t-11 -40
q0 -30 17 -44t42 -14q13 0 26 3t27 9l14 -38q-13 -8 -32 -12.5t-43 -4.5z" />
    <glyph glyph-name="Wcircumflex" unicode="&#x174;" horiz-adv-x="1108" 
d="M282 0l-244 705h65l226 -661h-33l235 661h52l224 -661h-30l231 661h62l-247 -705h-59l-217 642h20l-228 -642h-57zM401 765l122 171h62l122 -171h-49l-104 126l-104 -126h-49z" />
    <glyph glyph-name="wcircumflex" unicode="&#x175;" horiz-adv-x="863" 
d="M216 0l-181 501h66l161 -465h-27l167 465h62l164 -465h-26l163 465h63l-182 -501h-63l-168 471h35l-170 -471h-64zM291 550l109 201h62l109 -201h-45l-95 155l-95 -155h-45z" />
    <glyph glyph-name="Ycircumflex" unicode="&#x176;" horiz-adv-x="597" 
d="M267 0v328l15 -47l-287 424h72l242 -365h-18l242 365h69l-287 -424l14 47v-328h-62zM146 765l122 171h62l122 -171h-49l-104 126l-104 -126h-49z" />
    <glyph glyph-name="ycircumflex" unicode="&#x177;" horiz-adv-x="525" 
d="M60 -227l-15 53q47 11 78 26.5t52 40.5t37 62l26 60l-1 -27l-219 513h68l191 -463h-25l189 463h66l-232 -549q-19 -46 -41.5 -76.5t-48.5 -51t-57 -32.5t-68 -19zM122 550l109 201h62l109 -201h-45l-95 155l-95 -155h-45z" />
    <glyph glyph-name="Ydieresis" unicode="&#x178;" horiz-adv-x="597" 
d="M267 0v328l15 -47l-287 424h72l242 -365h-18l242 365h69l-287 -424l14 47v-328h-62zM346 813v73h73v-73h-73zM179 813v73h73v-73h-73z" />
    <glyph glyph-name="Zacute" unicode="&#x179;" horiz-adv-x="590" 
d="M43 0v46l440 632v-28h-440v55h499v-45l-441 -632v27h452v-55h-510zM273 765l118 171h73l-141 -171h-50z" />
    <glyph glyph-name="zacute" unicode="&#x17a;" horiz-adv-x="515" 
d="M50 0v42l349 427l1 -17h-350v49h408v-42l-352 -428l-1 18h364v-49h-419zM232 550l103 201h70l-127 -201h-46z" />
    <glyph glyph-name="Zdotaccent" unicode="&#x17b;" horiz-adv-x="590" 
d="M43 0v46l440 632v-28h-440v55h499v-45l-441 -632v27h452v-55h-510zM260 813v75h76v-75h-76z" />
    <glyph glyph-name="zdotaccent" unicode="&#x17c;" horiz-adv-x="515" 
d="M50 0v42l349 427l1 -17h-350v49h408v-42l-352 -428l-1 18h364v-49h-419zM216 614v75h78v-75h-78z" />
    <glyph glyph-name="Zcaron" unicode="&#x17d;" horiz-adv-x="590" 
d="M43 0v46l440 632v-28h-440v55h499v-45l-441 -632v27h452v-55h-510zM267 765l-122 171h49l104 -126l104 126h49l-122 -171h-62z" />
    <glyph glyph-name="zcaron" unicode="&#x17e;" horiz-adv-x="515" 
d="M50 0v42l349 427l1 -17h-350v49h408v-42l-352 -428l-1 18h364v-49h-419zM224 550l-109 201h45l95 -155l95 155h45l-109 -201h-62z" />
    <glyph glyph-name="uni0181" unicode="&#x181;" horiz-adv-x="793" 
d="M210 0v654h-37q-61 0 -90 -27.5t-29 -84.5v-44h-55v46q0 81 45 121t140 40h295q111 0 171.5 -47.5t60.5 -136.5q0 -66 -40.5 -110.5t-110.5 -58.5v14q79 -8 123.5 -53.5t44.5 -120.5q0 -94 -61.5 -143t-175.5 -49h-281zM270 53h217q89 0 134 34t45 104q0 71 -44.5 105.5
t-133.5 34.5h-218v-278zM270 383h201q88 0 132.5 34.5t44.5 100.5t-44.5 100.5t-132.5 34.5h-201v-270z" />
    <glyph glyph-name="uni018A" unicode="&#x18a;" horiz-adv-x="857" 
d="M210 0v654h-37q-61 0 -90 -27.5t-29 -84.5v-44h-55v46q0 81 44 121t133 40h257q173 0 266 -90t93 -262t-93 -262.5t-266 -90.5h-223zM272 55h156q151 0 225.5 74.5t74.5 223.5q0 150 -74.5 224t-225.5 74h-156v-596z" />
    <glyph glyph-name="uni018F" unicode="&#x18f;" horiz-adv-x="743" 
d="M368 -8q-108 0 -175 44.5t-97.5 125t-30.5 189.5v31h558v-53h-511l16 24q0 -99 23 -167t75 -103.5t140 -35.5q120 0 183.5 80.5t63.5 226.5q0 145 -67.5 224t-198.5 79q-50 0 -88 -9t-71.5 -28t-68.5 -49l-26 49q48 47 110 70t149 23q103 0 175.5 -43t111.5 -123.5
t39 -192.5t-37 -193.5t-106.5 -125t-166.5 -43.5z" />
    <glyph glyph-name="florin" unicode="&#x192;" horiz-adv-x="600" 
d="M45 -188v51h43q47 0 76.5 24t43.5 87l99 468l13 -6h-140v49h147l-13 -13l17 82q16 77 59 118t120 41h43v-53h-40q-49 0 -78.5 -23t-42.5 -87l-17 -78l-10 13h141v-49h-154l17 7l-101 -473q-17 -76 -59.5 -117t-118.5 -41h-45z" />
    <glyph glyph-name="Ohorn" unicode="&#x1a0;" horiz-adv-x="765" 
d="M65 353q0 112 37.5 192.5t108.5 124t171 43.5q98 0 169.5 -43.5t110 -124t38.5 -191.5q0 -112 -39 -193t-110.5 -125t-168.5 -44q-99 0 -170 44t-109 125t-38 192zM131 353q0 -144 64 -224.5t187 -80.5q119 0 186 80.5t67 224.5q0 145 -66.5 224.5t-186.5 79.5
q-123 0 -187 -79.5t-64 -224.5zM493 661l-52 48q27 -2 47.5 -3t41.5 -1q46 0 70.5 12.5t34.5 39t10 65.5v14h55v-24q0 -46 -17 -80t-49 -52.5t-77 -18.5h-64z" />
    <glyph glyph-name="ohorn" unicode="&#x1a1;" horiz-adv-x="562" 
d="M281 -8q-71 0 -122.5 31t-79.5 89t-28 139q0 80 28 138t79.5 89.5t122.5 31.5q70 0 121.5 -31.5t80 -89.5t28.5 -138q0 -81 -28.5 -139t-80 -89t-121.5 -31zM281 44q76 0 122 53t46 154t-46 154t-122 53q-77 0 -122.5 -53t-45.5 -154t45.5 -154t122.5 -53zM358 457
l-28 21v23q45 1 70 13.5t35 38.5t10 65v14h56v-24q0 -46 -16.5 -78.5t-48.5 -51t-78 -21.5z" />
    <glyph glyph-name="Uhorn" unicode="&#x1af;" horiz-adv-x="726" 
d="M364 -8q-141 0 -208.5 72t-67.5 210v431h62v-426q0 -115 51 -173t163 -58q104 0 158.5 58t54.5 173v426h62v-431q0 -138 -70.5 -210t-204.5 -72zM622 661l-28 20v24q46 1 70.5 13.5t34.5 38.5t10 65v14h56v-24q0 -46 -16.5 -78.5t-48.5 -51t-78 -21.5z" />
    <glyph glyph-name="uhorn" unicode="&#x1b0;" horiz-adv-x="569" 
d="M259 -8q-88 0 -133.5 47.5t-45.5 146.5v315h61v-311q0 -76 31 -111t95 -35q71 0 114.5 46.5t43.5 123.5v287h61v-501h-60v118h13q-21 -61 -68.5 -93.5t-111.5 -32.5zM460 457l-28 21v23q45 1 70 13.5t35 38.5t10 65v14h56v-24q0 -46 -16.5 -78.5t-48.5 -51t-78 -21.5z
" />
    <glyph glyph-name="uni01B3" unicode="&#x1b3;" horiz-adv-x="597" 
d="M267 0v365l15 -47l-287 387h72l242 -327h-18l186 260q28 39 61 57t74 18q17 0 29 -2t25 -7v-49q-10 4 -22 6t-26 2q-27 0 -49.5 -11.5t-42.5 -39.5l-211 -294l14 47v-365h-62z" />
    <glyph glyph-name="uni01B4" unicode="&#x1b4;" horiz-adv-x="562" 
d="M60 -227l-15 53q47 11 78 26.5t52 40.5t37 62l26 60l-1 -27l-219 513h68l191 -463h-25l149 365q23 56 55.5 81.5t85.5 25.5q17 0 30 -2t25 -6l-8 -50q-9 3 -19.5 4.5t-18.5 1.5q-34 0 -55.5 -17.5t-43.5 -68.5l-177 -420q-19 -46 -41.5 -76.5t-48.5 -51t-57 -32.5
t-68 -19z" />
    <glyph glyph-name="uni01C4" unicode="&#x1c4;" horiz-adv-x="1315" 
d="M93 0v705h223q116 0 196 -40.5t121.5 -119t41.5 -192.5t-41.5 -193t-121.5 -119.5t-196 -40.5h-223zM155 55h156q151 0 225 74.5t74 223.5q0 150 -74 224t-225 74h-156v-596zM768 0v46l440 632v-28h-440v55h499v-45l-441 -632v27h452v-55h-510zM992 765l-122 171h49
l104 -126l104 126h49l-122 -171h-62z" />
    <glyph glyph-name="uni01C5" unicode="&#x1c5;" horiz-adv-x="1255" 
d="M93 0v705h223q116 0 196 -40.5t121.5 -119t41.5 -192.5t-41.5 -193t-121.5 -119.5t-196 -40.5h-223zM155 55h156q151 0 225 74.5t74 223.5q0 150 -74 224t-225 74h-156v-596zM790 0v42l349 427l1 -17h-350v49h408v-42l-352 -428l-1 18h364v-49h-419zM963 550l-109 201h45
l95 -155l95 155h45l-109 -201h-62z" />
    <glyph glyph-name="uni01C6" unicode="&#x1c6;" horiz-adv-x="1107" 
d="M272 -8q-67 0 -117 31t-77 89t-27 139t27 138.5t77 89t117 31.5q69 0 119.5 -35.5t67.5 -97.5h-12v359h61v-736h-60v126h11q-17 -63 -67.5 -98.5t-119.5 -35.5zM280 44q76 0 122.5 53t46.5 154t-46.5 154t-122.5 53t-121.5 -53t-45.5 -154t45.5 -154t121.5 -53zM641 0v42
l349 427l1 -17h-350v49h408v-42l-352 -428l-1 18h364v-49h-419zM815 550l-109 201h45l95 -155l95 155h45l-109 -201h-62z" />
    <glyph glyph-name="uni01C7" unicode="&#x1c7;" horiz-adv-x="893" 
d="M93 0v705h62v-650h367v-55h-429zM653 -186q-17 0 -35.5 1.5t-39.5 6.5v53q19 -4 35 -6t30 -2q46 0 70.5 29t24.5 92v717h62v-718q0 -55 -16.5 -94t-49 -59t-81.5 -20z" />
    <glyph glyph-name="uni01C8" unicode="&#x1c8;" horiz-adv-x="766" 
d="M93 0v705h62v-650h367v-55h-429zM549 -219q-12 0 -32 3.5t-33 8.5v53q12 -4 28.5 -7.5t29.5 -3.5q45 0 65.5 28.5t20.5 91.5v546h61v-554q0 -82 -35 -124t-105 -42zM618 624v76h81v-76h-81z" />
    <glyph glyph-name="uni01C9" unicode="&#x1c9;" horiz-adv-x="455" 
d="M83 0v736h61v-736h-61zM239 -219q-12 0 -32 3.5t-33 8.5v53q12 -4 28.5 -7.5t29.5 -3.5q45 0 65.5 28.5t20.5 91.5v546h61v-554q0 -82 -35 -124t-105 -42zM308 624v76h81v-76h-81z" />
    <glyph glyph-name="uni01CA" unicode="&#x1ca;" horiz-adv-x="1057" 
d="M93 0v705h50l472 -632h-22v632h57v-705h-49l-472 632h21v-632h-57zM818 -186q-17 0 -35.5 1.5t-39.5 6.5v53q19 -4 35 -6t30 -2q46 0 70.5 29t24.5 92v717h62v-718q0 -55 -16.5 -94t-49 -59t-81.5 -20z" />
    <glyph glyph-name="uni01CB" unicode="&#x1cb;" horiz-adv-x="971" 
d="M93 0v705h50l472 -632h-22v632h57v-705h-49l-472 632h21v-632h-57zM754 -219q-12 0 -32 3.5t-33 8.5v53q12 -4 28.5 -7.5t29.5 -3.5q45 0 65.5 28.5t20.5 91.5v546h61v-554q0 -82 -35 -124t-105 -42zM823 624v76h81v-76h-81z" />
    <glyph glyph-name="uni01CC" unicode="&#x1cc;" horiz-adv-x="805" 
d="M83 0v389q0 27 -2 55t-6 57h60l9 -115h-12q22 60 71 92t114 32q89 0 134.5 -47t45.5 -147v-316h-61v311q0 77 -31 111.5t-96 34.5q-76 0 -120.5 -46t-44.5 -124v-287h-61zM589 -219q-12 0 -32 3.5t-33 8.5v53q12 -4 28.5 -7.5t29.5 -3.5q45 0 65.5 28.5t20.5 91.5v546h61
v-554q0 -82 -35 -124t-105 -42zM658 624v76h81v-76h-81z" />
    <glyph glyph-name="uni01CD" unicode="&#x1cd;" horiz-adv-x="728" 
d="M26 0l307 705h56l312 -705h-65l-88 203l29 -15h-434l34 15l-86 -203h-65zM360 630l-171 -401l-23 12h388l-17 -12l-175 401h-2zM331 765l-122 171h49l104 -126l104 126h49l-122 -171h-62z" />
    <glyph glyph-name="uni01CE" unicode="&#x1ce;" horiz-adv-x="591" 
d="M273 -8q-68 0 -118 31t-77 89t-27 139t27.5 138.5t77.5 89t117 31.5q69 0 119.5 -36t66.5 -98h-12l10 125h59q-3 -29 -5.5 -57t-2.5 -55v-389h-61v125h11q-16 -62 -66.5 -97.5t-118.5 -35.5zM281 44q77 0 122 53t45 154t-45 154t-122 53t-122.5 -53t-45.5 -154t45.5 -154
t122.5 -53zM259 550l-109 201h45l95 -155l95 155h45l-109 -201h-62z" />
    <glyph glyph-name="uni01D4" unicode="&#x1d4;" horiz-adv-x="569" 
d="M259 -8q-88 0 -133.5 47.5t-45.5 146.5v315h61v-311q0 -76 31 -111t95 -35q71 0 114.5 46.5t43.5 123.5v287h61v-501h-60v118h13q-21 -61 -68.5 -93.5t-111.5 -32.5zM254 551l-109 201h45l95 -155l95 155h45l-109 -201h-62z" />
    <glyph glyph-name="uni01E5" unicode="&#x1e5;" horiz-adv-x="595" 
d="M299 -223q-63 0 -117.5 17t-97.5 51l22 47q31 -23 61 -37t62 -20.5t68 -6.5q121 0 148 99l8 -9h-133v41h140l-10 -10q1 9 1.5 17.5t0.5 17.5v166h11q-16 -63 -67 -98t-120 -35t-119.5 30t-78 85.5t-27.5 130.5q0 76 27.5 131t78 85.5t119.5 30.5t120 -35.5t67 -99.5h-16
l10 126h59q-3 -29 -5.5 -57t-2.5 -55l4 -394q0 -12 -0.5 -23t-2.5 -22l-8 9h85v-41h-90l10 8q-15 -74 -67.5 -111.5t-139.5 -37.5zM283 68q78 0 123.5 51.5t45.5 143.5q0 93 -45.5 144t-123.5 51t-124 -51t-46 -144q0 -92 46 -143.5t124 -51.5z" />
    <glyph glyph-name="Gcaron" unicode="&#x1e6;" horiz-adv-x="727" 
d="M409 -8q-114 0 -190.5 42.5t-115 123.5t-38.5 195q0 112 40 192.5t114.5 124t179.5 43.5q77 0 133 -23.5t102 -68.5l-27 -50q-33 31 -63.5 49.5t-65 27t-79.5 8.5q-129 0 -198.5 -79.5t-69.5 -224.5q0 -148 68 -226t211 -78q53 0 101 10t91 29l-15 -40v264h-187v52h242
v-322q-40 -21 -104.5 -35t-128.5 -14zM364 765l-122 171h49l104 -126l104 126h49l-122 -171h-62z" />
    <glyph glyph-name="gcaron" unicode="&#x1e7;" horiz-adv-x="595" 
d="M299 -223q-63 0 -117.5 17t-97.5 51l22 47q32 -23 61.5 -36.5t61.5 -20t69 -6.5q76 0 115 40.5t39 116.5v159h11q-16 -63 -67 -98.5t-120 -35.5t-119.5 30.5t-78 87t-27.5 132.5t27.5 132t78 86.5t119.5 30.5t120 -35.5t67 -99.5l-11 11l9 115h60q-4 -29 -6 -57t-2 -55
v-394q0 -108 -54.5 -163t-159.5 -55zM283 63q78 0 123.5 52t45.5 146q0 93 -45.5 145t-123.5 52t-124 -52t-46 -145q0 -94 46 -146t124 -52zM269 550l-109 201h45l95 -155l95 155h45l-109 -201h-62z" />
    <glyph glyph-name="uni01E9" unicode="&#x1e9;" horiz-adv-x="498" 
d="M83 0v736h61v-462h2l247 227h79l-284 -261l3 37l311 -277h-83l-273 241h-2v-241h-61zM224 769l-122 171h49l104 -126l104 126h49l-122 -171h-62z" />
    <glyph glyph-name="uni01EA" unicode="&#x1ea;" horiz-adv-x="765" 
d="M65 353q0 112 37.5 192.5t108.5 124t171 43.5q98 0 169.5 -43.5t110 -124t38.5 -191.5q0 -112 -39 -193t-110.5 -125t-168.5 -44q-99 0 -170 44t-109 125t-38 192zM131 353q0 -144 64 -224.5t187 -80.5q119 0 186 80.5t67 224.5q0 145 -66.5 224.5t-186.5 79.5
q-123 0 -187 -79.5t-64 -224.5zM423 -191q-44 0 -72 25.5t-28 69.5q0 39 24.5 73.5t68.5 56.5l25 -34q-15 -6 -31 -19t-27 -31t-11 -40q0 -30 17 -44t42 -14q13 0 26 3t27 9l14 -38q-13 -8 -32 -12.5t-43 -4.5z" />
    <glyph glyph-name="uni01EB" unicode="&#x1eb;" horiz-adv-x="562" 
d="M281 -8q-71 0 -122.5 31t-79.5 89t-28 139q0 80 28 138t79.5 89.5t122.5 31.5q70 0 121.5 -31.5t80 -89.5t28.5 -138q0 -81 -28.5 -139t-80 -89t-121.5 -31zM281 44q76 0 122 53t46 154t-46 154t-122 53q-77 0 -122.5 -53t-45.5 -154t45.5 -154t122.5 -53zM319 -191
q-44 0 -72 25.5t-28 69.5q0 39 24.5 73.5t68.5 56.5l25 -34q-15 -6 -31 -19t-27 -31t-11 -40q0 -30 17 -44t42 -14q13 0 26 3t27 9l14 -38q-13 -8 -32 -12.5t-43 -4.5z" />
    <glyph glyph-name="Aringacute" unicode="&#x1fa;" horiz-adv-x="728" 
d="M26 0l307 705h56l312 -705h-65l-88 203l29 -15h-434l34 15l-86 -203h-65zM360 630l-171 -401l-23 12h388l-17 -12l-175 401h-2zM362 759q-32 0 -58 15t-41 40.5t-15 56.5t15 56t41 40t58 15q20 0 36.5 -5t30.5 -16l74 69h69l-115 -97q19 -28 19 -62q0 -31 -15 -56.5
t-41 -40.5t-58 -15zM362 795q34 0 54.5 22t20.5 54t-20.5 53.5t-54.5 21.5q-33 0 -54 -22t-21 -53q0 -32 21 -54t54 -22z" />
    <glyph glyph-name="aringacute" unicode="&#x1fb;" horiz-adv-x="591" 
d="M273 -8q-68 0 -118 31t-77 89t-27 139t27.5 138.5t77.5 89t117 31.5q69 0 119.5 -36t66.5 -98h-12l10 125h59q-3 -29 -5.5 -57t-2.5 -55v-389h-61v125h11q-16 -62 -66.5 -97.5t-118.5 -35.5zM281 44q77 0 122 53t45 154t-45 154t-122 53t-122.5 -53t-45.5 -154t45.5 -154
t122.5 -53zM290 546q-32 0 -58 15t-41 40.5t-15 55.5q0 32 15 57t41 40t58 15q20 0 36.5 -5.5t30.5 -15.5l74 68h69l-115 -97q19 -27 19 -62q0 -30 -15 -55.5t-41 -40.5t-58 -15zM290 582q34 0 54.5 21.5t20.5 53.5t-20.5 53.5t-54.5 21.5q-33 0 -54 -21.5t-21 -53.5
t21 -53.5t54 -21.5z" />
    <glyph glyph-name="AEacute" unicode="&#x1fc;" horiz-adv-x="1001" 
d="M6 0l427 705h514v-53h-409l21 23l28 -307l-17 16h356v-53h-348l11 10l29 -309l-9 21h338v-53h-386l-18 197l25 -9h-391l23 17l-123 -205h-71zM466 651l-253 -425l-9 15h345l-8 -15l-40 425h-35zM490 765l118 171h73l-141 -171h-50z" />
    <glyph glyph-name="aeacute" unicode="&#x1fd;" horiz-adv-x="886" 
d="M244 -8q-52 0 -92 20t-63 54t-23 77q0 59 27 92t91 46.5t176 13.5h52v-43h-50q-92 0 -143.5 -9.5t-71.5 -32t-20 -63.5q0 -48 33 -77t90 -29q45 0 79.5 21t54 58.5t19.5 87.5v119q0 70 -30 100.5t-92 30.5q-47 0 -87.5 -12.5t-83.5 -41.5l-23 47q38 28 89.5 43.5
t104.5 15.5q78 0 120.5 -34.5t53.5 -99.5h-22q28 65 79 99.5t122 34.5q95 0 149.5 -62.5t54.5 -170.5v-26h-386v44h349l-17 -13q0 83 -39.5 131t-113.5 48q-77 0 -122 -50t-45 -144v-7q0 -101 46.5 -158.5t133.5 -57.5q44 0 84.5 15t77.5 47l24 -45q-32 -33 -82.5 -51
t-103.5 -18q-89 0 -146.5 42t-78.5 122h20q-14 -77 -66 -120.5t-129 -43.5zM413 550l103 201h70l-127 -201h-46z" />
    <glyph glyph-name="Oslashacute" unicode="&#x1fe;" horiz-adv-x="765" 
d="M65 353q0 112 37.5 192.5t108.5 124t171 43.5q98 0 169.5 -43.5t110 -124t38.5 -191.5q0 -112 -39 -193t-110.5 -125t-168.5 -44q-99 0 -170 44t-109 125t-38 192zM131 353q0 -144 64 -224.5t187 -80.5q119 0 186 80.5t67 224.5q0 145 -66.5 224.5t-186.5 79.5
q-123 0 -187 -79.5t-64 -224.5zM234 44l-50 -85l-45 25l50 86l20 30l310 532l15 29l50 85l44 -25l-50 -86l-19 -29l-310 -533zM357 765l118 171h73l-141 -171h-50z" />
    <glyph glyph-name="oslashacute" unicode="&#x1ff;" horiz-adv-x="562" 
d="M281 -8q-71 0 -122.5 31t-79.5 89t-28 139q0 80 28 138t79.5 89.5t122.5 31.5q70 0 121.5 -31.5t80 -89.5t28.5 -138q0 -81 -28.5 -139t-80 -89t-121.5 -31zM281 44q78 0 124 53.5t46 153.5t-46 153.5t-124 53.5q-79 0 -124.5 -53.5t-45.5 -153.5t45.5 -153.5
t124.5 -53.5zM141 -35l-37 23l318 548l37 -22zM258 550l103 201h70l-127 -201h-46z" />
    <glyph glyph-name="uni0200" unicode="&#x200;" horiz-adv-x="728" 
d="M26 0l307 705h56l312 -705h-65l-88 203l29 -15h-434l34 15l-86 -203h-65zM360 630l-171 -401l-23 12h388l-17 -12l-175 401h-2zM402 765l-114 171h66l85 -171h-37zM285 765l-116 171h65l88 -171h-37z" />
    <glyph glyph-name="uni0201" unicode="&#x201;" horiz-adv-x="591" 
d="M273 -8q-68 0 -118 31t-77 89t-27 139t27.5 138.5t77.5 89t117 31.5q69 0 119.5 -36t66.5 -98h-12l10 125h59q-3 -29 -5.5 -57t-2.5 -55v-389h-61v125h11q-16 -62 -66.5 -97.5t-118.5 -35.5zM281 44q77 0 122 53t45 154t-45 154t-122 53t-122.5 -53t-45.5 -154t45.5 -154
t122.5 -53zM331 550l-81 201h61l56 -201h-36zM213 550l-81 201h61l56 -201h-36z" />
    <glyph glyph-name="uni0202" unicode="&#x202;" horiz-adv-x="728" 
d="M26 0l307 705h56l312 -705h-65l-88 203l29 -15h-434l34 15l-86 -203h-65zM360 630l-171 -401l-23 12h388l-17 -12l-175 401h-2zM241 760l-42 5q7 78 51.5 123t111.5 45t111.5 -45t51.5 -123l-42 -5q-4 62 -36.5 95t-84.5 33t-84 -33t-37 -95z" />
    <glyph glyph-name="uni0203" unicode="&#x203;" horiz-adv-x="591" 
d="M273 -8q-68 0 -118 31t-77 89t-27 139t27.5 138.5t77.5 89t117 31.5q69 0 119.5 -36t66.5 -98h-12l10 125h59q-3 -29 -5.5 -57t-2.5 -55v-389h-61v125h11q-16 -62 -66.5 -97.5t-118.5 -35.5zM281 44q77 0 122 53t45 154t-45 154t-122 53t-122.5 -53t-45.5 -154t45.5 -154
t122.5 -53zM183 543l-42 4q4 60 22.5 102t51 64.5t75.5 22.5q44 0 76 -22.5t51 -64.5t22 -102l-42 -4q-4 70 -31.5 109t-75.5 39q-47 0 -75 -39t-32 -109z" />
    <glyph glyph-name="uni0204" unicode="&#x204;" horiz-adv-x="585" 
d="M93 0v705h438v-53h-378v-268h356v-53h-356v-278h378v-53h-438zM365 765l-114 171h66l85 -171h-37zM248 765l-116 171h65l88 -171h-37z" />
    <glyph glyph-name="uni0205" unicode="&#x205;" horiz-adv-x="543" 
d="M298 -8q-114 0 -180.5 68t-66.5 189q0 80 29.5 138t82.5 90.5t123 32.5q67 0 113 -28.5t71 -81t25 -124.5v-28h-400v44h362l-17 -13q0 85 -39 133.5t-116 48.5q-82 0 -128 -56.5t-46 -149.5v-7q0 -100 49.5 -152t138.5 -52q46 0 86 14t77 48l25 -45q-32 -33 -83 -51
t-106 -18zM327 550l-81 201h61l56 -201h-36zM209 550l-81 201h61l56 -201h-36z" />
    <glyph glyph-name="uni0206" unicode="&#x206;" horiz-adv-x="585" 
d="M93 0v705h438v-53h-378v-268h356v-53h-356v-278h378v-53h-438zM204 760l-42 5q7 78 51.5 123t111.5 45t111.5 -45t51.5 -123l-42 -5q-4 62 -36.5 95t-84.5 33t-84 -33t-37 -95z" />
    <glyph glyph-name="uni0207" unicode="&#x207;" horiz-adv-x="543" 
d="M298 -8q-114 0 -180.5 68t-66.5 189q0 80 29.5 138t82.5 90.5t123 32.5q67 0 113 -28.5t71 -81t25 -124.5v-28h-400v44h362l-17 -13q0 85 -39 133.5t-116 48.5q-82 0 -128 -56.5t-46 -149.5v-7q0 -100 49.5 -152t138.5 -52q46 0 86 14t77 48l25 -45q-32 -33 -83 -51
t-106 -18zM179 543l-42 4q4 60 22.5 102t51 64.5t75.5 22.5q44 0 76 -22.5t51 -64.5t22 -102l-42 -4q-4 70 -31.5 109t-75.5 39q-47 0 -75 -39t-32 -109z" />
    <glyph glyph-name="uni0208" unicode="&#x208;" horiz-adv-x="247" 
d="M93 0v705h62v-705h-62zM163 765l-114 171h66l85 -171h-37zM46 765l-116 171h65l88 -171h-37z" />
    <glyph glyph-name="uni0209" unicode="&#x209;" horiz-adv-x="228" 
d="M83 0v501h61v-501h-61zM155 550l-81 201h61l56 -201h-36zM37 550l-81 201h61l56 -201h-36z" />
    <glyph glyph-name="uni020A" unicode="&#x20a;" horiz-adv-x="247" 
d="M93 0v705h62v-705h-62zM2 760l-42 5q7 78 51.5 123t111.5 45t111.5 -45t51.5 -123l-42 -5q-4 62 -36.5 95t-84.5 33t-84 -33t-37 -95z" />
    <glyph glyph-name="uni020B" unicode="&#x20b;" horiz-adv-x="228" 
d="M83 0v501h61v-501h-61zM7 543l-42 4q4 60 22.5 102t51 64.5t75.5 22.5q44 0 76 -22.5t51 -64.5t22 -102l-42 -4q-4 70 -31.5 109t-75.5 39q-47 0 -75 -39t-32 -109z" />
    <glyph glyph-name="uni020C" unicode="&#x20c;" horiz-adv-x="765" 
d="M65 353q0 112 37.5 192.5t108.5 124t171 43.5q98 0 169.5 -43.5t110 -124t38.5 -191.5q0 -112 -39 -193t-110.5 -125t-168.5 -44q-99 0 -170 44t-109 125t-38 192zM131 353q0 -144 64 -224.5t187 -80.5q119 0 186 80.5t67 224.5q0 145 -66.5 224.5t-186.5 79.5
q-123 0 -187 -79.5t-64 -224.5zM422 765l-114 171h66l85 -171h-37zM305 765l-116 171h65l88 -171h-37z" />
    <glyph glyph-name="uni020D" unicode="&#x20d;" horiz-adv-x="562" 
d="M281 -8q-71 0 -122.5 31t-79.5 89t-28 139q0 80 28 138t79.5 89.5t122.5 31.5q70 0 121.5 -31.5t80 -89.5t28.5 -138q0 -81 -28.5 -139t-80 -89t-121.5 -31zM281 44q76 0 122 53t46 154t-46 154t-122 53q-77 0 -122.5 -53t-45.5 -154t45.5 -154t122.5 -53zM323 550
l-81 201h61l56 -201h-36zM205 550l-81 201h61l56 -201h-36z" />
    <glyph glyph-name="uni020E" unicode="&#x20e;" horiz-adv-x="765" 
d="M65 353q0 112 37.5 192.5t108.5 124t171 43.5q98 0 169.5 -43.5t110 -124t38.5 -191.5q0 -112 -39 -193t-110.5 -125t-168.5 -44q-99 0 -170 44t-109 125t-38 192zM131 353q0 -144 64 -224.5t187 -80.5q119 0 186 80.5t67 224.5q0 145 -66.5 224.5t-186.5 79.5
q-123 0 -187 -79.5t-64 -224.5zM261 760l-42 5q7 78 51.5 123t111.5 45t111.5 -45t51.5 -123l-42 -5q-4 62 -36.5 95t-84.5 33t-84 -33t-37 -95z" />
    <glyph glyph-name="uni020F" unicode="&#x20f;" horiz-adv-x="562" 
d="M281 -8q-71 0 -122.5 31t-79.5 89t-28 139q0 80 28 138t79.5 89.5t122.5 31.5q70 0 121.5 -31.5t80 -89.5t28.5 -138q0 -81 -28.5 -139t-80 -89t-121.5 -31zM281 44q76 0 122 53t46 154t-46 154t-122 53q-77 0 -122.5 -53t-45.5 -154t45.5 -154t122.5 -53zM175 543l-42 4
q4 60 22.5 102t51 64.5t75.5 22.5q44 0 76 -22.5t51 -64.5t22 -102l-42 -4q-4 70 -31.5 109t-75.5 39q-47 0 -75 -39t-32 -109z" />
    <glyph glyph-name="uni0210" unicode="&#x210;" horiz-adv-x="688" 
d="M93 0v705h278q109 0 169 -51t60 -144q0 -60 -27 -102.5t-75 -65t-111 -22.5l19 11h14q41 0 73 -19.5t51 -66.5l98 -245h-68l-92 234q-19 51 -55 65.5t-92 14.5h-180v-314h-62zM155 366h208q85 0 129.5 37t44.5 106q0 70 -44.5 106.5t-129.5 36.5h-208v-286zM382 765
l-114 171h66l85 -171h-37zM265 765l-116 171h65l88 -171h-37z" />
    <glyph glyph-name="uni0211" unicode="&#x211;" horiz-adv-x="349" 
d="M82 0v384q0 29 -1.5 58.5t-5.5 58.5h60l8 -115l-12 -1q10 42 36 69.5t60 41.5t70 14q13 0 24.5 -1.5t21.5 -4.5l-2 -55q-12 4 -24 5t-26 1q-45 0 -78.5 -22t-51.5 -56t-18 -69v-308h-61zM256 550l-81 201h61l56 -201h-36zM138 550l-81 201h61l56 -201h-36z" />
    <glyph glyph-name="uni0212" unicode="&#x212;" horiz-adv-x="688" 
d="M93 0v705h278q109 0 169 -51t60 -144q0 -60 -27 -102.5t-75 -65t-111 -22.5l19 11h14q41 0 73 -19.5t51 -66.5l98 -245h-68l-92 234q-19 51 -55 65.5t-92 14.5h-180v-314h-62zM155 366h208q85 0 129.5 37t44.5 106q0 70 -44.5 106.5t-129.5 36.5h-208v-286zM221 760
l-42 5q7 78 51.5 123t111.5 45t111.5 -45t51.5 -123l-42 -5q-4 62 -36.5 95t-84.5 33t-84 -33t-37 -95z" />
    <glyph glyph-name="uni0213" unicode="&#x213;" horiz-adv-x="349" 
d="M82 0v384q0 29 -1.5 58.5t-5.5 58.5h60l8 -115l-12 -1q10 42 36 69.5t60 41.5t70 14q13 0 24.5 -1.5t21.5 -4.5l-2 -55q-12 4 -24 5t-26 1q-45 0 -78.5 -22t-51.5 -56t-18 -69v-308h-61zM108 543l-42 4q4 60 22.5 102t51 64.5t75.5 22.5q44 0 76 -22.5t51 -64.5t22 -102
l-42 -4q-4 70 -31.5 109t-75.5 39q-47 0 -75 -39t-32 -109z" />
    <glyph glyph-name="uni0214" unicode="&#x214;" horiz-adv-x="726" 
d="M364 -8q-141 0 -208.5 72t-67.5 210v431h62v-426q0 -115 51 -173t163 -58q104 0 158.5 58t54.5 173v426h62v-431q0 -138 -70.5 -210t-204.5 -72zM404 765l-114 171h66l85 -171h-37zM287 765l-116 171h65l88 -171h-37z" />
    <glyph glyph-name="uni0215" unicode="&#x215;" horiz-adv-x="569" 
d="M259 -8q-88 0 -133.5 47.5t-45.5 146.5v315h61v-311q0 -76 31 -111t95 -35q71 0 114.5 46.5t43.5 123.5v287h61v-501h-60v118h13q-21 -61 -68.5 -93.5t-111.5 -32.5zM326 551l-81 201h61l56 -201h-36zM208 551l-81 201h61l56 -201h-36z" />
    <glyph glyph-name="uni0216" unicode="&#x216;" horiz-adv-x="726" 
d="M364 -8q-141 0 -208.5 72t-67.5 210v431h62v-426q0 -115 51 -173t163 -58q104 0 158.5 58t54.5 173v426h62v-431q0 -138 -70.5 -210t-204.5 -72zM243 760l-42 5q7 78 51.5 123t111.5 45t111.5 -45t51.5 -123l-42 -5q-4 62 -36.5 95t-84.5 33t-84 -33t-37 -95z" />
    <glyph glyph-name="uni0217" unicode="&#x217;" horiz-adv-x="569" 
d="M259 -8q-88 0 -133.5 47.5t-45.5 146.5v315h61v-311q0 -76 31 -111t95 -35q71 0 114.5 46.5t43.5 123.5v287h61v-501h-60v118h13q-21 -61 -68.5 -93.5t-111.5 -32.5zM178 544l-42 4q4 60 22.5 102t51 64.5t75.5 22.5q44 0 76 -22.5t51 -64.5t22 -102l-42 -4
q-4 70 -31.5 109t-75.5 39q-47 0 -75 -39t-32 -109z" />
    <glyph glyph-name="uni0218" unicode="&#x218;" horiz-adv-x="613" 
d="M316 -8q-85 0 -150 22t-116 64l26 51q36 -28 70.5 -46t75.5 -26.5t93 -8.5q93 0 140 36.5t47 96.5q0 52 -32.5 79.5t-113.5 43.5l-102 21q-97 20 -144.5 64t-47.5 120q0 62 32 108t89 71t132 25t136.5 -22.5t105.5 -66.5l-25 -50q-47 44 -99 63.5t-118 19.5
q-87 0 -138 -39.5t-51 -106.5q0 -54 32.5 -84t105.5 -45l103 -21q103 -21 151 -61.5t48 -115.5q0 -57 -30.5 -100.5t-86.5 -67.5t-133 -24zM315 -263l-31 22q23 25 30.5 47t7.5 46l18 -8h-60v73h84v-57q0 -36 -12.5 -67t-36.5 -56z" />
    <glyph glyph-name="uni0219" unicode="&#x219;" horiz-adv-x="494" 
d="M245 -8q-58 0 -108.5 17t-83.5 47l24 45q37 -30 80 -44.5t90 -14.5q64 0 97 24t33 65q0 32 -21 52t-70 30l-90 19q-64 15 -95.5 48t-31.5 83q0 43 22.5 76t64.5 52t99 19q54 0 99.5 -17.5t74.5 -49.5l-26 -44q-30 30 -67.5 45t-79.5 15q-62 0 -94 -25.5t-32 -67.5
q0 -32 20 -52.5t63 -30.5l90 -20q68 -15 101 -46t33 -82q0 -44 -24 -76.5t-67 -49.5t-101 -17zM238 -263l-31 22q23 25 30.5 47t7.5 46l18 -8h-60v73h84v-57q0 -36 -12.5 -67t-36.5 -56z" />
    <glyph glyph-name="uni021A" unicode="&#x21a;" horiz-adv-x="597" 
d="M266 0v651h-256v54h573v-54h-255v-651h-62zM291 -263l-31 22q23 25 30.5 47t7.5 46l18 -8h-60v73h84v-57q0 -36 -12.5 -67t-36.5 -56z" />
    <glyph glyph-name="uni021B" unicode="&#x21b;" horiz-adv-x="337" 
d="M245 -8q-67 0 -102.5 40t-35.5 123v297h-100v49h100v140l61 20v-160h148v-49h-148v-288q0 -63 20 -91t64 -28q20 0 35.5 4t26.5 9v-54q-12 -5 -31 -8.5t-38 -3.5zM211 -263l-31 22q23 25 30.5 47t7.5 46l18 -8h-60v73h84v-57q0 -36 -12.5 -67t-36.5 -56z" />
    <glyph glyph-name="uni021F" unicode="&#x21f;" horiz-adv-x="578" 
d="M83 0v736h61v-351h-12q21 61 71 93t116 32q91 0 134.5 -48t43.5 -144v-318h-61v313q0 76 -30 110t-96 34q-75 0 -120.5 -46t-45.5 -122v-289h-61zM262 769l-122 171h49l104 -126l104 126h49l-122 -171h-62z" />
    <glyph glyph-name="uni0226" unicode="&#x226;" horiz-adv-x="728" 
d="M26 0l307 705h56l312 -705h-65l-88 203l29 -15h-434l34 15l-86 -203h-65zM360 630l-171 -401l-23 12h388l-17 -12l-175 401h-2zM324 813v75h76v-75h-76z" />
    <glyph glyph-name="uni0227" unicode="&#x227;" horiz-adv-x="591" 
d="M273 -8q-68 0 -118 31t-77 89t-27 139t27.5 138.5t77.5 89t117 31.5q69 0 119.5 -36t66.5 -98h-12l10 125h59q-3 -29 -5.5 -57t-2.5 -55v-389h-61v125h11q-16 -62 -66.5 -97.5t-118.5 -35.5zM281 44q77 0 122 53t45 154t-45 154t-122 53t-122.5 -53t-45.5 -154t45.5 -154
t122.5 -53zM251 614v75h78v-75h-78z" />
    <glyph glyph-name="uni0228" unicode="&#x228;" horiz-adv-x="585" 
d="M93 0v705h438v-53h-378v-268h356v-53h-356v-278h378v-53h-438zM329 -191q-25 0 -46.5 5t-37.5 14l11 39q19 -9 35 -13t39 -4q27 0 43.5 10.5t16.5 29.5q0 30 -38 30q-11 0 -22 -1.5t-27 -7.5l-16 14l14 95h45l-13 -75l-21 4q12 3 23.5 5t21.5 2q34 0 57.5 -17.5
t23.5 -49.5q0 -35 -30.5 -57.5t-78.5 -22.5z" />
    <glyph glyph-name="uni022A" unicode="&#x22a;" horiz-adv-x="765" 
d="M65 353q0 112 37.5 192.5t108.5 124t171 43.5q98 0 169.5 -43.5t110 -124t38.5 -191.5q0 -112 -39 -193t-110.5 -125t-168.5 -44q-99 0 -170 44t-109 125t-38 192zM131 353q0 -144 64 -224.5t187 -80.5q119 0 186 80.5t67 224.5q0 145 -66.5 224.5t-186.5 79.5
q-123 0 -187 -79.5t-64 -224.5zM238 926v47h288v-47h-288zM262 802v66h73v-66h-73zM429 802v66h73v-66h-73z" />
    <glyph glyph-name="uni022B" unicode="&#x22b;" horiz-adv-x="562" 
d="M281 -8q-71 0 -122.5 31t-79.5 89t-28 139q0 80 28 138t79.5 89.5t122.5 31.5q70 0 121.5 -31.5t80 -89.5t28.5 -138q0 -81 -28.5 -139t-80 -89t-121.5 -31zM281 44q76 0 122 53t46 154t-46 154t-122 53q-77 0 -122.5 -53t-45.5 -154t45.5 -154t122.5 -53zM138 706v47
h288v-47h-288zM162 582v66h73v-66h-73zM329 582v66h73v-66h-73z" />
    <glyph glyph-name="uni022C" unicode="&#x22c;" horiz-adv-x="765" 
d="M65 353q0 112 37.5 192.5t108.5 124t171 43.5q98 0 169.5 -43.5t110 -124t38.5 -191.5q0 -112 -39 -193t-110.5 -125t-168.5 -44q-99 0 -170 44t-109 125t-38 192zM131 353q0 -144 64 -224.5t187 -80.5q119 0 186 80.5t67 224.5q0 145 -66.5 224.5t-186.5 79.5
q-123 0 -187 -79.5t-64 -224.5zM238 926v47h288v-47h-288zM447 768q-19 0 -36 7.5t-39 24.5q-20 16 -31.5 20t-21.5 4q-22 0 -33.5 -13.5t-16.5 -44.5l-39 2q5 50 28.5 74.5t59.5 24.5q17 0 32.5 -6.5t37.5 -22.5t34 -21.5t23 -5.5q23 0 34 13.5t16 44.5l39 -2
q-4 -50 -27.5 -74.5t-59.5 -24.5z" />
    <glyph glyph-name="uni022D" unicode="&#x22d;" horiz-adv-x="562" 
d="M281 -8q-71 0 -122.5 31t-79.5 89t-28 139q0 80 28 138t79.5 89.5t122.5 31.5q70 0 121.5 -31.5t80 -89.5t28.5 -138q0 -81 -28.5 -139t-80 -89t-121.5 -31zM281 44q76 0 122 53t46 154t-46 154t-122 53q-77 0 -122.5 -53t-45.5 -154t45.5 -154t122.5 -53zM138 706v47
h288v-47h-288zM169 546l-39 2q5 50 28.5 74.5t59.5 24.5q18 0 34.5 -7t38.5 -24q19 -14 30.5 -19.5t23.5 -5.5q23 0 34 13.5t16 44.5l39 -2q-4 -50 -27.5 -74.5t-59.5 -24.5q-19 0 -36 7.5t-38 23.5q-18 13 -30 19t-24 6q-22 0 -33.5 -13.5t-16.5 -44.5z" />
    <glyph glyph-name="uni0230" unicode="&#x230;" horiz-adv-x="765" 
d="M65 353q0 112 37.5 192.5t108.5 124t171 43.5q98 0 169.5 -43.5t110 -124t38.5 -191.5q0 -112 -39 -193t-110.5 -125t-168.5 -44q-99 0 -170 44t-109 125t-38 192zM131 353q0 -144 64 -224.5t187 -80.5q119 0 186 80.5t67 224.5q0 145 -66.5 224.5t-186.5 79.5
q-123 0 -187 -79.5t-64 -224.5zM238 926v47h288v-47h-288zM346 802v66h73v-66h-73z" />
    <glyph glyph-name="uni0231" unicode="&#x231;" horiz-adv-x="562" 
d="M281 -8q-71 0 -122.5 31t-79.5 89t-28 139q0 80 28 138t79.5 89.5t122.5 31.5q70 0 121.5 -31.5t80 -89.5t28.5 -138q0 -81 -28.5 -139t-80 -89t-121.5 -31zM281 44q76 0 122 53t46 154t-46 154t-122 53q-77 0 -122.5 -53t-45.5 -154t45.5 -154t122.5 -53zM138 706v47
h288v-47h-288zM246 582v66h73v-66h-73z" />
    <glyph glyph-name="uni0232" unicode="&#x232;" horiz-adv-x="597" 
d="M267 0v328l15 -47l-287 424h72l242 -365h-18l242 365h69l-287 -424l14 47v-328h-62zM140 818v47h318v-47h-318z" />
    <glyph glyph-name="uni0233" unicode="&#x233;" horiz-adv-x="525" 
d="M60 -227l-15 53q47 11 78 26.5t52 40.5t37 62l26 60l-1 -27l-219 513h68l191 -463h-25l189 463h66l-232 -549q-19 -46 -41.5 -76.5t-48.5 -51t-57 -32.5t-68 -19zM118 629v46h288v-46h-288z" />
    <glyph glyph-name="uni0237" unicode="&#x237;" horiz-adv-x="228" 
d="M11 -219q-12 0 -32 3.5t-33 8.5v53q12 -4 28.5 -7.5t29.5 -3.5q45 0 66 28.5t21 91.5v546h61v-554q0 -82 -35.5 -124t-105.5 -42z" />
    <glyph glyph-name="uni0253" unicode="&#x253;" horiz-adv-x="591" 
d="M320 -8q-70 0 -120 35.5t-67 98.5h11v-126h-61v585q0 78 41 118.5t118 40.5q14 0 27 -1.5t25 -5.5l-8 -50q-13 4 -21 5t-19 1q-50 0 -76 -27.5t-26 -79.5v-209h-11q17 62 67 97.5t120 35.5q68 0 117 -31.5t76.5 -89t27.5 -138.5t-27.5 -139t-77 -89t-116.5 -31zM311 44
q77 0 122.5 53t45.5 154t-45.5 154t-122.5 53q-76 0 -122 -53t-46 -154t46 -154t122 -53z" />
    <glyph glyph-name="uni0257" unicode="&#x257;" horiz-adv-x="591" 
d="M271 -8q-66 0 -116 31t-77 89t-27 139t27 138.5t77 89t116 31.5q71 0 121 -35.5t66 -97.5h-11v208q0 52 18 87.5t53.5 53.5t86.5 18q15 0 28 -1.5t25 -5.5l-8 -50q-14 4 -22 5t-18 1q-50 0 -76 -27.5t-26 -79.5v-586h-60v126h11q-17 -63 -67 -98.5t-121 -35.5zM280 44
q77 0 122.5 53t45.5 154t-45.5 154t-122.5 53q-76 0 -121.5 -53t-45.5 -154t45.5 -154t121.5 -53z" />
    <glyph glyph-name="uni0259" unicode="&#x259;" horiz-adv-x="543" 
d="M257 -8q-99 0 -154 62t-55 169v30h400v-44h-363l17 13q0 -85 40 -133t116 -48q83 0 128 56t45 147v8q0 101 -49 153.5t-139 52.5q-45 0 -85 -14.5t-78 -48.5l-23 46q33 33 83.5 51t106.5 18q75 0 130 -30.5t85 -88.5t30 -139q0 -79 -29.5 -137.5t-82.5 -90.5t-123 -32z
" />
    <glyph glyph-name="uni02B9" unicode="&#x2b9;" horiz-adv-x="211" 
d="M86 434l-17 271h73l-15 -271h-41z" />
    <glyph glyph-name="uni02BA" unicode="&#x2ba;" horiz-adv-x="366" 
d="M86 434l-17 271h73l-15 -271h-41zM241 434l-17 271h73l-15 -271h-41z" />
    <glyph glyph-name="uni02BB" unicode="&#x2bb;" horiz-adv-x="500" 
d="M208 569v58q0 33 10 62.5t37 55.5l31 -23q-22 -23 -28 -43t-6 -40l-21 8h60v-78h-83z" />
    <glyph glyph-name="uni02BC" unicode="&#x2bc;" horiz-adv-x="311" 
d="M151 573l-31 23q22 23 28 43.5t6 39.5l21 -8h-60v78h83v-58q0 -33 -10 -62.5t-37 -55.5z" />
    <glyph glyph-name="uni02BE" unicode="&#x2be;" horiz-adv-x="500" 
d="M250 555v39q25 0 40 17t15 40q0 24 -15 40.5t-40 16.5v41q43 0 71 -28.5t28 -69.5t-28 -68.5t-71 -27.5z" />
    <glyph glyph-name="uni02BF" unicode="&#x2bf;" horiz-adv-x="500" 
d="M250 555q-43 0 -71 27.5t-28 68.5t28 69.5t71 28.5v-41q-24 0 -39.5 -16t-15.5 -41q0 -23 15.5 -40t39.5 -17v-39z" />
    <glyph glyph-name="circumflex" unicode="&#x2c6;" horiz-adv-x="500" 
d="M110 550l109 201h62l109 -201h-45l-95 155l-95 -155h-45z" />
    <glyph glyph-name="caron" unicode="&#x2c7;" horiz-adv-x="500" 
d="M219 550l-109 201h45l95 -155l95 155h45l-109 -201h-62z" />
    <glyph glyph-name="uni02C8" unicode="&#x2c8;" horiz-adv-x="500" 
d="M225 596v199h51v-199h-51z" />
    <glyph glyph-name="uni02C9" unicode="&#x2c9;" horiz-adv-x="500" 
d="M106 629v46h288v-46h-288z" />
    <glyph glyph-name="uni02CA" unicode="&#x2ca;" horiz-adv-x="500" 
d="M227 550l103 201h70l-127 -201h-46z" />
    <glyph glyph-name="uni02CB" unicode="&#x2cb;" horiz-adv-x="500" 
d="M227 550l-127 201h70l103 -201h-46z" />
    <glyph glyph-name="uni02CC" unicode="&#x2cc;" horiz-adv-x="500" 
d="M225 -270v199h51v-199h-51z" />
    <glyph glyph-name="breve" unicode="&#x2d8;" horiz-adv-x="500" 
d="M250 548q-43 0 -75.5 22.5t-51 65t-22.5 100.5l42 5q4 -71 32 -109.5t75 -38.5q48 0 75.5 38.5t31.5 109.5l42 -5q-3 -58 -22 -100.5t-51 -65t-76 -22.5z" />
    <glyph glyph-name="dotaccent" unicode="&#x2d9;" horiz-adv-x="500" 
d="M211 614v75h78v-75h-78z" />
    <glyph glyph-name="ring" unicode="&#x2da;" horiz-adv-x="500" 
d="M250 547q-32 0 -58.5 15t-41.5 41t-15 57t15 56.5t41.5 40.5t58.5 15q33 0 59 -15t41 -40.5t15 -57.5q0 -30 -15 -56t-41 -41t-59 -15zM250 584q34 0 54.5 22t20.5 54t-20.5 53.5t-54.5 21.5q-33 0 -54 -21.5t-21 -53.5t21 -54t54 -22z" />
    <glyph glyph-name="ogonek" unicode="&#x2db;" horiz-adv-x="500" 
d="M232 -191q-44 0 -72 25.5t-28 69.5q0 39 24.5 73.5t68.5 56.5l25 -34q-15 -6 -31 -19t-27 -31t-11 -40q0 -30 17 -44t42 -14q13 0 26 3t27 9l14 -38q-13 -8 -32 -12.5t-43 -4.5z" />
    <glyph glyph-name="tilde" unicode="&#x2dc;" horiz-adv-x="500" 
d="M115 592l-39 3q6 61 32.5 94t69.5 33q21 0 39.5 -11t42.5 -33q22 -21 35.5 -29t26.5 -8q51 0 63 84l39 -3q-6 -61 -32.5 -94t-68.5 -33q-20 0 -38.5 11t-44.5 34q-22 20 -35 28t-27 8q-26 0 -41.5 -22t-21.5 -62z" />
    <glyph glyph-name="hungarumlaut" unicode="&#x2dd;" horiz-adv-x="500" 
d="M291 550l56 201h61l-81 -201h-36zM173 550l56 201h61l-81 -201h-36z" />
    <glyph glyph-name="gravecomb" unicode="&#x300;" 
d="M-23 550l-127 201h70l103 -201h-46z" />
    <glyph glyph-name="acutecomb" unicode="&#x301;" 
d="M-23 550l103 201h70l-127 -201h-46z" />
    <glyph glyph-name="uni0302" unicode="&#x302;" 
d="M-140 550l109 201h62l109 -201h-45l-95 155l-95 -155h-45z" />
    <glyph glyph-name="tildecomb" unicode="&#x303;" 
d="M-135 592l-39 3q6 61 32.5 94t69.5 33q21 0 39.5 -11t42.5 -33q22 -21 35.5 -29t26.5 -8q51 0 63 84l39 -3q-6 -61 -32.5 -94t-68.5 -33q-20 0 -38.5 11t-44.5 34q-22 20 -35 28t-27 8q-26 0 -41.5 -22t-21.5 -62z" />
    <glyph glyph-name="uni0304" unicode="&#x304;" 
d="M-144 629v46h288v-46h-288z" />
    <glyph glyph-name="uni0306" unicode="&#x306;" 
d="M0 548q-43 0 -75.5 22.5t-51 65t-22.5 100.5l42 5q4 -71 32 -109.5t75 -38.5q48 0 75.5 38.5t31.5 109.5l42 -5q-3 -58 -22 -100.5t-51 -65t-76 -22.5z" />
    <glyph glyph-name="uni0307" unicode="&#x307;" 
d="M-39 614v75h78v-75h-78z" />
    <glyph glyph-name="uni0308" unicode="&#x308;" 
d="M47 615v72h73v-72h-73zM-120 615v72h73v-72h-73z" />
    <glyph glyph-name="hookabovecomb" unicode="&#x309;" 
d="M-23 550v20q0 24 10.5 39.5t23 26.5t22.5 22t10 27q0 14 -12 21.5t-38 7.5q-15 0 -30 -3.5t-34 -11.5l-11 37q17 11 39 16t46 5q44 0 68.5 -17.5t24.5 -49.5q0 -25 -11 -40t-25.5 -26t-25.5 -24t-11 -35v-15h-46z" />
    <glyph glyph-name="uni030A" unicode="&#x30a;" 
d="M0 547q-32 0 -58.5 15t-41.5 41t-15 57t15 56.5t41.5 40.5t58.5 15q33 0 59 -15t41 -40.5t15 -57.5q0 -30 -15 -56t-41 -41t-59 -15zM0 584q34 0 54.5 22t20.5 54t-20.5 53.5t-54.5 21.5q-33 0 -54 -21.5t-21 -53.5t21 -54t54 -22z" />
    <glyph glyph-name="uni030B" unicode="&#x30b;" 
d="M41 550l56 201h61l-81 -201h-36zM-77 550l56 201h61l-81 -201h-36z" />
    <glyph glyph-name="uni030C" unicode="&#x30c;" 
d="M-31 550l-109 201h45l95 -155l95 155h45l-109 -201h-62z" />
    <glyph glyph-name="uni030F" unicode="&#x30f;" 
d="M41 550l-81 201h61l56 -201h-36zM-77 550l-81 201h61l56 -201h-36z" />
    <glyph glyph-name="uni0311" unicode="&#x311;" 
d="M-107 548l-42 4q4 60 22.5 102t51 64.5t75.5 22.5q44 0 76 -22.5t51 -64.5t22 -102l-42 -4q-4 70 -31.5 109t-75.5 39q-47 0 -75 -39t-32 -109z" />
    <glyph glyph-name="uni0312" unicode="&#x312;" 
d="M-42 569v57q0 35 12.5 66.5t36.5 56.5l31 -23q-23 -25 -30.5 -46.5t-7.5 -46.5l-18 9h60v-73h-84z" />
    <glyph glyph-name="uni031B" unicode="&#x31b;" 
d="M27 441l-28 21v23q45 1 70 13.5t35 38.5t10 65v14h56v-24q0 -46 -16.5 -78.5t-48.5 -51t-78 -21.5z" />
    <glyph glyph-name="dotbelowcomb" unicode="&#x323;" 
d="M-39 -179v75h78v-75h-78z" />
    <glyph glyph-name="uni0324" unicode="&#x324;" 
d="M47 -176v73h73v-73h-73zM-120 -176v73h73v-73h-73z" />
    <glyph glyph-name="uni0326" unicode="&#x326;" 
d="M-7 -263l-31 22q23 25 30.5 47t7.5 46l18 -8h-60v73h84v-57q0 -36 -12.5 -67t-36.5 -56z" />
    <glyph glyph-name="uni0327" unicode="&#x327;" 
d="M4 -191q-25 0 -46.5 5t-37.5 14l11 39q19 -9 35 -13t39 -4q27 0 43.5 10.5t16.5 29.5q0 30 -38 30q-11 0 -22 -1.5t-27 -7.5l-16 14l14 95h45l-13 -75l-21 4q12 3 23.5 5t21.5 2q34 0 57.5 -17.5t23.5 -49.5q0 -35 -30.5 -57.5t-78.5 -22.5z" />
    <glyph glyph-name="uni0328" unicode="&#x328;" 
d="M-18 -191q-44 0 -72 25.5t-28 69.5q0 39 24.5 73.5t68.5 56.5l25 -34q-15 -6 -31 -19t-27 -31t-11 -40q0 -30 17 -44t42 -14q13 0 26 3t27 9l14 -38q-13 -8 -32 -12.5t-43 -4.5z" />
    <glyph glyph-name="uni032E" unicode="&#x32e;" 
d="M0 -215q-65 0 -105 39.5t-44 108.5l42 5q4 -52 32 -80t75 -28q48 0 75.5 28t31.5 80l42 -5q-4 -69 -44 -108.5t-105 -39.5z" />
    <glyph glyph-name="uni0331" unicode="&#x331;" 
d="M-144 -152v46h288v-46h-288z" />
    <glyph glyph-name="uni0335" unicode="&#x335;" 
d="M-175 524v48h350v-48h-350z" />
    <glyph glyph-name="uni0337" unicode="&#x337;" 
d="M-109 263l-27 45l245 143l27 -45z" />
    <glyph glyph-name="uni0338" unicode="&#x338;" 
d="M233 -41l-37 23l318 549l37 -23z" />
    <glyph glyph-name="uni0394" unicode="&#x394;" horiz-adv-x="720" 
d="M35 0v39l298 666h54l298 -666v-39h-650zM359 631l-270 -610v32h542v-32l-270 610h-2z" />
    <glyph glyph-name="Sigma" unicode="&#x3a3;" horiz-adv-x="603" 
d="M52 -180v45l292 410v-25l-292 410v45h501v-54h-435v18l274 -386v-41l-274 -386v18h435v-54h-501z" />
    <glyph glyph-name="uni03A9" unicode="&#x3a9;" horiz-adv-x="777" 
d="M38 0v53h248v-18q-118 68 -175 158.5t-57 202.5q0 99 40.5 170t116 109t178.5 38q76 0 137.5 -21.5t105.5 -62.5t67.5 -100t23.5 -133q0 -112 -57 -202.5t-175 -158.5v18h248v-53h-290v51q109 72 159 156t50 185q0 127 -71 196t-198 69q-129 0 -199.5 -69.5t-70.5 -195.5
q0 -101 50.5 -185t158.5 -156v-51h-290z" />
    <glyph glyph-name="uni03BC" unicode="&#x3bc;" horiz-adv-x="569" 
d="M80 -216v717h61v-311q0 -76 31 -111t95 -35q71 0 114.5 46.5t43.5 123.5v287h61v-501h-60v118h10q-18 -61 -63.5 -93.5t-106.5 -32.5q-48 0 -84 17t-56 65h14l1 -290h-61z" />
    <glyph glyph-name="pi" unicode="&#x3c0;" horiz-adv-x="581" 
d="M34 0q24 63 40 133.5t25 150t10 168.5h-104v49h538v-49h-125v-277q0 -59 30 -90.5t88 -36.5l42 -2l-6 -52l-45 3q-43 3 -75 15.5t-53 35t-31.5 55.5t-10.5 76v273h-187q-1 -95 -9.5 -176t-23.5 -149t-37 -127h-66z" />
    <glyph glyph-name="uni0400" unicode="&#x400;" horiz-adv-x="585" 
d="M93 0v705h438v-53h-378v-268h356v-53h-356v-278h378v-53h-438zM307 765l-141 171h73l118 -171h-50z" />
    <glyph glyph-name="uni0401" unicode="&#x401;" horiz-adv-x="585" 
d="M93 0v705h438v-53h-378v-268h356v-53h-356v-278h378v-53h-438zM379 813v73h73v-73h-73zM212 813v73h73v-73h-73z" />
    <glyph glyph-name="uni0402" unicode="&#x402;" horiz-adv-x="843" 
d="M580 -188q-33 0 -64 5.5t-52 15.5l15 50q20 -10 44.5 -14t53.5 -4q71 0 108 44.5t37 134.5v98q0 119 -53.5 176t-166.5 57q-52 0 -95 -10.5t-79 -31.5v-333h-62v651h-256v54h573v-54h-255v-258q30 18 78 28.5t101 10.5q138 0 207.5 -71t69.5 -213v-103q0 -76 -24 -128
t-69.5 -78.5t-110.5 -26.5z" />
    <glyph glyph-name="uni0403" unicode="&#x403;" horiz-adv-x="548" 
d="M93 0v705h441v-54h-380v-651h-61zM257 765l118 171h73l-141 -171h-50z" />
    <glyph glyph-name="uni0404" unicode="&#x404;" horiz-adv-x="687" 
d="M391 -8q-104 0 -177 43.5t-111 124.5t-38 193t38 192.5t111 124t177 43.5q75 0 135 -24t105 -69l-27 -50q-48 45 -97.5 65.5t-115.5 20.5q-127 0 -192.5 -77t-68.5 -214l-21 20h405v-54h-406l22 14q3 -140 68.5 -218t192.5 -78q66 0 115.5 20.5t97.5 66.5l27 -51
q-45 -45 -105 -69t-135 -24z" />
    <glyph glyph-name="uni0405" unicode="&#x405;" horiz-adv-x="613" 
d="M316 -8q-85 0 -150 22t-116 64l26 51q36 -28 70.5 -46t75.5 -26.5t93 -8.5q93 0 140 36.5t47 96.5q0 52 -32.5 79.5t-113.5 43.5l-102 21q-97 20 -144.5 64t-47.5 120q0 62 32 108t89 71t132 25t136.5 -22.5t105.5 -66.5l-25 -50q-47 44 -99 63.5t-118 19.5
q-87 0 -138 -39.5t-51 -106.5q0 -54 32.5 -84t105.5 -45l103 -21q103 -21 151 -61.5t48 -115.5q0 -57 -30.5 -100.5t-86.5 -67.5t-133 -24z" />
    <glyph glyph-name="uni0406" unicode="&#x406;" horiz-adv-x="247" 
d="M93 0v705h62v-705h-62z" />
    <glyph glyph-name="uni0407" unicode="&#x407;" horiz-adv-x="247" 
d="M93 0v705h62v-705h-62zM170 813v73h73v-73h-73zM3 813v73h73v-73h-73z" />
    <glyph glyph-name="uni0408" unicode="&#x408;" horiz-adv-x="314" 
d="M75 -186q-17 0 -35.5 1.5t-39.5 6.5v53q19 -4 35 -6t30 -2q46 0 70.5 29t24.5 92v717h62v-718q0 -55 -16.5 -94t-49 -59t-81.5 -20z" />
    <glyph glyph-name="uni0409" unicode="&#x409;" horiz-adv-x="1163" 
d="M46 -14l-27 51q42 22 75 52t56.5 80t35.5 129t12 196v211h448v-319h230q114 0 175.5 -47.5t61.5 -144.5q0 -96 -61.5 -145t-175.5 -49h-291v651h-329v-172q0 -114 -13.5 -196t-40.5 -139.5t-65.5 -95t-90.5 -62.5zM646 53h226q90 0 134.5 35t44.5 106t-44.5 105.5
t-134.5 34.5h-226v-281z" />
    <glyph glyph-name="uni040A" unicode="&#x40a;" horiz-adv-x="1185" 
d="M93 0v705h60v-320h454v320h62v-319h230q113 0 174.5 -47.5t61.5 -144.5q0 -96 -61.5 -145t-174.5 -49h-292v331h-454v-331h-60zM669 53h225q91 0 134.5 35t43.5 106t-43.5 105.5t-134.5 34.5h-225v-281z" />
    <glyph glyph-name="uni040B" unicode="&#x40b;" horiz-adv-x="856" 
d="M266 0v651h-256v54h573v-54h-255v-258q34 19 85 29t103 10q138 0 209 -71t71 -213v-148h-62v142q0 121 -55.5 177.5t-166.5 56.5q-50 0 -96.5 -9t-87.5 -33v-334h-62z" />
    <glyph glyph-name="uni040C" unicode="&#x40c;" horiz-adv-x="641" 
d="M93 0v705h60v-321h154l-23 -15l233 336h71l-242 -345l-21 21q61 -5 104.5 -40.5t75.5 -98.5l122 -242h-67l-102 208q-32 67 -73.5 94.5t-101.5 27.5h-130v-330h-60zM303 765l118 171h73l-141 -171h-50z" />
    <glyph glyph-name="uni040D" unicode="&#x40d;" horiz-adv-x="743" 
d="M93 0v705h57v-635h-22l472 635h50v-705h-57v635h21l-473 -635h-48zM349 765l-141 171h73l118 -171h-50z" />
    <glyph glyph-name="uni040E" unicode="&#x40e;" horiz-adv-x="655" 
d="M212 0l121 226l1 -29l-329 508h68l292 -450h-15l239 450h65l-376 -705h-66zM329 760q-41 0 -79 13t-66.5 41.5t-44.5 73.5l40 15q20 -51 57 -75t92 -24q56 0 92.5 21.5t64.5 76.5l39 -14q-31 -73 -82.5 -100.5t-112.5 -27.5z" />
    <glyph glyph-name="uni040F" unicode="&#x40f;" horiz-adv-x="762" 
d="M352 -153v153h-259v705h61v-651h454v651h62v-705h-260v-153h-58z" />
    <glyph glyph-name="uni0410" unicode="&#x410;" horiz-adv-x="728" 
d="M26 0l307 705h56l312 -705h-65l-88 203l29 -15h-434l34 15l-86 -203h-65zM360 630l-171 -401l-23 12h388l-17 -12l-175 401h-2z" />
    <glyph glyph-name="uni0411" unicode="&#x411;" horiz-adv-x="671" 
d="M93 0v705h461v-53h-401v-266h231q114 0 175.5 -47.5t61.5 -144.5q0 -96 -61.5 -145t-175.5 -49h-291zM153 53h227q90 0 134 35t44 106t-44 105t-134 34h-227v-280z" />
    <glyph glyph-name="uni0412" unicode="&#x412;" horiz-adv-x="676" 
d="M93 0v705h269q111 0 171.5 -47.5t60.5 -136.5q0 -67 -40.5 -111t-110.5 -58v14q78 -8 123 -53t45 -121q0 -94 -61 -143t-175 -49h-282zM153 53h218q81 0 129.5 31.5t48.5 106.5q0 77 -48.5 108.5t-129.5 31.5h-218v-278zM153 383h202q87 0 132 34.5t45 100.5t-45 100.5
t-132 34.5h-202v-270z" />
    <glyph glyph-name="uni0413" unicode="&#x413;" horiz-adv-x="548" 
d="M93 0v705h441v-54h-380v-651h-61z" />
    <glyph glyph-name="uni0414" unicode="&#x414;" horiz-adv-x="793" 
d="M18 -153v206h71q57 69 84 184t27 287v181h467v-652h103v-206h-57v153h-638v-153h-57zM155 53h450v599h-347v-131q0 -169 -25 -281.5t-78 -186.5z" />
    <glyph glyph-name="uni0415" unicode="&#x415;" horiz-adv-x="585" 
d="M93 0v705h438v-53h-378v-268h356v-53h-356v-278h378v-53h-438z" />
    <glyph glyph-name="uni0416" unicode="&#x416;" horiz-adv-x="976" 
d="M14 0l120 242q33 63 77.5 98.5t105.5 40.5l-21 -21l-242 345h70l234 -336l-22 15h122v321h61v-321h124l-25 -15l234 336h70l-241 -345l-21 21q61 -5 104.5 -40.5t75.5 -98.5l122 -242h-66l-104 208q-32 66 -73.5 94t-100.5 28h-99v-330h-61v330h-99q-61 0 -103 -28
t-73 -94l-102 -208h-67z" />
    <glyph glyph-name="uni0417" unicode="&#x417;" horiz-adv-x="658" 
d="M324 -8q-92 0 -164.5 25t-115.5 68l25 50q52 -45 112 -66t141 -21q108 0 158 36.5t50 107.5t-45 104.5t-135 33.5h-178v53h165q86 0 131.5 35t45.5 100q0 66 -48.5 102.5t-142.5 36.5q-68 0 -127.5 -20t-108.5 -64l-26 50q47 44 117 67t146 23q125 0 188.5 -51t63.5 -140
q0 -66 -40 -110.5t-110 -58.5v13q77 -9 122 -54t45 -120q0 -63 -30 -108t-89.5 -68.5t-149.5 -23.5z" />
    <glyph glyph-name="uni0418" unicode="&#x418;" horiz-adv-x="743" 
d="M93 0v705h57v-635h-22l472 635h50v-705h-57v635h21l-473 -635h-48z" />
    <glyph glyph-name="uni0419" unicode="&#x419;" horiz-adv-x="743" 
d="M93 0v705h57v-635h-22l472 635h50v-705h-57v635h21l-473 -635h-48zM374 760q-41 0 -79 13t-66.5 41.5t-44.5 73.5l40 15q20 -51 57 -75t92 -24q56 0 92.5 21.5t64.5 76.5l39 -14q-31 -73 -82.5 -100.5t-112.5 -27.5z" />
    <glyph glyph-name="uni041A" unicode="&#x41a;" horiz-adv-x="641" 
d="M93 0v705h60v-321h154l-23 -15l233 336h71l-242 -345l-21 21q61 -5 104.5 -40.5t75.5 -98.5l122 -242h-67l-102 208q-32 67 -73.5 94.5t-101.5 27.5h-130v-330h-60z" />
    <glyph glyph-name="uni041B" unicode="&#x41b;" horiz-adv-x="757" 
d="M46 -14l-27 51q42 22 75 52t56.5 80t35.5 129t12 196v211h467v-705h-62v651h-347v-172q0 -114 -13.5 -196t-40.5 -139.5t-65.5 -95t-90.5 -62.5z" />
    <glyph glyph-name="uni041C" unicode="&#x41c;" horiz-adv-x="853" 
d="M93 0v705h54l294 -664h-29l295 664h53v-705h-57v632h27l-281 -632h-45l-281 632h27v-632h-57z" />
    <glyph glyph-name="uni041D" unicode="&#x41d;" horiz-adv-x="762" 
d="M93 0v705h62v-320h453v320h62v-705h-62v330h-453v-330h-62z" />
    <glyph glyph-name="uni041E" unicode="&#x41e;" horiz-adv-x="765" 
d="M65 353q0 112 37.5 192.5t108.5 124t171 43.5q98 0 169.5 -43.5t110 -124t38.5 -191.5q0 -112 -39 -193t-110.5 -125t-168.5 -44q-99 0 -170 44t-109 125t-38 192zM131 353q0 -144 64 -224.5t187 -80.5q119 0 186 80.5t67 224.5q0 145 -66.5 224.5t-186.5 79.5
q-123 0 -187 -79.5t-64 -224.5z" />
    <glyph glyph-name="uni041F" unicode="&#x41f;" horiz-adv-x="762" 
d="M93 0v705h577v-705h-62v651h-455v-651h-60z" />
    <glyph glyph-name="uni0420" unicode="&#x420;" horiz-adv-x="644" 
d="M93 0v705h274q109 0 168.5 -52t59.5 -146q0 -92 -59.5 -145t-168.5 -53h-212v-309h-62zM155 363h208q83 0 126 37.5t43 106.5t-43 107t-126 38h-208v-289z" />
    <glyph glyph-name="uni0421" unicode="&#x421;" horiz-adv-x="684" 
d="M390 -8q-104 0 -176.5 43.5t-110.5 124.5t-38 193t38 192.5t110.5 124t176.5 43.5q76 0 135 -23.5t103 -69.5l-26 -50q-49 45 -98 65.5t-114 20.5q-127 0 -193 -79.5t-66 -223.5t66 -224t193 -80q65 0 114 20.5t98 65.5l26 -50q-44 -46 -103.5 -69.5t-134.5 -23.5z" />
    <glyph glyph-name="uni0422" unicode="&#x422;" horiz-adv-x="597" 
d="M266 0v651h-256v54h573v-54h-255v-651h-62z" />
    <glyph glyph-name="uni0423" unicode="&#x423;" horiz-adv-x="655" 
d="M212 0l121 226l1 -29l-329 508h68l292 -450h-15l239 450h65l-376 -705h-66z" />
    <glyph glyph-name="uni0424" unicode="&#x424;" horiz-adv-x="851" 
d="M394 -21v94l19 -16h-27q-100 0 -172 37t-110.5 104.5t-38.5 159.5q0 141 84 221t237 80h27l-19 -17v89h62v-89l-18 17h26q154 0 238 -80t84 -221q0 -92 -38.5 -159.5t-110.5 -104.5t-173 -37h-26l18 16v-94h-62zM395 93v529l17 -16h-37q-115 0 -180.5 -65t-65.5 -183
q0 -76 30.5 -132t85.5 -86.5t130 -30.5h37zM456 93l-17 16h37q75 0 130 30.5t85 86.5t30 132q0 118 -65.5 183t-179.5 65h-37l17 16v-529z" />
    <glyph glyph-name="uni0425" unicode="&#x425;" horiz-adv-x="644" 
d="M17 0l277 371v-20l-263 354h73l229 -310h-19l225 310h74l-263 -354v20l277 -371h-74l-244 331h26l-244 -331h-74z" />
    <glyph glyph-name="uni0426" unicode="&#x426;" horiz-adv-x="796" 
d="M715 -153v153h-622v705h60v-651h455v651h62v-651h103v-207h-58z" />
    <glyph glyph-name="uni0427" unicode="&#x427;" horiz-adv-x="683" 
d="M529 0v308q-35 -19 -86.5 -29t-103.5 -10q-137 0 -208 71.5t-71 212.5v152h62v-146q0 -120 55 -176.5t166 -56.5q50 0 97.5 10t88.5 33v336h61v-705h-61z" />
    <glyph glyph-name="uni0428" unicode="&#x428;" horiz-adv-x="1075" 
d="M93 0v705h61v-651h353v651h61v-651h353v651h61v-705h-889z" />
    <glyph glyph-name="uni0429" unicode="&#x429;" horiz-adv-x="1108" 
d="M1028 -153v153h-935v705h61v-651h353v651h61v-651h353v651h61v-651h103v-207h-57z" />
    <glyph glyph-name="uni042A" unicode="&#x42a;" horiz-adv-x="815" 
d="M237 0v651h-227v54h288v-319h230q114 0 175.5 -47.5t61.5 -144.5q0 -96 -61.5 -145t-175.5 -49h-291zM298 53h226q90 0 134.5 35t44.5 106t-44.5 105.5t-134.5 34.5h-226v-281z" />
    <glyph glyph-name="uni042B" unicode="&#x42b;" horiz-adv-x="853" 
d="M93 0v705h61v-319h199q114 0 175.5 -47.5t61.5 -144.5q0 -96 -61.5 -145t-175.5 -49h-260zM154 53h195q90 0 134 35t44 106t-44 105.5t-134 34.5h-195v-281zM699 0v705h61v-705h-61z" />
    <glyph glyph-name="uni042C" unicode="&#x42c;" horiz-adv-x="671" 
d="M93 0v705h61v-319h230q114 0 175.5 -47.5t61.5 -144.5q0 -96 -61.5 -145t-175.5 -49h-291zM154 53h226q90 0 134 35t44 106t-44 105t-134 34h-226v-280z" />
    <glyph glyph-name="uni042D" unicode="&#x42d;" horiz-adv-x="687" 
d="M296 -8q-75 0 -135 24t-105 69l27 51q48 -46 97.5 -66.5t115.5 -20.5q127 0 193 78t68 218l22 -14h-406v54h405l-21 -20q-3 137 -68 214t-192 77q-66 0 -115.5 -20.5t-98.5 -65.5l-27 50q45 45 105.5 69t135.5 24q104 0 176.5 -43.5t110.5 -124t38 -192.5t-38 -193
t-110.5 -124.5t-177.5 -43.5z" />
    <glyph glyph-name="uni042E" unicode="&#x42e;" horiz-adv-x="1026" 
d="M644 -8q-94 0 -164 41t-109 117t-44 180h-173v-330h-61v705h61v-320h173q7 102 46.5 175.5t108.5 113t162 39.5q98 0 169 -43.5t109.5 -124t38.5 -192.5q0 -111 -39 -192t-110 -125t-168 -44zM644 48q120 0 186 80t66 225t-65.5 224.5t-186.5 79.5t-187 -79.5t-66 -224.5
q0 -144 66 -224.5t187 -80.5z" />
    <glyph glyph-name="uni042F" unicode="&#x42f;" horiz-adv-x="680" 
d="M42 0l133 236q25 45 54.5 65t69.5 20h22l-8 -13q-113 0 -176.5 51.5t-63.5 146.5q0 96 61.5 147.5t176.5 51.5h277v-705h-62v305h-142q-56 0 -88 -16t-59 -63l-126 -226h-69zM319 357h207v296h-207q-183 0 -183 -148t183 -148z" />
    <glyph glyph-name="uni0430" unicode="&#x430;" horiz-adv-x="599" 
d="M277 -8q-68 0 -118 31t-77 89t-27 139t27.5 138.5t77.5 89t117 31.5q69 0 119.5 -36t66.5 -98h-12l10 125h59q-3 -29 -5.5 -57t-2.5 -55v-389h-61v125h11q-16 -62 -66.5 -97.5t-118.5 -35.5zM285 44q77 0 122 53t45 154t-45 154t-122 53t-122.5 -53t-45.5 -154t45.5 -154
t122.5 -53z" />
    <glyph glyph-name="uni0431" unicode="&#x431;" horiz-adv-x="570" 
d="M286 -8q-106 0 -168.5 70t-62.5 205v89q0 138 54 223t172 116l183 49l20 -52l-200 -52q-58 -15 -95.5 -51.5t-56 -86.5t-18.5 -106v-34h-10q12 46 39.5 78t67 48.5t85.5 16.5q66 0 115.5 -30.5t76.5 -88t27 -136.5q0 -80 -28 -138t-79.5 -89t-121.5 -31zM285 43
q78 0 123.5 52.5t45.5 152.5q0 101 -45.5 153t-123.5 52q-77 0 -123 -51.5t-46 -146.5q0 -105 45.5 -158.5t123.5 -53.5z" />
    <glyph glyph-name="uni0432" unicode="&#x432;" horiz-adv-x="549" 
d="M84 0v501h230q83 0 126.5 -33.5t43.5 -98.5q0 -49 -34 -81.5t-88 -37.5v12q61 -1 99 -35.5t38 -88.5q0 -64 -46.5 -101t-130.5 -37h-238zM143 45h179q57 0 87.5 24.5t30.5 69.5q0 46 -30.5 69.5t-87.5 23.5h-179v-187zM143 277h170q53 0 82 24t29 66q0 43 -29 66t-82 23
h-170v-179z" />
    <glyph glyph-name="uni0433" unicode="&#x433;" horiz-adv-x="435" 
d="M84 0v501h337v-50h-276v-451h-61z" />
    <glyph glyph-name="uni0434" unicode="&#x434;" horiz-adv-x="597" 
d="M27 -130v180h51q38 53 55.5 127t17.5 173v151h337v-451h78v-180h-54v130h-432v-130h-53zM140 49h289v403h-222v-107q0 -85 -17 -163t-50 -133z" />
    <glyph glyph-name="uni0435" unicode="&#x435;" horiz-adv-x="550" 
d="M302 -8q-114 0 -180.5 68t-66.5 189q0 80 29.5 138t82.5 90.5t123 32.5q67 0 113 -28.5t71 -81t25 -124.5v-28h-400v44h362l-17 -13q0 85 -39 133.5t-116 48.5q-82 0 -128 -56.5t-46 -149.5v-7q0 -100 49.5 -152t138.5 -52q46 0 86 14t77 48l25 -45q-32 -33 -83 -51
t-106 -18z" />
    <glyph glyph-name="uni0436" unicode="&#x436;" horiz-adv-x="789" 
d="M4 0l103 170q26 41 45 64t40.5 33t49.5 13l-18 -18l-193 239h69l175 -217h90v217h60v-217h89l175 217h69l-193 -239l-19 18q29 -3 50.5 -13t41 -33t44.5 -64l103 -170h-66l-96 157q-18 32 -35 48.5t-37.5 23t-51.5 6.5h-74v-235h-60v235h-75q-31 0 -51.5 -6.5t-37 -23
t-36.5 -48.5l-94 -157h-67z" />
    <glyph glyph-name="uni0437" unicode="&#x437;" horiz-adv-x="498" 
d="M242 -8q-64 0 -119 17.5t-88 50.5l25 45q36 -32 81 -48t100 -16q79 0 114 25.5t35 71.5q0 45 -31 68.5t-89 23.5h-112v49h103q52 0 82 23.5t30 65.5q0 43 -32 67.5t-97 24.5q-51 0 -94.5 -14t-82.5 -44l-24 43q41 34 92.5 49.5t111.5 15.5q91 0 138 -36.5t47 -102.5
q0 -49 -32.5 -82t-85.5 -39v12q60 -2 97.5 -36t37.5 -89q0 -66 -52 -105.5t-155 -39.5z" />
    <glyph glyph-name="uni0438" unicode="&#x438;" horiz-adv-x="586" 
d="M84 0v501h56v-448h-25l334 448h53v-501h-56v449h26l-335 -449h-53z" />
    <glyph glyph-name="uni0439" unicode="&#x439;" horiz-adv-x="586" 
d="M84 0v501h56v-448h-25l334 448h53v-501h-56v449h26l-335 -449h-53zM294 548q-37 0 -71 13t-60 40.5t-41 70.5l41 15q18 -49 50.5 -72.5t80.5 -23.5t79.5 21t57.5 74l39 -14q-29 -70 -74.5 -97t-101.5 -27z" />
    <glyph glyph-name="uni043A" unicode="&#x43a;" horiz-adv-x="523" 
d="M84 0v501h61v-217h104l174 217h68l-190 -239l-21 18q29 -3 50 -13t41 -33t45 -64l103 -170h-67l-95 157q-19 32 -35.5 48.5t-37.5 23t-52 6.5h-87v-235h-61z" />
    <glyph glyph-name="uni043B" unicode="&#x43b;" horiz-adv-x="577" 
d="M50 -10l-26 48q37 18 61 43t38 64t20 97.5t6 142.5v116h344v-501h-60v451h-226v-68q0 -122 -15 -199.5t-49.5 -122.5t-92.5 -71z" />
    <glyph glyph-name="uni043C" unicode="&#x43c;" horiz-adv-x="661" 
d="M84 0v501h52l194 -353l196 353h51v-501h-55v434h21l-196 -354h-33l-196 354h21v-434h-55z" />
    <glyph glyph-name="uni043D" unicode="&#x43d;" horiz-adv-x="589" 
d="M84 0v501h61v-216h299v216h61v-501h-61v234h-299v-234h-61z" />
    <glyph glyph-name="uni043E" unicode="&#x43e;" horiz-adv-x="570" 
d="M285 -8q-71 0 -122.5 31t-79.5 89t-28 139q0 80 28 138t79.5 89.5t122.5 31.5q70 0 121.5 -31.5t80 -89.5t28.5 -138q0 -81 -28.5 -139t-80 -89t-121.5 -31zM285 44q76 0 122 53t46 154t-46 154t-122 53q-77 0 -122.5 -53t-45.5 -154t45.5 -154t122.5 -53z" />
    <glyph glyph-name="uni043F" unicode="&#x43f;" horiz-adv-x="586" 
d="M84 0v501h418v-501h-61v451h-296v-451h-61z" />
    <glyph glyph-name="uni0440" unicode="&#x440;" horiz-adv-x="599" 
d="M87 -216v605q0 27 -2 55t-6 57h60l10 -125h-12q17 62 66 98t119 36q68 0 117.5 -31.5t77.5 -89t28 -138.5t-27.5 -139t-77.5 -89t-118 -31q-69 0 -118.5 35.5t-66.5 97.5h11v-341h-61zM314 44q77 0 123 53t46 154t-46 154t-123 53q-76 0 -121.5 -53t-45.5 -154t45.5 -154
t121.5 -53z" />
    <glyph glyph-name="uni0441" unicode="&#x441;" horiz-adv-x="499" 
d="M289 -8q-71 0 -124 31.5t-81.5 90.5t-28.5 140t29 138.5t81.5 87.5t123.5 30q48 0 92.5 -18t73.5 -50l-25 -45q-31 31 -67 45.5t-72 14.5q-82 0 -128 -52t-46 -152t46 -154.5t128 -54.5q34 0 70.5 14t68.5 46l25 -45q-30 -32 -75.5 -49.5t-90.5 -17.5z" />
    <glyph glyph-name="uni0442" unicode="&#x442;" horiz-adv-x="442" 
d="M191 0v451h-187v50h435v-50h-187v-451h-61z" />
    <glyph glyph-name="uni0443" unicode="&#x443;" horiz-adv-x="533" 
d="M64 -227l-15 53q47 11 78 26.5t52 40.5t37 62l26 60l-1 -27l-219 513h68l191 -463h-25l189 463h66l-232 -549q-19 -46 -41.5 -76.5t-48.5 -51t-57 -32.5t-68 -19z" />
    <glyph glyph-name="uni0444" unicode="&#x444;" horiz-adv-x="797" 
d="M368 -216v334h9q-15 -60 -51.5 -93t-92.5 -33q-54 0 -94 31.5t-62 89.5t-22 138q0 79 22 137t61.5 90t94.5 32q56 0 92.5 -33t51.5 -94h-9v353h61v-353h-10q16 61 53 94t91 33q55 0 95 -32t62 -90t22 -137q0 -80 -22 -138t-61.5 -89.5t-95.5 -31.5q-54 0 -91 33t-53 93
h10v-334h-61zM242 42q60 0 93.5 53.5t33.5 155.5q0 99 -34 153.5t-93 54.5t-93 -54.5t-34 -153.5q0 -102 34 -155.5t93 -53.5zM554 42q59 0 93 53.5t34 155.5q0 99 -34.5 153.5t-92.5 54.5q-60 0 -93 -54.5t-33 -153.5q0 -102 33 -155.5t93 -53.5z" />
    <glyph glyph-name="uni0445" unicode="&#x445;" horiz-adv-x="536" 
d="M25 0l220 275v-33l-209 259h75l168 -213h-22l168 213h73l-205 -257v28l218 -272h-76l-178 227h22l-180 -227h-74z" />
    <glyph glyph-name="uni0446" unicode="&#x446;" horiz-adv-x="600" 
d="M516 -130v130h-432v501h61v-451h286v451h59v-451h79v-180h-53z" />
    <glyph glyph-name="uni0447" unicode="&#x447;" horiz-adv-x="553" 
d="M409 0v213q-30 -19 -65 -29t-77 -10q-105 0 -154.5 48.5t-49.5 147.5v131h61v-127q0 -78 36 -112.5t112 -34.5q42 0 73.5 9t62.5 31v234h61v-501h-60z" />
    <glyph glyph-name="uni0448" unicode="&#x448;" horiz-adv-x="803" 
d="M84 0v501h59v-451h228v451h59v-451h228v451h60v-501h-634z" />
    <glyph glyph-name="uni0449" unicode="&#x449;" horiz-adv-x="827" 
d="M743 -130v130h-659v501h59v-451h228v451h59v-451h228v451h60v-451h78v-180h-53z" />
    <glyph glyph-name="uni044A" unicode="&#x44a;" horiz-adv-x="623" 
d="M166 0v451h-162v50h222v-186h160q96 0 144 -40.5t48 -115.5q0 -50 -21.5 -86t-64.5 -54.5t-106 -18.5h-220zM226 47h159q64 0 99 27t35 84t-35 84t-99 27h-159v-222z" />
    <glyph glyph-name="uni044B" unicode="&#x44b;" horiz-adv-x="723" 
d="M84 0v501h61v-186h160q95 0 143.5 -40.5t48.5 -115.5q0 -50 -21.5 -86t-64.5 -54.5t-106 -18.5h-221zM145 47h158q65 0 99.5 27t34.5 84t-34.5 84t-99.5 27h-158v-222zM579 0v501h60v-501h-60z" />
    <glyph glyph-name="uni044C" unicode="&#x44c;" horiz-adv-x="542" 
d="M84 0v501h61v-186h160q95 0 143.5 -40.5t48.5 -115.5q0 -50 -21.5 -86t-64.5 -54.5t-106 -18.5h-221zM145 47h158q65 0 99.5 27t34.5 84t-34.5 84t-99.5 27h-158v-222z" />
    <glyph glyph-name="uni044D" unicode="&#x44d;" horiz-adv-x="511" 
d="M221 -8q-53 0 -102 18t-76 50l25 43q30 -31 69.5 -46t81.5 -15q83 0 129.5 53t48.5 151l10 -15h-274v49h275l-11 -14q-2 56 -21 99.5t-58 68.5t-99 25q-39 0 -80 -14.5t-71 -46.5l-25 44q31 32 79.5 50t99.5 18q72 0 124.5 -30.5t81.5 -88t29 -139.5q0 -81 -29.5 -139.5
t-82 -89.5t-124.5 -31z" />
    <glyph glyph-name="uni044E" unicode="&#x44e;" horiz-adv-x="766" 
d="M481 -8q-101 0 -162.5 64.5t-67.5 177.5h-107v-234h-60v501h60v-216h108q10 105 71 165t158 60q70 0 122 -31.5t80 -89.5t28 -138q0 -81 -28 -139t-80 -89t-122 -31zM481 43q77 0 123 53t46 155q0 101 -46 154t-123 53t-123 -53t-46 -154q0 -102 46 -155t123 -53z" />
    <glyph glyph-name="uni044F" unicode="&#x44f;" horiz-adv-x="540" 
d="M45 0l81 140q19 33 48 53.5t60 20.5h10l-1 -8q-82 0 -129 38.5t-47 109.5q0 69 45 108t134 39h210v-501h-59v201h-84q-47 0 -78.5 -22.5t-52.5 -57.5l-69 -121h-68zM254 247h143v209h-143q-65 0 -96.5 -27.5t-31.5 -76.5q0 -50 31.5 -77.5t96.5 -27.5z" />
    <glyph glyph-name="uni0450" unicode="&#x450;" horiz-adv-x="550" 
d="M302 -8q-114 0 -180.5 68t-66.5 189q0 80 29.5 138t82.5 90.5t123 32.5q67 0 113 -28.5t71 -81t25 -124.5v-28h-400v44h362l-17 -13q0 85 -39 133.5t-116 48.5q-82 0 -128 -56.5t-46 -149.5v-7q0 -100 49.5 -152t138.5 -52q46 0 86 14t77 48l25 -45q-32 -33 -83 -51
t-106 -18zM267 550l-127 201h70l103 -201h-46z" />
    <glyph glyph-name="uni0451" unicode="&#x451;" horiz-adv-x="550" 
d="M302 -8q-114 0 -180.5 68t-66.5 189q0 80 29.5 138t82.5 90.5t123 32.5q67 0 113 -28.5t71 -81t25 -124.5v-28h-400v44h362l-17 -13q0 85 -39 133.5t-116 48.5q-82 0 -128 -56.5t-46 -149.5v-7q0 -100 49.5 -152t138.5 -52q46 0 86 14t77 48l25 -45q-32 -33 -83 -51
t-106 -18zM337 615v72h73v-72h-73zM170 615v72h73v-72h-73z" />
    <glyph glyph-name="uni0452" unicode="&#x452;" horiz-adv-x="583" 
d="M314 -185l-15 49q57 12 87 35t42 60.5t12 91.5v258q0 78 -32 111t-95 33q-76 0 -120 -45.5t-44 -122.5v-285h-61v588h-98v49h98v99h61v-99h202v-49h-202v-202h-11q20 58 69 89t113 31q90 0 135.5 -46.5t45.5 -146.5v-258q0 -68 -17 -116t-58 -78.5t-112 -45.5z" />
    <glyph glyph-name="uni0453" unicode="&#x453;" horiz-adv-x="435" 
d="M84 0v501h337v-50h-276v-451h-61zM216 550l103 201h70l-127 -201h-46z" />
    <glyph glyph-name="uni0454" unicode="&#x454;" horiz-adv-x="518" 
d="M291 -8q-73 0 -126 31.5t-81.5 90.5t-28.5 140t29 138.5t82.5 87.5t125.5 30q53 0 101.5 -18t74.5 -50l-25 -43q-30 31 -70 45.5t-81 14.5q-59 0 -98 -25t-58.5 -68.5t-21.5 -99.5l-10 14h273v-49h-274l11 16q3 -99 48.5 -152t129.5 -53q40 0 81 15t70 46l25 -43
q-27 -32 -76.5 -50t-100.5 -18z" />
    <glyph glyph-name="uni0455" unicode="&#x455;" horiz-adv-x="502" 
d="M249 -8q-58 0 -108.5 17t-83.5 47l24 45q37 -30 80 -44.5t90 -14.5q64 0 97 24t33 65q0 32 -21 52t-70 30l-90 19q-64 15 -95.5 48t-31.5 83q0 43 22.5 76t64.5 52t99 19q54 0 99.5 -17.5t74.5 -49.5l-26 -44q-30 30 -67.5 45t-79.5 15q-62 0 -94 -25.5t-32 -67.5
q0 -32 20 -52.5t63 -30.5l90 -20q68 -15 101 -46t33 -82q0 -44 -24 -76.5t-67 -49.5t-101 -17z" />
    <glyph glyph-name="uni0456" unicode="&#x456;" horiz-adv-x="236" 
d="M87 0v501h61v-501h-61zM77 624v76h82v-76h-82z" />
    <glyph glyph-name="uni0457" unicode="&#x457;" horiz-adv-x="236" 
d="M87 0v501h61v-501h-61zM165 615v72h73v-72h-73zM-2 615v72h73v-72h-73z" />
    <glyph glyph-name="uni0458" unicode="&#x458;" horiz-adv-x="236" 
d="M15 -219q-12 0 -32 3.5t-33 8.5v53q12 -4 28.5 -7.5t29.5 -3.5q45 0 65.5 28.5t20.5 91.5v546h61v-554q0 -82 -35 -124t-105 -42zM84 624v76h81v-76h-81z" />
    <glyph glyph-name="uni0459" unicode="&#x459;" horiz-adv-x="890" 
d="M50 -10l-26 48q37 18 61 43t38 64t20 97.5t6 142.5v116h343v-186h161q94 0 143 -40.5t49 -115.5q0 -50 -22 -86t-64.5 -54.5t-105.5 -18.5h-220v451h-226v-68q0 -122 -15 -199.5t-49.5 -122.5t-92.5 -71zM492 47h158q66 0 100.5 27t34.5 84t-35 84t-100 27h-158v-222z
" />
    <glyph glyph-name="uni045A" unicode="&#x45a;" horiz-adv-x="901" 
d="M84 0v501h61v-216h300v216h60v-186h160q95 0 143.5 -40.5t48.5 -115.5q0 -50 -22 -86t-64.5 -54.5t-105.5 -18.5h-220v234h-300v-234h-61zM505 47h157q66 0 100.5 27t34.5 84t-34.5 84t-100.5 27h-157v-222z" />
    <glyph glyph-name="uni045B" unicode="&#x45b;" horiz-adv-x="585" 
d="M87 0v588h-97v49h97v99h61v-99h202v-49h-202v-205h-12q21 61 71 92.5t116 31.5q89 0 133.5 -48t44.5 -144v-315h-61v311q0 75 -30.5 109t-95.5 34q-75 0 -120.5 -45.5t-45.5 -121.5v-287h-61z" />
    <glyph glyph-name="uni045C" unicode="&#x45c;" horiz-adv-x="523" 
d="M84 0v501h61v-217h104l174 217h68l-190 -239l-21 18q29 -3 50 -13t41 -33t45 -64l103 -170h-67l-95 157q-19 32 -35.5 48.5t-37.5 23t-52 6.5h-87v-235h-61zM264 550l103 201h70l-127 -201h-46z" />
    <glyph glyph-name="uni045D" unicode="&#x45d;" horiz-adv-x="586" 
d="M84 0v501h56v-448h-25l334 448h53v-501h-56v449h26l-335 -449h-53zM270 550l-127 201h70l103 -201h-46z" />
    <glyph glyph-name="uni045E" unicode="&#x45e;" horiz-adv-x="533" 
d="M64 -227l-15 53q47 11 78 26.5t52 40.5t37 62l26 60l-1 -27l-219 513h68l191 -463h-25l189 463h66l-232 -549q-19 -46 -41.5 -76.5t-48.5 -51t-57 -32.5t-68 -19zM266 548q-37 0 -71 13t-60 40.5t-41 70.5l41 15q18 -49 50.5 -72.5t80.5 -23.5t79.5 21t57.5 74l39 -14
q-29 -70 -74.5 -97t-101.5 -27z" />
    <glyph glyph-name="uni045F" unicode="&#x45f;" horiz-adv-x="586" 
d="M266 -130v130h-182v501h61v-451h296v451h61v-501h-183v-130h-53z" />
    <glyph glyph-name="uni0462" unicode="&#x462;" horiz-adv-x="737" 
d="M160 0v542h-180v52h180v111h60v-111h247v-52h-247v-156h230q114 0 175.5 -47.5t61.5 -144.5q0 -96 -61.5 -145t-175.5 -49h-290zM220 53h227q89 0 133.5 35t44.5 106t-44.5 105.5t-133.5 34.5h-227v-281z" />
    <glyph glyph-name="uni0463" unicode="&#x463;" horiz-adv-x="624" 
d="M166 0v453h-162v48h162v235h61v-235h166v-48h-166v-142h162q94 0 142 -40t48 -115t-48.5 -115.5t-141.5 -40.5h-223zM227 45h158q66 0 100 27t34 84t-34 83.5t-100 26.5h-158v-221z" />
    <glyph glyph-name="uni046A" unicode="&#x46a;" horiz-adv-x="956" 
d="M14 0l122 242q21 43 50.5 74.5t72.5 49.5t106 18h66l-5 -17l-301 338h707l-302 -338l-5 17h66q63 0 106 -18t73 -49.5t51 -74.5l121 -242h-66l-104 208q-31 67 -71.5 94.5t-101.5 27.5h-90v-330h-62v330h-89q-60 0 -100.5 -27.5t-73.5 -94.5l-104 -208h-66zM477 387h2
l262 297v-28h-526v28z" />
    <glyph glyph-name="uni046B" unicode="&#x46b;" horiz-adv-x="788" 
d="M4 0l103 167q27 44 49 68.5t49.5 35t69.5 10.5h78l-5 -13l-202 233h496l-201 -233l-7 13h80q42 0 69.5 -10.5t50 -35t48.5 -68.5l102 -167h-66l-95 154q-19 32 -36 48.5t-37.5 23t-51.5 6.5h-74v-232h-60v232h-74q-30 0 -51 -6.5t-37.5 -23t-36.5 -48.5l-95 -154h-66z
M394 289h2l156 186v-20h-316v20z" />
    <glyph glyph-name="uni0472" unicode="&#x472;" horiz-adv-x="765" 
d="M95 333v51h585v-51h-585zM65 353q0 112 37.5 192.5t108.5 124t171 43.5q98 0 169.5 -43.5t110 -124t38.5 -191.5q0 -112 -39 -193t-110.5 -125t-168.5 -44q-99 0 -170 44t-109 125t-38 192zM131 353q0 -144 64 -224.5t187 -80.5q119 0 186 80.5t67 224.5
q0 145 -66.5 224.5t-186.5 79.5q-123 0 -187 -79.5t-64 -224.5z" />
    <glyph glyph-name="uni0473" unicode="&#x473;" horiz-adv-x="570" 
d="M285 -8q-71 0 -122.5 31t-79.5 89t-28 139q0 80 28 138t79.5 89.5t122.5 31.5q70 0 121.5 -31.5t80 -89.5t28.5 -138q0 -81 -28.5 -139t-80 -89t-121.5 -31zM284 44q79 0 125 53.5t46 153.5t-46 153.5t-125 53.5q-78 0 -123.5 -53.5t-45.5 -153.5t45.5 -153.5
t123.5 -53.5zM88 228v46h394v-46h-394z" />
    <glyph glyph-name="uni0474" unicode="&#x474;" horiz-adv-x="755" 
d="M311 0l-304 705h67l282 -661h-27l210 486q22 51 44.5 86t49 56.5t61.5 31t82 9.5l6 -51q-47 0 -78.5 -12.5t-56 -44t-49.5 -87.5l-227 -518h-60z" />
    <glyph glyph-name="uni0475" unicode="&#x475;" horiz-adv-x="557" 
d="M235 0l-213 501h67l191 -464h-26l148 357q18 44 39.5 69.5t52.5 36t75 10.5l6 -50q-49 -1 -74.5 -21.5t-47.5 -71.5l-156 -367h-62z" />
    <glyph glyph-name="uni048A" unicode="&#x48a;" horiz-adv-x="759" 
d="M631 -153l53 153h-91v53h163l-71 -206h-54zM93 0v705h57v-635h-22l472 635h50v-705h-57v635h21l-473 -635h-48zM373 760q-41 0 -78.5 13t-66 41.5t-45.5 73.5l40 15q21 -51 58 -75t92 -24t91.5 21.5t65.5 76.5l39 -14q-31 -73 -83 -100.5t-113 -27.5z" />
    <glyph glyph-name="uni048B" unicode="&#x48b;" horiz-adv-x="610" 
d="M466 -130l48 130h-67v50h139l-66 -180h-54zM84 0v501h56v-448h-25l334 448h53v-501h-56v449h26l-335 -449h-53zM293 548q-37 0 -70.5 13t-60 40.5t-40.5 70.5l40 15q19 -49 51.5 -72.5t79.5 -23.5q49 0 80.5 21t57.5 74l39 -14q-29 -70 -75 -97t-102 -27z" />
    <glyph glyph-name="uni048C" unicode="&#x48c;" horiz-adv-x="726" 
d="M149 0v543h-149v51h149v111h60v-111h148v-51h-148v-157h228q114 0 176.5 -47.5t62.5 -144.5q0 -96 -62.5 -145t-176.5 -49h-288zM209 53h224q90 0 135.5 35t45.5 106q0 70 -45.5 105t-135.5 35h-224v-281z" />
    <glyph glyph-name="uni048D" unicode="&#x48d;" horiz-adv-x="624" 
d="M166 0v453h-162v48h162v235h61v-235h166v-48h-166v-142h162q94 0 142 -40t48 -115t-48.5 -115.5t-141.5 -40.5h-223zM227 45h158q66 0 100 27t34 84t-34 83.5t-100 26.5h-158v-221z" />
    <glyph glyph-name="uni048E" unicode="&#x48e;" horiz-adv-x="644" 
d="M93 0v705h266q115 0 175.5 -53.5t60.5 -154.5q0 -71 -32.5 -119.5t-92.5 -69.5l1 15l60 -90l-36 -25l-70 102l17 -11q-18 -4 -38 -6.5t-45 -2.5h-206v-290h-60zM153 343h201q14 0 31 1t29 3l-7 -11l-58 87l37 24l68 -100l-16 8q95 32 95 142q0 156 -180 156h-200v-310z
" />
    <glyph glyph-name="uni048F" unicode="&#x48f;" horiz-adv-x="599" 
d="M87 -216v605q0 27 -2.5 55t-5.5 57h59l11 -125h-12q17 62 66 98t119 36q68 0 117.5 -31.5t77 -89t27.5 -138.5q0 -73 -22 -127.5t-63 -87.5l4 14l51 -63l-35 -26l-49 63l11 1q-49 -33 -119 -33t-119 35.5t-66 97.5h11v-341h-61zM314 458q-76 0 -121.5 -53t-45.5 -154
t45.5 -155t121.5 -52q53 1 91 25l-3 -9l-54 66l34 26l59 -73l-15 6q56 52 56 166q0 101 -45.5 154t-122.5 53z" />
    <glyph glyph-name="uni0490" unicode="&#x490;" horiz-adv-x="548" 
d="M93 0v705h384v152h57v-206h-380v-651h-61z" />
    <glyph glyph-name="uni0491" unicode="&#x491;" horiz-adv-x="435" 
d="M84 0v501h284v117h53v-167h-276v-451h-61z" />
    <glyph glyph-name="uni0492" unicode="&#x492;" horiz-adv-x="584" 
d="M128 0v330h-102v50h102v325h442v-54h-380v-271h193v-50h-193v-330h-62z" />
    <glyph glyph-name="uni0493" unicode="&#x493;" horiz-adv-x="456" 
d="M106 0v224h-101v48h101v229h337v-50h-277v-179h154v-48h-154v-224h-60z" />
    <glyph glyph-name="uni0494" unicode="&#x494;" horiz-adv-x="670" 
d="M408 -188q-27 0 -55.5 3.5t-45.5 10.5v56q19 -9 43.5 -13.5t53.5 -4.5q70 0 107.5 45.5t37.5 135.5v97q0 120 -53.5 176.5t-166.5 56.5q-52 0 -95.5 -10.5t-80.5 -31.5v-333h-60v705h439v-54h-379v-258q31 18 79.5 28.5t101.5 10.5q138 0 207.5 -71t69.5 -213v-101
q0 -76 -24 -128.5t-69 -79.5t-110 -27z" />
    <glyph glyph-name="uni0495" unicode="&#x495;" horiz-adv-x="552" 
d="M317 -185l-15 49q57 12 87 35.5t41.5 61t11.5 91.5v78q0 80 -30.5 115.5t-98.5 35.5q-77 0 -122.5 -46.5t-45.5 -122.5v-112h-61v501h337v-50h-276v-241l-14 -1q21 58 71.5 91.5t118.5 33.5q91 0 136 -49t45 -150v-80q0 -68 -16.5 -116t-56.5 -78.5t-112 -45.5z" />
    <glyph glyph-name="uni0496" unicode="&#x496;" horiz-adv-x="981" 
d="M962 -153v153h-46v53h103v-206h-57zM14 0l120 242q33 63 77.5 98.5t105.5 40.5l-21 -21l-242 345h70l234 -336l-22 15h122v321h61v-321h124l-25 -15l234 336h70l-241 -345l-21 21q61 -5 104.5 -40.5t75.5 -98.5l122 -242h-66l-104 208q-32 66 -73.5 94t-100.5 28h-99
v-330h-61v330h-99q-61 0 -103 -28t-73 -94l-102 -208h-67z" />
    <glyph glyph-name="uni0497" unicode="&#x497;" horiz-adv-x="828" 
d="M759 -130v130h-38v50h92v-180h-54zM4 0l103 170q26 41 45 64t40.5 33t49.5 13l-18 -18l-193 239h69l175 -217h90v217h60v-217h89l175 217h69l-193 -239l-19 18q29 -3 50.5 -13t41 -33t44.5 -64l103 -170h-66l-96 157q-18 32 -35 48.5t-37.5 23t-51.5 6.5h-74v-235h-60
v235h-75q-31 0 -51.5 -6.5t-37 -23t-36.5 -48.5l-94 -157h-67z" />
    <glyph glyph-name="uni0498" unicode="&#x498;" horiz-adv-x="658" 
d="M298 -153v177h58v-177h-58zM324 -8q-92 0 -164.5 25t-115.5 68l25 50q52 -45 112 -66t141 -21q108 0 158 36.5t50 107.5t-45 104.5t-135 33.5h-178v53h165q86 0 131.5 35t45.5 100q0 66 -48.5 102.5t-142.5 36.5q-68 0 -127.5 -20t-108.5 -64l-26 50q47 44 117 67t146 23
q125 0 188.5 -51t63.5 -140q0 -66 -40 -110.5t-110 -58.5v13q77 -9 122 -54t45 -120q0 -63 -30 -108t-89.5 -68.5t-149.5 -23.5z" />
    <glyph glyph-name="uni0499" unicode="&#x499;" horiz-adv-x="498" 
d="M219 -130v161h54v-161h-54zM242 -8q-64 0 -119 17.5t-88 50.5l25 45q36 -32 81 -48t100 -16q79 0 114 25.5t35 71.5q0 45 -31 68.5t-89 23.5h-112v49h103q52 0 82 23.5t30 65.5q0 43 -32 67.5t-97 24.5q-51 0 -94.5 -14t-82.5 -44l-24 43q41 34 92.5 49.5t111.5 15.5
q91 0 138 -36.5t47 -102.5q0 -49 -32.5 -82t-85.5 -39v12q60 -2 97.5 -36t37.5 -89q0 -66 -52 -105.5t-155 -39.5z" />
    <glyph glyph-name="uni049A" unicode="&#x49a;" horiz-adv-x="665" 
d="M625 -153v153h-46v53h103v-206h-57zM93 0v705h60v-321h154l-23 -15l233 336h71l-242 -345l-21 21q61 -5 104.5 -40.5t75.5 -98.5l122 -242h-67l-102 208q-32 67 -73.5 94.5t-101.5 27.5h-130v-330h-60z" />
    <glyph glyph-name="uni049B" unicode="&#x49b;" horiz-adv-x="563" 
d="M493 -130v130h-38v50h92v-180h-54zM84 0v501h61v-217h104l174 217h68l-190 -239l-21 18q29 -3 50 -13t41 -33t45 -64l103 -170h-67l-95 157q-19 32 -35.5 48.5t-37.5 23t-52 6.5h-87v-235h-61z" />
    <glyph glyph-name="uni049C" unicode="&#x49c;" horiz-adv-x="661" 
d="M93 0v705h61v-321h80v170h45v-170h34l223 321h71l-242 -345l-22 21q61 -5 105.5 -40.5t76.5 -98.5l122 -242h-68l-102 208q-32 67 -73.5 94.5t-101.5 27.5h-33l10 9v-177h-45v168h-80v-330h-61z" />
    <glyph glyph-name="uni049D" unicode="&#x49d;" horiz-adv-x="538" 
d="M84 0v501h61v-217h58v117h45v-117h15l174 217h69l-191 -239l-21 18q28 -3 49.5 -13t41.5 -33t45 -64l103 -170h-66l-96 157q-18 31 -35 48t-37.5 23.5t-51.5 6.5h-15l16 11v-138h-45v127h-58v-235h-61z" />
    <glyph glyph-name="uni049E" unicode="&#x49e;" horiz-adv-x="683" 
d="M132 0v547h-145v49h145v109h61v-109h152v-49h-152v-163h158l-25 -18l236 339h71l-244 -347l-18 22q57 -5 99.5 -40t74.5 -98l122 -242h-67l-102 208q-32 67 -73.5 94.5t-101.5 27.5h-130v-330h-61z" />
    <glyph glyph-name="uni049F" unicode="&#x49f;" horiz-adv-x="526" 
d="M88 0v588h-98v49h98v99h61v-99h202v-49h-202v-305h104l173 215h68l-190 -238l-20 19q30 -3 50 -13.5t39.5 -33t45.5 -64.5l103 -168h-67l-95 157q-18 30 -35 47t-37.5 23.5t-52.5 6.5h-86v-234h-61z" />
    <glyph glyph-name="uni04A0" unicode="&#x4a0;" horiz-adv-x="784" 
d="M10 652v53h285v-53h-285zM235 0v705h60v-321h154l-23 -15l233 336h71l-242 -345l-21 21q61 -5 104.5 -40.5t76.5 -98.5l122 -242h-68l-102 208q-32 67 -73.5 94.5t-101.5 27.5h-130v-330h-60z" />
    <glyph glyph-name="uni04A1" unicode="&#x4a1;" horiz-adv-x="605" 
d="M166 0v451h-162v50h223v-217h104l174 217h68l-190 -239l-21 18q30 -3 50.5 -13t40.5 -33t45 -64l103 -170h-67l-95 157q-19 31 -35.5 48t-37 23.5t-52.5 6.5h-87v-235h-61z" />
    <glyph glyph-name="uni04A2" unicode="&#x4a2;" horiz-adv-x="802" 
d="M734 -153v153h-106v53h163v-206h-57zM93 0v705h62v-320h453v320h62v-705h-62v330h-453v-330h-62z" />
    <glyph glyph-name="uni04A3" unicode="&#x4a3;" horiz-adv-x="590" 
d="M529 -130v130h-83v50h137v-180h-54zM84 0v501h61v-216h299v216h61v-501h-61v234h-299v-234h-61z" />
    <glyph glyph-name="uni04A4" unicode="&#x4a4;" horiz-adv-x="954" 
d="M93 0v705h60v-320h456v320h331v-54h-270v-651h-61v331h-456v-331h-60z" />
    <glyph glyph-name="uni04A5" unicode="&#x4a5;" horiz-adv-x="749" 
d="M84 0v501h61v-216h293v216h298v-50h-237v-451h-61v234h-293v-234h-61z" />
    <glyph glyph-name="uni04A8" unicode="&#x4a8;" horiz-adv-x="819" 
d="M396 -8q-104 0 -178 42.5t-113.5 123t-39.5 193.5q0 115 39 195.5t111.5 123.5t173.5 43q24 0 43 -1.5t31 -4.5l-11 -56q-18 2 -33.5 4t-28.5 2q-124 0 -192 -79t-68 -225q0 -147 68.5 -227.5t194.5 -80.5q88 0 150 35t95 99t33 151q0 82 -35.5 127t-96.5 45
q-62 0 -97.5 -45t-35.5 -127q0 -86 33.5 -150t96 -99.5t149.5 -35.5q39 0 70.5 8.5t61.5 23.5l16 -53q-27 -17 -64 -24.5t-85 -7.5q-75 0 -137 24t-107 69t-69 107.5t-24 137.5q0 72 23.5 122.5t66.5 78.5t102 28q60 0 102.5 -28t66 -78.5t23.5 -122.5q0 -73 -24.5 -135
t-69 -107.5t-106 -70.5t-135.5 -25z" />
    <glyph glyph-name="uni04A9" unicode="&#x4a9;" horiz-adv-x="633" 
d="M309 -8q-119 0 -186.5 70.5t-67.5 191.5q0 79 28.5 136t81 88.5t123.5 31.5q34 0 63 -6.5t47 -16.5l-16 -48q-18 10 -44 15.5t-54 5.5q-78 0 -123 -55t-45 -151q0 -103 51.5 -158.5t139.5 -55.5q93 0 143.5 49t50.5 132q0 54 -23.5 84.5t-62.5 30.5q-41 0 -64.5 -30.5
t-23.5 -84.5q0 -58 23.5 -98.5t67.5 -61.5t104 -21q30 0 56.5 7.5t49.5 20.5l17 -46q-53 -30 -120 -30q-56 0 -102 16t-80 47t-52 73t-18 93q0 74 39 118.5t103 44.5t102.5 -44t38.5 -119q0 -52 -18.5 -94t-52.5 -72.5t-79 -46.5t-97 -16z" />
    <glyph glyph-name="uni04AA" unicode="&#x4aa;" horiz-adv-x="684" 
d="M363 -153v177h58v-177h-58zM390 -8q-104 0 -176.5 43.5t-110.5 124.5t-38 193t38 192.5t110.5 124t176.5 43.5q76 0 135 -23.5t103 -69.5l-26 -50q-49 45 -98 65.5t-114 20.5q-127 0 -193 -79.5t-66 -223.5t66 -224t193 -80q65 0 114 20.5t98 65.5l26 -50
q-44 -46 -103.5 -69.5t-134.5 -23.5z" />
    <glyph glyph-name="uni04AB" unicode="&#x4ab;" horiz-adv-x="498" 
d="M258 -130v161h54v-161h-54zM289 -8q-72 0 -124.5 31.5t-81 90.5t-28.5 140t29 138.5t81.5 87.5t123.5 30q48 0 92.5 -18t73.5 -50l-25 -45q-31 31 -67 45.5t-72 14.5q-82 0 -128 -52.5t-46 -151.5q0 -100 46 -154.5t128 -54.5q34 0 70.5 14t68.5 46l25 -45
q-30 -32 -75.5 -49.5t-90.5 -17.5z" />
    <glyph glyph-name="uni04AC" unicode="&#x4ac;" horiz-adv-x="597" 
d="M373 -153v153h-107v651h-256v54h573v-54h-255v-597h102v-207h-57z" />
    <glyph glyph-name="uni04AD" unicode="&#x4ad;" horiz-adv-x="444" 
d="M276 -130v130h-83v50h137v-180h-54zM191 0v451h-187v50h435v-50h-187v-451h-61z" />
    <glyph glyph-name="uni04AE" unicode="&#x4ae;" horiz-adv-x="597" 
d="M267 0v328l15 -47l-287 424h72l242 -365h-18l242 365h69l-287 -424l14 47v-328h-62z" />
    <glyph glyph-name="uni04AF" unicode="&#x4af;" horiz-adv-x="531" 
d="M235 -216v213l-215 504h68l190 -464h-25l192 464h64l-213 -501v-216h-61z" />
    <glyph glyph-name="uni04B0" unicode="&#x4b0;" horiz-adv-x="597" 
d="M267 0v328l15 -47l-287 424h72l242 -365h-18l242 365h69l-287 -424l14 47v-328h-62zM103 299v45h392v-45h-392z" />
    <glyph glyph-name="uni04B1" unicode="&#x4b1;" horiz-adv-x="531" 
d="M235 -184v144h-124v48h128v-19l-219 512h68l190 -464h-25l192 464h64l-217 -509v16h128v-48h-124v-144h-61z" />
    <glyph glyph-name="uni04B2" unicode="&#x4b2;" horiz-adv-x="667" 
d="M619 -153v153h-45v53h103v-206h-58zM17 0l277 371v-20l-263 354h73l229 -310h-19l225 310h74l-263 -354v20l277 -371h-74l-244 331h26l-244 -331h-74z" />
    <glyph glyph-name="uni04B3" unicode="&#x4b3;" horiz-adv-x="551" 
d="M483 -130v130h-38v50h92v-180h-54zM25 0l220 275v-33l-209 259h75l168 -213h-22l168 213h73l-205 -257v28l218 -272h-76l-179 227h23l-180 -227h-74z" />
    <glyph glyph-name="uni04B4" unicode="&#x4b4;" horiz-adv-x="939" 
d="M859 -153v153h-622v651h-227v54h509v-54h-222v-597h455v651h61v-651h103v-207h-57z" />
    <glyph glyph-name="uni04B5" unicode="&#x4b5;" horiz-adv-x="692" 
d="M608 -130v130h-442v451h-162v50h391v-50h-169v-401h297v451h60v-451h78v-180h-53z" />
    <glyph glyph-name="uni04B6" unicode="&#x4b6;" horiz-adv-x="722" 
d="M636 -153v153h-106v53h163v-206h-57zM529 0v308q-35 -19 -86.5 -29t-103.5 -10q-137 0 -208 71.5t-71 212.5v152h62v-146q0 -120 55 -176.5t166 -56.5q50 0 97.5 10t88.5 33v336h61v-705h-61z" />
    <glyph glyph-name="uni04B7" unicode="&#x4b7;" horiz-adv-x="555" 
d="M494 -130v130h-83v50h136v-180h-53zM409 0v213q-30 -19 -65 -29t-77 -10q-105 0 -154.5 48.5t-49.5 147.5v131h61v-127q0 -78 36 -112.5t112 -34.5q42 0 73.5 9t62.5 31v234h61v-501h-60z" />
    <glyph glyph-name="uni04B8" unicode="&#x4b8;" horiz-adv-x="683" 
d="M529 0v308q-35 -18 -84.5 -28t-99.5 -10l13 11v-167h-48v167l12 -12q-127 7 -194.5 75.5t-67.5 208.5v152h62v-146q0 -118 52 -173t151 -60l-15 -10v187h48v-187l-14 10q49 0 97 10t88 33v336h61v-705h-61z" />
    <glyph glyph-name="uni04B9" unicode="&#x4b9;" horiz-adv-x="561" 
d="M416 0v212q-29 -17 -63 -26.5t-67 -10.5l11 13v-117h-45v117l18 -14q-106 0 -156.5 49t-50.5 147v131h61v-129q0 -75 36 -110t108 -35l-16 -9v141h45v-141l-14 9q37 0 69 9.5t64 29.5v235h61v-501h-61z" />
    <glyph glyph-name="uni04BA" unicode="&#x4ba;" horiz-adv-x="683" 
d="M93 0v705h61v-308q35 19 86 29t103 10q137 0 208.5 -71t71.5 -213v-152h-62v146q0 121 -55.5 177.5t-166.5 56.5q-49 0 -96 -9t-89 -33v-338h-61z" />
    <glyph glyph-name="uni04BB" unicode="&#x4bb;" horiz-adv-x="585" 
d="M87 0v736h61v-351h-12q21 61 71 93t116 32q91 0 134.5 -48t43.5 -144v-318h-61v313q0 76 -30 110t-96 34q-75 0 -120.5 -46t-45.5 -122v-289h-61z" />
    <glyph glyph-name="uni04BC" unicode="&#x4bc;" horiz-adv-x="892" 
d="M549 -8q-156 0 -242.5 91t-92.5 251l18 -12h-36q-87 0 -130.5 40.5t-43.5 121.5v58h61v-55q0 -59 27.5 -85t87.5 -26h27l-11 -9q4 108 41.5 185.5t106 119t162.5 41.5q110 0 176 -44t96.5 -125t30.5 -190v-31h-558l10 19q2 -141 71 -217.5t204 -76.5q52 0 87.5 9t66 28
t65.5 49l27 -49q-34 -31 -70 -52t-79.5 -31t-101.5 -10zM526 658q-119 0 -183 -79.5t-64 -224.5l-10 22h511l-16 -24q0 99 -23 167t-75 103.5t-140 35.5z" />
    <glyph glyph-name="uni04BD" unicode="&#x4bd;" horiz-adv-x="649" 
d="M402 -8q-114 0 -181.5 68.5t-65.5 197.5l6 -10h-15q-64 0 -95 32.5t-31 92.5v38h53v-39q0 -41 17 -60.5t59 -19.5h29l-23 -24q4 74 34.5 128t81.5 84t118 30t113.5 -28.5t71 -81t24.5 -124.5v-28h-392l9 10q-2 -107 48 -160.5t140 -53.5q46 0 86 14t77 48l25 -45
q-32 -33 -83 -51t-106 -18zM389 461q-55 0 -92.5 -25t-57.5 -67.5t-23 -95.5l-10 19h355l-17 -13q0 85 -39 133.5t-116 48.5z" />
    <glyph glyph-name="uni04BE" unicode="&#x4be;" horiz-adv-x="892" 
d="M549 -8q-156 0 -242.5 91t-92.5 251l18 -12h-36q-87 0 -130.5 40.5t-43.5 121.5v58h61v-55q0 -59 27.5 -85t87.5 -26h27l-11 -9q4 108 41.5 185.5t106 119t162.5 41.5q110 0 176 -44t96.5 -125t30.5 -190v-31h-558l10 19q2 -141 71 -217.5t204 -76.5q52 0 87.5 9t66 28
t65.5 49l27 -49q-34 -31 -70 -52t-79.5 -31t-101.5 -10zM526 658q-119 0 -183 -79.5t-64 -224.5l-10 22h511l-16 -24q0 99 -23 167t-75 103.5t-140 35.5zM576 -191q-44 0 -72 25.5t-28 69.5q0 39 24.5 73.5t68.5 56.5l25 -34q-15 -6 -31 -19t-27 -31t-11 -40q0 -30 17 -44
t42 -14q13 0 26 3t27 9l14 -38q-13 -8 -32 -12.5t-43 -4.5z" />
    <glyph glyph-name="uni04BF" unicode="&#x4bf;" horiz-adv-x="649" 
d="M402 -8q-114 0 -181.5 68.5t-65.5 197.5l6 -10h-15q-64 0 -95 32.5t-31 92.5v38h53v-39q0 -41 17 -60.5t59 -19.5h29l-23 -24q4 74 34.5 128t81.5 84t118 30t113.5 -28.5t71 -81t24.5 -124.5v-28h-392l9 10q-2 -107 48 -160.5t140 -53.5q46 0 86 14t77 48l25 -45
q-32 -33 -83 -51t-106 -18zM389 461q-55 0 -92.5 -25t-57.5 -67.5t-23 -95.5l-10 19h355l-17 -13q0 85 -39 133.5t-116 48.5zM447 -191q-44 0 -72 25.5t-28 69.5q0 39 24.5 73.5t68.5 56.5l25 -34q-15 -6 -31 -19t-27 -31t-11 -40q0 -30 17 -44t42 -14q13 0 26 3t27 9
l14 -38q-13 -8 -32 -12.5t-43 -4.5z" />
    <glyph glyph-name="uni04C0" unicode="&#x4c0;" horiz-adv-x="247" 
d="M93 0v705h62v-705h-62z" />
    <glyph glyph-name="uni04C1" unicode="&#x4c1;" horiz-adv-x="976" 
d="M14 0l120 242q33 63 77.5 98.5t105.5 40.5l-21 -21l-242 345h70l234 -336l-22 15h122v321h61v-321h124l-25 -15l234 336h70l-241 -345l-21 21q61 -5 104.5 -40.5t75.5 -98.5l122 -242h-66l-104 208q-32 66 -73.5 94t-100.5 28h-99v-330h-61v330h-99q-61 0 -103 -28
t-73 -94l-102 -208h-67zM488 760q-41 0 -79 13t-66.5 41.5t-44.5 73.5l40 15q20 -51 57 -75t92 -24q56 0 92.5 21.5t64.5 76.5l39 -14q-31 -73 -82.5 -100.5t-112.5 -27.5z" />
    <glyph glyph-name="uni04C2" unicode="&#x4c2;" horiz-adv-x="789" 
d="M4 0l103 170q26 41 45 64t40.5 33t49.5 13l-18 -18l-193 239h69l175 -217h90v217h60v-217h89l175 217h69l-193 -239l-19 18q29 -3 50.5 -13t41 -33t44.5 -64l103 -170h-66l-96 157q-18 32 -35 48.5t-37.5 23t-51.5 6.5h-74v-235h-60v235h-75q-31 0 -51.5 -6.5t-37 -23
t-36.5 -48.5l-94 -157h-67zM394 548q-37 0 -71 13t-60 40.5t-41 70.5l41 15q18 -49 50.5 -72.5t80.5 -23.5t79.5 21t57.5 74l39 -14q-29 -70 -74.5 -97t-101.5 -27z" />
    <glyph glyph-name="uni04C3" unicode="&#x4c3;" horiz-adv-x="670" 
d="M408 -188q-27 0 -55.5 3.5t-45.5 10.5v56q19 -9 43.5 -13.5t53.5 -4.5q71 0 108 45t37 135v52q0 124 -57.5 179.5t-177.5 55.5h-161v-331h-60v705h60v-319h156l-25 -17l235 336h70l-242 -345l-5 24q134 -3 201.5 -72.5t67.5 -209.5v-57q0 -76 -24 -128t-69 -78.5
t-110 -26.5z" />
    <glyph glyph-name="uni04C4" unicode="&#x4c4;" horiz-adv-x="538" 
d="M304 -185l-16 49q57 12 87 35t41 59.5t11 88.5v32q0 82 -37.5 119t-113.5 37h-131v-235h-61v501h61v-217h104l174 217h68l-193 -239l-20 22q98 0 154 -48.5t56 -151.5v-34q0 -66 -16.5 -112.5t-56.5 -77t-111 -45.5z" />
    <glyph glyph-name="uni04C5" unicode="&#x4c5;" horiz-adv-x="774" 
d="M643 -153l53 153h-91v53h163l-71 -206h-54zM46 -14l-27 51q42 22 75 52t56.5 80t35.5 129t12 196v211h467v-705h-62v651h-347v-172q0 -114 -13.5 -196t-40.5 -139.5t-65.5 -95t-90.5 -62.5z" />
    <glyph glyph-name="uni04C6" unicode="&#x4c6;" horiz-adv-x="601" 
d="M454 -130l49 130h-68v50h139l-66 -180h-54zM50 -10l-26 48q37 18 61 43t38 64t20 97.5t6 142.5v116h344v-501h-60v451h-226v-68q0 -122 -15 -199.5t-49.5 -122.5t-92.5 -71z" />
    <glyph glyph-name="uni04C7" unicode="&#x4c7;" horiz-adv-x="762" 
d="M523 -186q-16 0 -35 2t-39 6v53q19 -4 35 -6t29 -2q46 0 70.5 28.5t24.5 90.5v344h-453v-330h-62v705h62v-320h453v320h62v-718q0 -55 -16 -94t-48.5 -59t-82.5 -20z" />
    <glyph glyph-name="uni04C8" unicode="&#x4c8;" horiz-adv-x="589" 
d="M302 -193l-4 50l44 3q50 4 76.5 34.5t26.5 86.5v253h-300v-234h-61v501h61v-216h300v216h60v-515q0 -54 -18 -92t-53 -59.5t-87 -24.5z" />
    <glyph glyph-name="uni04C9" unicode="&#x4c9;" horiz-adv-x="779" 
d="M666 -153l53 153h-91v53h163l-71 -206h-54zM93 0v705h62v-320h453v320h62v-705h-62v330h-453v-330h-62z" />
    <glyph glyph-name="uni04CA" unicode="&#x4ca;" horiz-adv-x="608" 
d="M466 -130l48 130h-68v50h139l-66 -180h-53zM84 0v501h61v-216h299v216h61v-501h-61v234h-299v-234h-61z" />
    <glyph glyph-name="uni04CB" unicode="&#x4cb;" horiz-adv-x="683" 
d="M492 -153h-59v206h122v-53h-63v-153zM529 0v308q-35 -19 -86.5 -29t-103.5 -10q-137 0 -208 71.5t-71 212.5v152h62v-146q0 -120 55 -176.5t166 -56.5q50 0 97.5 10t88.5 33v336h61v-705h-61z" />
    <glyph glyph-name="uni04CC" unicode="&#x4cc;" horiz-adv-x="572" 
d="M384 -130h-53v174h118v-44h-65v-130zM409 0v213q-30 -19 -65 -29t-77 -10q-105 0 -154.5 48.5t-49.5 147.5v131h61v-127q0 -78 36 -112.5t112 -34.5q42 0 73.5 9t62.5 31v234h61v-501h-60z" />
    <glyph glyph-name="uni04CD" unicode="&#x4cd;" horiz-adv-x="869" 
d="M762 -153l53 153h-91v53h164l-72 -206h-54zM93 0v705h54l294 -664h-29l295 664h53v-705h-57v632h27l-281 -632h-45l-281 632h27v-632h-57z" />
    <glyph glyph-name="uni04CE" unicode="&#x4ce;" horiz-adv-x="684" 
d="M542 -130l48 130h-68v50h139l-66 -180h-53zM84 0v501h52l194 -353l196 353h51v-501h-55v434h21l-196 -354h-33l-196 354h21v-434h-55z" />
    <glyph glyph-name="uni04CF" unicode="&#x4cf;" horiz-adv-x="236" 
d="M87 0v736h61v-736h-61z" />
    <glyph glyph-name="uni04D0" unicode="&#x4d0;" horiz-adv-x="728" 
d="M26 0l307 705h56l312 -705h-65l-88 203l29 -15h-434l34 15l-86 -203h-65zM360 630l-171 -401l-23 12h388l-17 -12l-175 401h-2zM362 760q-41 0 -79 13t-66.5 41.5t-44.5 73.5l40 15q20 -51 57 -75t92 -24q56 0 92.5 21.5t64.5 76.5l39 -14q-31 -73 -82.5 -100.5
t-112.5 -27.5z" />
    <glyph glyph-name="uni04D1" unicode="&#x4d1;" horiz-adv-x="599" 
d="M277 -8q-68 0 -118 31t-77 89t-27 139t27.5 138.5t77.5 89t117 31.5q69 0 119.5 -36t66.5 -98h-12l10 125h59q-3 -29 -5.5 -57t-2.5 -55v-389h-61v125h11q-16 -62 -66.5 -97.5t-118.5 -35.5zM285 44q77 0 122 53t45 154t-45 154t-122 53t-122.5 -53t-45.5 -154t45.5 -154
t122.5 -53zM293 548q-37 0 -71 13t-60 40.5t-41 70.5l41 15q18 -49 50.5 -72.5t80.5 -23.5t79.5 21t57.5 74l39 -14q-29 -70 -74.5 -97t-101.5 -27z" />
    <glyph glyph-name="uni04D2" unicode="&#x4d2;" horiz-adv-x="728" 
d="M26 0l307 705h56l312 -705h-65l-88 203l29 -15h-434l34 15l-86 -203h-65zM360 630l-171 -401l-23 12h388l-17 -12l-175 401h-2zM409 813v73h73v-73h-73zM242 813v73h73v-73h-73z" />
    <glyph glyph-name="uni04D3" unicode="&#x4d3;" horiz-adv-x="599" 
d="M277 -8q-68 0 -118 31t-77 89t-27 139t27.5 138.5t77.5 89t117 31.5q69 0 119.5 -36t66.5 -98h-12l10 125h59q-3 -29 -5.5 -57t-2.5 -55v-389h-61v125h11q-16 -62 -66.5 -97.5t-118.5 -35.5zM285 44q77 0 122 53t45 154t-45 154t-122 53t-122.5 -53t-45.5 -154t45.5 -154
t122.5 -53zM340 615v72h73v-72h-73zM173 615v72h73v-72h-73z" />
    <glyph glyph-name="uni04D4" unicode="&#x4d4;" horiz-adv-x="1001" 
d="M6 0l427 705h514v-53h-409l21 23l28 -307l-17 16h356v-53h-348l11 10l29 -309l-9 21h338v-53h-386l-18 197l25 -9h-391l23 17l-123 -205h-71zM466 651l-253 -425l-9 15h345l-8 -15l-40 425h-35z" />
    <glyph glyph-name="uni04D5" unicode="&#x4d5;" horiz-adv-x="894" 
d="M248 -8q-52 0 -92 20t-63 54t-23 77q0 59 27 92t91 46.5t176 13.5h52v-43h-50q-92 0 -143.5 -9.5t-71.5 -32t-20 -63.5q0 -48 33 -77t90 -29q45 0 79.5 21t54 58.5t19.5 87.5v119q0 70 -30 100.5t-92 30.5q-47 0 -87.5 -12.5t-83.5 -41.5l-23 47q38 28 89.5 43.5
t104.5 15.5q78 0 120.5 -34.5t53.5 -99.5h-22q28 65 79 99.5t122 34.5q95 0 149.5 -62.5t54.5 -170.5v-26h-386v44h349l-17 -13q0 83 -39.5 131t-113.5 48q-77 0 -122 -50t-45 -144v-7q0 -101 46.5 -158.5t133.5 -57.5q44 0 84.5 15t77.5 47l24 -45q-32 -33 -82.5 -51
t-103.5 -18q-89 0 -146.5 42t-78.5 122h20q-14 -77 -66 -120.5t-129 -43.5z" />
    <glyph glyph-name="uni04D6" unicode="&#x4d6;" horiz-adv-x="585" 
d="M93 0v705h438v-53h-378v-268h356v-53h-356v-278h378v-53h-438zM332 760q-41 0 -79 13t-66.5 41.5t-44.5 73.5l40 15q20 -51 57 -75t92 -24q56 0 92.5 21.5t64.5 76.5l39 -14q-31 -73 -82.5 -100.5t-112.5 -27.5z" />
    <glyph glyph-name="uni04D7" unicode="&#x4d7;" horiz-adv-x="550" 
d="M302 -8q-114 0 -180.5 68t-66.5 189q0 80 29.5 138t82.5 90.5t123 32.5q67 0 113 -28.5t71 -81t25 -124.5v-28h-400v44h362l-17 -13q0 85 -39 133.5t-116 48.5q-82 0 -128 -56.5t-46 -149.5v-7q0 -100 49.5 -152t138.5 -52q46 0 86 14t77 48l25 -45q-32 -33 -83 -51
t-106 -18zM290 548q-37 0 -71 13t-60 40.5t-41 70.5l41 15q18 -49 50.5 -72.5t80.5 -23.5t79.5 21t57.5 74l39 -14q-29 -70 -74.5 -97t-101.5 -27z" />
    <glyph glyph-name="uni04D8" unicode="&#x4d8;" horiz-adv-x="743" 
d="M368 -8q-108 0 -175 44.5t-97.5 125t-30.5 189.5v31h558v-53h-511l16 24q0 -99 23 -167t75 -103.5t140 -35.5q120 0 183.5 80.5t63.5 226.5q0 145 -67.5 224t-198.5 79q-50 0 -88 -9t-71.5 -28t-68.5 -49l-26 49q48 47 110 70t149 23q103 0 175.5 -43t111.5 -123.5
t39 -192.5t-37 -193.5t-106.5 -125t-166.5 -43.5z" />
    <glyph glyph-name="uni04D9" unicode="&#x4d9;" horiz-adv-x="550" 
d="M261 -8q-99 0 -154 62t-55 169v30h400v-44h-363l17 13q0 -85 40 -133t116 -48q83 0 128 56t45 147v8q0 101 -49 153.5t-139 52.5q-45 0 -85 -14.5t-78 -48.5l-23 46q33 33 83.5 51t106.5 18q75 0 130 -30.5t85 -88.5t30 -139q0 -79 -29.5 -137.5t-82.5 -90.5t-123 -32z
" />
    <glyph glyph-name="uni04DA" unicode="&#x4da;" horiz-adv-x="743" 
d="M368 -8q-108 0 -175 44.5t-97.5 125t-30.5 189.5v31h558v-53h-511l16 24q0 -99 23 -167t75 -103.5t140 -35.5q120 0 183.5 80.5t63.5 226.5q0 145 -67.5 224t-198.5 79q-50 0 -88 -9t-71.5 -28t-68.5 -49l-26 49q48 47 110 70t149 23q103 0 175.5 -43t111.5 -123.5
t39 -192.5t-37 -193.5t-106.5 -125t-166.5 -43.5zM419 813v73h73v-73h-73zM252 813v73h73v-73h-73z" />
    <glyph glyph-name="uni04DB" unicode="&#x4db;" horiz-adv-x="550" 
d="M261 -8q-99 0 -154 62t-55 169v30h400v-44h-363l17 13q0 -85 40 -133t116 -48q83 0 128 56t45 147v8q0 101 -49 153.5t-139 52.5q-45 0 -85 -14.5t-78 -48.5l-23 46q33 33 83.5 51t106.5 18q75 0 130 -30.5t85 -88.5t30 -139q0 -79 -29.5 -137.5t-82.5 -90.5t-123 -32z
M313 615v72h73v-72h-73zM146 615v72h73v-72h-73z" />
    <glyph glyph-name="uni04DC" unicode="&#x4dc;" horiz-adv-x="976" 
d="M14 0l120 242q33 63 77.5 98.5t105.5 40.5l-21 -21l-242 345h70l234 -336l-22 15h122v321h61v-321h124l-25 -15l234 336h70l-241 -345l-21 21q61 -5 104.5 -40.5t75.5 -98.5l122 -242h-66l-104 208q-32 66 -73.5 94t-100.5 28h-99v-330h-61v330h-99q-61 0 -103 -28
t-73 -94l-102 -208h-67zM535 813v73h73v-73h-73zM368 813v73h73v-73h-73z" />
    <glyph glyph-name="uni04DD" unicode="&#x4dd;" horiz-adv-x="789" 
d="M4 0l103 170q26 41 45 64t40.5 33t49.5 13l-18 -18l-193 239h69l175 -217h90v217h60v-217h89l175 217h69l-193 -239l-19 18q29 -3 50.5 -13t41 -33t44.5 -64l103 -170h-66l-96 157q-18 32 -35 48.5t-37.5 23t-51.5 6.5h-74v-235h-60v235h-75q-31 0 -51.5 -6.5t-37 -23
t-36.5 -48.5l-94 -157h-67zM441 615v72h73v-72h-73zM274 615v72h73v-72h-73z" />
    <glyph glyph-name="uni04DE" unicode="&#x4de;" horiz-adv-x="658" 
d="M324 -8q-92 0 -164.5 25t-115.5 68l25 50q52 -45 112 -66t141 -21q108 0 158 36.5t50 107.5t-45 104.5t-135 33.5h-178v53h165q86 0 131.5 35t45.5 100q0 66 -48.5 102.5t-142.5 36.5q-68 0 -127.5 -20t-108.5 -64l-26 50q47 44 117 67t146 23q125 0 188.5 -51t63.5 -140
q0 -66 -40 -110.5t-110 -58.5v13q77 -9 122 -54t45 -120q0 -63 -30 -108t-89.5 -68.5t-149.5 -23.5zM373 813v73h73v-73h-73zM206 813v73h73v-73h-73z" />
    <glyph glyph-name="uni04DF" unicode="&#x4df;" horiz-adv-x="498" 
d="M242 -8q-64 0 -119 17.5t-88 50.5l25 45q36 -32 81 -48t100 -16q79 0 114 25.5t35 71.5q0 45 -31 68.5t-89 23.5h-112v49h103q52 0 82 23.5t30 65.5q0 43 -32 67.5t-97 24.5q-51 0 -94.5 -14t-82.5 -44l-24 43q41 34 92.5 49.5t111.5 15.5q91 0 138 -36.5t47 -102.5
q0 -49 -32.5 -82t-85.5 -39v12q60 -2 97.5 -36t37.5 -89q0 -66 -52 -105.5t-155 -39.5zM294 616v72h73v-72h-73zM127 616v72h73v-72h-73z" />
    <glyph glyph-name="uni04E0" unicode="&#x4e0;" horiz-adv-x="658" 
d="M324 -8q-92 0 -164.5 25t-115.5 68l28 50q51 -44 112 -65.5t138 -21.5q108 0 158 36.5t50 107.5t-47 104.5t-150 33.5h-104v46l276 298v-23h-446v54h505v-44l-275 -298l-4 19h62q115 0 180.5 -46t65.5 -141q0 -96 -67.5 -149.5t-201.5 -53.5z" />
    <glyph glyph-name="uni04E1" unicode="&#x4e1;" horiz-adv-x="498" 
d="M231 -188q-66 0 -121 16.5t-90 46.5l24 46q37 -30 82 -44t102 -14q87 0 131 41.5t44 118.5q0 70 -43.5 107.5t-121.5 37.5h-109v31l242 268v-17h-334v51h396v-41l-241 -266l-9 23h62q105 0 162 -50t57 -142q0 -67 -27.5 -114.5t-79.5 -73t-126 -25.5z" />
    <glyph glyph-name="uni04E2" unicode="&#x4e2;" horiz-adv-x="743" 
d="M93 0v705h57v-635h-22l472 635h50v-705h-57v635h21l-473 -635h-48zM215 818v47h318v-47h-318z" />
    <glyph glyph-name="uni04E3" unicode="&#x4e3;" horiz-adv-x="586" 
d="M84 0v501h56v-448h-25l334 448h53v-501h-56v449h26l-335 -449h-53zM149 629v46h288v-46h-288z" />
    <glyph glyph-name="uni04E4" unicode="&#x4e4;" horiz-adv-x="743" 
d="M93 0v705h57v-635h-22l472 635h50v-705h-57v635h21l-473 -635h-48zM421 813v73h73v-73h-73zM254 813v73h73v-73h-73z" />
    <glyph glyph-name="uni04E5" unicode="&#x4e5;" horiz-adv-x="586" 
d="M84 0v501h56v-448h-25l334 448h53v-501h-56v449h26l-335 -449h-53zM340 615v72h73v-72h-73zM173 615v72h73v-72h-73z" />
    <glyph glyph-name="uni04E6" unicode="&#x4e6;" horiz-adv-x="765" 
d="M65 353q0 112 37.5 192.5t108.5 124t171 43.5q98 0 169.5 -43.5t110 -124t38.5 -191.5q0 -112 -39 -193t-110.5 -125t-168.5 -44q-99 0 -170 44t-109 125t-38 192zM131 353q0 -144 64 -224.5t187 -80.5q119 0 186 80.5t67 224.5q0 145 -66.5 224.5t-186.5 79.5
q-123 0 -187 -79.5t-64 -224.5zM438 813v73h73v-73h-73zM271 813v73h73v-73h-73z" />
    <glyph glyph-name="uni04E7" unicode="&#x4e7;" horiz-adv-x="570" 
d="M285 -8q-71 0 -122.5 31t-79.5 89t-28 139q0 80 28 138t79.5 89.5t122.5 31.5q70 0 121.5 -31.5t80 -89.5t28.5 -138q0 -81 -28.5 -139t-80 -89t-121.5 -31zM285 44q76 0 122 53t46 154t-46 154t-122 53q-77 0 -122.5 -53t-45.5 -154t45.5 -154t122.5 -53zM332 615v72h73
v-72h-73zM165 615v72h73v-72h-73z" />
    <glyph glyph-name="uni04E8" unicode="&#x4e8;" horiz-adv-x="765" 
d="M95 333v51h585v-51h-585zM65 353q0 112 37.5 192.5t108.5 124t171 43.5q98 0 169.5 -43.5t110 -124t38.5 -191.5q0 -112 -39 -193t-110.5 -125t-168.5 -44q-99 0 -170 44t-109 125t-38 192zM131 353q0 -144 64 -224.5t187 -80.5q119 0 186 80.5t67 224.5
q0 145 -66.5 224.5t-186.5 79.5q-123 0 -187 -79.5t-64 -224.5z" />
    <glyph glyph-name="uni04E9" unicode="&#x4e9;" horiz-adv-x="570" 
d="M285 -8q-71 0 -122.5 31t-79.5 89t-28 139q0 80 28 138t79.5 89.5t122.5 31.5q70 0 121.5 -31.5t80 -89.5t28.5 -138q0 -81 -28.5 -139t-80 -89t-121.5 -31zM284 44q79 0 125 53.5t46 153.5t-46 153.5t-125 53.5q-78 0 -123.5 -53.5t-45.5 -153.5t45.5 -153.5
t123.5 -53.5zM88 228v46h394v-46h-394z" />
    <glyph glyph-name="uni04EA" unicode="&#x4ea;" horiz-adv-x="765" 
d="M95 333v51h585v-51h-585zM65 353q0 112 37.5 192.5t108.5 124t171 43.5q98 0 169.5 -43.5t110 -124t38.5 -191.5q0 -112 -39 -193t-110.5 -125t-168.5 -44q-99 0 -170 44t-109 125t-38 192zM131 353q0 -144 64 -224.5t187 -80.5q119 0 186 80.5t67 224.5
q0 145 -66.5 224.5t-186.5 79.5q-123 0 -187 -79.5t-64 -224.5zM431 813v73h73v-73h-73zM264 813v73h73v-73h-73z" />
    <glyph glyph-name="uni04EB" unicode="&#x4eb;" horiz-adv-x="570" 
d="M285 -8q-71 0 -122.5 31t-79.5 89t-28 139q0 80 28 138t79.5 89.5t122.5 31.5q70 0 121.5 -31.5t80 -89.5t28.5 -138q0 -81 -28.5 -139t-80 -89t-121.5 -31zM284 44q79 0 125 53.5t46 153.5t-46 153.5t-125 53.5q-78 0 -123.5 -53.5t-45.5 -153.5t45.5 -153.5
t123.5 -53.5zM88 228v46h394v-46h-394zM332 615v72h73v-72h-73zM165 615v72h73v-72h-73z" />
    <glyph glyph-name="uni04EC" unicode="&#x4ec;" horiz-adv-x="687" 
d="M296 -8q-75 0 -135 24t-105 69l27 51q48 -46 97.5 -66.5t115.5 -20.5q127 0 193 78t68 218l22 -14h-406v54h405l-21 -20q-3 137 -68 214t-192 77q-66 0 -115.5 -20.5t-98.5 -65.5l-27 50q45 45 105.5 69t135.5 24q104 0 176.5 -43.5t110.5 -124t38 -192.5t-38 -193
t-110.5 -124.5t-177.5 -43.5zM359 813v73h73v-73h-73zM192 813v73h73v-73h-73z" />
    <glyph glyph-name="uni04ED" unicode="&#x4ed;" horiz-adv-x="511" 
d="M221 -8q-53 0 -102 18t-76 50l25 43q30 -31 69.5 -46t81.5 -15q83 0 129.5 53t48.5 151l10 -15h-274v49h275l-11 -14q-2 56 -21 99.5t-58 68.5t-99 25q-39 0 -80 -14.5t-71 -46.5l-25 44q31 32 79.5 50t99.5 18q72 0 124.5 -30.5t81.5 -88t29 -139.5q0 -81 -29.5 -139.5
t-82 -89.5t-124.5 -31zM281 615v72h73v-72h-73zM114 615v72h73v-72h-73z" />
    <glyph glyph-name="uni04EE" unicode="&#x4ee;" horiz-adv-x="655" 
d="M212 0l121 226l1 -29l-329 508h68l292 -450h-15l239 450h65l-376 -705h-66zM170 818v47h318v-47h-318z" />
    <glyph glyph-name="uni04EF" unicode="&#x4ef;" horiz-adv-x="532" 
d="M64 -227l-15 53q47 11 78 26.5t52 40.5t37 62l26 60l-1 -27l-219 513h68l191 -463h-25l189 463h66l-232 -549q-19 -46 -41.5 -76.5t-48.5 -51t-57 -32.5t-68 -19zM118 629v46h288v-46h-288z" />
    <glyph glyph-name="uni04F0" unicode="&#x4f0;" horiz-adv-x="655" 
d="M212 0l121 226l1 -29l-329 508h68l292 -450h-15l239 450h65l-376 -705h-66zM376 813v73h73v-73h-73zM209 813v73h73v-73h-73z" />
    <glyph glyph-name="uni04F1" unicode="&#x4f1;" horiz-adv-x="532" 
d="M64 -227l-15 53q47 11 78 26.5t52 40.5t37 62l26 60l-1 -27l-219 513h68l191 -463h-25l189 463h66l-232 -549q-19 -46 -41.5 -76.5t-48.5 -51t-57 -32.5t-68 -19zM309 615v72h73v-72h-73zM142 615v72h73v-72h-73z" />
    <glyph glyph-name="uni04F2" unicode="&#x4f2;" horiz-adv-x="655" 
d="M212 0l121 226l1 -29l-329 508h68l292 -450h-15l239 450h65l-376 -705h-66zM252 765l85 171h66l-114 -171h-37zM369 765l88 171h65l-116 -171h-37z" />
    <glyph glyph-name="uni04F3" unicode="&#x4f3;" horiz-adv-x="532" 
d="M64 -227l-15 53q47 11 78 26.5t52 40.5t37 62l26 60l-1 -27l-219 513h68l191 -463h-25l189 463h66l-232 -549q-19 -46 -41.5 -76.5t-48.5 -51t-57 -32.5t-68 -19zM303 550l56 201h61l-81 -201h-36zM185 550l56 201h61l-81 -201h-36z" />
    <glyph glyph-name="uni04F4" unicode="&#x4f4;" horiz-adv-x="683" 
d="M529 0v308q-35 -19 -86.5 -29t-103.5 -10q-137 0 -208 71.5t-71 212.5v152h62v-146q0 -120 55 -176.5t166 -56.5q50 0 97.5 10t88.5 33v336h61v-705h-61zM366 813v73h73v-73h-73zM199 813v73h73v-73h-73z" />
    <glyph glyph-name="uni04F5" unicode="&#x4f5;" horiz-adv-x="553" 
d="M409 0v213q-30 -19 -65 -29t-77 -10q-105 0 -154.5 48.5t-49.5 147.5v131h61v-127q0 -78 36 -112.5t112 -34.5q42 0 73.5 9t62.5 31v234h61v-501h-60zM314 615v72h73v-72h-73zM147 615v72h73v-72h-73z" />
    <glyph glyph-name="uni04F6" unicode="&#x4f6;" horiz-adv-x="548" 
d="M202 -153v153h-106v53h163v-206h-57zM93 0v705h441v-54h-380v-651h-61z" />
    <glyph glyph-name="uni04F7" unicode="&#x4f7;" horiz-adv-x="436" 
d="M170 -130v130h-83v50h136v-180h-53zM84 0v501h337v-50h-276v-451h-61z" />
    <glyph glyph-name="uni04F8" unicode="&#x4f8;" horiz-adv-x="853" 
d="M93 0v705h61v-319h199q114 0 175.5 -47.5t61.5 -144.5q0 -96 -61.5 -145t-175.5 -49h-260zM154 53h195q90 0 134 35t44 106t-44 105.5t-134 34.5h-195v-281zM699 0v705h61v-705h-61zM474 813v73h73v-73h-73zM307 813v73h73v-73h-73z" />
    <glyph glyph-name="uni04F9" unicode="&#x4f9;" horiz-adv-x="723" 
d="M84 0v501h61v-186h160q95 0 143.5 -40.5t48.5 -115.5q0 -50 -21.5 -86t-64.5 -54.5t-106 -18.5h-221zM145 47h158q65 0 99.5 27t34.5 84t-34.5 84t-99.5 27h-158v-222zM579 0v501h60v-501h-60zM410 615v72h73v-72h-73zM243 615v72h73v-72h-73z" />
    <glyph glyph-name="uni04FA" unicode="&#x4fa;" horiz-adv-x="584" 
d="M95 -181l-5 48l40 3q60 5 83 36.5t23 93.5h-108v330h-102v50h102v325h442v-54h-380v-271h193v-50h-193v-277h103v-48q0 -89 -38.5 -133.5t-118.5 -50.5z" />
    <glyph glyph-name="uni04FB" unicode="&#x4fb;" horiz-adv-x="456" 
d="M74 -181l-3 48l39 4q45 5 64 36t19 93h-87v226h-101v47h101v228h337v-50h-276v-178h153v-47h-153v-182h81v-39q0 -89 -35.5 -133.5t-97.5 -49.5z" />
    <glyph glyph-name="uni04FC" unicode="&#x4fc;" horiz-adv-x="644" 
d="M411 -184l-7 51q66 8 97 33.5t31 77.5q0 28 -19 65t-53 83l-151 205h26l-244 -331h-74l277 371v-20l-263 354h73l229 -310h-19l225 310h74l-263 -354v20l169 -226q39 -51 57 -91.5t18 -76.5q0 -71 -45 -111t-138 -50z" />
    <glyph glyph-name="uni04FD" unicode="&#x4fd;" horiz-adv-x="536" 
d="M337 -184l-12 47q57 8 85.5 28.5t28.5 61.5q0 28 -17.5 57.5t-60.5 83.5l-105 133h22l-181 -227h-72l220 275v-33l-209 259h75l168 -213h-22l168 213h73l-205 -256v27l117 -147q32 -39 51.5 -67.5t28 -53.5t8.5 -52q0 -39 -18.5 -68t-55 -46t-87.5 -22z" />
    <glyph glyph-name="uni04FE" unicode="&#x4fe;" horiz-adv-x="644" 
d="M17 0l277 371v-20l-263 354h73l229 -310h-19l225 310h74l-263 -354v20l277 -371h-74l-244 331h26l-244 -331h-74zM127 340v45h392v-45h-392z" />
    <glyph glyph-name="uni04FF" unicode="&#x4ff;" horiz-adv-x="536" 
d="M25 0l220 275v-33l-209 259h75l168 -213h-22l168 213h73l-205 -257v28l218 -272h-76l-178 227h22l-180 -227h-74zM72 233v45h392v-45h-392z" />
    <glyph glyph-name="uni0510" unicode="&#x510;" horiz-adv-x="658" 
d="M334 -8q-90 0 -150 23.5t-89.5 68.5t-29.5 108q0 75 44.5 120t121.5 54v-13q-68 14 -108.5 58.5t-40.5 110.5q0 59 29.5 102t86.5 66t139 23q77 0 145 -23t115 -67l-26 -50q-49 44 -108 64t-128 20q-94 0 -142 -36.5t-48 -102.5q0 -65 45 -100t132 -35h164v-53h-179
q-90 0 -134.5 -33.5t-44.5 -104.5t50.5 -107.5t156.5 -36.5q82 0 142.5 21t110.5 66l27 -50q-44 -43 -116.5 -68t-164.5 -25z" />
    <glyph glyph-name="uni0511" unicode="&#x511;" horiz-adv-x="498" 
d="M257 -8q-103 0 -155 39.5t-52 105.5q0 55 38 89t97 36l-1 -12q-52 6 -84.5 39t-32.5 82q0 66 52.5 102.5t139.5 36.5q55 0 105.5 -15.5t92.5 -49.5l-25 -43q-40 30 -82 44t-89 14q-63 0 -99 -25t-36 -68q0 -42 29.5 -65t81.5 -23h104v-49h-113q-57 0 -87.5 -23t-30.5 -68
q0 -46 34.5 -71.5t112.5 -25.5q55 0 101 15t82 47l24 -44q-33 -33 -88 -50.5t-119 -17.5z" />
    <glyph glyph-name="uni0512" unicode="&#x512;" horiz-adv-x="757" 
d="M518 -186q-16 0 -35 2t-39 6v53q19 -4 35 -6t29 -2q46 0 70.5 28t24.5 91v665h-347v-172q0 -114 -13.5 -196t-40.5 -139.5t-65.5 -95t-90.5 -62.5l-27 51q42 22 75 52t56.5 80t35.5 129t12 196v211h467v-718q0 -55 -16 -94t-49 -59t-82 -20z" />
    <glyph glyph-name="uni0513" unicode="&#x513;" horiz-adv-x="577" 
d="M291 -193l-4 50l44 3q50 4 76 34.5t26 86.5v470h-226v-68q0 -122 -15 -199.5t-49.5 -122.5t-92.5 -71l-26 48q37 18 61 43t38 64t20 97.5t6 142.5v116h344v-515q0 -54 -17.5 -92t-52.5 -59.5t-88 -24.5z" />
    <glyph glyph-name="uni051A" unicode="&#x51a;" horiz-adv-x="765" 
d="M574 -191q-29 19 -59 50t-57 67.5t-47 73.5l59 19q26 -52 66 -95t81 -74zM65 353q0 112 37.5 192.5t108.5 124t171 43.5q98 0 169.5 -43.5t110 -124t38.5 -191.5q0 -112 -39 -193t-110.5 -125t-168.5 -44q-99 0 -170 44t-109 125t-38 192zM131 353q0 -144 64 -224.5
t187 -80.5q119 0 186 80.5t67 224.5q0 145 -66.5 224.5t-186.5 79.5q-123 0 -187 -79.5t-64 -224.5z" />
    <glyph glyph-name="uni051B" unicode="&#x51b;" horiz-adv-x="599" 
d="M451 -216v341h11q-16 -62 -66.5 -97.5t-118.5 -35.5t-118 31t-77 89t-27 139t27.5 138.5t77.5 89t117 31.5q69 0 119.5 -36t66.5 -98h-12l10 125h59q-3 -29 -5.5 -57t-2.5 -55v-605h-61zM285 44q77 0 122 53t45 154t-45 154t-122 53t-122.5 -53t-45.5 -154t45.5 -154
t122.5 -53z" />
    <glyph glyph-name="uni051C" unicode="&#x51c;" horiz-adv-x="1108" 
d="M282 0l-244 705h65l226 -661h-33l235 661h52l224 -661h-30l231 661h62l-247 -705h-59l-217 642h20l-228 -642h-57z" />
    <glyph glyph-name="uni051D" unicode="&#x51d;" horiz-adv-x="871" 
d="M220 0l-181 501h66l161 -465h-27l167 465h62l164 -465h-26l163 465h63l-182 -501h-63l-168 471h35l-170 -471h-64z" />
    <glyph glyph-name="uni0524" unicode="&#x524;" horiz-adv-x="801" 
d="M716 -153v153h-106v53h163v-206h-57zM93 0v705h577v-705h-62v651h-455v-651h-60z" />
    <glyph glyph-name="uni0525" unicode="&#x525;" horiz-adv-x="587" 
d="M526 -130v130h-83v50h137v-180h-54zM84 0v501h418v-501h-61v451h-296v-451h-61z" />
    <glyph glyph-name="uni0526" unicode="&#x526;" horiz-adv-x="722" 
d="M669 -153v153h-106v53h163v-206h-57zM93 0v705h61v-308q35 19 86 29t103 10q137 0 208.5 -71t71.5 -213v-152h-62v146q0 121 -55.5 177.5t-166.5 56.5q-49 0 -96 -9t-89 -33v-338h-61z" />
    <glyph glyph-name="uni0527" unicode="&#x527;" horiz-adv-x="591" 
d="M525 -130v130h-83v50h137v-180h-54zM87 0v736h61v-351h-12q21 61 71 93t116 32q91 0 134.5 -48t43.5 -144v-318h-61v313q0 76 -30 110t-96 34q-75 0 -120.5 -46t-45.5 -122v-289h-61z" />
    <glyph glyph-name="uni0528" unicode="&#x528;" horiz-adv-x="762" 
d="M8 -186q-16 0 -35 2t-39 6v53q19 -4 35 -6t29 -2q46 0 71 28.5t25 90.5v719h61v-320h454v320h61v-705h-61v331h-454v-344q0 -55 -16 -94t-48.5 -59t-82.5 -20z" />
    <glyph glyph-name="uni0529" unicode="&#x529;" horiz-adv-x="589" 
d="M-57 -193l-5 50l45 3q50 4 75.5 34.5t25.5 86.5v520h61v-216h300v216h60v-501h-60v234h-300v-248q0 -54 -17.5 -92t-52.5 -59.5t-88 -24.5z" />
    <glyph glyph-name="uni052E" unicode="&#x52e;" horiz-adv-x="797" 
d="M710 -153v153h-105v53h163v-206h-58zM46 -14l-27 51q42 22 75 52t56.5 80t35.5 129t12 196v211h467v-705h-62v651h-347v-172q0 -114 -13.5 -196t-40.5 -139.5t-65.5 -95t-90.5 -62.5z" />
    <glyph glyph-name="uni052F" unicode="&#x52f;" horiz-adv-x="579" 
d="M518 -130v130h-83v50h137v-180h-54zM50 -10l-26 48q37 18 61 43t38 64t20 97.5t6 142.5v116h344v-501h-60v451h-226v-68q0 -122 -15 -199.5t-49.5 -122.5t-92.5 -71z" />
    <glyph glyph-name="uni1E08" unicode="&#x1e08;" horiz-adv-x="684" 
d="M390 -8q-104 0 -176.5 43.5t-110.5 124.5t-38 193t38 192.5t110.5 124t176.5 43.5q76 0 135 -23.5t103 -69.5l-26 -50q-49 45 -98 65.5t-114 20.5q-127 0 -193 -79.5t-66 -223.5t66 -224t193 -80q65 0 114 20.5t98 65.5l26 -50q-44 -46 -103.5 -69.5t-134.5 -23.5z
M391 -191q-25 0 -46.5 5t-37.5 14l11 39q19 -9 35 -13t39 -4q27 0 43.5 10.5t16.5 29.5q0 30 -38 30q-11 0 -22 -1.5t-27 -7.5l-16 14l14 95h45l-13 -75l-21 4q12 3 23.5 5t21.5 2q34 0 57.5 -17.5t23.5 -49.5q0 -35 -30.5 -57.5t-78.5 -22.5zM364 765l118 171h73l-141 -171
h-50z" />
    <glyph glyph-name="uni1E09" unicode="&#x1e09;" horiz-adv-x="491" 
d="M285 -8q-71 0 -124 31.5t-81.5 90.5t-28.5 140t29 138.5t81.5 87.5t123.5 30q48 0 92.5 -18t73.5 -50l-25 -45q-31 31 -67 45.5t-72 14.5q-82 0 -128 -52t-46 -152t46 -154.5t128 -54.5q34 0 70.5 14t68.5 46l25 -45q-30 -32 -75.5 -49.5t-90.5 -17.5zM288 -191
q-25 0 -46.5 5t-37.5 14l11 39q19 -9 35 -13t39 -4q27 0 43.5 10.5t16.5 29.5q0 30 -38 30q-11 0 -22 -1.5t-27 -7.5l-16 14l14 95h45l-13 -75l-21 4q12 3 23.5 5t21.5 2q34 0 57.5 -17.5t23.5 -49.5q0 -35 -30.5 -57.5t-78.5 -22.5zM261 550l103 201h70l-127 -201h-46z" />
    <glyph glyph-name="uni1E0C" unicode="&#x1e0c;" horiz-adv-x="740" 
d="M93 0v705h223q116 0 196 -40.5t121.5 -119t41.5 -192.5t-41.5 -193t-121.5 -119.5t-196 -40.5h-223zM155 55h156q151 0 225 74.5t74 223.5q0 150 -74 224t-225 74h-156v-596zM337 -179v75h78v-75h-78z" />
    <glyph glyph-name="uni1E0D" unicode="&#x1e0d;" horiz-adv-x="591" 
d="M272 -8q-67 0 -117 31t-77 89t-27 139t27 138.5t77 89t117 31.5q69 0 119.5 -35.5t67.5 -97.5h-12v359h61v-736h-60v126h11q-17 -63 -67.5 -98.5t-119.5 -35.5zM280 44q76 0 122.5 53t46.5 154t-46.5 154t-122.5 53t-121.5 -53t-45.5 -154t45.5 -154t121.5 -53zM259 -179
v75h78v-75h-78z" />
    <glyph glyph-name="uni1E0E" unicode="&#x1e0e;" horiz-adv-x="740" 
d="M93 0v705h223q116 0 196 -40.5t121.5 -119t41.5 -192.5t-41.5 -193t-121.5 -119.5t-196 -40.5h-223zM155 55h156q151 0 225 74.5t74 223.5q0 150 -74 224t-225 74h-156v-596zM232 -152v46h288v-46h-288z" />
    <glyph glyph-name="uni1E0F" unicode="&#x1e0f;" horiz-adv-x="591" 
d="M272 -8q-67 0 -117 31t-77 89t-27 139t27 138.5t77 89t117 31.5q69 0 119.5 -35.5t67.5 -97.5h-12v359h61v-736h-60v126h11q-17 -63 -67.5 -98.5t-119.5 -35.5zM280 44q76 0 122.5 53t46.5 154t-46.5 154t-122.5 53t-121.5 -53t-45.5 -154t45.5 -154t121.5 -53zM154 -152
v46h288v-46h-288z" />
    <glyph glyph-name="uni1E14" unicode="&#x1e14;" horiz-adv-x="585" 
d="M93 0v705h438v-53h-378v-268h356v-53h-356v-278h378v-53h-438zM302 876l-116 146h70l92 -146h-46zM181 793v46h288v-46h-288z" />
    <glyph glyph-name="uni1E15" unicode="&#x1e15;" horiz-adv-x="543" 
d="M298 -8q-114 0 -180.5 68t-66.5 189q0 80 29.5 138t82.5 90.5t123 32.5q67 0 113 -28.5t71 -81t25 -124.5v-28h-400v44h362l-17 -13q0 85 -39 133.5t-116 48.5q-82 0 -128 -56.5t-46 -149.5v-7q0 -100 49.5 -152t138.5 -52q46 0 86 14t77 48l25 -45q-32 -33 -83 -51
t-106 -18zM142 573v46h288v-46h-288zM263 656l-116 146h70l92 -146h-46z" />
    <glyph glyph-name="uni1E16" unicode="&#x1e16;" horiz-adv-x="585" 
d="M93 0v705h438v-53h-378v-268h356v-53h-356v-278h378v-53h-438zM181 793v46h288v-46h-288zM302 876l92 146h70l-116 -146h-46z" />
    <glyph glyph-name="uni1E17" unicode="&#x1e17;" horiz-adv-x="543" 
d="M298 -8q-114 0 -180.5 68t-66.5 189q0 80 29.5 138t82.5 90.5t123 32.5q67 0 113 -28.5t71 -81t25 -124.5v-28h-400v44h362l-17 -13q0 85 -39 133.5t-116 48.5q-82 0 -128 -56.5t-46 -149.5v-7q0 -100 49.5 -152t138.5 -52q46 0 86 14t77 48l25 -45q-32 -33 -83 -51
t-106 -18zM142 573v46h288v-46h-288zM263 656l92 146h70l-116 -146h-46z" />
    <glyph glyph-name="uni1E1C" unicode="&#x1e1c;" horiz-adv-x="585" 
d="M93 0v705h438v-53h-378v-268h356v-53h-356v-278h378v-53h-438zM329 -191q-25 0 -46.5 5t-37.5 14l11 39q19 -9 35 -13t39 -4q27 0 43.5 10.5t16.5 29.5q0 30 -38 30q-11 0 -22 -1.5t-27 -7.5l-16 14l14 95h45l-13 -75l-21 4q12 3 23.5 5t21.5 2q34 0 57.5 -17.5
t23.5 -49.5q0 -35 -30.5 -57.5t-78.5 -22.5zM325 760q-67 0 -111.5 45t-51.5 123l42 5q5 -61 37 -94.5t84 -33.5t84.5 33.5t36.5 94.5l42 -5q-7 -78 -51.5 -123t-111.5 -45z" />
    <glyph glyph-name="uni1E1D" unicode="&#x1e1d;" horiz-adv-x="543" 
d="M298 -8q-114 0 -180.5 68t-66.5 189q0 80 29.5 138t82.5 90.5t123 32.5q67 0 113 -28.5t71 -81t25 -124.5v-28h-400v44h362l-17 -13q0 85 -39 133.5t-116 48.5q-82 0 -128 -56.5t-46 -149.5v-7q0 -100 49.5 -152t138.5 -52q46 0 86 14t77 48l25 -45q-32 -33 -83 -51
t-106 -18zM291 -191q-25 0 -46.5 5t-37.5 14l11 39q19 -9 35 -13t39 -4q27 0 43.5 10.5t16.5 29.5q0 30 -38 30q-11 0 -22 -1.5t-27 -7.5l-16 14l14 95h45l-13 -75l-21 4q12 3 23.5 5t21.5 2q34 0 57.5 -17.5t23.5 -49.5q0 -35 -30.5 -57.5t-78.5 -22.5zM286 548
q-43 0 -75.5 22.5t-51 65t-22.5 100.5l42 5q4 -71 32 -109.5t75 -38.5q48 0 75.5 38.5t31.5 109.5l42 -5q-3 -58 -22 -100.5t-51 -65t-76 -22.5z" />
    <glyph glyph-name="uni1E20" unicode="&#x1e20;" horiz-adv-x="727" 
d="M409 -8q-114 0 -190.5 42.5t-115 123.5t-38.5 195q0 112 40 192.5t114.5 124t179.5 43.5q77 0 133 -23.5t102 -68.5l-27 -50q-33 31 -63.5 49.5t-65 27t-79.5 8.5q-129 0 -198.5 -79.5t-69.5 -224.5q0 -148 68 -226t211 -78q53 0 101 10t91 29l-15 -40v264h-187v52h242
v-322q-40 -21 -104.5 -35t-128.5 -14zM236 818v47h318v-47h-318z" />
    <glyph glyph-name="uni1E21" unicode="&#x1e21;" horiz-adv-x="595" 
d="M299 -223q-63 0 -117.5 17t-97.5 51l22 47q32 -23 61.5 -36.5t61.5 -20t69 -6.5q76 0 115 40.5t39 116.5v159h11q-16 -63 -67 -98.5t-120 -35.5t-119.5 30.5t-78 87t-27.5 132.5t27.5 132t78 86.5t119.5 30.5t120 -35.5t67 -99.5l-11 11l9 115h60q-4 -29 -6 -57t-2 -55
v-394q0 -108 -54.5 -163t-159.5 -55zM283 63q78 0 123.5 52t45.5 146q0 93 -45.5 145t-123.5 52t-124 -52t-46 -145q0 -94 46 -146t124 -52zM156 629v46h288v-46h-288z" />
    <glyph glyph-name="uni1E24" unicode="&#x1e24;" horiz-adv-x="762" 
d="M93 0v705h62v-320h453v320h62v-705h-62v330h-453v-330h-62zM343 -179v75h78v-75h-78z" />
    <glyph glyph-name="uni1E25" unicode="&#x1e25;" horiz-adv-x="578" 
d="M83 0v736h61v-351h-12q21 61 71 93t116 32q91 0 134.5 -48t43.5 -144v-318h-61v313q0 76 -30 110t-96 34q-75 0 -120.5 -46t-45.5 -122v-289h-61zM251 -179v75h78v-75h-78z" />
    <glyph glyph-name="uni1E2A" unicode="&#x1e2a;" horiz-adv-x="762" 
d="M93 0v705h62v-320h453v320h62v-705h-62v330h-453v-330h-62zM382 -215q-65 0 -105 39.5t-44 108.5l42 5q4 -52 32 -80t75 -28q48 0 75.5 28t31.5 80l42 -5q-4 -69 -44 -108.5t-105 -39.5z" />
    <glyph glyph-name="uni1E2B" unicode="&#x1e2b;" horiz-adv-x="578" 
d="M83 0v736h61v-351h-12q21 61 71 93t116 32q91 0 134.5 -48t43.5 -144v-318h-61v313q0 76 -30 110t-96 34q-75 0 -120.5 -46t-45.5 -122v-289h-61zM290 -215q-65 0 -105 39.5t-44 108.5l42 5q4 -52 32 -80t75 -28q48 0 75.5 28t31.5 80l42 -5q-4 -69 -44 -108.5
t-105 -39.5z" />
    <glyph glyph-name="uni1E2E" unicode="&#x1e2e;" horiz-adv-x="247" 
d="M93 0v705h62v-705h-62zM100 876l92 146h70l-116 -146h-46zM3 771v66h73v-66h-73zM170 771v66h73v-66h-73z" />
    <glyph glyph-name="uni1E2F" unicode="&#x1e2f;" horiz-adv-x="228" 
d="M83 0v501h61v-501h-61zM91 656l92 146h70l-116 -146h-46zM-6 551v66h73v-66h-73zM161 551v66h73v-66h-73z" />
    <glyph glyph-name="uni1E36" unicode="&#x1e36;" horiz-adv-x="538" 
d="M93 0v705h62v-650h367v-55h-429zM266 -179v75h78v-75h-78z" />
    <glyph glyph-name="uni1E37" unicode="&#x1e37;" horiz-adv-x="228" 
d="M83 0v736h61v-736h-61zM75 -179v75h78v-75h-78z" />
    <glyph glyph-name="uni1E3A" unicode="&#x1e3a;" horiz-adv-x="538" 
d="M93 0v705h62v-650h367v-55h-429zM161 -152v46h288v-46h-288z" />
    <glyph glyph-name="uni1E3B" unicode="&#x1e3b;" horiz-adv-x="228" 
d="M83 0v736h61v-736h-61zM-30 -152v46h288v-46h-288z" />
    <glyph glyph-name="uni1E42" unicode="&#x1e42;" horiz-adv-x="853" 
d="M93 0v705h54l294 -664h-29l295 664h53v-705h-57v632h27l-281 -632h-45l-281 632h27v-632h-57zM388 -179v75h78v-75h-78z" />
    <glyph glyph-name="uni1E43" unicode="&#x1e43;" horiz-adv-x="869" 
d="M83 0v389q0 27 -2 55t-6 57h60l9 -115h-12q19 59 63 91.5t107 32.5q64 0 104 -31t53 -96h-15q18 58 66 92.5t113 34.5q82 0 124 -47t42 -147v-316h-61v312q0 76 -27 110.5t-88 34.5q-68 0 -107.5 -46t-39.5 -124v-287h-61v312q0 76 -27 110.5t-87 34.5q-68 0 -107.5 -46
t-39.5 -124v-287h-61zM396 -179v75h78v-75h-78z" />
    <glyph glyph-name="uni1E44" unicode="&#x1e44;" horiz-adv-x="743" 
d="M93 0v705h50l472 -632h-22v632h57v-705h-49l-472 632h21v-632h-57zM334 813v75h76v-75h-76z" />
    </font>
</defs>
</svg>
